osu file format v14

[General]
AudioFilename: audio.mp3
AudioLeadIn: 0
PreviewTime: 53760
Countdown: 0
SampleSet: Soft
StackLeniency: 0.7
Mode: 3
LetterboxInBreaks: 0
SpecialStyle: 0
WidescreenStoryboard: 1

[Editor]
DistanceSpacing: 1
BeatDivisor: 4
GridSize: 4
TimelineZoom: 1.3

[Metadata]
Title:Reikou Hatsuden
TitleUnicode:霊光発電
Artist:-45
ArtistUnicode:-45
Creator:Monheim
Version:Another
Source:
Tags:Electronic Instrumental aqsw3929 Frugelel Reiko Power Generation DVAC-0003 Sun Fleur 1/2 D'va;;;;;;;;5 Dva5 Doujin Dojin Indie M3-34 M3 2014秋 M3-29 2012春 Spring Fall Music Media-Mix Market Akito Yoshikawa bloodymalie lein- hna chordjack famoss chord jack stamina civilization
BeatmapID:3259221
BeatmapSetID:1502322

[Difficulty]
HPDrainRate:8
CircleSize:4
OverallDifficulty:8
ApproachRate:5
SliderMultiplier:1.4
SliderTickRate:1

[Events]
//Background and Video events
0,0,"reikou.jpg",0,0
//Break Periods
//Storyboard Layer 0 (Background)
//Storyboard Layer 1 (Fail)
//Storyboard Layer 2 (Pass)
//Storyboard Layer 3 (Foreground)
//Storyboard Layer 4 (Overlay)
//Storyboard Sound Samples

[TimingPoints]
0,240,4,2,1,35,1,0
23040,-100,4,2,1,35,0,1
36480,-100,4,2,1,35,0,0
38400,-100,4,2,1,35,0,1
53760,-100,4,2,1,35,0,0
99840,-100,4,2,1,35,0,1
113280,-100,4,2,1,35,0,0
115200,-100,4,2,1,35,0,1
130560,-100,4,2,1,35,0,0

[HitObjects]
64,192,0,5,0,0:0:0:0:
320,192,120,1,0,0:0:0:0:
448,192,240,1,0,0:0:0:0:
64,192,360,1,0,0:0:0:0:
192,192,480,1,0,0:0:0:0:
320,192,600,1,0,0:0:0:0:
64,192,720,1,0,0:0:0:0:
320,192,840,1,0,0:0:0:0:
192,192,960,1,0,0:0:0:0:
64,192,1080,1,0,0:0:0:0:
448,192,1200,1,0,0:0:0:0:
320,192,1320,1,0,0:0:0:0:
64,192,1440,1,0,0:0:0:0:
320,192,1560,1,0,0:0:0:0:
448,192,1680,1,0,0:0:0:0:
192,192,1800,1,0,0:0:0:0:
64,192,1920,1,0,0:0:0:0:
320,192,2040,1,0,0:0:0:0:
448,192,2160,1,0,0:0:0:0:
64,192,2280,1,0,0:0:0:0:
192,192,2400,1,0,0:0:0:0:
320,192,2520,1,0,0:0:0:0:
64,192,2640,1,0,0:0:0:0:
192,192,2760,1,0,0:0:0:0:
448,192,2880,1,0,0:0:0:0:
64,192,3000,1,0,0:0:0:0:
320,192,3120,1,0,0:0:0:0:
448,192,3240,1,0,0:0:0:0:
64,192,3360,1,0,0:0:0:0:
192,192,3480,1,0,0:0:0:0:
448,192,3600,1,0,0:0:0:0:
320,192,3720,1,0,0:0:0:0:
64,192,3840,1,0,0:0:0:0:
320,192,3960,1,0,0:0:0:0:
448,192,4080,1,0,0:0:0:0:
64,192,4200,1,0,0:0:0:0:
192,192,4320,1,0,0:0:0:0:
320,192,4440,1,0,0:0:0:0:
64,192,4560,1,0,0:0:0:0:
320,192,4680,1,0,0:0:0:0:
192,192,4800,1,0,0:0:0:0:
64,192,4920,1,0,0:0:0:0:
448,192,5040,1,0,0:0:0:0:
320,192,5160,1,0,0:0:0:0:
64,192,5280,1,0,0:0:0:0:
320,192,5400,1,0,0:0:0:0:
448,192,5520,1,0,0:0:0:0:
192,192,5640,1,0,0:0:0:0:
64,192,5760,1,0,0:0:0:0:
320,192,5880,1,0,0:0:0:0:
448,192,6000,1,0,0:0:0:0:
64,192,6120,1,0,0:0:0:0:
192,192,6240,1,0,0:0:0:0:
320,192,6360,1,0,0:0:0:0:
64,192,6480,1,0,0:0:0:0:
192,192,6600,1,0,0:0:0:0:
448,192,6720,1,0,0:0:0:0:
64,192,6840,1,0,0:0:0:0:
320,192,6960,1,0,0:0:0:0:
448,192,7080,1,0,0:0:0:0:
64,192,7200,1,0,0:0:0:0:
192,192,7320,1,0,0:0:0:0:
448,192,7440,1,0,0:0:0:0:
320,192,7560,1,0,0:0:0:0:
64,192,7680,1,2,0:0:0:0:
192,192,7680,1,4,0:0:0:0:
448,192,7800,1,0,0:0:0:0:
192,192,7920,1,0,0:0:0:0:
64,192,8160,1,2,0:0:0:0:
192,192,8160,1,0,0:0:0:0:
320,192,8280,1,0,0:0:0:0:
64,192,8400,1,0,0:0:0:0:
448,192,8520,1,0,0:0:0:0:
64,192,8640,1,2,0:0:0:0:
192,192,8640,1,0,0:0:0:0:
448,192,8760,1,0,0:0:0:0:
192,192,8880,1,0,0:0:0:0:
64,192,9000,1,0,0:0:0:0:
320,192,9120,1,2,0:0:0:0:
448,192,9120,1,0,0:0:0:0:
192,192,9240,1,0,0:0:0:0:
320,192,9360,1,0,0:0:0:0:
448,192,9480,1,0,0:0:0:0:
64,192,9600,1,2,0:0:0:0:
192,192,9600,1,0,0:0:0:0:
448,192,9720,1,0,0:0:0:0:
192,192,9840,1,0,0:0:0:0:
64,192,10080,1,2,0:0:0:0:
192,192,10080,1,0,0:0:0:0:
448,192,10200,1,0,0:0:0:0:
64,192,10320,1,0,0:0:0:0:
320,192,10440,1,0,0:0:0:0:
64,192,10560,1,2,0:0:0:0:
192,192,10560,1,0,0:0:0:0:
448,192,10680,1,0,0:0:0:0:
192,192,10800,1,0,0:0:0:0:
64,192,10920,1,0,0:0:0:0:
320,192,11040,1,2,0:0:0:0:
448,192,11040,1,0,0:0:0:0:
192,192,11160,1,0,0:0:0:0:
448,192,11280,1,0,0:0:0:0:
320,192,11400,1,0,0:0:0:0:
64,192,11520,1,2,0:0:0:0:
192,192,11520,1,0,0:0:0:0:
448,192,11640,1,0,0:0:0:0:
192,192,11760,1,0,0:0:0:0:
64,192,12000,1,2,0:0:0:0:
192,192,12000,1,0,0:0:0:0:
320,192,12120,1,0,0:0:0:0:
64,192,12240,1,0,0:0:0:0:
448,192,12360,1,0,0:0:0:0:
64,192,12480,1,2,0:0:0:0:
192,192,12480,1,0,0:0:0:0:
448,192,12600,1,0,0:0:0:0:
192,192,12720,1,0,0:0:0:0:
64,192,12840,1,0,0:0:0:0:
320,192,12960,1,2,0:0:0:0:
448,192,12960,1,0,0:0:0:0:
192,192,13080,1,0,0:0:0:0:
320,192,13200,1,0,0:0:0:0:
448,192,13320,1,0,0:0:0:0:
64,192,13440,1,2,0:0:0:0:
192,192,13440,1,0,0:0:0:0:
448,192,13560,1,0,0:0:0:0:
192,192,13680,1,0,0:0:0:0:
64,192,13920,1,2,0:0:0:0:
192,192,13920,1,0,0:0:0:0:
448,192,14040,1,0,0:0:0:0:
64,192,14160,1,0,0:0:0:0:
320,192,14280,1,0,0:0:0:0:
64,192,14400,1,2,0:0:0:0:
192,192,14400,1,0,0:0:0:0:
448,192,14520,1,0,0:0:0:0:
192,192,14640,1,0,0:0:0:0:
64,192,14760,1,0,0:0:0:0:
320,192,14880,1,2,0:0:0:0:
448,192,14880,1,0,0:0:0:0:
192,192,15000,1,0,0:0:0:0:
448,192,15120,1,0,0:0:0:0:
320,192,15240,1,0,0:0:0:0:
64,192,15360,1,2,0:0:0:0:
192,192,15360,1,0,0:0:0:0:
448,192,15360,1,0,0:0:0:0:
448,192,15480,1,0,0:0:0:0:
64,192,15600,1,0,0:0:0:0:
64,192,15720,1,0,0:0:0:0:
192,192,15840,1,2,0:0:0:0:
320,192,15840,1,8,0:0:0:0:
448,192,15840,1,0,0:0:0:0:
448,192,15960,1,0,0:0:0:0:
192,192,16080,1,0,0:0:0:0:
192,192,16200,1,0,0:0:0:0:
64,192,16320,1,2,0:0:0:0:
320,192,16320,1,0,0:0:0:0:
320,192,16440,1,0,0:0:0:0:
64,192,16560,1,0,0:0:0:0:
64,192,16680,1,0,0:0:0:0:
192,192,16800,1,2,0:0:0:0:
320,192,16800,1,8,0:0:0:0:
448,192,16800,1,0,0:0:0:0:
448,192,16920,1,0,0:0:0:0:
192,192,17040,1,2,0:0:0:0:
320,192,17040,1,0,0:0:0:0:
320,192,17160,1,0,0:0:0:0:
64,192,17280,1,2,0:0:0:0:
448,192,17280,1,0,0:0:0:0:
64,192,17400,1,0,0:0:0:0:
448,192,17520,1,0,0:0:0:0:
448,192,17640,1,0,0:0:0:0:
64,192,17760,1,2,0:0:0:0:
192,192,17760,1,8,0:0:0:0:
320,192,17760,1,0,0:0:0:0:
192,192,17880,1,0,0:0:0:0:
320,192,18000,1,0,0:0:0:0:
320,192,18120,1,0,0:0:0:0:
192,192,18240,1,2,0:0:0:0:
448,192,18240,1,0,0:0:0:0:
448,192,18360,1,0,0:0:0:0:
64,192,18480,1,0,0:0:0:0:
64,192,18600,1,0,0:0:0:0:
192,192,18720,1,2,0:0:0:0:
320,192,18720,1,8,0:0:0:0:
448,192,18720,1,0,0:0:0:0:
448,192,18840,1,0,0:0:0:0:
64,192,18960,1,2,0:0:0:0:
320,192,18960,1,0,0:0:0:0:
192,192,19080,1,0,0:0:0:0:
64,192,19200,1,2,0:0:0:0:
448,192,19200,1,0,0:0:0:0:
64,192,19320,1,0,0:0:0:0:
320,192,19440,1,0,0:0:0:0:
320,192,19560,1,0,0:0:0:0:
64,192,19680,1,8,0:0:0:0:
192,192,19680,1,2,0:0:0:0:
448,192,19680,1,0,0:0:0:0:
192,192,19800,1,0,0:0:0:0:
64,192,19920,1,0,0:0:0:0:
64,192,20040,1,0,0:0:0:0:
192,192,20160,1,2,0:0:0:0:
448,192,20160,1,0,0:0:0:0:
448,192,20280,1,0,0:0:0:0:
192,192,20400,1,0,0:0:0:0:
192,192,20520,1,0,0:0:0:0:
64,192,20640,1,8,0:0:0:0:
320,192,20640,1,2,0:0:0:0:
448,192,20640,1,0,0:0:0:0:
320,192,20760,1,0,0:0:0:0:
64,192,20880,1,2,0:0:0:0:
448,192,20880,1,0,0:0:0:0:
448,192,21000,1,0,0:0:0:0:
192,192,21120,1,2,0:0:0:0:
320,192,21120,1,0,0:0:0:0:
192,192,21240,1,0,0:0:0:0:
64,192,21360,1,2,0:0:0:0:
320,192,21360,1,0,0:0:0:0:
320,192,21480,1,0,0:0:0:0:
64,192,21600,1,2,0:0:0:0:
192,192,21600,1,8,0:0:0:0:
448,192,21600,1,0,0:0:0:0:
64,192,21720,1,0,0:0:0:0:
448,192,21840,1,0,0:0:0:0:
448,192,21960,1,0,0:0:0:0:
192,192,22080,1,2,0:0:0:0:
320,192,22080,1,0,0:0:0:0:
192,192,22200,1,0,0:0:0:0:
320,192,22320,1,0,0:0:0:0:
320,192,22440,1,0,0:0:0:0:
64,192,22560,1,2,0:0:0:0:
192,192,22560,1,8,0:0:0:0:
448,192,22560,1,0,0:0:0:0:
64,192,22680,1,0,0:0:0:0:
448,192,22800,1,2,0:0:0:0:
192,192,22860,1,2,0:0:0:0:
448,192,22920,1,2,0:0:0:0:
192,192,22980,1,2,0:0:0:0:
64,192,23040,1,2,0:0:0:0:
320,192,23040,1,4,0:0:0:0:
448,192,23040,1,0,0:0:0:0:
192,192,23160,1,0,0:0:0:0:
320,192,23160,1,0,0:0:0:0:
64,192,23280,1,2,0:0:0:0:
320,192,23280,1,8,0:0:0:0:
448,192,23280,1,0,0:0:0:0:
64,192,23400,1,0,0:0:0:0:
320,192,23520,1,2,0:0:0:0:
448,192,23520,1,0,0:0:0:0:
192,192,23640,1,0,0:0:0:0:
320,192,23640,1,0,0:0:0:0:
64,192,23760,1,2,0:0:0:0:
192,192,23760,1,8,0:0:0:0:
448,192,23760,1,0,0:0:0:0:
64,192,23880,1,0,0:0:0:0:
192,192,24000,1,2,0:0:0:0:
320,192,24000,1,0,0:0:0:0:
448,192,24000,1,0,0:0:0:0:
320,192,24120,1,0,0:0:0:0:
448,192,24120,1,0,0:0:0:0:
64,192,24240,1,2,0:0:0:0:
192,192,24240,1,8,0:0:0:0:
448,192,24240,1,0,0:0:0:0:
64,192,24360,1,0,0:0:0:0:
320,192,24480,1,2,0:0:0:0:
448,192,24480,1,0,0:0:0:0:
192,192,24600,1,0,0:0:0:0:
448,192,24600,1,0,0:0:0:0:
64,192,24720,1,2,0:0:0:0:
192,192,24720,1,8,0:0:0:0:
320,192,24720,1,0,0:0:0:0:
64,192,24840,1,0,0:0:0:0:
192,192,24960,1,2,0:0:0:0:
320,192,24960,1,0,0:0:0:0:
192,192,25080,1,0,0:0:0:0:
448,192,25080,1,0,0:0:0:0:
64,192,25200,1,2,0:0:0:0:
320,192,25200,1,8,0:0:0:0:
448,192,25200,1,0,0:0:0:0:
320,192,25320,1,0,0:0:0:0:
64,192,25440,1,2,0:0:0:0:
448,192,25440,1,0,0:0:0:0:
192,192,25560,1,0,0:0:0:0:
448,192,25560,1,0,0:0:0:0:
64,192,25680,1,2,0:0:0:0:
192,192,25680,1,8,0:0:0:0:
320,192,25680,1,0,0:0:0:0:
320,192,25800,1,0,0:0:0:0:
64,192,25920,1,2,0:0:0:0:
192,192,25920,1,0,0:0:0:0:
448,192,25920,1,0,0:0:0:0:
64,192,26040,1,0,0:0:0:0:
192,192,26040,1,0,0:0:0:0:
64,192,26160,1,2,0:0:0:0:
320,192,26160,1,8,0:0:0:0:
448,192,26160,1,0,0:0:0:0:
320,192,26280,1,0,0:0:0:0:
64,192,26400,1,2,0:0:0:0:
192,192,26400,1,0,0:0:0:0:
64,192,26520,1,0,0:0:0:0:
448,192,26520,1,0,0:0:0:0:
192,192,26640,1,2,0:0:0:0:
320,192,26640,1,8,0:0:0:0:
448,192,26640,1,0,0:0:0:0:
320,192,26760,1,0,0:0:0:0:
192,192,26880,1,2,0:0:0:0:
448,192,26880,1,0,0:0:0:0:
64,192,27000,1,0,0:0:0:0:
448,192,27000,1,0,0:0:0:0:
64,192,27120,1,8,0:0:0:0:
192,192,27120,1,2,0:0:0:0:
320,192,27120,1,0,0:0:0:0:
192,192,27240,1,0,0:0:0:0:
64,192,27360,1,2,0:0:0:0:
320,192,27360,1,0,0:0:0:0:
64,192,27480,1,0,0:0:0:0:
448,192,27480,1,0,0:0:0:0:
192,192,27600,1,8,0:0:0:0:
320,192,27600,1,2,0:0:0:0:
448,192,27600,1,0,0:0:0:0:
192,192,27720,1,0,0:0:0:0:
64,192,27840,1,2,0:0:0:0:
320,192,27840,1,0,0:0:0:0:
448,192,27840,1,0,0:0:0:0:
320,192,27960,1,0,0:0:0:0:
448,192,27960,1,0,0:0:0:0:
64,192,28080,1,8,0:0:0:0:
192,192,28080,1,2,0:0:0:0:
320,192,28080,1,0,0:0:0:0:
192,192,28200,1,0,0:0:0:0:
64,192,28320,1,2,0:0:0:0:
448,192,28320,1,0,0:0:0:0:
64,192,28440,1,0,0:0:0:0:
320,192,28440,1,0,0:0:0:0:
192,192,28560,1,8,0:0:0:0:
320,192,28560,1,2,0:0:0:0:
448,192,28560,1,0,0:0:0:0:
192,192,28680,1,0,0:0:0:0:
320,192,28800,1,2,0:0:0:0:
448,192,28800,1,0,0:0:0:0:
64,192,28920,1,0,0:0:0:0:
320,192,28920,1,0,0:0:0:0:
64,192,29040,1,2,0:0:0:0:
192,192,29040,1,8,0:0:0:0:
448,192,29040,1,0,0:0:0:0:
448,192,29160,1,0,0:0:0:0:
64,192,29280,1,2,0:0:0:0:
192,192,29280,1,0,0:0:0:0:
64,192,29400,1,0,0:0:0:0:
320,192,29400,1,0,0:0:0:0:
192,192,29520,1,2,0:0:0:0:
320,192,29520,1,8,0:0:0:0:
448,192,29520,1,0,0:0:0:0:
448,192,29640,1,0,0:0:0:0:
64,192,29760,1,2,0:0:0:0:
192,192,29760,1,0,0:0:0:0:
320,192,29760,1,0,0:0:0:0:
192,192,29880,1,0,0:0:0:0:
320,192,29880,1,0,0:0:0:0:
64,192,30000,1,2,0:0:0:0:
192,192,30000,1,8,0:0:0:0:
448,192,30000,1,0,0:0:0:0:
64,192,30120,1,0,0:0:0:0:
320,192,30240,1,2,0:0:0:0:
448,192,30240,1,0,0:0:0:0:
192,192,30360,1,0,0:0:0:0:
448,192,30360,1,0,0:0:0:0:
64,192,30480,1,2,0:0:0:0:
192,192,30480,1,8,0:0:0:0:
320,192,30480,1,0,0:0:0:0:
64,192,30600,1,0,0:0:0:0:
192,192,30720,1,2,0:0:0:0:
448,192,30720,1,0,0:0:0:0:
192,192,30840,1,0,0:0:0:0:
320,192,30840,1,0,0:0:0:0:
64,192,30960,1,2,0:0:0:0:
320,192,30960,1,8,0:0:0:0:
448,192,30960,1,0,0:0:0:0:
64,192,31080,1,0,0:0:0:0:
320,192,31200,1,2,0:0:0:0:
448,192,31200,1,0,0:0:0:0:
192,192,31320,1,0,0:0:0:0:
320,192,31320,1,0,0:0:0:0:
64,192,31440,1,2,0:0:0:0:
192,192,31440,1,8,0:0:0:0:
448,192,31440,1,0,0:0:0:0:
64,192,31560,1,0,0:0:0:0:
192,192,31680,1,2,0:0:0:0:
320,192,31680,1,0,0:0:0:0:
448,192,31680,1,0,0:0:0:0:
320,192,31800,1,0,0:0:0:0:
448,192,31800,1,0,0:0:0:0:
64,192,31920,1,2,0:0:0:0:
192,192,31920,1,8,0:0:0:0:
448,192,31920,1,0,0:0:0:0:
64,192,32040,1,0,0:0:0:0:
320,192,32160,1,2,0:0:0:0:
448,192,32160,1,0,0:0:0:0:
192,192,32280,1,0,0:0:0:0:
448,192,32280,1,0,0:0:0:0:
64,192,32400,1,2,0:0:0:0:
192,192,32400,1,8,0:0:0:0:
320,192,32400,1,0,0:0:0:0:
64,192,32520,1,0,0:0:0:0:
192,192,32640,1,2,0:0:0:0:
320,192,32640,1,0,0:0:0:0:
192,192,32760,1,0,0:0:0:0:
448,192,32760,1,0,0:0:0:0:
64,192,32880,1,2,0:0:0:0:
320,192,32880,1,8,0:0:0:0:
448,192,32880,1,0,0:0:0:0:
320,192,33000,1,0,0:0:0:0:
64,192,33120,1,2,0:0:0:0:
448,192,33120,1,0,0:0:0:0:
192,192,33240,1,0,0:0:0:0:
448,192,33240,1,0,0:0:0:0:
64,192,33360,1,2,0:0:0:0:
192,192,33360,1,8,0:0:0:0:
320,192,33360,1,0,0:0:0:0:
320,192,33480,1,0,0:0:0:0:
64,192,33600,1,2,0:0:0:0:
192,192,33600,1,0,0:0:0:0:
448,192,33600,1,0,0:0:0:0:
64,192,33720,1,0,0:0:0:0:
192,192,33720,1,0,0:0:0:0:
64,192,33840,1,2,0:0:0:0:
320,192,33840,1,8,0:0:0:0:
448,192,33840,1,0,0:0:0:0:
320,192,33960,1,0,0:0:0:0:
64,192,34080,1,2,0:0:0:0:
192,192,34080,1,0,0:0:0:0:
64,192,34200,1,0,0:0:0:0:
448,192,34200,1,0,0:0:0:0:
192,192,34320,1,2,0:0:0:0:
320,192,34320,1,8,0:0:0:0:
448,192,34320,1,0,0:0:0:0:
320,192,34440,1,0,0:0:0:0:
192,192,34560,1,2,0:0:0:0:
448,192,34560,1,0,0:0:0:0:
64,192,34680,1,0,0:0:0:0:
448,192,34680,1,0,0:0:0:0:
64,192,34800,1,8,0:0:0:0:
192,192,34800,1,2,0:0:0:0:
320,192,34800,1,0,0:0:0:0:
192,192,34920,1,0,0:0:0:0:
64,192,35040,1,2,0:0:0:0:
320,192,35040,1,0,0:0:0:0:
64,192,35160,1,0,0:0:0:0:
448,192,35160,1,0,0:0:0:0:
192,192,35280,1,8,0:0:0:0:
320,192,35280,1,2,0:0:0:0:
448,192,35280,1,0,0:0:0:0:
192,192,35400,1,0,0:0:0:0:
64,192,35520,1,2,0:0:0:0:
320,192,35520,1,0,0:0:0:0:
448,192,35520,1,0,0:0:0:0:
320,192,35640,1,0,0:0:0:0:
448,192,35640,1,0,0:0:0:0:
64,192,35760,1,8,0:0:0:0:
192,192,35760,1,2,0:0:0:0:
320,192,35760,1,0,0:0:0:0:
192,192,35880,1,0,0:0:0:0:
64,192,36000,1,2,0:0:0:0:
448,192,36000,1,0,0:0:0:0:
64,192,36120,1,0,0:0:0:0:
320,192,36120,1,0,0:0:0:0:
192,192,36240,1,8,0:0:0:0:
320,192,36240,1,2,0:0:0:0:
448,192,36240,1,0,0:0:0:0:
192,192,36360,1,0,0:0:0:0:
64,192,36480,1,2,0:0:0:0:
320,192,36480,128,0,38280:0:0:0:0:
448,192,36480,128,0,38280:0:0:0:0:
192,192,36720,1,10,0:0:0:0:
64,192,36960,1,2,0:0:0:0:
192,192,37200,1,10,0:0:0:0:
64,192,37440,1,2,0:0:0:0:
192,192,37680,1,10,0:0:0:0:
64,192,37920,1,2,0:0:0:0:
192,192,38160,1,10,0:0:0:0:
64,192,38400,1,4,0:0:0:0:
192,192,38400,1,2,0:0:0:0:
320,192,38400,1,8,0:0:0:0:
448,192,38400,1,0,0:0:0:0:
192,192,38520,1,0,0:0:0:0:
320,192,38520,1,0,0:0:0:0:
64,192,38640,1,8,0:0:0:0:
320,192,38640,1,2,0:0:0:0:
448,192,38640,1,0,0:0:0:0:
64,192,38760,1,0,0:0:0:0:
64,192,38880,1,8,0:0:0:0:
320,192,38880,1,2,0:0:0:0:
448,192,38880,1,0,0:0:0:0:
192,192,39000,1,0,0:0:0:0:
320,192,39000,1,0,0:0:0:0:
64,192,39120,1,8,0:0:0:0:
192,192,39120,1,2,0:0:0:0:
448,192,39120,1,0,0:0:0:0:
64,192,39240,1,0,0:0:0:0:
64,192,39360,1,8,0:0:0:0:
192,192,39360,1,2,0:0:0:0:
320,192,39360,1,0,0:0:0:0:
448,192,39360,1,0,0:0:0:0:
320,192,39480,1,0,0:0:0:0:
448,192,39480,1,0,0:0:0:0:
64,192,39600,1,2,0:0:0:0:
192,192,39600,1,8,0:0:0:0:
448,192,39600,1,0,0:0:0:0:
64,192,39720,1,0,0:0:0:0:
64,192,39840,1,2,0:0:0:0:
320,192,39840,1,8,0:0:0:0:
448,192,39840,1,0,0:0:0:0:
192,192,39960,1,0,0:0:0:0:
448,192,39960,1,0,0:0:0:0:
64,192,40080,1,2,0:0:0:0:
192,192,40080,1,8,0:0:0:0:
320,192,40080,1,0,0:0:0:0:
64,192,40200,1,8,0:0:0:0:
64,192,40320,1,2,0:0:0:0:
192,192,40320,1,8,0:0:0:0:
320,192,40320,1,0,0:0:0:0:
192,192,40440,1,0,0:0:0:0:
448,192,40440,1,0,0:0:0:0:
64,192,40560,1,2,0:0:0:0:
320,192,40560,1,8,0:0:0:0:
448,192,40560,1,0,0:0:0:0:
320,192,40680,1,0,0:0:0:0:
64,192,40800,1,2,0:0:0:0:
320,192,40800,1,8,0:0:0:0:
448,192,40800,1,0,0:0:0:0:
192,192,40920,1,0,0:0:0:0:
448,192,40920,1,0,0:0:0:0:
64,192,41040,1,2,0:0:0:0:
192,192,41040,1,8,0:0:0:0:
320,192,41040,1,0,0:0:0:0:
320,192,41160,1,0,0:0:0:0:
64,192,41280,1,2,0:0:0:0:
192,192,41280,1,8,0:0:0:0:
320,192,41280,1,0,0:0:0:0:
448,192,41280,1,0,0:0:0:0:
64,192,41400,1,0,0:0:0:0:
192,192,41400,1,0,0:0:0:0:
64,192,41520,1,2,0:0:0:0:
320,192,41520,1,8,0:0:0:0:
448,192,41520,1,0,0:0:0:0:
320,192,41640,1,0,0:0:0:0:
64,192,41760,1,2,0:0:0:0:
192,192,41760,1,8,0:0:0:0:
320,192,41760,1,0,0:0:0:0:
64,192,41880,1,0,0:0:0:0:
448,192,41880,1,0,0:0:0:0:
192,192,42000,1,2,0:0:0:0:
320,192,42000,1,8,0:0:0:0:
448,192,42000,1,0,0:0:0:0:
320,192,42120,1,8,0:0:0:0:
192,192,42240,1,2,0:0:0:0:
320,192,42240,1,8,0:0:0:0:
448,192,42240,1,0,0:0:0:0:
64,192,42360,1,0,0:0:0:0:
448,192,42360,1,0,0:0:0:0:
64,192,42480,1,8,0:0:0:0:
192,192,42480,1,2,0:0:0:0:
320,192,42480,1,0,0:0:0:0:
192,192,42600,1,0,0:0:0:0:
64,192,42720,1,2,0:0:0:0:
192,192,42720,1,8,0:0:0:0:
320,192,42720,1,0,0:0:0:0:
64,192,42840,1,0,0:0:0:0:
448,192,42840,1,0,0:0:0:0:
192,192,42960,1,8,0:0:0:0:
320,192,42960,1,2,0:0:0:0:
448,192,42960,1,0,0:0:0:0:
192,192,43080,1,0,0:0:0:0:
64,192,43200,1,2,0:0:0:0:
192,192,43200,1,8,0:0:0:0:
320,192,43200,1,0,0:0:0:0:
448,192,43200,1,0,0:0:0:0:
320,192,43320,1,0,0:0:0:0:
448,192,43320,1,0,0:0:0:0:
64,192,43440,1,8,0:0:0:0:
192,192,43440,1,2,0:0:0:0:
320,192,43440,1,0,0:0:0:0:
192,192,43560,1,0,0:0:0:0:
64,192,43680,1,2,0:0:0:0:
192,192,43680,1,8,0:0:0:0:
448,192,43680,1,0,0:0:0:0:
64,192,43800,1,0,0:0:0:0:
320,192,43800,1,0,0:0:0:0:
192,192,43920,1,8,0:0:0:0:
320,192,43920,1,2,0:0:0:0:
448,192,43920,1,0,0:0:0:0:
192,192,44040,1,8,0:0:0:0:
192,192,44160,1,2,0:0:0:0:
320,192,44160,1,8,0:0:0:0:
448,192,44160,1,0,0:0:0:0:
64,192,44280,1,0,0:0:0:0:
320,192,44280,1,0,0:0:0:0:
64,192,44400,1,2,0:0:0:0:
192,192,44400,1,8,0:0:0:0:
448,192,44400,1,0,0:0:0:0:
448,192,44520,1,0,0:0:0:0:
64,192,44640,1,2,0:0:0:0:
192,192,44640,1,8,0:0:0:0:
448,192,44640,1,0,0:0:0:0:
64,192,44760,1,0,0:0:0:0:
320,192,44760,1,0,0:0:0:0:
192,192,44880,1,2,0:0:0:0:
320,192,44880,1,8,0:0:0:0:
448,192,44880,1,0,0:0:0:0:
448,192,45000,1,0,0:0:0:0:
64,192,45120,1,2,0:0:0:0:
192,192,45120,1,8,0:0:0:0:
320,192,45120,1,0,0:0:0:0:
448,192,45120,1,0,0:0:0:0:
192,192,45240,1,0,0:0:0:0:
320,192,45240,1,0,0:0:0:0:
64,192,45360,1,2,0:0:0:0:
192,192,45360,1,8,0:0:0:0:
448,192,45360,1,0,0:0:0:0:
64,192,45480,1,0,0:0:0:0:
64,192,45600,1,2,0:0:0:0:
320,192,45600,1,8,0:0:0:0:
448,192,45600,1,0,0:0:0:0:
320,192,45720,1,0,0:0:0:0:
448,192,45720,1,0,0:0:0:0:
64,192,45840,1,2,0:0:0:0:
192,192,45840,1,8,0:0:0:0:
320,192,45840,1,0,0:0:0:0:
64,192,45960,1,8,0:0:0:0:
64,192,46080,1,2,0:0:0:0:
192,192,46080,1,8,0:0:0:0:
448,192,46080,1,0,0:0:0:0:
192,192,46200,1,0,0:0:0:0:
320,192,46200,1,0,0:0:0:0:
64,192,46320,1,2,0:0:0:0:
320,192,46320,1,8,0:0:0:0:
448,192,46320,1,0,0:0:0:0:
64,192,46440,1,0,0:0:0:0:
64,192,46560,1,2,0:0:0:0:
320,192,46560,1,8,0:0:0:0:
448,192,46560,1,0,0:0:0:0:
192,192,46680,1,0,0:0:0:0:
320,192,46680,1,0,0:0:0:0:
64,192,46800,1,2,0:0:0:0:
192,192,46800,1,8,0:0:0:0:
448,192,46800,1,0,0:0:0:0:
64,192,46920,1,0,0:0:0:0:
64,192,47040,1,2,0:0:0:0:
192,192,47040,1,8,0:0:0:0:
320,192,47040,1,0,0:0:0:0:
448,192,47040,1,0,0:0:0:0:
320,192,47160,1,0,0:0:0:0:
448,192,47160,1,0,0:0:0:0:
64,192,47280,1,2,0:0:0:0:
192,192,47280,1,8,0:0:0:0:
448,192,47280,1,0,0:0:0:0:
64,192,47400,1,0,0:0:0:0:
64,192,47520,1,2,0:0:0:0:
320,192,47520,1,8,0:0:0:0:
448,192,47520,1,0,0:0:0:0:
192,192,47640,1,0,0:0:0:0:
448,192,47640,1,0,0:0:0:0:
64,192,47760,1,2,0:0:0:0:
192,192,47760,1,8,0:0:0:0:
320,192,47760,1,0,0:0:0:0:
64,192,47880,1,8,0:0:0:0:
64,192,48000,1,2,0:0:0:0:
192,192,48000,1,8,0:0:0:0:
320,192,48000,1,0,0:0:0:0:
192,192,48120,1,0,0:0:0:0:
448,192,48120,1,0,0:0:0:0:
64,192,48240,1,2,0:0:0:0:
320,192,48240,1,8,0:0:0:0:
448,192,48240,1,0,0:0:0:0:
320,192,48360,1,0,0:0:0:0:
64,192,48480,1,2,0:0:0:0:
320,192,48480,1,8,0:0:0:0:
448,192,48480,1,0,0:0:0:0:
192,192,48600,1,0,0:0:0:0:
448,192,48600,1,0,0:0:0:0:
64,192,48720,1,2,0:0:0:0:
192,192,48720,1,8,0:0:0:0:
320,192,48720,1,0,0:0:0:0:
320,192,48840,1,0,0:0:0:0:
64,192,48960,1,2,0:0:0:0:
192,192,48960,1,8,0:0:0:0:
320,192,48960,1,0,0:0:0:0:
448,192,48960,1,0,0:0:0:0:
64,192,49080,1,0,0:0:0:0:
192,192,49080,1,0,0:0:0:0:
64,192,49200,1,2,0:0:0:0:
320,192,49200,1,8,0:0:0:0:
448,192,49200,1,0,0:0:0:0:
320,192,49320,1,0,0:0:0:0:
64,192,49440,1,2,0:0:0:0:
192,192,49440,1,8,0:0:0:0:
320,192,49440,1,0,0:0:0:0:
64,192,49560,1,0,0:0:0:0:
448,192,49560,1,0,0:0:0:0:
192,192,49680,1,2,0:0:0:0:
320,192,49680,1,8,0:0:0:0:
448,192,49680,1,0,0:0:0:0:
320,192,49800,1,8,0:0:0:0:
192,192,49920,1,2,0:0:0:0:
320,192,49920,1,8,0:0:0:0:
448,192,49920,1,0,0:0:0:0:
64,192,50040,1,0,0:0:0:0:
448,192,50040,1,0,0:0:0:0:
64,192,50160,1,8,0:0:0:0:
192,192,50160,1,2,0:0:0:0:
320,192,50160,1,0,0:0:0:0:
192,192,50280,1,0,0:0:0:0:
64,192,50400,1,2,0:0:0:0:
192,192,50400,1,8,0:0:0:0:
320,192,50400,1,0,0:0:0:0:
64,192,50520,1,0,0:0:0:0:
448,192,50520,1,0,0:0:0:0:
192,192,50640,1,8,0:0:0:0:
320,192,50640,1,2,0:0:0:0:
448,192,50640,1,0,0:0:0:0:
192,192,50760,1,0,0:0:0:0:
64,192,50880,1,2,0:0:0:0:
192,192,50880,1,8,0:0:0:0:
320,192,50880,1,0,0:0:0:0:
448,192,50880,1,0,0:0:0:0:
320,192,51000,1,0,0:0:0:0:
448,192,51000,1,0,0:0:0:0:
64,192,51120,1,8,0:0:0:0:
192,192,51120,1,2,0:0:0:0:
320,192,51120,1,0,0:0:0:0:
192,192,51240,1,0,0:0:0:0:
64,192,51360,1,2,0:0:0:0:
192,192,51360,1,8,0:0:0:0:
448,192,51360,1,0,0:0:0:0:
64,192,51480,1,0,0:0:0:0:
320,192,51480,1,0,0:0:0:0:
192,192,51600,1,8,0:0:0:0:
320,192,51600,1,2,0:0:0:0:
448,192,51600,1,0,0:0:0:0:
192,192,51720,1,8,0:0:0:0:
192,192,51840,1,8,0:0:0:0:
320,192,51840,1,2,0:0:0:0:
448,192,51840,1,0,0:0:0:0:
64,192,51960,1,0,0:0:0:0:
320,192,51960,1,0,0:0:0:0:
64,192,52080,1,8,0:0:0:0:
192,192,52080,1,2,0:0:0:0:
448,192,52080,1,0,0:0:0:0:
448,192,52200,1,0,0:0:0:0:
64,192,52320,1,8,0:0:0:0:
192,192,52320,1,2,0:0:0:0:
448,192,52320,1,0,0:0:0:0:
64,192,52440,1,0,0:0:0:0:
320,192,52440,1,0,0:0:0:0:
192,192,52560,1,8,0:0:0:0:
320,192,52560,1,2,0:0:0:0:
448,192,52560,1,0,0:0:0:0:
448,192,52680,1,0,0:0:0:0:
64,192,52800,1,8,0:0:0:0:
192,192,52800,1,2,0:0:0:0:
320,192,52800,1,0,0:0:0:0:
448,192,52800,1,0,0:0:0:0:
192,192,52920,1,0,0:0:0:0:
320,192,52920,1,0,0:0:0:0:
64,192,53040,1,8,0:0:0:0:
192,192,53040,1,2,0:0:0:0:
448,192,53040,1,0,0:0:0:0:
64,192,53160,1,0,0:0:0:0:
64,192,53280,1,8,0:0:0:0:
320,192,53280,1,2,0:0:0:0:
448,192,53280,1,0,0:0:0:0:
320,192,53400,1,0,0:0:0:0:
448,192,53400,1,0,0:0:0:0:
64,192,53520,1,8,0:0:0:0:
192,192,53520,1,2,0:0:0:0:
320,192,53520,1,0,0:0:0:0:
64,192,53640,1,8,0:0:0:0:
64,192,53760,1,4,0:0:0:0:
192,192,53760,1,2,0:0:0:0:
320,192,53760,1,0,0:0:0:0:
448,192,53760,1,0,0:0:0:0:
320,192,53880,1,0,0:0:0:0:
64,192,54000,1,0,0:0:0:0:
320,192,54120,1,0,0:0:0:0:
64,192,54240,1,8,0:0:0:0:
192,192,54240,1,2,0:0:0:0:
448,192,54240,1,0,0:0:0:0:
192,192,54360,1,0,0:0:0:0:
448,192,54480,1,0,0:0:0:0:
192,192,54600,1,0,0:0:0:0:
64,192,54720,1,2,0:0:0:0:
320,192,54720,1,0,0:0:0:0:
320,192,54840,1,0,0:0:0:0:
64,192,54960,1,0,0:0:0:0:
448,192,55080,1,0,0:0:0:0:
64,192,55200,1,8,0:0:0:0:
192,192,55200,1,2,0:0:0:0:
320,192,55200,1,0,0:0:0:0:
320,192,55320,1,0,0:0:0:0:
64,192,55440,1,2,0:0:0:0:
448,192,55440,1,0,0:0:0:0:
192,192,55560,1,0,0:0:0:0:
192,192,55680,1,2,0:0:0:0:
320,192,55680,1,0,0:0:0:0:
320,192,55800,1,0,0:0:0:0:
64,192,55920,1,0,0:0:0:0:
320,192,56040,1,0,0:0:0:0:
64,192,56160,1,8,0:0:0:0:
192,192,56160,1,2,0:0:0:0:
448,192,56160,1,0,0:0:0:0:
192,192,56280,1,0,0:0:0:0:
448,192,56400,1,0,0:0:0:0:
192,192,56520,1,0,0:0:0:0:
64,192,56640,1,2,0:0:0:0:
320,192,56640,1,0,0:0:0:0:
320,192,56760,1,0,0:0:0:0:
64,192,56880,1,0,0:0:0:0:
448,192,57000,1,0,0:0:0:0:
64,192,57120,1,8,0:0:0:0:
192,192,57120,1,2,0:0:0:0:
320,192,57120,1,0,0:0:0:0:
320,192,57240,1,0,0:0:0:0:
192,192,57360,1,2,0:0:0:0:
448,192,57360,1,0,0:0:0:0:
64,192,57480,1,0,0:0:0:0:
64,192,57600,1,2,0:0:0:0:
320,192,57600,1,0,0:0:0:0:
320,192,57720,1,0,0:0:0:0:
64,192,57840,1,0,0:0:0:0:
320,192,57960,1,0,0:0:0:0:
64,192,58080,1,2,0:0:0:0:
192,192,58080,1,8,0:0:0:0:
448,192,58080,1,0,0:0:0:0:
192,192,58200,1,0,0:0:0:0:
448,192,58320,1,0,0:0:0:0:
192,192,58440,1,0,0:0:0:0:
64,192,58560,1,2,0:0:0:0:
320,192,58560,1,0,0:0:0:0:
320,192,58680,1,0,0:0:0:0:
64,192,58800,1,0,0:0:0:0:
448,192,58920,1,0,0:0:0:0:
64,192,59040,1,2,0:0:0:0:
192,192,59040,1,8,0:0:0:0:
320,192,59040,1,0,0:0:0:0:
320,192,59160,1,0,0:0:0:0:
64,192,59280,1,2,0:0:0:0:
448,192,59280,1,0,0:0:0:0:
192,192,59400,1,0,0:0:0:0:
192,192,59520,1,2,0:0:0:0:
320,192,59520,1,0,0:0:0:0:
320,192,59640,1,0,0:0:0:0:
64,192,59760,1,0,0:0:0:0:
320,192,59880,1,0,0:0:0:0:
64,192,60000,1,8,0:0:0:0:
192,192,60000,1,2,0:0:0:0:
448,192,60000,1,0,0:0:0:0:
192,192,60120,1,0,0:0:0:0:
448,192,60240,1,0,0:0:0:0:
192,192,60360,1,0,0:0:0:0:
64,192,60480,1,2,0:0:0:0:
320,192,60480,1,0,0:0:0:0:
320,192,60600,1,0,0:0:0:0:
64,192,60720,1,0,0:0:0:0:
448,192,60840,1,0,0:0:0:0:
64,192,60960,1,8,0:0:0:0:
192,192,60960,1,2,0:0:0:0:
320,192,60960,1,0,0:0:0:0:
320,192,61080,1,0,0:0:0:0:
192,192,61200,1,2,0:0:0:0:
448,192,61200,1,0,0:0:0:0:
64,192,61320,1,0,0:0:0:0:
64,192,61440,1,2,0:0:0:0:
320,192,61440,1,0,0:0:0:0:
320,192,61560,1,0,0:0:0:0:
64,192,61680,1,0,0:0:0:0:
320,192,61800,1,0,0:0:0:0:
64,192,61920,1,8,0:0:0:0:
192,192,61920,1,2,0:0:0:0:
448,192,61920,1,0,0:0:0:0:
192,192,62040,1,0,0:0:0:0:
448,192,62160,1,0,0:0:0:0:
192,192,62280,1,0,0:0:0:0:
64,192,62400,1,2,0:0:0:0:
320,192,62400,1,0,0:0:0:0:
320,192,62520,1,0,0:0:0:0:
64,192,62640,1,0,0:0:0:0:
448,192,62760,1,0,0:0:0:0:
64,192,62880,1,8,0:0:0:0:
192,192,62880,1,2,0:0:0:0:
320,192,62880,1,0,0:0:0:0:
320,192,63000,1,0,0:0:0:0:
64,192,63120,1,2,0:0:0:0:
448,192,63120,1,0,0:0:0:0:
192,192,63240,1,0,0:0:0:0:
192,192,63360,1,2,0:0:0:0:
320,192,63360,1,0,0:0:0:0:
320,192,63480,1,0,0:0:0:0:
64,192,63600,1,0,0:0:0:0:
320,192,63720,1,0,0:0:0:0:
64,192,63840,1,8,0:0:0:0:
192,192,63840,1,2,0:0:0:0:
448,192,63840,1,0,0:0:0:0:
192,192,63960,1,0,0:0:0:0:
448,192,64080,1,0,0:0:0:0:
192,192,64200,1,0,0:0:0:0:
64,192,64320,1,2,0:0:0:0:
320,192,64320,1,0,0:0:0:0:
320,192,64440,1,0,0:0:0:0:
64,192,64560,1,0,0:0:0:0:
448,192,64680,1,0,0:0:0:0:
64,192,64800,1,8,0:0:0:0:
192,192,64800,1,2,0:0:0:0:
320,192,64800,1,0,0:0:0:0:
320,192,64920,1,0,0:0:0:0:
192,192,65040,1,2,0:0:0:0:
448,192,65040,1,0,0:0:0:0:
64,192,65160,1,0,0:0:0:0:
64,192,65280,1,2,0:0:0:0:
448,192,65280,1,0,0:0:0:0:
448,192,65400,1,0,0:0:0:0:
192,192,65520,1,0,0:0:0:0:
320,192,65640,1,0,0:0:0:0:
64,192,65760,1,2,0:0:0:0:
192,192,65760,1,8,0:0:0:0:
448,192,65760,1,0,0:0:0:0:
64,192,65880,1,0,0:0:0:0:
320,192,66000,1,0,0:0:0:0:
192,192,66120,1,0,0:0:0:0:
64,192,66240,1,2,0:0:0:0:
320,192,66240,1,0,0:0:0:0:
320,192,66360,1,0,0:0:0:0:
64,192,66480,1,0,0:0:0:0:
448,192,66600,1,0,0:0:0:0:
64,192,66720,1,2,0:0:0:0:
192,192,66720,1,8,0:0:0:0:
320,192,66720,1,0,0:0:0:0:
320,192,66840,1,0,0:0:0:0:
64,192,66960,1,2,0:0:0:0:
448,192,66960,1,0,0:0:0:0:
448,192,67080,1,0,0:0:0:0:
64,192,67200,1,2,0:0:0:0:
320,192,67200,1,0,0:0:0:0:
320,192,67320,1,0,0:0:0:0:
192,192,67440,1,2,0:0:0:0:
448,192,67440,1,0,0:0:0:0:
192,192,67560,1,0,0:0:0:0:
64,192,67680,1,8,0:0:0:0:
320,192,67680,1,2,0:0:0:0:
448,192,67680,1,0,0:0:0:0:
448,192,67800,1,0,0:0:0:0:
192,192,67920,1,0,0:0:0:0:
320,192,68040,1,0,0:0:0:0:
64,192,68160,1,2,0:0:0:0:
448,192,68160,1,0,0:0:0:0:
64,192,68280,1,0,0:0:0:0:
320,192,68400,1,0,0:0:0:0:
192,192,68520,1,0,0:0:0:0:
64,192,68640,1,8,0:0:0:0:
320,192,68640,1,2,0:0:0:0:
448,192,68640,1,0,0:0:0:0:
448,192,68760,1,0,0:0:0:0:
192,192,68880,1,2,0:0:0:0:
320,192,68940,1,2,0:0:0:0:
192,192,69000,1,2,0:0:0:0:
320,192,69060,1,2,0:0:0:0:
64,192,69120,1,2,0:0:0:0:
192,192,69120,1,4,0:0:0:0:
448,192,69120,1,0,0:0:0:0:
448,192,69240,1,0,0:0:0:0:
64,192,69360,1,2,0:0:0:0:
320,192,69360,1,0,0:0:0:0:
64,192,69480,1,0,0:0:0:0:
192,192,69600,1,2,0:0:0:0:
320,192,69600,1,8,0:0:0:0:
448,192,69600,1,0,0:0:0:0:
448,192,69720,1,0,0:0:0:0:
192,192,69840,1,2,0:0:0:0:
320,192,69840,1,0,0:0:0:0:
192,192,69960,1,0,0:0:0:0:
64,192,70080,1,2,0:0:0:0:
320,192,70080,1,0,0:0:0:0:
320,192,70200,1,0,0:0:0:0:
64,192,70320,1,2,0:0:0:0:
448,192,70320,1,0,0:0:0:0:
64,192,70440,1,0,0:0:0:0:
192,192,70560,1,2,0:0:0:0:
320,192,70560,1,8,0:0:0:0:
448,192,70560,1,0,0:0:0:0:
448,192,70680,1,0,0:0:0:0:
192,192,70800,1,2,0:0:0:0:
320,192,70800,1,0,0:0:0:0:
320,192,70920,1,2,0:0:0:0:
448,192,70920,1,0,0:0:0:0:
64,192,71040,1,2,0:0:0:0:
448,192,71040,1,0,0:0:0:0:
64,192,71160,1,0,0:0:0:0:
192,192,71280,1,2,0:0:0:0:
448,192,71280,1,0,0:0:0:0:
448,192,71400,1,0,0:0:0:0:
64,192,71520,1,2,0:0:0:0:
192,192,71520,1,8,0:0:0:0:
320,192,71520,1,0,0:0:0:0:
192,192,71640,1,0,0:0:0:0:
64,192,71760,1,2,0:0:0:0:
320,192,71760,1,0,0:0:0:0:
320,192,71880,1,0,0:0:0:0:
192,192,72000,1,2,0:0:0:0:
448,192,72000,1,0,0:0:0:0:
448,192,72120,1,0,0:0:0:0:
64,192,72240,1,2,0:0:0:0:
320,192,72240,1,0,0:0:0:0:
64,192,72360,1,0,0:0:0:0:
192,192,72480,1,2,0:0:0:0:
320,192,72480,1,8,0:0:0:0:
448,192,72480,1,0,0:0:0:0:
448,192,72600,1,0,0:0:0:0:
192,192,72720,1,2,0:0:0:0:
320,192,72720,1,0,0:0:0:0:
320,192,72840,1,2,0:0:0:0:
448,192,72840,1,0,0:0:0:0:
64,192,72960,1,2,0:0:0:0:
448,192,72960,1,0,0:0:0:0:
64,192,73080,1,0,0:0:0:0:
192,192,73200,1,2,0:0:0:0:
320,192,73200,1,0,0:0:0:0:
320,192,73320,1,0,0:0:0:0:
64,192,73440,1,2,0:0:0:0:
192,192,73440,1,8,0:0:0:0:
448,192,73440,1,0,0:0:0:0:
192,192,73560,1,0,0:0:0:0:
64,192,73680,1,2,0:0:0:0:
320,192,73680,1,0,0:0:0:0:
64,192,73800,1,0,0:0:0:0:
192,192,73920,1,2,0:0:0:0:
448,192,73920,1,0,0:0:0:0:
448,192,74040,1,0,0:0:0:0:
192,192,74160,1,2,0:0:0:0:
320,192,74160,1,0,0:0:0:0:
192,192,74280,1,0,0:0:0:0:
64,192,74400,1,2,0:0:0:0:
320,192,74400,1,8,0:0:0:0:
448,192,74400,1,0,0:0:0:0:
320,192,74520,1,0,0:0:0:0:
64,192,74640,1,2,0:0:0:0:
448,192,74640,1,0,0:0:0:0:
320,192,74760,1,2,0:0:0:0:
448,192,74760,1,0,0:0:0:0:
192,192,74880,1,2,0:0:0:0:
320,192,74880,1,0,0:0:0:0:
192,192,75000,1,0,0:0:0:0:
64,192,75120,1,2,0:0:0:0:
320,192,75120,1,0,0:0:0:0:
320,192,75240,1,0,0:0:0:0:
64,192,75360,1,2,0:0:0:0:
192,192,75360,1,8,0:0:0:0:
448,192,75360,1,0,0:0:0:0:
64,192,75480,1,0,0:0:0:0:
192,192,75600,1,2,0:0:0:0:
448,192,75600,1,0,0:0:0:0:
448,192,75720,1,0,0:0:0:0:
192,192,75840,1,2,0:0:0:0:
320,192,75840,1,0,0:0:0:0:
192,192,75960,1,0,0:0:0:0:
64,192,76080,1,2,0:0:0:0:
320,192,76080,1,0,0:0:0:0:
320,192,76200,1,0,0:0:0:0:
64,192,76320,1,2,0:0:0:0:
192,192,76320,1,8,0:0:0:0:
448,192,76320,1,0,0:0:0:0:
64,192,76440,1,0,0:0:0:0:
192,192,76560,1,2,0:0:0:0:
320,192,76560,1,0,0:0:0:0:
64,192,76680,1,2,0:0:0:0:
192,192,76680,1,0,0:0:0:0:
64,192,76800,1,2,0:0:0:0:
448,192,76800,1,0,0:0:0:0:
448,192,76920,1,0,0:0:0:0:
64,192,77040,1,2,0:0:0:0:
320,192,77040,1,0,0:0:0:0:
64,192,77160,1,0,0:0:0:0:
192,192,77280,1,2,0:0:0:0:
320,192,77280,1,8,0:0:0:0:
448,192,77280,1,0,0:0:0:0:
448,192,77400,1,0,0:0:0:0:
192,192,77520,1,2,0:0:0:0:
320,192,77520,1,0,0:0:0:0:
192,192,77640,1,0,0:0:0:0:
64,192,77760,1,2,0:0:0:0:
320,192,77760,1,0,0:0:0:0:
320,192,77880,1,0,0:0:0:0:
64,192,78000,1,2,0:0:0:0:
448,192,78000,1,0,0:0:0:0:
64,192,78120,1,0,0:0:0:0:
192,192,78240,1,2,0:0:0:0:
320,192,78240,1,8,0:0:0:0:
448,192,78240,1,0,0:0:0:0:
448,192,78360,1,0,0:0:0:0:
192,192,78480,1,2,0:0:0:0:
320,192,78480,1,0,0:0:0:0:
320,192,78600,1,2,0:0:0:0:
448,192,78600,1,0,0:0:0:0:
64,192,78720,1,2,0:0:0:0:
448,192,78720,1,0,0:0:0:0:
64,192,78840,1,0,0:0:0:0:
192,192,78960,1,2,0:0:0:0:
448,192,78960,1,0,0:0:0:0:
448,192,79080,1,0,0:0:0:0:
64,192,79200,1,2,0:0:0:0:
192,192,79200,1,8,0:0:0:0:
320,192,79200,1,0,0:0:0:0:
192,192,79320,1,0,0:0:0:0:
64,192,79440,1,2,0:0:0:0:
320,192,79440,1,0,0:0:0:0:
320,192,79560,1,0,0:0:0:0:
192,192,79680,1,2,0:0:0:0:
448,192,79680,1,0,0:0:0:0:
448,192,79800,1,0,0:0:0:0:
64,192,79920,1,2,0:0:0:0:
320,192,79920,1,0,0:0:0:0:
64,192,80040,1,0,0:0:0:0:
192,192,80160,1,2,0:0:0:0:
320,192,80160,1,8,0:0:0:0:
448,192,80160,1,0,0:0:0:0:
448,192,80280,1,0,0:0:0:0:
192,192,80400,1,2,0:0:0:0:
320,192,80400,1,0,0:0:0:0:
320,192,80520,1,2,0:0:0:0:
448,192,80520,1,0,0:0:0:0:
64,192,80640,1,2,0:0:0:0:
448,192,80640,1,0,0:0:0:0:
64,192,80760,1,0,0:0:0:0:
192,192,80880,1,2,0:0:0:0:
320,192,80880,1,0,0:0:0:0:
320,192,81000,1,0,0:0:0:0:
64,192,81120,1,2,0:0:0:0:
192,192,81120,1,8,0:0:0:0:
448,192,81120,1,0,0:0:0:0:
192,192,81240,1,0,0:0:0:0:
64,192,81360,1,2,0:0:0:0:
320,192,81360,1,0,0:0:0:0:
64,192,81480,1,0,0:0:0:0:
192,192,81600,1,2,0:0:0:0:
448,192,81600,1,0,0:0:0:0:
448,192,81720,1,0,0:0:0:0:
192,192,81840,1,2,0:0:0:0:
320,192,81840,1,0,0:0:0:0:
192,192,81960,1,0,0:0:0:0:
64,192,82080,1,2,0:0:0:0:
320,192,82080,1,8,0:0:0:0:
448,192,82080,1,0,0:0:0:0:
320,192,82200,1,0,0:0:0:0:
64,192,82320,1,2,0:0:0:0:
448,192,82320,1,0,0:0:0:0:
320,192,82440,1,2,0:0:0:0:
448,192,82440,1,0,0:0:0:0:
192,192,82560,1,2,0:0:0:0:
320,192,82560,1,0,0:0:0:0:
192,192,82680,1,0,0:0:0:0:
64,192,82800,1,2,0:0:0:0:
320,192,82800,1,0,0:0:0:0:
320,192,82920,1,0,0:0:0:0:
64,192,83040,1,2,0:0:0:0:
192,192,83040,1,8,0:0:0:0:
448,192,83040,1,0,0:0:0:0:
64,192,83160,1,0,0:0:0:0:
448,192,83280,1,2,0:0:0:0:
448,192,83400,1,0,0:0:0:0:
192,192,83520,1,2,0:0:0:0:
320,192,83520,1,0,0:0:0:0:
192,192,83640,1,0,0:0:0:0:
320,192,83760,1,2,0:0:0:0:
320,192,83880,1,0,0:0:0:0:
64,192,84000,1,2,0:0:0:0:
448,192,84000,1,8,0:0:0:0:
64,192,84120,1,0,0:0:0:0:
320,192,84240,1,2,0:0:0:0:
192,192,84300,1,2,0:0:0:0:
320,192,84360,1,2,0:0:0:0:
192,192,84420,1,2,0:0:0:0:
64,192,84480,1,4,0:0:0:0:
320,192,84480,1,2,0:0:0:0:
448,192,84480,1,0,0:0:0:0:
64,192,84600,1,0,0:0:0:0:
192,192,84720,1,2,0:0:0:0:
448,192,84720,1,0,0:0:0:0:
448,192,84840,1,0,0:0:0:0:
64,192,84960,1,2,0:0:0:0:
320,192,84960,1,0,0:0:0:0:
448,192,85080,1,0,0:0:0:0:
64,192,85200,1,2,0:0:0:0:
320,192,85200,1,0,0:0:0:0:
320,192,85320,1,0,0:0:0:0:
192,192,85440,1,2,0:0:0:0:
448,192,85440,1,0,0:0:0:0:
64,192,85560,1,0,0:0:0:0:
192,192,85680,1,2,0:0:0:0:
448,192,85680,1,0,0:0:0:0:
448,192,85800,1,0,0:0:0:0:
64,192,85920,1,2,0:0:0:0:
320,192,85920,1,0,0:0:0:0:
448,192,86040,1,0,0:0:0:0:
64,192,86160,1,2,0:0:0:0:
320,192,86160,1,0,0:0:0:0:
64,192,86280,1,2,0:0:0:0:
192,192,86280,1,0,0:0:0:0:
192,192,86400,1,2,0:0:0:0:
320,192,86400,1,0,0:0:0:0:
64,192,86520,1,0,0:0:0:0:
192,192,86640,1,2,0:0:0:0:
320,192,86640,1,0,0:0:0:0:
320,192,86760,1,0,0:0:0:0:
192,192,86880,1,2,0:0:0:0:
448,192,86880,1,0,0:0:0:0:
320,192,87000,1,0,0:0:0:0:
192,192,87120,1,2,0:0:0:0:
448,192,87120,1,0,0:0:0:0:
192,192,87240,1,0,0:0:0:0:
64,192,87360,1,2,0:0:0:0:
320,192,87360,1,0,0:0:0:0:
192,192,87480,1,0,0:0:0:0:
64,192,87600,1,2,0:0:0:0:
320,192,87600,1,0,0:0:0:0:
320,192,87720,1,0,0:0:0:0:
64,192,87840,1,2,0:0:0:0:
448,192,87840,1,0,0:0:0:0:
320,192,87960,1,0,0:0:0:0:
64,192,88080,1,2,0:0:0:0:
448,192,88080,1,0,0:0:0:0:
64,192,88200,1,2,0:0:0:0:
320,192,88200,1,0,0:0:0:0:
192,192,88320,1,2,0:0:0:0:
448,192,88320,1,0,0:0:0:0:
64,192,88440,1,0,0:0:0:0:
192,192,88560,1,2,0:0:0:0:
448,192,88560,1,0,0:0:0:0:
448,192,88680,1,0,0:0:0:0:
64,192,88800,1,2,0:0:0:0:
320,192,88800,1,0,0:0:0:0:
448,192,88920,1,0,0:0:0:0:
192,192,89040,1,2,0:0:0:0:
320,192,89040,1,0,0:0:0:0:
192,192,89160,1,0,0:0:0:0:
64,192,89280,1,2,0:0:0:0:
448,192,89280,1,0,0:0:0:0:
192,192,89400,1,0,0:0:0:0:
64,192,89520,1,2,0:0:0:0:
448,192,89520,1,0,0:0:0:0:
448,192,89640,1,0,0:0:0:0:
64,192,89760,1,2,0:0:0:0:
320,192,89760,1,0,0:0:0:0:
448,192,89880,1,0,0:0:0:0:
64,192,90000,1,2,0:0:0:0:
320,192,90000,1,0,0:0:0:0:
64,192,90120,1,2,0:0:0:0:
192,192,90120,1,0,0:0:0:0:
192,192,90240,1,2,0:0:0:0:
320,192,90240,1,0,0:0:0:0:
448,192,90360,1,0,0:0:0:0:
64,192,90480,1,2,0:0:0:0:
320,192,90480,1,0,0:0:0:0:
320,192,90600,1,0,0:0:0:0:
64,192,90720,1,2,0:0:0:0:
448,192,90720,1,0,0:0:0:0:
320,192,90840,1,0,0:0:0:0:
192,192,90960,1,2,0:0:0:0:
448,192,90960,1,0,0:0:0:0:
192,192,91080,1,0,0:0:0:0:
64,192,91200,1,2,0:0:0:0:
448,192,91200,1,0,0:0:0:0:
192,192,91320,1,0,0:0:0:0:
64,192,91440,1,2,0:0:0:0:
320,192,91440,1,0,0:0:0:0:
320,192,91560,1,0,0:0:0:0:
64,192,91680,1,2,0:0:0:0:
448,192,91680,1,0,0:0:0:0:
192,192,91800,1,0,0:0:0:0:
64,192,91920,1,2,0:0:0:0:
320,192,91920,1,0,0:0:0:0:
320,192,92040,1,2,0:0:0:0:
448,192,92040,1,0,0:0:0:0:
64,192,92160,1,2,0:0:0:0:
448,192,92160,1,0,0:0:0:0:
64,192,92280,1,0,0:0:0:0:
192,192,92400,1,2,0:0:0:0:
448,192,92400,1,0,0:0:0:0:
448,192,92520,1,0,0:0:0:0:
64,192,92640,1,2,0:0:0:0:
192,192,92640,1,8,0:0:0:0:
320,192,92640,1,0,0:0:0:0:
448,192,92760,1,0,0:0:0:0:
64,192,92880,1,2,0:0:0:0:
320,192,92880,1,0,0:0:0:0:
320,192,93000,1,0,0:0:0:0:
192,192,93120,1,2,0:0:0:0:
448,192,93120,1,0,0:0:0:0:
64,192,93240,1,0,0:0:0:0:
192,192,93360,1,2,0:0:0:0:
448,192,93360,1,0,0:0:0:0:
448,192,93480,1,0,0:0:0:0:
64,192,93600,1,2,0:0:0:0:
192,192,93600,1,8,0:0:0:0:
320,192,93600,1,0,0:0:0:0:
448,192,93720,1,0,0:0:0:0:
64,192,93840,1,2,0:0:0:0:
320,192,93840,1,0,0:0:0:0:
64,192,93960,1,2,0:0:0:0:
192,192,93960,1,0,0:0:0:0:
192,192,94080,1,2,0:0:0:0:
320,192,94080,1,0,0:0:0:0:
64,192,94200,1,0,0:0:0:0:
192,192,94320,1,2,0:0:0:0:
320,192,94320,1,0,0:0:0:0:
320,192,94440,1,0,0:0:0:0:
64,192,94560,1,2,0:0:0:0:
192,192,94560,1,8,0:0:0:0:
448,192,94560,1,0,0:0:0:0:
320,192,94680,1,0,0:0:0:0:
192,192,94800,1,2,0:0:0:0:
448,192,94800,1,0,0:0:0:0:
192,192,94920,1,0,0:0:0:0:
64,192,95040,1,2,0:0:0:0:
320,192,95040,1,0,0:0:0:0:
192,192,95160,1,0,0:0:0:0:
64,192,95280,1,2,0:0:0:0:
320,192,95280,1,0,0:0:0:0:
320,192,95400,1,0,0:0:0:0:
64,192,95520,1,2,0:0:0:0:
192,192,95520,1,8,0:0:0:0:
448,192,95520,1,0,0:0:0:0:
320,192,95640,1,0,0:0:0:0:
64,192,95760,1,2,0:0:0:0:
448,192,95760,1,0,0:0:0:0:
64,192,95880,1,2,0:0:0:0:
320,192,95880,1,0,0:0:0:0:
192,192,96000,1,2,0:0:0:0:
448,192,96000,1,0,0:0:0:0:
64,192,96120,1,0,0:0:0:0:
192,192,96240,1,2,0:0:0:0:
448,192,96240,1,0,0:0:0:0:
448,192,96360,1,0,0:0:0:0:
64,192,96480,1,2,0:0:0:0:
192,192,96480,1,8,0:0:0:0:
320,192,96480,1,0,0:0:0:0:
448,192,96600,1,0,0:0:0:0:
192,192,96720,1,2,0:0:0:0:
320,192,96720,1,0,0:0:0:0:
192,192,96840,1,0,0:0:0:0:
64,192,96960,1,2,0:0:0:0:
448,192,96960,1,0,0:0:0:0:
192,192,97080,1,0,0:0:0:0:
64,192,97200,1,2,0:0:0:0:
448,192,97200,1,0,0:0:0:0:
448,192,97320,1,0,0:0:0:0:
64,192,97440,1,2,0:0:0:0:
192,192,97440,1,8,0:0:0:0:
320,192,97440,1,0,0:0:0:0:
448,192,97560,1,0,0:0:0:0:
64,192,97680,1,2,0:0:0:0:
320,192,97680,1,0,0:0:0:0:
64,192,97800,1,2,0:0:0:0:
192,192,97800,1,0,0:0:0:0:
192,192,97920,1,2,0:0:0:0:
320,192,97920,1,0,0:0:0:0:
448,192,98040,1,0,0:0:0:0:
64,192,98160,1,2,0:0:0:0:
320,192,98160,1,0,0:0:0:0:
320,192,98280,1,0,0:0:0:0:
64,192,98400,1,2,0:0:0:0:
192,192,98400,1,8,0:0:0:0:
448,192,98400,1,0,0:0:0:0:
320,192,98520,1,0,0:0:0:0:
192,192,98640,1,0,0:0:0:0:
192,192,98760,1,0,0:0:0:0:
64,192,98880,1,2,0:0:0:0:
448,192,98880,1,0,0:0:0:0:
192,192,99000,1,0,0:0:0:0:
320,192,99120,1,0,0:0:0:0:
320,192,99240,1,0,0:0:0:0:
64,192,99360,1,2,0:0:0:0:
192,192,99360,1,8,0:0:0:0:
448,192,99360,1,0,0:0:0:0:
320,192,99480,1,0,0:0:0:0:
64,192,99600,1,2,0:0:0:0:
320,192,99660,1,2,0:0:0:0:
64,192,99720,1,2,0:0:0:0:
320,192,99780,1,2,0:0:0:0:
64,192,99840,1,2,0:0:0:0:
192,192,99840,1,4,0:0:0:0:
448,192,99840,1,0,0:0:0:0:
192,192,99960,1,0,0:0:0:0:
320,192,99960,1,0,0:0:0:0:
64,192,100080,1,2,0:0:0:0:
320,192,100080,1,8,0:0:0:0:
448,192,100080,1,0,0:0:0:0:
64,192,100200,1,0,0:0:0:0:
64,192,100320,1,2,0:0:0:0:
320,192,100320,1,8,0:0:0:0:
448,192,100320,1,0,0:0:0:0:
192,192,100440,1,0,0:0:0:0:
320,192,100440,1,0,0:0:0:0:
64,192,100560,1,2,0:0:0:0:
192,192,100560,1,8,0:0:0:0:
448,192,100560,1,0,0:0:0:0:
64,192,100680,1,0,0:0:0:0:
192,192,100800,1,2,0:0:0:0:
320,192,100800,1,0,0:0:0:0:
448,192,100800,1,0,0:0:0:0:
320,192,100920,1,0,0:0:0:0:
448,192,100920,1,0,0:0:0:0:
64,192,101040,1,8,0:0:0:0:
192,192,101040,1,2,0:0:0:0:
448,192,101040,1,0,0:0:0:0:
64,192,101160,1,0,0:0:0:0:
64,192,101280,1,8,0:0:0:0:
320,192,101280,1,2,0:0:0:0:
448,192,101280,1,0,0:0:0:0:
192,192,101400,1,0,0:0:0:0:
448,192,101400,1,0,0:0:0:0:
64,192,101520,1,8,0:0:0:0:
192,192,101520,1,2,0:0:0:0:
320,192,101520,1,0,0:0:0:0:
64,192,101640,1,0,0:0:0:0:
192,192,101760,1,2,0:0:0:0:
320,192,101760,1,0,0:0:0:0:
192,192,101880,1,0,0:0:0:0:
448,192,101880,1,0,0:0:0:0:
64,192,102000,1,8,0:0:0:0:
320,192,102000,1,2,0:0:0:0:
448,192,102000,1,0,0:0:0:0:
320,192,102120,1,0,0:0:0:0:
64,192,102240,1,8,0:0:0:0:
320,192,102240,1,2,0:0:0:0:
448,192,102240,1,0,0:0:0:0:
192,192,102360,1,0,0:0:0:0:
448,192,102360,1,0,0:0:0:0:
64,192,102480,1,8,0:0:0:0:
192,192,102480,1,2,0:0:0:0:
320,192,102480,1,0,0:0:0:0:
320,192,102600,1,0,0:0:0:0:
64,192,102720,1,2,0:0:0:0:
192,192,102720,1,0,0:0:0:0:
448,192,102720,1,0,0:0:0:0:
64,192,102840,1,0,0:0:0:0:
192,192,102840,1,0,0:0:0:0:
64,192,102960,1,8,0:0:0:0:
320,192,102960,1,2,0:0:0:0:
448,192,102960,1,0,0:0:0:0:
320,192,103080,1,0,0:0:0:0:
64,192,103200,1,8,0:0:0:0:
192,192,103200,1,2,0:0:0:0:
320,192,103200,1,0,0:0:0:0:
64,192,103320,1,0,0:0:0:0:
448,192,103320,1,0,0:0:0:0:
192,192,103440,1,8,0:0:0:0:
320,192,103440,1,2,0:0:0:0:
448,192,103440,1,0,0:0:0:0:
320,192,103560,1,0,0:0:0:0:
192,192,103680,1,2,0:0:0:0:
448,192,103680,1,0,0:0:0:0:
64,192,103800,1,0,0:0:0:0:
448,192,103800,1,0,0:0:0:0:
64,192,103920,1,2,0:0:0:0:
192,192,103920,1,8,0:0:0:0:
320,192,103920,1,0,0:0:0:0:
192,192,104040,1,0,0:0:0:0:
64,192,104160,1,8,0:0:0:0:
192,192,104160,1,2,0:0:0:0:
320,192,104160,1,0,0:0:0:0:
64,192,104280,1,0,0:0:0:0:
448,192,104280,1,0,0:0:0:0:
192,192,104400,1,2,0:0:0:0:
320,192,104400,1,8,0:0:0:0:
448,192,104400,1,0,0:0:0:0:
192,192,104520,1,0,0:0:0:0:
64,192,104640,1,2,0:0:0:0:
320,192,104640,1,0,0:0:0:0:
448,192,104640,1,0,0:0:0:0:
320,192,104760,1,0,0:0:0:0:
448,192,104760,1,0,0:0:0:0:
64,192,104880,1,2,0:0:0:0:
192,192,104880,1,8,0:0:0:0:
320,192,104880,1,0,0:0:0:0:
192,192,105000,1,0,0:0:0:0:
64,192,105120,1,8,0:0:0:0:
192,192,105120,1,2,0:0:0:0:
448,192,105120,1,0,0:0:0:0:
64,192,105240,1,0,0:0:0:0:
320,192,105240,1,0,0:0:0:0:
192,192,105360,1,2,0:0:0:0:
320,192,105360,1,8,0:0:0:0:
448,192,105360,1,0,0:0:0:0:
192,192,105480,1,0,0:0:0:0:
320,192,105600,1,2,0:0:0:0:
448,192,105600,1,0,0:0:0:0:
64,192,105720,1,0,0:0:0:0:
320,192,105720,1,0,0:0:0:0:
64,192,105840,1,8,0:0:0:0:
192,192,105840,1,2,0:0:0:0:
448,192,105840,1,0,0:0:0:0:
448,192,105960,1,0,0:0:0:0:
64,192,106080,1,8,0:0:0:0:
192,192,106080,1,2,0:0:0:0:
448,192,106080,1,0,0:0:0:0:
64,192,106200,1,0,0:0:0:0:
320,192,106200,1,0,0:0:0:0:
192,192,106320,1,8,0:0:0:0:
320,192,106320,1,2,0:0:0:0:
448,192,106320,1,0,0:0:0:0:
448,192,106440,1,0,0:0:0:0:
64,192,106560,1,2,0:0:0:0:
192,192,106560,1,0,0:0:0:0:
320,192,106560,1,0,0:0:0:0:
192,192,106680,1,0,0:0:0:0:
320,192,106680,1,0,0:0:0:0:
64,192,106800,1,8,0:0:0:0:
192,192,106800,1,2,0:0:0:0:
448,192,106800,1,0,0:0:0:0:
64,192,106920,1,0,0:0:0:0:
64,192,107040,1,8,0:0:0:0:
320,192,107040,1,2,0:0:0:0:
448,192,107040,1,0,0:0:0:0:
192,192,107160,1,0,0:0:0:0:
448,192,107160,1,0,0:0:0:0:
64,192,107280,1,8,0:0:0:0:
192,192,107280,1,2,0:0:0:0:
320,192,107280,1,0,0:0:0:0:
64,192,107400,1,0,0:0:0:0:
192,192,107520,1,2,0:0:0:0:
448,192,107520,1,0,0:0:0:0:
192,192,107640,1,0,0:0:0:0:
320,192,107640,1,0,0:0:0:0:
64,192,107760,1,8,0:0:0:0:
320,192,107760,1,2,0:0:0:0:
448,192,107760,1,0,0:0:0:0:
64,192,107880,1,0,0:0:0:0:
64,192,108000,1,8,0:0:0:0:
320,192,108000,1,2,0:0:0:0:
448,192,108000,1,0,0:0:0:0:
192,192,108120,1,0,0:0:0:0:
320,192,108120,1,0,0:0:0:0:
64,192,108240,1,8,0:0:0:0:
192,192,108240,1,2,0:0:0:0:
448,192,108240,1,0,0:0:0:0:
64,192,108360,1,0,0:0:0:0:
192,192,108480,1,2,0:0:0:0:
320,192,108480,1,0,0:0:0:0:
448,192,108480,1,0,0:0:0:0:
320,192,108600,1,0,0:0:0:0:
448,192,108600,1,0,0:0:0:0:
64,192,108720,1,8,0:0:0:0:
192,192,108720,1,2,0:0:0:0:
448,192,108720,1,0,0:0:0:0:
64,192,108840,1,0,0:0:0:0:
64,192,108960,1,8,0:0:0:0:
320,192,108960,1,2,0:0:0:0:
448,192,108960,1,0,0:0:0:0:
192,192,109080,1,0,0:0:0:0:
448,192,109080,1,0,0:0:0:0:
64,192,109200,1,8,0:0:0:0:
192,192,109200,1,2,0:0:0:0:
320,192,109200,1,0,0:0:0:0:
64,192,109320,1,0,0:0:0:0:
192,192,109440,1,2,0:0:0:0:
320,192,109440,1,0,0:0:0:0:
192,192,109560,1,0,0:0:0:0:
448,192,109560,1,0,0:0:0:0:
64,192,109680,1,8,0:0:0:0:
320,192,109680,1,2,0:0:0:0:
448,192,109680,1,0,0:0:0:0:
320,192,109800,1,0,0:0:0:0:
64,192,109920,1,8,0:0:0:0:
320,192,109920,1,2,0:0:0:0:
448,192,109920,1,0,0:0:0:0:
192,192,110040,1,0,0:0:0:0:
448,192,110040,1,0,0:0:0:0:
64,192,110160,1,8,0:0:0:0:
192,192,110160,1,2,0:0:0:0:
320,192,110160,1,0,0:0:0:0:
320,192,110280,1,0,0:0:0:0:
64,192,110400,1,2,0:0:0:0:
192,192,110400,1,0,0:0:0:0:
448,192,110400,1,0,0:0:0:0:
64,192,110520,1,0,0:0:0:0:
192,192,110520,1,0,0:0:0:0:
64,192,110640,1,8,0:0:0:0:
320,192,110640,1,2,0:0:0:0:
448,192,110640,1,0,0:0:0:0:
320,192,110760,1,0,0:0:0:0:
64,192,110880,1,8,0:0:0:0:
192,192,110880,1,2,0:0:0:0:
320,192,110880,1,0,0:0:0:0:
64,192,111000,1,0,0:0:0:0:
448,192,111000,1,0,0:0:0:0:
192,192,111120,1,8,0:0:0:0:
320,192,111120,1,2,0:0:0:0:
448,192,111120,1,0,0:0:0:0:
320,192,111240,1,0,0:0:0:0:
192,192,111360,1,2,0:0:0:0:
448,192,111360,1,0,0:0:0:0:
64,192,111480,1,0,0:0:0:0:
448,192,111480,1,0,0:0:0:0:
64,192,111600,1,2,0:0:0:0:
192,192,111600,1,8,0:0:0:0:
320,192,111600,1,0,0:0:0:0:
192,192,111720,1,0,0:0:0:0:
64,192,111840,1,8,0:0:0:0:
192,192,111840,1,2,0:0:0:0:
320,192,111840,1,0,0:0:0:0:
64,192,111960,1,0,0:0:0:0:
448,192,111960,1,0,0:0:0:0:
192,192,112080,1,2,0:0:0:0:
320,192,112080,1,8,0:0:0:0:
448,192,112080,1,0,0:0:0:0:
192,192,112200,1,0,0:0:0:0:
64,192,112320,1,2,0:0:0:0:
320,192,112320,1,0,0:0:0:0:
448,192,112320,1,0,0:0:0:0:
320,192,112440,1,0,0:0:0:0:
448,192,112440,1,0,0:0:0:0:
64,192,112560,1,2,0:0:0:0:
192,192,112560,1,8,0:0:0:0:
320,192,112560,1,0,0:0:0:0:
192,192,112680,1,0,0:0:0:0:
64,192,112800,1,8,0:0:0:0:
192,192,112800,1,2,0:0:0:0:
448,192,112800,1,0,0:0:0:0:
64,192,112920,1,0,0:0:0:0:
320,192,112920,1,0,0:0:0:0:
192,192,113040,1,2,0:0:0:0:
320,192,113040,1,8,0:0:0:0:
448,192,113040,1,0,0:0:0:0:
192,192,113160,1,0,0:0:0:0:
64,192,113280,1,2,0:0:0:0:
320,192,113280,128,0,115080:0:0:0:0:
448,192,113280,128,0,115080:0:0:0:0:
192,192,113520,1,10,0:0:0:0:
192,192,113760,1,10,0:0:0:0:
192,192,114000,1,10,0:0:0:0:
64,192,114240,1,2,0:0:0:0:
192,192,114480,1,10,0:0:0:0:
192,192,114720,1,10,0:0:0:0:
192,192,114960,1,10,0:0:0:0:
64,192,115200,1,8,0:0:0:0:
192,192,115200,1,2,0:0:0:0:
320,192,115200,1,4,0:0:0:0:
448,192,115200,1,0,0:0:0:0:
192,192,115320,1,0,0:0:0:0:
320,192,115320,1,0,0:0:0:0:
64,192,115440,1,2,0:0:0:0:
320,192,115440,1,8,0:0:0:0:
448,192,115440,1,0,0:0:0:0:
64,192,115560,1,0,0:0:0:0:
64,192,115680,1,2,0:0:0:0:
320,192,115680,1,8,0:0:0:0:
448,192,115680,1,0,0:0:0:0:
192,192,115800,1,0,0:0:0:0:
320,192,115800,1,0,0:0:0:0:
64,192,115920,1,2,0:0:0:0:
192,192,115920,1,8,0:0:0:0:
448,192,115920,1,0,0:0:0:0:
64,192,116040,1,0,0:0:0:0:
64,192,116160,1,2,0:0:0:0:
192,192,116160,1,8,0:0:0:0:
320,192,116160,1,0,0:0:0:0:
448,192,116160,1,0,0:0:0:0:
320,192,116280,1,0,0:0:0:0:
448,192,116280,1,0,0:0:0:0:
64,192,116400,1,8,0:0:0:0:
192,192,116400,1,2,0:0:0:0:
448,192,116400,1,0,0:0:0:0:
64,192,116520,1,0,0:0:0:0:
64,192,116640,1,8,0:0:0:0:
320,192,116640,1,2,0:0:0:0:
448,192,116640,1,0,0:0:0:0:
192,192,116760,1,0,0:0:0:0:
448,192,116760,1,0,0:0:0:0:
64,192,116880,1,8,0:0:0:0:
192,192,116880,1,2,0:0:0:0:
320,192,116880,1,0,0:0:0:0:
64,192,117000,1,8,0:0:0:0:
64,192,117120,1,8,0:0:0:0:
192,192,117120,1,2,0:0:0:0:
320,192,117120,1,0,0:0:0:0:
192,192,117240,1,0,0:0:0:0:
448,192,117240,1,0,0:0:0:0:
64,192,117360,1,8,0:0:0:0:
320,192,117360,1,2,0:0:0:0:
448,192,117360,1,0,0:0:0:0:
320,192,117480,1,0,0:0:0:0:
64,192,117600,1,8,0:0:0:0:
320,192,117600,1,2,0:0:0:0:
448,192,117600,1,0,0:0:0:0:
192,192,117720,1,0,0:0:0:0:
448,192,117720,1,0,0:0:0:0:
64,192,117840,1,8,0:0:0:0:
192,192,117840,1,2,0:0:0:0:
320,192,117840,1,0,0:0:0:0:
320,192,117960,1,0,0:0:0:0:
64,192,118080,1,8,0:0:0:0:
192,192,118080,1,2,0:0:0:0:
320,192,118080,1,0,0:0:0:0:
448,192,118080,1,0,0:0:0:0:
64,192,118200,1,0,0:0:0:0:
192,192,118200,1,0,0:0:0:0:
64,192,118320,1,8,0:0:0:0:
320,192,118320,1,2,0:0:0:0:
448,192,118320,1,0,0:0:0:0:
320,192,118440,1,0,0:0:0:0:
64,192,118560,1,8,0:0:0:0:
192,192,118560,1,2,0:0:0:0:
320,192,118560,1,0,0:0:0:0:
64,192,118680,1,0,0:0:0:0:
448,192,118680,1,0,0:0:0:0:
192,192,118800,1,8,0:0:0:0:
320,192,118800,1,2,0:0:0:0:
448,192,118800,1,0,0:0:0:0:
320,192,118920,1,8,0:0:0:0:
192,192,119040,1,8,0:0:0:0:
320,192,119040,1,2,0:0:0:0:
448,192,119040,1,0,0:0:0:0:
64,192,119160,1,0,0:0:0:0:
448,192,119160,1,0,0:0:0:0:
64,192,119280,1,2,0:0:0:0:
192,192,119280,1,8,0:0:0:0:
320,192,119280,1,0,0:0:0:0:
192,192,119400,1,0,0:0:0:0:
64,192,119520,1,8,0:0:0:0:
192,192,119520,1,2,0:0:0:0:
320,192,119520,1,0,0:0:0:0:
64,192,119640,1,0,0:0:0:0:
448,192,119640,1,0,0:0:0:0:
192,192,119760,1,2,0:0:0:0:
320,192,119760,1,8,0:0:0:0:
448,192,119760,1,0,0:0:0:0:
192,192,119880,1,0,0:0:0:0:
64,192,120000,1,8,0:0:0:0:
192,192,120000,1,2,0:0:0:0:
320,192,120000,1,0,0:0:0:0:
448,192,120000,1,0,0:0:0:0:
320,192,120120,1,0,0:0:0:0:
448,192,120120,1,0,0:0:0:0:
64,192,120240,1,2,0:0:0:0:
192,192,120240,1,8,0:0:0:0:
320,192,120240,1,0,0:0:0:0:
192,192,120360,1,0,0:0:0:0:
64,192,120480,1,8,0:0:0:0:
192,192,120480,1,2,0:0:0:0:
448,192,120480,1,0,0:0:0:0:
64,192,120600,1,0,0:0:0:0:
320,192,120600,1,0,0:0:0:0:
192,192,120720,1,2,0:0:0:0:
320,192,120720,1,8,0:0:0:0:
448,192,120720,1,0,0:0:0:0:
192,192,120840,1,8,0:0:0:0:
192,192,120960,1,8,0:0:0:0:
320,192,120960,1,2,0:0:0:0:
448,192,120960,1,0,0:0:0:0:
64,192,121080,1,0,0:0:0:0:
320,192,121080,1,0,0:0:0:0:
64,192,121200,1,8,0:0:0:0:
192,192,121200,1,2,0:0:0:0:
448,192,121200,1,0,0:0:0:0:
448,192,121320,1,0,0:0:0:0:
64,192,121440,1,8,0:0:0:0:
192,192,121440,1,2,0:0:0:0:
448,192,121440,1,0,0:0:0:0:
64,192,121560,1,0,0:0:0:0:
320,192,121560,1,0,0:0:0:0:
192,192,121680,1,8,0:0:0:0:
320,192,121680,1,2,0:0:0:0:
448,192,121680,1,0,0:0:0:0:
448,192,121800,1,0,0:0:0:0:
64,192,121920,1,8,0:0:0:0:
192,192,121920,1,2,0:0:0:0:
320,192,121920,1,0,0:0:0:0:
448,192,121920,1,0,0:0:0:0:
192,192,122040,1,0,0:0:0:0:
320,192,122040,1,0,0:0:0:0:
64,192,122160,1,8,0:0:0:0:
192,192,122160,1,2,0:0:0:0:
448,192,122160,1,0,0:0:0:0:
64,192,122280,1,0,0:0:0:0:
64,192,122400,1,8,0:0:0:0:
320,192,122400,1,2,0:0:0:0:
448,192,122400,1,0,0:0:0:0:
320,192,122520,1,0,0:0:0:0:
448,192,122520,1,0,0:0:0:0:
64,192,122640,1,8,0:0:0:0:
192,192,122640,1,2,0:0:0:0:
320,192,122640,1,0,0:0:0:0:
64,192,122760,1,8,0:0:0:0:
64,192,122880,1,8,0:0:0:0:
192,192,122880,1,2,0:0:0:0:
448,192,122880,1,0,0:0:0:0:
192,192,123000,1,0,0:0:0:0:
320,192,123000,1,0,0:0:0:0:
64,192,123120,1,8,0:0:0:0:
320,192,123120,1,2,0:0:0:0:
448,192,123120,1,0,0:0:0:0:
64,192,123240,1,0,0:0:0:0:
64,192,123360,1,8,0:0:0:0:
320,192,123360,1,2,0:0:0:0:
448,192,123360,1,0,0:0:0:0:
192,192,123480,1,0,0:0:0:0:
320,192,123480,1,0,0:0:0:0:
64,192,123600,1,8,0:0:0:0:
192,192,123600,1,2,0:0:0:0:
448,192,123600,1,0,0:0:0:0:
64,192,123720,1,0,0:0:0:0:
64,192,123840,1,8,0:0:0:0:
192,192,123840,1,2,0:0:0:0:
320,192,123840,1,0,0:0:0:0:
448,192,123840,1,0,0:0:0:0:
320,192,123960,1,0,0:0:0:0:
448,192,123960,1,0,0:0:0:0:
64,192,124080,1,8,0:0:0:0:
192,192,124080,1,2,0:0:0:0:
448,192,124080,1,0,0:0:0:0:
64,192,124200,1,0,0:0:0:0:
64,192,124320,1,8,0:0:0:0:
320,192,124320,1,2,0:0:0:0:
448,192,124320,1,0,0:0:0:0:
192,192,124440,1,0,0:0:0:0:
448,192,124440,1,0,0:0:0:0:
64,192,124560,1,8,0:0:0:0:
192,192,124560,1,2,0:0:0:0:
320,192,124560,1,0,0:0:0:0:
64,192,124680,1,8,0:0:0:0:
64,192,124800,1,8,0:0:0:0:
192,192,124800,1,2,0:0:0:0:
320,192,124800,1,0,0:0:0:0:
192,192,124920,1,0,0:0:0:0:
448,192,124920,1,0,0:0:0:0:
64,192,125040,1,8,0:0:0:0:
320,192,125040,1,2,0:0:0:0:
448,192,125040,1,0,0:0:0:0:
320,192,125160,1,0,0:0:0:0:
64,192,125280,1,8,0:0:0:0:
320,192,125280,1,2,0:0:0:0:
448,192,125280,1,0,0:0:0:0:
192,192,125400,1,0,0:0:0:0:
448,192,125400,1,0,0:0:0:0:
64,192,125520,1,8,0:0:0:0:
192,192,125520,1,2,0:0:0:0:
320,192,125520,1,0,0:0:0:0:
320,192,125640,1,0,0:0:0:0:
64,192,125760,1,8,0:0:0:0:
192,192,125760,1,2,0:0:0:0:
320,192,125760,1,0,0:0:0:0:
448,192,125760,1,0,0:0:0:0:
64,192,125880,1,0,0:0:0:0:
192,192,125880,1,0,0:0:0:0:
64,192,126000,1,8,0:0:0:0:
320,192,126000,1,2,0:0:0:0:
448,192,126000,1,0,0:0:0:0:
320,192,126120,1,0,0:0:0:0:
64,192,126240,1,8,0:0:0:0:
192,192,126240,1,2,0:0:0:0:
320,192,126240,1,0,0:0:0:0:
64,192,126360,1,0,0:0:0:0:
448,192,126360,1,0,0:0:0:0:
192,192,126480,1,8,0:0:0:0:
320,192,126480,1,2,0:0:0:0:
448,192,126480,1,0,0:0:0:0:
320,192,126600,1,8,0:0:0:0:
192,192,126720,1,8,0:0:0:0:
320,192,126720,1,2,0:0:0:0:
448,192,126720,1,0,0:0:0:0:
64,192,126840,1,0,0:0:0:0:
448,192,126840,1,0,0:0:0:0:
64,192,126960,1,2,0:0:0:0:
192,192,126960,1,8,0:0:0:0:
320,192,126960,1,0,0:0:0:0:
192,192,127080,1,0,0:0:0:0:
64,192,127200,1,8,0:0:0:0:
192,192,127200,1,2,0:0:0:0:
320,192,127200,1,0,0:0:0:0:
64,192,127320,1,0,0:0:0:0:
448,192,127320,1,0,0:0:0:0:
192,192,127440,1,2,0:0:0:0:
320,192,127440,1,8,0:0:0:0:
448,192,127440,1,0,0:0:0:0:
192,192,127560,1,0,0:0:0:0:
64,192,127680,1,8,0:0:0:0:
192,192,127680,1,2,0:0:0:0:
320,192,127680,1,0,0:0:0:0:
448,192,127680,1,0,0:0:0:0:
320,192,127800,1,0,0:0:0:0:
448,192,127800,1,0,0:0:0:0:
64,192,127920,1,2,0:0:0:0:
192,192,127920,1,8,0:0:0:0:
320,192,127920,1,0,0:0:0:0:
192,192,128040,1,0,0:0:0:0:
64,192,128160,1,8,0:0:0:0:
192,192,128160,1,2,0:0:0:0:
448,192,128160,1,0,0:0:0:0:
64,192,128280,1,0,0:0:0:0:
320,192,128280,1,0,0:0:0:0:
192,192,128400,1,2,0:0:0:0:
320,192,128400,1,8,0:0:0:0:
448,192,128400,1,0,0:0:0:0:
192,192,128520,1,8,0:0:0:0:
192,192,128640,1,2,0:0:0:0:
320,192,128640,1,8,0:0:0:0:
448,192,128640,1,0,0:0:0:0:
64,192,128760,1,0,0:0:0:0:
320,192,128760,1,0,0:0:0:0:
64,192,128880,1,2,0:0:0:0:
192,192,128880,1,8,0:0:0:0:
448,192,128880,1,0,0:0:0:0:
448,192,129000,1,0,0:0:0:0:
64,192,129120,1,2,0:0:0:0:
192,192,129120,1,8,0:0:0:0:
448,192,129120,1,0,0:0:0:0:
64,192,129240,1,0,0:0:0:0:
320,192,129240,1,0,0:0:0:0:
192,192,129360,1,2,0:0:0:0:
320,192,129360,1,8,0:0:0:0:
448,192,129360,1,0,0:0:0:0:
448,192,129480,1,0,0:0:0:0:
64,192,129600,1,2,0:0:0:0:
192,192,129600,1,8,0:0:0:0:
320,192,129600,1,0,0:0:0:0:
448,192,129600,1,0,0:0:0:0:
192,192,129720,1,0,0:0:0:0:
320,192,129720,1,0,0:0:0:0:
64,192,129840,1,8,0:0:0:0:
192,192,129840,1,2,0:0:0:0:
448,192,129840,1,0,0:0:0:0:
64,192,129960,1,0,0:0:0:0:
64,192,130080,1,8,0:0:0:0:
320,192,130080,1,2,0:0:0:0:
448,192,130080,1,0,0:0:0:0:
192,192,130200,1,0,0:0:0:0:
448,192,130200,1,0,0:0:0:0:
64,192,130320,1,8,0:0:0:0:
192,192,130320,1,2,0:0:0:0:
320,192,130320,1,0,0:0:0:0:
64,192,130440,1,8,0:0:0:0:
64,192,130560,1,4,0:0:0:0:
192,192,130560,1,2,0:0:0:0:
320,192,130560,1,0,0:0:0:0:
448,192,130560,1,0,0:0:0:0:
