osu file format v14

[General]
AudioFilename: audio.mp3
AudioLeadIn: 0
PreviewTime: -1
Countdown: 1
SampleSet: Normal
StackLeniency: 0.2
Mode: 0
LetterboxInBreaks: 0
WidescreenStoryboard: 0

[Editor]
DistanceSpacing: 1.2
BeatDivisor: 4
GridSize: 32
TimelineZoom: 3.399999

[Metadata]
Title:Mind of the Corpse
TitleUnicode:Mind of the Corpse
Artist:-45
ArtistUnicode:-45
Creator:Matrix
Version:mario kart wii is better than osu
Source:Amrita
Tags:
BeatmapID:1948971
BeatmapSetID:933571

[Difficulty]
HPDrainRate:5
CircleSize:4.5
OverallDifficulty:8
ApproachRate:8.5
SliderMultiplier:0.799999999999999
SliderTickRate:1

[Events]
//Background and Video events
0,0,"eeeeee.png",0,0
//Break Periods
//Storyboard Layer 0 (Background)
//Storyboard Layer 1 (Fail)
//Storyboard Layer 2 (Pass)
//Storyboard Layer 3 (Foreground)
//Storyboard Sound Samples

[TimingPoints]
15219,375,4,1,0,100,1,0
21219,-100,4,1,0,100,0,0
27219,-50,4,1,0,100,0,0
31531,-50,4,1,0,100,0,0
39219,-100,4,1,0,100,0,0
41469,-33.3333333333333,4,1,0,100,0,0
46719,-25,4,1,0,100,0,0
48219,-100,4,1,0,100,0,0
51219,-50,4,1,0,100,0,0
52344,-142.857142857143,4,1,0,100,0,0
53000,-50,4,1,0,100,0,0
53844,-142.857142857143,4,1,0,100,0,0
55719,-71.4285714285714,4,1,0,100,0,0
57219,-71.4285714285714,4,1,0,100,0,0
58719,-25,4,1,0,100,0,0
59656,-50,4,1,0,100,0,0
61344,-33.3333333333333,4,1,0,100,0,0
61719,-25,4,1,0,100,0,0
63219,-100,4,1,0,100,0,0
63969,-25,4,1,0,100,0,0
75219,-125,4,1,0,100,0,0
79719,-25,4,1,0,100,0,0
81219,-100,4,1,0,100,0,0
85719,-25,4,1,0,100,0,0
87219,-25,4,1,0,100,0,0
88719,-500,4,1,0,100,0,0
89469,-200,4,1,0,100,0,0
90219,-25,4,1,0,100,0,0
91812,-33.3333333333333,4,1,0,100,0,0
93219,-333.333333333333,4,1,0,100,0,0
97719,-25,4,1,0,100,0,0
98094,-100,4,1,0,100,0,0
99219,187.5,4,1,0,100,1,0
105219,-100,4,1,0,100,0,0
105406,-33.3333333333333,4,1,0,100,0,0
111219,-33.3333333333333,4,1,0,100,0,0
117312,-33.3333333333333,4,1,0,100,0,0
126594,-66.6666666666667,4,1,0,100,0,0
128937,-33.3333333333333,4,1,0,100,0,0
147219,-500,4,1,0,100,0,0
149281,-500,4,1,0,100,0,0
159219,-500,4,1,0,100,0,0
160625,-250,4,1,0,100,0,0
162219,-200,4,1,0,100,0,0
163719,-166.666666666667,4,1,0,100,0,0
166719,-166.666666666667,4,1,0,100,0,0
171219,-33.3333333333333,4,1,0,100,0,0

[HitObjects]
256,192,15219,12,0,20844,0:0:0:0:
76,125,21219,5,0,0:0:0:0:
82,143,21312,1,0,0:0:0:0:
163,159,21500,1,0,0:0:0:0:
174,176,21594,1,0,0:0:0:0:
186,192,21687,1,0,0:0:0:0:
199,207,21781,1,0,0:0:0:0:
213,221,21875,1,0,0:0:0:0:
228,235,21969,1,0,0:0:0:0:
244,247,22062,5,0,0:0:0:0:
261,257,22156,1,0,0:0:0:0:
278,267,22250,1,0,0:0:0:0:
296,275,22344,1,0,0:0:0:0:
315,282,22437,1,0,0:0:0:0:
334,287,22531,1,0,0:0:0:0:
488,354,22719,5,0,0:0:0:0:
500,337,22812,1,0,0:0:0:0:
420,295,23000,1,0,0:0:0:0:
424,276,23094,1,0,0:0:0:0:
424,256,23187,1,0,0:0:0:0:
422,236,23281,1,0,0:0:0:0:
417,216,23375,1,0,0:0:0:0:
410,198,23469,1,0,0:0:0:0:
400,181,23562,5,0,0:0:0:0:
387,165,23656,1,0,0:0:0:0:
373,152,23750,1,0,0:0:0:0:
356,140,23844,1,0,0:0:0:0:
338,131,23937,1,0,0:0:0:0:
319,125,24031,1,0,0:0:0:0:
300,121,24125,1,0,0:0:0:0:
279,118,24219,2,0,B|227:112|227:112|200:81,1,80
127,181,24875,1,0,0:0:0:0:
127,181,24969,1,0,0:0:0:0:
116,269,25250,1,0,0:0:0:0:
116,269,25344,1,0,0:0:0:0:
116,269,25437,1,0,0:0:0:0:
116,269,25531,1,0,0:0:0:0:
231,273,25719,5,0,0:0:0:0:
247,261,25812,1,0,0:0:0:0:
261,247,25906,1,0,0:0:0:0:
274,232,26000,1,0,0:0:0:0:
286,216,26094,1,0,0:0:0:0:
297,199,26187,1,0,0:0:0:0:
310,184,26281,1,0,0:0:0:0:
325,171,26375,1,0,0:0:0:0:
342,160,26469,1,0,0:0:0:0:
360,150,26562,5,0,0:0:0:0:
378,142,26656,1,0,0:0:0:0:
396,133,26750,1,0,0:0:0:0:
413,123,26844,1,0,0:0:0:0:
429,111,26937,1,0,0:0:0:0:
442,96,27031,1,0,0:0:0:0:
450,78,27125,1,0,0:0:0:0:
452,57,27219,6,0,P|373:73|282:82,1,160
230,24,27969,2,0,B|172:103|172:103|99:120,1,160
253,323,28719,1,0,0:0:0:0:
40,256,29094,1,0,0:0:0:0:
254,192,29469,1,0,0:0:0:0:
32,150,29844,2,0,P|116:112|185:100,1,160
254,192,30594,1,0,0:0:0:0:
480,234,30969,2,0,P|396:272|327:284,1,160
141,214,31718,5,0,0:0:0:0:
141,214,31812,1,0,0:0:0:0:
141,214,31906,2,0,P|148:157|26:202,1,240
154,295,32844,5,0,0:0:0:0:
272,276,33031,1,0,0:0:0:0:
272,276,33124,1,0,0:0:0:0:
272,276,33219,2,0,B|359:210|359:210|413:209,1,160
263,77,33969,1,0,0:0:0:0:
212,148,34156,1,0,0:0:0:0:
212,148,34250,1,0,0:0:0:0:
129,117,34437,1,0,0:0:0:0:
129,117,34531,1,0,0:0:0:0:
129,117,34625,1,0,0:0:0:0:
129,117,34719,2,0,P|117:171|41:254,1,160
225,266,35469,5,0,0:0:0:0:
373,77,35844,1,0,0:0:0:0:
373,317,36219,1,0,0:0:0:0:
373,77,36594,1,0,0:0:0:0:
226,266,36969,1,0,0:0:0:0:
106,164,37344,6,0,B|184:134|184:134|215:77,1,120
242,68,37719,1,0,0:0:0:0:
275,45,37812,1,0,0:0:0:0:
313,33,37906,1,0,0:0:0:0:
352,31,38000,1,0,0:0:0:0:
391,41,38094,1,0,0:0:0:0:
426,61,38187,1,0,0:0:0:0:
454,89,38281,1,0,0:0:0:0:
473,124,38375,1,0,0:0:0:0:
482,163,38469,1,0,0:0:0:0:
479,203,38562,1,0,0:0:0:0:
466,240,38656,1,0,0:0:0:0:
444,273,38750,1,0,0:0:0:0:
413,298,38844,1,0,0:0:0:0:
376,314,38937,1,0,0:0:0:0:
337,319,39031,1,0,0:0:0:0:
297,313,39125,1,0,0:0:0:0:
301,262,39219,6,0,B|231:242|231:242|165:285,1,140
126,232,39969,2,0,B|178:181|178:181|174:102,1,140
243,107,40719,2,0,B|260:177|260:177|330:213,1,140
330,123,41469,2,0,L|520:0,1,180.000006866455
431,88,41844,2,0,L|442:314,1,180.000006866455
435,218,42219,2,0,L|233:114,1,180.000006866455
189,23,42594,2,0,L|200:250,1,180.000006866455
143,334,42969,2,0,L|333:211,1,180.000006866455
435,218,43344,2,0,L|233:114,1,180.000006866455
64,32,43719,5,0,0:0:0:0:
64,32,43812,1,0,0:0:0:0:
64,32,43906,1,0,0:0:0:0:
96,128,44094,1,0,0:0:0:0:
128,32,44281,1,0,0:0:0:0:
160,128,44469,1,0,0:0:0:0:
192,32,44656,1,0,0:0:0:0:
224,128,44844,1,0,0:0:0:0:
256,32,45031,1,0,0:0:0:0:
293,99,45219,5,0,0:0:0:0:
289,103,45312,1,0,0:0:0:0:
286,108,45406,1,0,0:0:0:0:
282,113,45500,1,0,0:0:0:0:
280,119,45594,1,0,0:0:0:0:
277,124,45687,1,0,0:0:0:0:
274,129,45781,1,0,0:0:0:0:
272,135,45875,1,0,0:0:0:0:
270,141,45969,1,0,0:0:0:0:
268,146,46062,1,0,0:0:0:0:
267,152,46156,1,0,0:0:0:0:
265,158,46250,1,0,0:0:0:0:
264,164,46344,1,0,0:0:0:0:
263,170,46437,1,0,0:0:0:0:
263,176,46531,1,0,0:0:0:0:
263,182,46625,1,0,0:0:0:0:
318,197,46719,2,0,P|319:302|383:103,1,960
285,311,48219,5,0,0:0:0:0:
266,302,48312,1,0,0:0:0:0:
248,295,48406,1,0,0:0:0:0:
228,290,48500,1,0,0:0:0:0:
123,290,48594,2,0,L|134:213,1,60
46,141,48969,1,0,0:0:0:0:
65,140,49062,1,0,0:0:0:0:
85,136,49156,1,0,0:0:0:0:
103,127,49250,1,0,0:0:0:0:
180,161,49344,6,0,P|224:138|244:133,1,60
255,240,49719,6,0,L|255:204,1,20
284,346,49906,2,0,L|284:310,1,20
312,177,50094,2,0,L|312:141,1,20
341,283,50281,2,0,L|341:247,1,20
372,117,50469,2,0,L|372:81,1,20
401,223,50656,2,0,L|401:187,1,20
433,41,50844,2,0,L|433:5,1,20
462,147,51031,2,0,L|462:111,1,20
141,98,51219,5,0,0:0:0:0:
85,167,51500,1,0,0:0:0:0:
118,188,51593,1,0,0:0:0:0:
96,272,51781,1,0,0:0:0:0:
191,305,51969,1,0,0:0:0:0:
227,289,52062,1,0,0:0:0:0:
264,274,52156,1,0,0:0:0:0:
301,258,52250,1,0,0:0:0:0:
376,253,52344,1,0,0:0:0:0:
368,241,52437,1,0,0:0:0:0:
363,228,52531,1,0,0:0:0:0:
361,214,52625,1,0,0:0:0:0:
362,200,52719,1,0,0:0:0:0:
425,112,53000,5,0,0:0:0:0:
392,88,53093,1,0,0:0:0:0:
298,46,53281,1,0,0:0:0:0:
278,143,53469,5,0,0:0:0:0:
247,153,53562,1,0,0:0:0:0:
208,165,53655,1,0,0:0:0:0:
170,177,53749,1,0,0:0:0:0:
107,221,53844,1,0,0:0:0:0:
110,207,53937,1,0,0:0:0:0:
111,193,54031,1,0,0:0:0:0:
111,179,54125,1,0,0:0:0:0:
107,166,54219,1,0,0:0:0:0:
456,226,54500,1,0,0:0:0:0:
449,186,54593,1,0,0:0:0:0:
406,289,54781,1,0,0:0:0:0:
317,336,54969,5,0,0:0:0:0:
307,305,55062,1,0,0:0:0:0:
294,266,55155,1,0,0:0:0:0:
282,228,55249,1,0,0:0:0:0:
210,188,55344,1,0,0:0:0:0:
207,202,55437,1,0,0:0:0:0:
206,215,55531,1,0,0:0:0:0:
206,230,55625,1,0,0:0:0:0:
160,305,55719,5,0,0:0:0:0:
187,304,55812,1,0,0:0:0:0:
215,299,55906,1,0,0:0:0:0:
241,289,56000,1,0,0:0:0:0:
300,342,56094,5,0,0:0:0:0:
314,317,56187,1,0,0:0:0:0:
322,291,56281,1,0,0:0:0:0:
325,263,56375,1,0,0:0:0:0:
400,245,56469,5,0,0:0:0:0:
385,221,56562,1,0,0:0:0:0:
368,198,56656,1,0,0:0:0:0:
348,179,56750,1,0,0:0:0:0:
263,162,56844,5,0,0:0:0:0:
284,143,56937,1,0,0:0:0:0:
303,123,57031,1,0,0:0:0:0:
320,101,57125,1,0,0:0:0:0:
338,76,57219,2,0,P|257:73|231:69,1,83.9999974365235
222,62,57594,1,0,0:0:0:0:
152,109,57781,1,0,0:0:0:0:
118,186,57969,5,0,0:0:0:0:
129,226,58062,1,0,0:0:0:0:
155,177,58156,5,0,0:0:0:0:
166,217,58249,1,0,0:0:0:0:
199,166,58344,5,0,0:0:0:0:
210,206,58437,1,0,0:0:0:0:
236,157,58531,5,0,0:0:0:0:
247,197,58624,1,0,0:0:0:0:
276,147,58719,2,0,L|-11:2,1,320
384,117,59281,5,0,0:0:0:0:
320,318,59469,2,0,P|389:309|430:296,1,80
428,261,59656,5,0,0:0:0:0:
391,243,59749,1,0,0:0:0:0:
355,226,59843,1,0,0:0:0:0:
391,243,59937,5,0,0:0:0:0:
427,260,60030,1,0,0:0:0:0:
463,277,60124,1,0,0:0:0:0:
500,293,60218,1,0,0:0:0:0:
500,293,60500,1,0,0:0:0:0:
500,293,60594,1,0,0:0:0:0:
500,293,60781,1,0,0:0:0:0:
467,177,60969,2,0,L|339:100,1,120
302,120,61344,1,0,0:0:0:0:
244,137,61437,1,0,0:0:0:0:
187,155,61531,1,0,0:0:0:0:
130,173,61625,1,0,0:0:0:0:
74,193,61719,2,0,L|355:280,1,240
360,327,62094,5,0,0:0:0:0:
373,247,62187,1,0,0:0:0:0:
387,169,62281,1,0,0:0:0:0:
400,90,62375,1,0,0:0:0:0:
415,12,62469,1,0,0:0:0:0:
400,90,62562,5,0,0:0:0:0:
385,168,62656,1,0,0:0:0:0:
372,247,62750,1,0,0:0:0:0:
358,325,62844,1,0,0:0:0:0:
373,247,62937,5,0,0:0:0:0:
387,169,63031,1,0,0:0:0:0:
400,90,63125,1,0,0:0:0:0:
415,12,63219,1,0,0:0:0:0:
415,12,63500,1,0,0:0:0:0:
415,12,63594,1,0,0:0:0:0:
415,12,63781,1,0,0:0:0:0:
415,12,63969,2,0,P|322:42|279:56,3,80
386,95,64344,1,0,0:0:0:0:
309,119,64437,1,0,0:0:0:0:
232,141,64531,1,0,0:0:0:0:
154,159,64625,1,0,0:0:0:0:
76,173,64719,5,0,0:0:0:0:
105,262,65000,1,0,0:0:0:0:
105,262,65094,1,0,0:0:0:0:
264,226,65469,2,0,L|223:142,3,80
364,90,65844,2,0,L|399:161,2,80
321,170,66125,1,0,0:0:0:0:
355,238,66219,2,0,L|390:309,2,80
297,307,66500,1,0,0:0:0:0:
297,307,66594,1,0,0:0:0:0:
128,240,66781,5,0,0:0:0:0:
56,135,66969,2,0,P|140:108|160:108,1,80
200,179,67156,2,0,P|238:170|274:152,1,80
226,73,67344,2,0,P|310:46|330:46,1,80
370,117,67531,2,0,P|408:108|444:90,1,80
462,122,67719,1,0,0:0:0:0:
407,180,67812,1,0,0:0:0:0:
353,239,67906,1,0,0:0:0:0:
298,298,68000,1,0,0:0:0:0:
364,344,68094,5,0,0:0:0:0:
298,298,68187,1,0,0:0:0:0:
232,253,68281,1,0,0:0:0:0:
166,207,68375,1,0,0:0:0:0:
120,273,68469,5,0,0:0:0:0:
166,207,68562,1,0,0:0:0:0:
211,141,68656,1,0,0:0:0:0:
257,75,68750,1,0,0:0:0:0:
191,29,68844,5,0,0:0:0:0:
257,75,68937,1,0,0:0:0:0:
323,120,69031,1,0,0:0:0:0:
389,166,69125,1,0,0:0:0:0:
455,211,69219,5,0,0:0:0:0:
455,211,69500,1,0,0:0:0:0:
455,211,69593,1,0,0:0:0:0:
257,278,69781,1,0,0:0:0:0:
48,283,69969,1,0,0:0:0:0:
48,203,70062,1,0,0:0:0:0:
48,123,70156,1,0,0:0:0:0:
48,43,70250,1,0,0:0:0:0:
148,15,70344,5,0,0:0:0:0:
148,95,70437,1,0,0:0:0:0:
148,175,70531,1,0,0:0:0:0:
148,255,70625,1,0,0:0:0:0:
148,335,70719,5,0,0:0:0:0:
148,335,70906,1,0,0:0:0:0:
148,335,71000,1,0,0:0:0:0:
255,278,71281,1,0,0:0:0:0:
464,283,71469,1,0,0:0:0:0:
464,203,71562,1,0,0:0:0:0:
464,123,71656,1,0,0:0:0:0:
464,43,71750,1,0,0:0:0:0:
364,15,71844,5,0,0:0:0:0:
364,95,71937,1,0,0:0:0:0:
364,175,72031,1,0,0:0:0:0:
364,255,72125,1,0,0:0:0:0:
364,335,72219,5,0,0:0:0:0:
364,335,72406,5,0,0:0:0:0:
364,335,72500,1,0,0:0:0:0:
256,192,72969,12,0,74844,0:0:0:0:
76,67,75219,5,0,0:0:0:0:
87,78,75312,1,0,0:0:0:0:
98,90,75406,1,0,0:0:0:0:
107,102,75500,1,0,0:0:0:0:
116,116,75594,1,0,0:0:0:0:
124,129,75687,1,0,0:0:0:0:
131,144,75781,1,0,0:0:0:0:
137,159,75875,1,0,0:0:0:0:
142,174,75969,1,0,0:0:0:0:
146,189,76062,5,0,0:0:0:0:
149,205,76156,1,0,0:0:0:0:
151,221,76250,1,0,0:0:0:0:
152,237,76344,1,0,0:0:0:0:
151,253,76437,1,0,0:0:0:0:
150,269,76531,1,0,0:0:0:0:
147,285,76625,1,0,0:0:0:0:
144,300,76719,5,0,0:0:0:0:
159,306,76812,1,0,0:0:0:0:
174,310,76906,1,0,0:0:0:0:
190,314,77000,1,0,0:0:0:0:
205,316,77094,1,0,0:0:0:0:
221,317,77187,1,0,0:0:0:0:
237,316,77281,1,0,0:0:0:0:
253,315,77375,1,0,0:0:0:0:
269,312,77469,1,0,0:0:0:0:
285,308,77562,5,0,0:0:0:0:
300,303,77656,1,0,0:0:0:0:
315,297,77750,1,0,0:0:0:0:
329,290,77844,1,0,0:0:0:0:
342,282,77937,1,0,0:0:0:0:
355,272,78031,1,0,0:0:0:0:
368,262,78125,1,0,0:0:0:0:
379,251,78219,1,0,0:0:0:0:
393,243,78312,1,0,0:0:0:0:
405,233,78406,5,0,0:0:0:0:
416,221,78500,1,0,0:0:0:0:
424,207,78594,1,0,0:0:0:0:
430,192,78687,1,0,0:0:0:0:
434,177,78781,1,0,0:0:0:0:
435,161,78875,1,0,0:0:0:0:
433,145,78969,1,0,0:0:0:0:
429,129,79062,1,0,0:0:0:0:
423,115,79156,1,0,0:0:0:0:
414,101,79250,1,0,0:0:0:0:
403,90,79344,1,0,0:0:0:0:
390,80,79437,1,0,0:0:0:0:
376,72,79531,1,0,0:0:0:0:
361,67,79625,1,0,0:0:0:0:
348,64,79719,6,0,L|205:44,1,80
180,107,79906,2,0,L|200:-36,1,80
84,168,80094,2,0,L|227:188,1,80
237,190,80281,2,0,L|217:333,1,80
375,290,80469,2,0,L|232:270,1,80
328,205,80656,2,0,L|348:62,1,80
297,44,80844,2,0,L|440:64,1,80
463,23,81031,2,0,L|443:166,1,80
436,124,81219,5,0,0:0:0:0:
442,142,81312,1,0,0:0:0:0:
446,162,81406,1,0,0:0:0:0:
447,182,81500,1,0,0:0:0:0:
444,202,81594,1,0,0:0:0:0:
439,221,81687,1,0,0:0:0:0:
431,239,81781,1,0,0:0:0:0:
420,256,81875,1,0,0:0:0:0:
407,271,81969,1,0,0:0:0:0:
392,284,82062,1,0,0:0:0:0:
375,295,82156,1,0,0:0:0:0:
356,302,82250,1,0,0:0:0:0:
337,307,82344,1,0,0:0:0:0:
317,309,82437,1,0,0:0:0:0:
297,308,82531,1,0,0:0:0:0:
278,304,82625,1,0,0:0:0:0:
76,260,82719,5,0,0:0:0:0:
69,241,82812,1,0,0:0:0:0:
65,221,82906,1,0,0:0:0:0:
64,201,83000,1,0,0:0:0:0:
67,181,83094,1,0,0:0:0:0:
72,162,83187,1,0,0:0:0:0:
80,144,83281,1,0,0:0:0:0:
91,127,83375,1,0,0:0:0:0:
104,112,83469,1,0,0:0:0:0:
119,99,83562,1,0,0:0:0:0:
136,88,83656,1,0,0:0:0:0:
155,81,83750,1,0,0:0:0:0:
174,76,83844,1,0,0:0:0:0:
194,74,83937,1,0,0:0:0:0:
214,75,84031,1,0,0:0:0:0:
233,79,84125,1,0,0:0:0:0:
436,124,84219,5,0,0:0:0:0:
442,142,84312,1,0,0:0:0:0:
446,162,84406,1,0,0:0:0:0:
447,182,84500,1,0,0:0:0:0:
444,202,84594,1,0,0:0:0:0:
439,221,84687,1,0,0:0:0:0:
431,239,84781,1,0,0:0:0:0:
420,256,84875,1,0,0:0:0:0:
407,271,84969,1,0,0:0:0:0:
392,284,85062,1,0,0:0:0:0:
375,295,85156,1,0,0:0:0:0:
356,302,85250,1,0,0:0:0:0:
337,307,85344,1,0,0:0:0:0:
317,309,85437,1,0,0:0:0:0:
297,308,85531,1,0,0:0:0:0:
278,304,85625,1,0,0:0:0:0:
64,256,85719,6,0,L|64:116,1,80
304,32,85906,2,0,L|304:172,1,80
144,256,86094,2,0,L|144:116,1,80
224,32,86281,2,0,L|224:172,1,80
224,256,86469,2,0,L|224:116,1,80
144,32,86656,2,0,L|144:172,1,80
304,256,86844,2,0,L|304:116,1,80
64,32,87031,2,0,L|64:172,1,80
64,352,87219,6,0,L|64:32,3,320
63,148,88719,1,0,0:0:0:0:
63,144,88812,1,0,0:0:0:0:
63,140,88906,1,0,0:0:0:0:
63,136,89000,1,0,0:0:0:0:
63,132,89094,1,0,0:0:0:0:
63,128,89187,1,0,0:0:0:0:
63,124,89281,1,0,0:0:0:0:
63,120,89375,1,0,0:0:0:0:
63,116,89469,2,0,L|75:107,7,10
160,32,90219,2,0,L|480:32,4,320
160,96,91812,6,0,L|219:41,6,60.0000022888184
92,19,92469,1,0,0:0:0:0:
152,19,92562,1,0,0:0:0:0:
212,19,92656,1,0,0:0:0:0:
272,19,92750,1,0,0:0:0:0:
332,19,92844,1,0,0:0:0:0:
391,19,92937,1,0,0:0:0:0:
451,19,93031,1,0,0:0:0:0:
512,19,93125,1,0,0:0:0:0:
391,19,93219,5,0,0:0:0:0:
393,24,93312,1,0,0:0:0:0:
395,30,93406,1,0,0:0:0:0:
396,36,93500,1,0,0:0:0:0:
396,42,93594,1,0,0:0:0:0:
397,48,93687,1,0,0:0:0:0:
396,54,93781,1,0,0:0:0:0:
396,60,93875,1,0,0:0:0:0:
394,66,93969,1,0,0:0:0:0:
393,71,94062,1,0,0:0:0:0:
391,77,94156,1,0,0:0:0:0:
388,83,94250,1,0,0:0:0:0:
385,88,94344,1,0,0:0:0:0:
382,93,94437,1,0,0:0:0:0:
379,98,94531,1,0,0:0:0:0:
375,102,94625,1,0,0:0:0:0:
120,365,94719,5,0,0:0:0:0:
118,359,94812,1,0,0:0:0:0:
116,353,94906,1,0,0:0:0:0:
115,347,95000,1,0,0:0:0:0:
115,341,95094,1,0,0:0:0:0:
114,335,95187,1,0,0:0:0:0:
115,329,95281,1,0,0:0:0:0:
115,323,95375,1,0,0:0:0:0:
117,317,95469,1,0,0:0:0:0:
118,312,95562,1,0,0:0:0:0:
120,306,95656,1,0,0:0:0:0:
123,300,95750,1,0,0:0:0:0:
126,295,95844,1,0,0:0:0:0:
129,290,95937,1,0,0:0:0:0:
132,285,96031,1,0,0:0:0:0:
136,281,96125,1,0,0:0:0:0:
120,19,96219,5,0,0:0:0:0:
118,24,96312,1,0,0:0:0:0:
116,30,96406,1,0,0:0:0:0:
115,36,96500,1,0,0:0:0:0:
115,42,96594,1,0,0:0:0:0:
114,48,96687,1,0,0:0:0:0:
115,54,96781,1,0,0:0:0:0:
115,60,96875,1,0,0:0:0:0:
117,66,96969,1,0,0:0:0:0:
118,71,97062,1,0,0:0:0:0:
120,77,97156,1,0,0:0:0:0:
123,83,97250,1,0,0:0:0:0:
126,88,97344,1,0,0:0:0:0:
129,93,97437,1,0,0:0:0:0:
132,98,97531,1,0,0:0:0:0:
136,102,97625,1,0,0:0:0:0:
439,319,97719,6,0,L|288:231,1,160
345,152,98094,1,0,0:0:0:0:
355,134,98187,1,0,0:0:0:0:
367,119,98281,1,0,0:0:0:0:
85,159,98469,1,0,0:0:0:0:
103,152,98562,1,0,0:0:0:0:
123,148,98656,1,0,0:0:0:0:
225,265,98844,1,0,0:0:0:0:
243,271,98937,1,0,0:0:0:0:
261,280,99031,1,0,0:0:0:0:
243,33,99219,5,0,0:0:0:0:
252,49,99312,1,0,0:0:0:0:
143,78,99500,1,0,0:0:0:0:
161,85,99593,1,0,0:0:0:0:
97,177,99781,1,0,0:0:0:0:
124,282,99969,1,0,0:0:0:0:
134,266,100062,1,0,0:0:0:0:
213,345,100250,1,0,0:0:0:0:
210,327,100343,1,0,0:0:0:0:
322,336,100531,1,0,0:0:0:0:
400,260,100719,1,0,0:0:0:0:
381,260,100812,1,0,0:0:0:0:
410,151,101000,1,0,0:0:0:0:
396,163,101093,1,0,0:0:0:0:
348,61,101281,1,0,0:0:0:0:
242,33,101469,1,0,0:0:0:0:
251,49,101562,1,0,0:0:0:0:
143,79,101750,1,0,0:0:0:0:
160,85,101843,1,0,0:0:0:0:
97,177,102031,1,0,0:0:0:0:
134,267,102219,1,0,0:0:0:0:
125,283,102312,1,0,0:0:0:0:
211,327,102500,1,0,0:0:0:0:
214,345,102593,1,0,0:0:0:0:
323,336,102781,1,0,0:0:0:0:
381,259,102969,1,0,0:0:0:0:
400,259,103062,1,0,0:0:0:0:
396,163,103250,1,0,0:0:0:0:
410,151,103343,1,0,0:0:0:0:
347,61,103531,1,0,0:0:0:0:
251,49,103719,1,0,0:0:0:0:
242,33,103812,1,0,0:0:0:0:
160,85,104000,1,0,0:0:0:0:
143,79,104093,1,0,0:0:0:0:
97,177,104281,1,0,0:0:0:0:
134,267,104469,1,0,0:0:0:0:
125,283,104562,1,0,0:0:0:0:
211,327,104750,1,0,0:0:0:0:
214,345,104843,1,0,0:0:0:0:
323,336,105031,1,0,0:0:0:0:
198,69,105219,5,0,0:0:0:0:
141,145,105406,1,0,0:0:0:0:
95,160,105500,1,0,0:0:0:0:
159,230,105687,1,0,0:0:0:0:
205,215,105781,1,0,0:0:0:0:
271,284,105969,1,0,0:0:0:0:
225,299,106063,1,0,0:0:0:0:
293,366,106250,1,0,0:0:0:0:
339,351,106344,1,0,0:0:0:0:
159,285,106531,5,0,0:0:0:0:
234,141,106719,1,0,0:0:0:0:
415,184,106906,1,0,0:0:0:0:
444,222,107000,1,0,0:0:0:0:
97,200,107187,1,0,0:0:0:0:
68,162,107281,1,0,0:0:0:0:
311,142,107469,1,0,0:0:0:0:
340,180,107563,1,0,0:0:0:0:
201,242,107750,1,0,0:0:0:0:
172,204,107844,1,0,0:0:0:0:
256,192,108031,12,0,108781,0:0:0:0:
161,199,108969,5,0,0:0:0:0:
227,161,109062,1,0,0:0:0:0:
351,185,109344,5,0,0:0:0:0:
285,223,109531,1,0,0:0:0:0:
285,223,109719,1,0,0:0:0:0:
285,223,109906,1,0,0:0:0:0:
351,185,109999,1,0,0:0:0:0:
285,223,110094,2,0,P|147:222|111:228,1,120.000004577637
90,232,110281,1,0,0:0:0:0:
72,115,110469,5,0,0:0:0:0:
72,115,110562,1,0,0:0:0:0:
148,117,110750,2,0,P|330:121|344:116,1,120.000004577637
364,92,111031,1,0,0:0:0:0:
454,153,111219,5,0,0:0:0:0:
42,130,111406,1,0,0:0:0:0:
42,130,111500,1,0,0:0:0:0:
42,130,111781,1,0,0:0:0:0:
452,164,111969,1,0,0:0:0:0:
452,164,112062,1,0,0:0:0:0:
42,130,112250,1,0,0:0:0:0:
42,130,112344,1,0,0:0:0:0:
452,164,112531,1,0,0:0:0:0:
42,130,112719,1,0,0:0:0:0:
452,164,112906,1,0,0:0:0:0:
452,164,113000,1,0,0:0:0:0:
452,164,113281,1,0,0:0:0:0:
42,130,113562,1,0,0:0:0:0:
42,130,113656,1,0,0:0:0:0:
42,130,113750,1,0,0:0:0:0:
42,130,113843,1,0,0:0:0:0:
452,164,114031,1,0,0:0:0:0:
295,390,114219,5,0,0:0:0:0:
318,0,114406,1,0,0:0:0:0:
318,0,114500,1,0,0:0:0:0:
318,0,114781,1,0,0:0:0:0:
284,388,114969,1,0,0:0:0:0:
284,388,115062,1,0,0:0:0:0:
318,0,115250,1,0,0:0:0:0:
318,0,115344,1,0,0:0:0:0:
284,388,115531,1,0,0:0:0:0:
318,0,115719,1,0,0:0:0:0:
284,388,115906,1,0,0:0:0:0:
284,388,116000,1,0,0:0:0:0:
284,388,116281,1,0,0:0:0:0:
318,0,116562,1,0,0:0:0:0:
318,0,116656,1,0,0:0:0:0:
318,0,116750,1,0,0:0:0:0:
318,0,116843,1,0,0:0:0:0:
284,388,117031,1,0,0:0:0:0:
82,218,117219,5,0,0:0:0:0:
352,227,117406,2,0,P|278:256|206:264,1,120.000004577637
238,262,117781,1,0,0:0:0:0:
352,227,117969,2,0,P|278:256|206:264,1,120.000004577637
238,262,118250,2,0,P|297:250|352:226,1,120.000004577637
238,262,118531,1,0,0:0:0:0:
96,96,118719,5,0,0:0:0:0:
380,131,118906,2,0,P|232:157|188:195,1,120.000004577637
105,257,119281,1,0,0:0:0:0:
480,160,119469,1,0,0:0:0:0:
448,128,119562,1,0,0:0:0:0:
288,256,119750,1,0,0:0:0:0:
320,288,119844,1,0,0:0:0:0:
384,224,120031,2,0,P|268:133|192:128,1,120.000004577637
96,96,120219,5,0,0:0:0:0:
379,48,120406,2,0,P|223:76|187:112,1,120.000004577637
114,287,120781,1,0,0:0:0:0:
480,160,120969,1,0,0:0:0:0:
448,128,121062,1,0,0:0:0:0:
288,256,121250,1,0,0:0:0:0:
320,288,121344,1,0,0:0:0:0:
384,224,121531,2,0,P|263:129|192:128,1,120.000004577637
299,141,121719,1,0,0:0:0:0:
299,141,121906,2,0,P|349:175|384:224,1,120.000004577637
383,223,122094,1,0,0:0:0:0:
96,256,122281,1,0,0:0:0:0:
370,347,122469,2,0,L|231:245,1,120.000004577637
50,92,122750,2,0,P|182:7|200:-42,1,120.000004577637
411,95,123031,1,0,0:0:0:0:
221,59,123219,5,0,0:0:0:0:
36,232,123406,1,0,0:0:0:0:
70,283,123500,1,0,0:0:0:0:
250,201,123781,1,0,0:0:0:0:
428,339,123969,1,0,0:0:0:0:
472,298,124063,1,0,0:0:0:0:
36,232,124250,1,0,0:0:0:0:
87,202,124344,1,0,0:0:0:0:
40,48,124531,1,0,0:0:0:0:
390,82,124719,6,0,L|557:135,1,120.000004577637
253,261,125000,2,0,L|133:385,1,120.000004577637
127,253,125281,1,0,0:0:0:0:
406,324,125469,2,0,P|437:216|389:151,1,120.000004577637
355,63,125750,2,0,P|321:133|262:160,1,120.000004577637
81,141,126031,1,0,0:0:0:0:
196,55,126219,5,0,0:0:0:0:
189,210,126406,2,0,B|155:258|155:258|60:298,1,120.000004577637
41,259,126594,1,0,0:0:0:0:
31,199,126687,1,0,0:0:0:0:
40,140,126781,1,0,0:0:0:0:
66,86,126875,1,0,0:0:0:0:
107,43,126969,1,0,0:0:0:0:
159,13,127062,1,0,0:0:0:0:
217,0,127156,1,0,0:0:0:0:
277,6,127250,1,0,0:0:0:0:
332,28,127344,1,0,0:0:0:0:
378,66,127437,1,0,0:0:0:0:
410,117,127531,1,0,0:0:0:0:
427,174,127625,1,0,0:0:0:0:
425,234,127719,1,0,0:0:0:0:
406,290,127812,1,0,0:0:0:0:
299,268,127906,5,0,0:0:0:0:
248,298,127999,1,0,0:0:0:0:
188,299,128093,1,0,0:0:0:0:
136,270,128187,1,0,0:0:0:0:
106,220,128281,1,0,0:0:0:0:
105,160,128374,1,0,0:0:0:0:
134,108,128468,1,0,0:0:0:0:
184,78,128562,1,0,0:0:0:0:
244,77,128656,1,0,0:0:0:0:
296,106,128749,1,0,0:0:0:0:
326,156,128843,1,0,0:0:0:0:
15,16,129031,5,0,0:0:0:0:
486,350,129219,1,0,0:0:0:0:
101,163,129406,1,0,0:0:0:0:
119,118,129500,1,0,0:0:0:0:
330,55,129687,1,0,0:0:0:0:
285,37,129781,1,0,0:0:0:0:
411,221,129969,1,0,0:0:0:0:
393,266,130063,1,0,0:0:0:0:
182,329,130250,1,0,0:0:0:0:
227,347,130344,1,0,0:0:0:0:
320,336,130531,5,0,0:0:0:0:
254,10,130719,1,0,0:0:0:0:
136,327,130906,2,0,L|10:156,1,120.000004577637
377,57,131187,2,0,L|506:222,1,120.000004577637
121,72,131469,2,0,L|292:-54,1,120.000004577637
391,313,131750,2,0,L|226:442,1,120.000004577637
255,193,132031,1,0,0:0:0:0:
256,64,132219,5,0,0:0:0:0:
416,64,132406,1,0,0:0:0:0:
384,64,132500,1,0,0:0:0:0:
96,64,132687,1,0,0:0:0:0:
128,64,132781,1,0,0:0:0:0:
96,224,132969,2,0,B|128:160|128:160|241:161,1,120.000004577637
416,224,133250,2,0,B|384:160|384:160|266:161,1,120.000004577637
255,160,133531,1,0,0:0:0:0:
255,160,133719,1,0,0:0:0:0:
416,320,133906,5,0,0:0:0:0:
384,288,133999,1,0,0:0:0:0:
96,64,134187,1,0,0:0:0:0:
128,96,134280,1,0,0:0:0:0:
330,146,134469,2,0,P|420:97|467:20,1,120.000004577637
181,238,134750,2,0,P|91:287|42:361,1,120.000004577637
256,192,135031,1,0,0:0:0:0:
256,320,135219,5,0,0:0:0:0:
480,352,135406,1,0,0:0:0:0:
480,288,135500,1,0,0:0:0:0:
32,32,135687,1,0,0:0:0:0:
32,96,135781,1,0,0:0:0:0:
475,31,135969,2,0,L|474:233,1,120.000004577637
37,353,136250,2,0,L|38:147,1,120.000004577637
256,192,136531,1,0,0:0:0:0:
256,64,136719,1,0,0:0:0:0:
32,160,136906,5,0,0:0:0:0:
64,224,137000,1,0,0:0:0:0:
96,288,137094,2,0,L|287:288,1,120.000004577637
224,288,137281,1,0,0:0:0:0:
448,320,137469,2,0,L|228:320,1,120.000004577637
480,256,137750,1,0,0:0:0:0:
512,192,137844,1,0,0:0:0:0:
320,320,138031,1,0,0:0:0:0:
256,192,138219,5,0,0:0:0:0:
459,136,138406,2,0,P|368:72|280:55,1,120.000004577637
256,192,138687,1,0,0:0:0:0:
256,192,138781,1,0,0:0:0:0:
53,248,138968,2,0,P|144:312|234:334,1,120.000004577637
50,43,139250,5,0,0:0:0:0:
50,43,139344,1,0,0:0:0:0:
26,160,139531,1,0,0:0:0:0:
97,170,139625,2,0,P|300:130|323:117,1,120.000004577637
216,161,139906,2,0,P|244:321|273:376,1,120.000004577637
212,91,140094,1,0,0:0:0:0:
321,302,140281,1,0,0:0:0:0:
436,229,140376,2,0,P|243:266|229:277,1,120.000004577637
158,288,140562,1,0,0:0:0:0:
318,231,140750,2,0,P|291:74|259:9,1,120.000004577637
96,160,141031,5,0,0:0:0:0:
256,256,141125,1,0,0:0:0:0:
416,160,141219,1,0,0:0:0:0:
64,160,141406,5,0,0:0:0:0:
448,160,141500,1,0,0:0:0:0:
32,160,141687,5,0,0:0:0:0:
480,160,141781,1,0,0:0:0:0:
256,160,141969,5,0,0:0:0:0:
352,224,142156,5,0,0:0:0:0:
358,21,142250,1,0,0:0:0:0:
308,198,142344,1,0,0:0:0:0:
128,288,142531,5,0,0:0:0:0:
122,85,142625,1,0,0:0:0:0:
172,262,142719,1,0,0:0:0:0:
294,332,142906,6,0,B|370:296|370:296|415:211,1,120.000004577637
218,52,143187,1,0,0:0:0:0:
218,52,143233,1,0,0:0:0:0:
218,52,143280,1,0,0:0:0:0:
438,40,143469,2,0,B|413:114|413:114|438:211,1,120.000004577637
79,191,143750,1,0,0:0:0:0:
79,191,143796,1,0,0:0:0:0:
79,191,143843,1,0,0:0:0:0:
374,283,144031,5,0,0:0:0:0:
468,220,144219,2,0,P|326:211|243:249,1,120.000004577637
272,211,144406,1,0,0:0:0:0:
224,212,144500,2,0,P|151:183|173:241,1,120.000004577637
19,144,144781,2,0,P|145:53|170:23,1,120.000004577637
193,52,144969,1,0,0:0:0:0:
286,61,145062,1,0,0:0:0:0:
464,214,145250,1,0,0:0:0:0:
371,205,145343,1,0,0:0:0:0:
106,355,145531,6,0,L|278:270,1,120.000004577637,0|0,2:0|2:0,2:0:0:0:
371,205,145719,1,0,0:0:0:0:
40,236,145906,2,0,L|121:83,1,120.000004577637
286,61,146094,1,0,0:0:0:0:
407,260,146281,1,0,0:0:0:0:
123,317,146469,2,0,B|108:225|108:225|32:166,1,120.000004577637
353,98,146750,2,0,B|445:83|445:83|530:-25,1,120.000004577637
344,326,147031,1,0,0:0:0:0:
96,32,147219,5,0,0:0:0:0:
192,64,147406,1,0,0:0:0:0:
224,64,147500,1,0,0:0:0:0:
256,64,147594,1,0,0:0:0:0:
96,128,147781,5,0,0:0:0:0:
192,160,147968,1,0,0:0:0:0:
224,128,148062,1,0,0:0:0:0:
256,160,148156,1,0,0:0:0:0:
288,128,148250,1,0,0:0:0:0:
320,160,148344,1,0,0:0:0:0:
352,128,148437,1,0,0:0:0:0:
384,160,148531,1,0,0:0:0:0:
416,128,148625,1,0,0:0:0:0:
448,160,148719,5,0,0:0:0:0:
448,256,148906,1,0,0:0:0:0:
416,256,149000,1,0,0:0:0:0:
384,256,149094,1,0,0:0:0:0:
288,320,149281,5,0,0:0:0:0:
288,316,149374,1,0,0:0:0:0:
288,312,149468,1,0,0:0:0:0:
288,308,149562,1,0,0:0:0:0:
288,304,149656,1,0,0:0:0:0:
288,300,149749,1,0,0:0:0:0:
288,296,149843,1,0,0:0:0:0:
288,292,149937,1,0,0:0:0:0:
288,288,150031,1,0,0:0:0:0:
288,284,150124,1,0,0:0:0:0:
288,280,150218,1,0,0:0:0:0:
192,256,150406,5,0,0:0:0:0:
160,256,150500,1,0,0:0:0:0:
128,256,150594,1,0,0:0:0:0:
96,256,150687,1,0,0:0:0:0:
32,96,150875,1,0,0:0:0:0:
64,128,150969,1,0,0:0:0:0:
96,160,151062,1,0,0:0:0:0:
96,32,151250,1,0,0:0:0:0:
128,64,151344,1,0,0:0:0:0:
224,32,151531,1,0,0:0:0:0:
256,64,151625,1,0,0:0:0:0:
288,96,151718,1,0,0:0:0:0:
320,128,151812,1,0,0:0:0:0:
224,160,152000,1,0,0:0:0:0:
256,192,152094,1,0,0:0:0:0:
512,64,152281,5,0,0:0:0:0:
480,96,152375,1,0,0:0:0:0:
448,128,152469,1,0,0:0:0:0:
416,160,152562,1,0,0:0:0:0:
384,256,152656,1,0,0:0:0:0:
352,224,152750,1,0,0:0:0:0:
320,192,152844,1,0,0:0:0:0:
288,224,152937,1,0,0:0:0:0:
256,192,153031,1,0,0:0:0:0:
224,224,153125,1,0,0:0:0:0:
192,256,153219,1,0,0:0:0:0:
256,192,153406,12,0,158469,0:0:0:0:
96,64,159219,5,0,0:0:0:0:
104,64,159312,1,0,0:0:0:0:
112,64,159406,1,0,0:0:0:0:
120,64,159500,1,0,0:0:0:0:
128,64,159594,1,0,0:0:0:0:
136,64,159687,1,0,0:0:0:0:
144,64,159781,1,0,0:0:0:0:
152,64,159875,1,0,0:0:0:0:
160,64,159969,1,0,0:0:0:0:
168,64,160062,1,0,0:0:0:0:
176,64,160156,1,0,0:0:0:0:
184,64,160250,1,0,0:0:0:0:
192,64,160344,1,0,0:0:0:0:
200,64,160437,1,0,0:0:0:0:
208,64,160531,1,0,0:0:0:0:
216,64,160625,1,0,0:0:0:0:
288,128,160719,5,0,0:0:0:0:
272,128,160812,1,0,0:0:0:0:
256,128,160906,1,0,0:0:0:0:
240,128,161000,1,0,0:0:0:0:
224,128,161094,1,0,0:0:0:0:
208,128,161187,1,0,0:0:0:0:
192,128,161281,1,0,0:0:0:0:
176,128,161375,1,0,0:0:0:0:
160,128,161469,1,0,0:0:0:0:
144,128,161562,1,0,0:0:0:0:
128,128,161656,1,0,0:0:0:0:
112,128,161750,1,0,0:0:0:0:
96,128,161844,1,0,0:0:0:0:
80,128,161937,1,0,0:0:0:0:
64,128,162031,1,0,0:0:0:0:
48,128,162125,1,0,0:0:0:0:
32,192,162219,5,0,0:0:0:0:
51,191,162312,1,0,0:0:0:0:
71,191,162406,1,0,0:0:0:0:
91,191,162500,1,0,0:0:0:0:
111,191,162594,1,0,0:0:0:0:
131,191,162687,1,0,0:0:0:0:
151,191,162781,1,0,0:0:0:0:
171,191,162875,1,0,0:0:0:0:
191,191,162969,1,0,0:0:0:0:
211,191,163062,1,0,0:0:0:0:
231,191,163156,1,0,0:0:0:0:
251,191,163250,1,0,0:0:0:0:
320,192,163344,5,0,0:0:0:0:
340,192,163437,1,0,0:0:0:0:
416,192,163531,1,0,0:0:0:0:
436,192,163625,1,0,0:0:0:0:
448,256,163719,5,0,0:0:0:0:
424,256,163812,1,0,0:0:0:0:
400,256,163906,1,0,0:0:0:0:
376,256,164000,1,0,0:0:0:0:
352,256,164094,1,0,0:0:0:0:
328,256,164187,1,0,0:0:0:0:
304,256,164281,1,0,0:0:0:0:
280,256,164375,1,0,0:0:0:0:
256,256,164469,1,0,0:0:0:0:
232,256,164562,1,0,0:0:0:0:
208,256,164656,1,0,0:0:0:0:
165,326,164750,1,0,0:0:0:0:
154,320,164796,1,0,0:0:0:0:
144,313,164843,1,0,0:0:0:0:
135,305,164890,1,0,0:0:0:0:
127,296,164937,1,0,0:0:0:0:
119,287,164984,1,0,0:0:0:0:
112,277,165031,1,0,0:0:0:0:
107,267,165078,1,0,0:0:0:0:
102,256,165125,1,0,0:0:0:0:
118,329,165219,5,0,0:0:0:0:
95,322,165312,1,0,0:0:0:0:
74,310,165406,1,0,0:0:0:0:
56,294,165500,1,0,0:0:0:0:
42,274,165594,1,0,0:0:0:0:
34,252,165687,1,0,0:0:0:0:
30,228,165781,1,0,0:0:0:0:
32,204,165875,1,0,0:0:0:0:
39,181,165969,1,0,0:0:0:0:
51,161,166062,1,0,0:0:0:0:
67,143,166156,1,0,0:0:0:0:
87,130,166250,1,0,0:0:0:0:
110,121,166344,1,0,0:0:0:0:
133,118,166437,1,0,0:0:0:0:
157,120,166531,1,0,0:0:0:0:
180,127,166625,1,0,0:0:0:0:
76,172,166719,5,0,0:0:0:0:
97,183,166812,1,0,0:0:0:0:
119,192,166906,1,0,0:0:0:0:
142,200,167000,1,0,0:0:0:0:
165,205,167094,1,0,0:0:0:0:
189,209,167187,1,0,0:0:0:0:
212,211,167281,1,0,0:0:0:0:
236,210,167375,1,0,0:0:0:0:
260,208,167469,1,0,0:0:0:0:
284,204,167562,1,0,0:0:0:0:
307,197,167656,1,0,0:0:0:0:
330,189,167750,1,0,0:0:0:0:
351,179,167844,1,0,0:0:0:0:
372,167,167937,1,0,0:0:0:0:
392,154,168031,1,0,0:0:0:0:
411,139,168125,1,0,0:0:0:0:
365,74,168219,5,0,0:0:0:0:
344,86,168312,1,0,0:0:0:0:
325,100,168406,1,0,0:0:0:0:
308,117,168500,1,0,0:0:0:0:
293,136,168594,1,0,0:0:0:0:
280,156,168687,1,0,0:0:0:0:
270,178,168781,1,0,0:0:0:0:
262,201,168875,1,0,0:0:0:0:
355,202,168969,5,0,0:0:0:0:
332,192,169062,1,0,0:0:0:0:
310,183,169156,1,0,0:0:0:0:
287,176,169250,1,0,0:0:0:0:
264,169,169344,1,0,0:0:0:0:
241,163,169437,1,0,0:0:0:0:
154,163,169531,5,0,0:0:0:0:
160,139,169624,1,0,0:0:0:0:
85,182,169719,1,0,0:0:0:0:
73,160,169812,1,0,0:0:0:0:
52,250,169906,1,0,0:0:0:0:
31,236,169999,1,0,0:0:0:0:
56,323,170094,5,0,0:0:0:0:
78,314,170187,1,0,0:0:0:0:
101,307,170281,1,0,0:0:0:0:
125,303,170375,1,0,0:0:0:0:
180,355,170469,5,0,0:0:0:0:
203,351,170562,1,0,0:0:0:0:
227,345,170656,1,0,0:0:0:0:
249,338,170750,1,0,0:0:0:0:
273,264,170844,5,0,0:0:0:0:
296,258,170937,1,0,0:0:0:0:
320,254,171031,1,0,0:0:0:0:
343,251,171125,1,0,0:0:0:0:
367,248,171219,1,0,0:0:0:0:
