osu file format v14

[General]
AudioFilename: audio.mp3
AudioLeadIn: 0
PreviewTime: 26667
Countdown: 0
SampleSet: Soft
StackLeniency: 0.7
Mode: 0
LetterboxInBreaks: 0
WidescreenStoryboard: 0

[Editor]
DistanceSpacing: 1.3
BeatDivisor: 4
GridSize: 16
TimelineZoom: 2.2

[Metadata]
Title:Midorigo Queen Bee
TitleUnicode:嬰児クインビー
Artist:-45
ArtistUnicode:-45
Creator:PandaHero
Version:Hard
Source:うみねこのなく頃に散
Tags:Mirash EijiKuinbii 07th Expansion Umineko no Naku Koro ni Chiru when they cry ep6 visual novel infant quimby quinby D'va Dva yoshikawa45
BeatmapID:1728024
BeatmapSetID:812792

[Difficulty]
HPDrainRate:5
CircleSize:4
OverallDifficulty:6
ApproachRate:7.5
SliderMultiplier:1.4
SliderTickRate:1

[Events]
//Background and Video events
0,0,"34535.jpg",0,0
//Break Periods
2,26964,38489
2,127357,138137
//Storyboard Layer 0 (Background)
//Storyboard Layer 1 (Fail)
//Storyboard Layer 2 (Pass)
//Storyboard Layer 3 (Foreground)
//Storyboard Sound Samples
Sample,227549,0,"soft-hitwhistle2.mp3",45

[TimingPoints]
1667,392.156862745098,4,2,0,45,1,0
1667,-200,4,2,0,45,0,0
14216,-142.857142857143,4,2,0,70,0,0
23627,-100,4,2,0,70,0,0
39314,-100,4,2,0,85,0,0
51863,-100,4,1,0,85,0,0
76961,-100,4,1,0,85,0,0
102059,-83.3333333333333,4,2,0,95,0,0
139706,-142.857142857143,4,2,1,70,0,0
139902,-142.857142857143,4,3,1,100,0,0
140000,-142.857142857143,4,2,1,70,0,0
141470,-142.857142857143,4,3,1,100,0,0
141568,-142.857142857143,4,2,1,70,0,0
142843,-142.857142857143,4,2,1,70,0,0
145980,-142.857142857143,4,2,0,75,0,0
148333,-142.857142857143,4,2,0,80,0,0
149117,-142.857142857143,4,2,0,85,0,0
150686,-142.857142857143,4,2,0,90,0,0
152255,-100,4,1,0,85,0,0
202451,-83.3333333333333,4,2,0,95,0,0
227549,-100,4,2,0,45,0,0

[Colours]
Combo1 : 17,254,176
Combo2 : 173,255,95
Combo3 : 255,88,100
Combo4 : 255,94,55

[HitObjects]
17,332,14216,6,0,P|59:315|123:324,1,97.9999970092774,4|2,1:2|1:3,0:0:0:0:
194,338,14804,1,0,0:0:0:0:
194,338,14902,1,0,0:0:0:0:
194,338,15000,2,0,P|198:280|199:237,1,97.9999970092774,0|2,1:0|1:3,0:0:0:0:
263,200,15588,1,0,0:0:0:0:
272,124,15784,6,0,P|251:89|188:84,1,97.9999970092774,0|2,1:0|1:3,0:0:0:0:
124,102,16372,1,0,0:0:0:0:
124,102,16470,1,0,0:0:0:0:
124,102,16568,1,0,1:0:0:0:
87,171,16765,1,0,0:0:0:0:
17,142,16961,2,2,L|21:70,1,48.9999985046387,2|0,1:3|0:0,0:0:0:0:
87,171,17353,6,0,L|84:286,1,97.9999970092774,4|2,1:2|1:3,0:0:0:0:
163,295,17941,1,0,0:0:0:0:
163,295,18039,1,0,0:0:0:0:
163,295,18137,1,0,1:0:0:0:
233,255,18333,1,0,0:0:0:0:
304,287,18529,2,0,L|298:357,1,48.9999985046387,2|0,1:3|0:0,0:0:0:0:
409,280,18921,6,0,L|412:165,1,97.9999970092774,0|2,1:0|1:3,0:0:0:0:
357,129,19509,1,0,0:0:0:0:
357,129,19607,1,0,0:0:0:0:
357,129,19705,1,0,1:0:0:0:
287,169,19901,1,0,0:0:0:0:
216,137,20097,2,2,L|222:67,1,48.9999985046387,2|0,1:3|0:0,0:0:0:0:
105,58,20490,6,0,P|110:95|102:173,1,97.9999970092774,4|2,1:2|1:3,0:0:0:0:
31,159,21078,1,0,0:0:0:0:
31,159,21176,1,0,0:0:0:0:
31,159,21274,2,0,L|39:217,1,48.9999985046387,0|0,1:0|0:0,0:0:0:0:
107,237,21667,2,2,L|103:304,1,48.9999985046387,2|0,1:3|0:0,0:0:0:0:
205,353,22059,6,0,P|255:340|309:340,1,97.9999970092774,4|2,1:2|1:3,0:0:0:0:
331,272,22647,1,0,0:0:0:0:
331,272,22745,1,0,0:0:0:0:
331,272,22843,2,0,P|301:263|267:256,1,48.9999985046387,0|0,1:0|0:0,0:0:0:0:
233,201,23235,2,2,P|289:171|320:166,1,73.4999977569581,2|0,1:3|0:0,0:0:0:0:
332,171,23627,6,0,L|412:178,1,70,4|0,1:0|3:0,0:0:0:0:
430,93,24019,2,0,L|505:99,1,70,4|0,1:2|3:0,0:0:0:0:
377,24,24412,2,0,L|301:19,1,70,4|0,1:0|3:0,0:0:0:0:
263,99,24804,2,0,L|183:97,1,70,4|0,1:2|3:0,0:0:0:0:
75,55,25196,6,0,P|40:88|84:177,1,140,4|4,1:0|1:2,3:3:0:0:
150,213,25784,1,0,3:0:0:0:
76,266,25980,2,0,L|47:279,12,23.3333333333333,4|0|0|0|0|0|4|0|0|0|0|0|4,1:0|3:0|3:0|3:0|3:0|0:0|1:2|3:0|3:0|3:0|3:0|3:0|1:0,3:3:0:0:
50,317,39314,6,0,P|116:297|206:304,1,140,4|2,1:2|1:3,0:0:0:0:
272,329,39902,1,0,1:0:0:0:
272,329,40000,1,2,1:3:0:0:
272,329,40098,2,0,P|273:266|272:233,1,70,4|0,1:2|0:0,0:0:0:0:
354,237,40490,2,0,L|345:151,1,70,0|2,1:0|0:0,0:0:0:0:
281,113,40882,2,0,P|200:123|162:111,2,105,4|2|2,1:2|1:2|0:0,0:0:0:0:
359,81,41667,2,0,P|421:28|459:17,2,105,4|2|2,1:2|1:2|0:0,0:0:0:0:
334,204,42451,6,0,P|387:206|439:228,1,105,4|0,1:2|1:0,0:0:0:0:
453,234,42843,1,2,1:3:0:0:
460,317,43039,1,2,0:0:0:0:
378,338,43235,2,0,P|313:317|234:351,1,140,4|2,1:2|1:3,0:0:0:0:
165,353,43823,1,2,0:0:0:0:
111,239,44019,6,0,L|113:124,1,105,4|0,1:2|2:0,0:0:0:0:
132,126,44412,2,0,L|131:44,1,70,2|2,1:3|0:0,0:0:0:0:
32,29,44804,2,0,L|29:135,1,105,4|0,1:2|2:0,0:0:0:0:
19,152,45196,1,2,1:3:0:0:
82,230,45392,1,2,0:0:0:0:
174,193,45588,6,0,P|226:171|301:176,2,105,4|0|2,1:2|1:0|0:0,0:0:0:0:
81,230,46372,2,0,L|80:344,1,105,4|0,1:2|0:0,0:0:0:0:
76,355,46765,2,0,P|21:337|-3:337,1,70,2|2,1:3|1:2,0:0:0:0:
161,344,47157,6,0,P|213:366|288:361,2,105,4|0|2,1:2|1:0|1:2,0:0:0:0:
130,265,47941,1,4,1:2:0:0:
219,240,48137,1,0,0:0:0:0:
219,240,48235,1,0,1:0:0:0:
219,240,48333,2,0,L|294:255,1,70,2|2,1:3|0:0,0:0:0:0:
414,279,48725,6,0,L|419:145,1,105,4|2,1:2|2:0,0:0:0:0:
425,154,49117,1,2,1:3:0:0:
494,105,49314,1,2,0:0:0:0:
416,73,49510,1,4,1:2:0:0:
296,170,49902,1,2,1:3:0:0:
222,128,50098,1,2,0:0:0:0:
289,78,50294,1,4,1:2:0:0:
417,224,50686,1,2,1:3:0:0:
491,182,50882,1,2,0:0:0:0:
424,132,51078,1,4,1:2:0:0:
270,252,51470,6,2,L|274:369,1,105,2|0,1:3|2:0,0:0:0:0:
231,349,51863,6,0,L|143:338,1,70,4|0,0:0|2:0,0:0:0:0:
87,266,52255,2,0,L|-5:280,1,70,8|0,0:2|0:0,0:0:0:0:
135,178,52647,2,0,L|256:182,1,105,0|8,0:0|2:2,0:0:0:0:
279,194,53039,1,8,0:2:0:0:
317,96,53235,1,2,1:2:0:0:
224,46,53431,6,0,P|154:68|77:42,1,140,4|8,1:2|0:2,0:0:0:0:
91,51,54019,1,0,0:0:0:0:
13,123,54216,2,0,L|28:264,1,140,4|8,0:2|0:2,0:0:0:0:
223,338,55000,6,0,L|216:249,1,70,4|2,0:0|0:2,0:0:0:0:
313,226,55392,2,0,L|316:314,1,70,8|0,0:2|0:0,0:0:0:0:
409,341,55784,2,0,L|421:227,1,105,0|8,0:0|2:0,0:0:0:0:
457,217,56176,1,8,1:2:0:0:
405,125,56372,1,4,2:0:0:0:
283,122,56568,6,0,P|231:135|201:136,1,70,4|2,0:0|0:2,0:0:0:0:
149,219,56961,2,0,P|97:206|67:205,1,70,8|0,0:2|0:0,0:0:0:0:
19,289,57353,1,0,0:0:0:0:
19,289,57745,1,8,0:2:0:0:
112,335,57941,1,8,0:2:0:0:
206,237,58137,6,0,L|207:79,1,140,4|8,0:0|0:2,0:0:0:0:
206,97,58725,1,2,1:2:0:0:
302,53,58921,2,0,L|302:123,1,70,4|2,0:2|2:0,0:0:0:0:
402,140,59314,2,0,P|385:191|375:258,1,105,8|8,0:2|2:0,0:0:0:0:
350,274,59706,5,4,0:0:0:0:
246,254,59902,1,2,0:2:0:0:
184,339,60098,1,8,0:2:0:0:
286,360,60294,1,0,0:0:0:0:
350,274,60490,2,0,L|343:187,1,70,0|2,0:0|2:0,0:0:0:0:
256,146,60882,2,0,P|265:94|281:44,1,105,8|8,0:2|2:0,0:0:0:0:
239,42,61274,6,0,L|154:46,1,70,4|2,0:0|0:2,0:0:0:0:
130,142,61666,2,0,B|90:127|90:127|12:135,1,105,8|8,0:2|2:0,0:0:0:0:
19,174,62059,2,0,L|27:256,1,70,4|2,0:2|0:2,0:0:0:0:
107,309,62451,2,0,L|121:236,1,70,8|4,0:2|0:2,0:0:0:0:
252,202,62843,6,0,B|301:200|301:200|328:226|328:226|399:225,3,140,4|8|4|8,0:0|0:2|0:2|0:2,0:0:0:0:
502,53,64412,6,0,P|438:46|399:55,1,105,4|8,0:0|2:0,0:0:0:0:
375,89,64804,2,0,L|296:86,1,70,8|0,0:2|0:0,0:0:0:0:
203,79,65196,2,0,L|217:237,1,140,0|8,0:0|0:2,0:0:0:0:
215,218,65784,1,2,0:2:0:0:
103,282,65980,6,0,L|110:200,1,70,4|2,0:2|2:0,0:0:0:0:
20,162,66372,2,0,L|16:249,2,70,8|0|0,0:2|0:0|0:0,0:0:0:0:
88,84,66961,1,2,0:2:0:0:
88,84,67157,2,0,P|174:128|213:133,1,105,8|8,0:2|2:0,0:0:0:0:
213,103,67549,6,0,L|301:103,1,70,4|2,0:0|0:2,0:0:0:0:
384,132,67941,1,8,0:2:0:0:
358,231,68137,1,0,0:0:0:0:
261,203,68333,2,0,L|179:199,1,70,0|2,0:0|0:2,0:0:0:0:
123,281,68725,2,0,L|215:289,1,70,8|2,0:2|2:0,0:0:0:0:
37,344,69117,6,0,L|37:213,1,105,4|8,0:2|2:0,0:0:0:0:
69,211,69510,2,0,L|70:120,1,70,8|2,0:2|0:2,0:0:0:0:
171,159,69902,1,4,0:2:0:0:
173,260,70098,1,0,0:0:0:0:
182,361,70294,1,8,0:2:0:0:
182,361,70686,6,0,L|265:350,1,70,4|2,0:0|2:0,0:0:0:0:
346,328,71078,1,8,0:2:0:0:
282,265,71274,1,8,2:0:0:0:
371,210,71470,2,0,P|316:200|283:129,1,140,0|8,0:0|0:2,0:0:0:0:
283,128,72059,1,2,2:0:0:0:
157,98,72255,6,0,L|170:218,1,105,4|8,0:0|2:0,0:0:0:0:
153,241,72647,2,0,L|74:231,1,70,8|8,0:2|2:0,0:0:0:0:
21,309,73039,1,0,0:0:0:0:
21,309,73431,1,8,0:2:0:0:
110,351,73627,1,4,0:2:0:0:
214,278,73823,6,0,L|212:180,1,70,4|0,0:0|0:0,0:0:0:0:
212,208,74117,1,8,2:0:0:0:
212,208,74216,1,8,0:2:0:0:
324,229,74412,1,2,0:2:0:0:
419,178,74608,2,0,L|421:80,1,70,4|0,0:2|0:0,0:0:0:0:
420,108,74902,1,8,2:0:0:0:
420,108,75001,1,8,0:2:0:0:
334,62,75196,1,4,0:2:0:0:
219,110,75392,6,0,L|220:184,1,70,4|0,0:0|0:0,0:0:0:0:
137,248,75784,1,8,0:2:0:0:
50,184,75980,1,2,0:2:0:0:
143,144,76176,1,4,0:2:0:0:
137,248,76372,1,0,0:0:0:0:
136,353,76568,2,2,P|197:330|248:331,1,105,8|0,0:2|2:0,0:2:0:0:
279,345,76961,6,0,P|331:341|379:321,2,105,6|8|2,0:0|2:0|0:0,0:0:0:0:
252,257,77745,2,0,L|278:109,1,140,2|10,0:0|0:0,0:0:0:0:
350,66,78333,1,2,2:1:0:0:
470,111,78529,6,0,P|493:172|492:223,2,105,6|8|2,0:0|2:0|0:0,0:0:0:0:
388,151,79314,2,0,L|389:273,1,105,6|8,0:0|2:0,0:0:0:0:
368,292,79706,1,10,0:0:0:0:
281,262,79902,1,2,0:0:0:0:
154,294,80098,6,0,P|131:233|132:182,2,105,6|8|2,0:0|2:0|0:0,0:0:0:0:
230,365,80882,2,0,P|307:343|376:353,1,140,2|10,0:0|0:0,0:0:0:0:
456,349,81470,1,2,0:0:0:0:
441,208,81666,2,0,P|392:221|316:220,1,105,6|8,0:0|2:0,0:0:0:0:
296,242,82059,2,0,L|311:149,1,70,8|2,0:2|2:1,0:0:0:0:
194,84,82451,2,0,P|218:145|188:200,1,105,6|8,0:0|2:0,0:0:0:0:
174,211,82843,1,10,0:0:0:0:
89,177,83039,1,2,2:1:0:0:
90,315,83235,6,0,P|168:309|212:323,2,105,6|8|2,0:0|2:0|0:0,0:0:0:0:
46,237,84019,2,0,P|68:195|70:128,2,105,6|8|2,0:0|2:0|0:0,0:0:0:0:
144,232,84804,1,6,0:0:0:0:
144,232,85196,2,0,P|195:224|221:225,1,70,0|2,0:0|0:0,0:0:0:0:
314,265,85588,2,0,P|276:296|278:375,2,105,6|8|2,0:0|2:0|0:0,0:0:0:0:
451,279,86372,6,0,L|453:153,1,105,6|8,0:0|2:0,0:0:0:0:
413,150,86765,1,0,0:0:0:0:
478,86,86961,1,2,0:0:0:0:
338,95,87157,2,0,P|299:88|222:49,2,105,6|8|2,0:0|2:2|0:0,0:0:0:0:
296,175,87941,2,0,P|257:182|180:221,2,105,6|8|2,0:0|2:2|2:1,0:0:0:0:
381,206,88725,2,0,L|376:340,1,105,6|8,0:0|2:0,0:0:0:0:
362,354,89117,1,2,0:3:0:0:
273,330,89314,1,2,0:3:0:0:
187,361,89510,6,0,P|180:312|203:241,2,105,6|8|2,0:0|2:0|2:1,0:0:0:0:
277,363,90294,2,0,P|336:352|391:355,1,105,2|8,0:0|2:0,0:0:0:0:
394,313,90686,2,0,L|477:319,1,70,10|2,0:0|0:0,0:0:0:0:
486,229,91078,6,0,P|470:164|433:113,2,105,6|8|2,0:0|2:0|0:0,0:0:0:0:
394,237,91863,2,0,L|313:231,1,70,6|0,0:0|0:0,0:0:0:0:
324,231,92157,1,8,2:0:0:0:
324,231,92255,1,0,0:0:0:0:
237,258,92451,1,2,0:0:0:0:
201,174,92647,6,0,P|198:92|155:49,1,140,6|8,0:0|0:2,0:0:0:0:
72,73,93235,1,2,0:0:0:0:
49,161,93431,2,0,L|63:256,1,70,2|0,0:0|2:0,0:0:0:0:
98,245,93725,1,8,2:0:0:0:
98,245,93823,2,0,L|87:332,1,70,0|2,0:0|0:0,0:0:0:0:
197,371,94216,6,0,P|227:315|220:260,1,105,6|8,0:0|2:0,0:0:0:0:
236,234,94608,2,0,L|314:259,1,70,0|2,0:0|0:0,0:0:0:0:
355,178,95000,2,0,P|325:122|332:67,1,105,2|8,0:0|2:0,0:0:0:0:
346,41,95392,1,0,0:0:0:0:
431,71,95588,1,2,0:0:0:0:
477,182,95784,6,0,P|480:255|460:335,1,140,6|8,0:0|0:2,0:0:0:0:
374,321,96372,1,2,0:0:0:0:
301,265,96568,2,0,P|260:254|202:256,1,70,6|0,0:0|2:0,0:0:0:0:
193,269,96863,1,8,0:2:0:0:
193,269,96961,2,0,P|188:310|174:341,1,70,10|2,0:0|0:0,0:0:0:0:
49,335,97353,5,6,0:0:0:0:
49,335,97745,2,0,L|49:258,1,70,8|2,0:2|0:0,0:0:0:0:
70,176,98137,2,0,P|80:96|65:58,2,105,6|8|4,0:0|2:0|0:2,0:0:0:0:
154,211,98921,6,0,P|232:195|261:197,1,105,6|8,0:0|2:0,0:0:0:0:
290,228,99314,2,0,L|377:233,1,70,8|2,0:2|0:0,0:0:0:0:
487,275,99706,2,0,B|503:209|477:129,1,140,6|10,0:0|0:0,0:0:0:0:
396,98,100294,1,2,0:0:0:0:
280,140,100490,6,0,P|230:143|175:114,1,105,6|8,0:0|2:0,0:0:0:0:
176,78,100882,1,0,0:0:0:0:
92,150,101078,1,2,0:0:0:0:
158,250,101274,2,0,P|208:253|263:224,1,105,6|8,0:0|2:0,0:0:0:0:
296,216,101666,2,0,L|290:296,1,70,0|2,0:0|0:0,0:0:0:0:
185,366,102059,6,0,P|154:346|98:334,1,83.9999974365235,4|0,1:0|0:0,0:0:0:0:
8,345,102451,2,0,L|14:244,1,83.9999974365235,8|2,1:2|0:3,0:0:0:0:
106,204,102843,2,0,L|107:118,1,83.9999974365235,0|2,1:0|0:0,0:0:0:0:
64,19,103235,1,8,1:2:0:0:
164,60,103431,1,2,1:3:0:0:
268,27,103627,5,4,1:2:0:0:
268,27,103725,1,2,0:0:0:0:
268,27,103823,1,2,0:0:0:0:
235,131,104019,2,0,L|238:238,1,83.9999974365235,12|2,1:2|0:0,0:0:0:0:
344,189,104412,2,0,L|333:304,1,83.9999974365235,4|2,1:2|0:0,0:0:0:0:
443,290,104804,1,8,1:2:0:0:
492,192,105000,1,2,1:3:0:0:
492,192,105098,1,0,0:0:0:0:
492,192,105196,6,0,P|497:120|456:47,1,125.999996154785,4|0,1:0|0:0,0:0:0:0:
445,59,105588,2,0,L|353:82,1,83.9999974365235,8|2,1:2|0:0,0:0:0:0:
258,109,105980,1,0,1:0:0:0:
151,83,106176,1,2,0:0:0:0:
185,186,106372,1,8,1:2:0:0:
258,109,106568,1,2,0:3:0:0:
151,83,106765,6,0,P|105:128|27:149,1,125.999996154785,4|2,1:2|0:0,0:0:0:0:
22,144,107157,1,8,1:2:0:0:
76,248,107353,1,2,1:3:0:0:
189,218,107549,2,0,P|257:213|297:215,1,83.9999974365235,4|2,1:2|0:0,0:0:0:0:
344,306,107941,2,0,P|303:307|261:311,1,83.9999974365235,8|2,1:2|1:3,0:0:0:0:
454,264,108333,6,0,P|452:197|370:144,1,167.999994873047,4|8,1:0|1:2,0:0:0:0:
277,161,108921,1,2,0:3:0:0:
277,161,109019,1,2,0:0:0:0:
277,161,109117,2,0,L|277:262,1,83.9999974365235,0|2,1:0|0:0,0:0:0:0:
167,234,109510,1,8,1:2:0:0:
114,138,109706,1,2,0:3:0:0:
199,70,109902,5,4,1:2:0:0:
105,43,110098,1,2,0:0:0:0:
105,43,110196,1,0,0:0:0:0:
105,43,110294,2,0,P|60:58|14:60,1,83.9999974365235,8|2,1:2|0:3,0:0:0:0:
114,138,110686,2,0,P|160:145|202:165,1,83.9999974365235,4|2,1:2|0:0,0:0:0:0:
286,217,111078,1,8,1:2:0:0:
248,319,111274,1,2,0:3:0:0:
153,263,111470,6,0,L|103:268,2,41.9999987182618,4|2|2,1:0|0:3|0:0,0:0:0:0:
248,319,111863,2,0,L|303:311,2,41.9999987182618,8|2|2,1:2|0:0|0:3,0:0:0:0:
149,365,112255,1,0,1:0:0:0:
52,314,112451,1,2,0:0:0:0:
52,314,112549,1,2,0:3:0:0:
52,314,112647,2,0,P|54:264|61:211,1,83.9999974365235,8|2,1:2|0:3,0:0:0:0:
86,104,113039,6,0,P|159:129|229:124,1,125.999996154785,4|2,1:2|0:0,0:0:0:0:
231,105,113431,1,12,1:2:0:0:
322,163,113627,1,2,0:3:0:0:
272,260,113823,1,4,1:2:0:0:
175,209,114019,1,0,0:0:0:0:
272,260,114216,2,0,L|248:364,1,83.9999974365235,8|2,1:2|0:3,0:0:0:0:
390,372,114608,6,0,P|396:307|383:185,1,167.999994873047,4|8,1:0|1:2,0:0:0:0:
387,204,115196,1,2,0:3:0:0:
324,115,115392,2,0,P|287:125|237:123,1,83.9999974365235,0|0,1:0|0:0,0:0:0:0:
312,37,115784,2,0,P|349:27|399:29,1,83.9999974365235,8|2,1:2|1:3,0:0:0:0:
480,94,116176,5,4,1:2:0:0:
479,203,116372,1,2,0:0:0:0:
479,203,116470,1,0,0:0:0:0:
479,203,116568,2,0,P|429:219|387:256,1,83.9999974365235,8|2,1:2|1:3,0:0:0:0:
325,313,116961,1,0,1:0:0:0:
249,234,117157,1,2,0:0:0:0:
169,309,117353,1,8,1:2:0:0:
124,195,117549,1,2,1:3:0:0:
124,195,117647,1,2,0:0:0:0:
124,195,117745,6,0,P|49:170|64:77,1,167.999994873047,4|8,1:0|1:2,0:0:0:0:
141,33,118333,1,2,0:3:0:0:
237,83,118529,2,0,L|228:197,1,83.9999974365235,0|2,1:0|1:2,0:0:0:0:
177,259,118921,1,8,1:2:0:0:
281,291,119117,1,2,1:3:0:0:
174,350,119314,1,4,1:2:0:0:
363,179,119706,6,0,L|371:76,1,83.9999974365235,12|2,1:2|0:0,0:0:0:0:
482,134,120098,2,0,L|473:24,1,83.9999974365235,4|2,1:2|0:0,0:0:0:0:
313,29,120490,1,12,1:2:0:0:
227,96,120686,1,2,0:0:0:0:
308,168,120882,1,4,1:0:0:0:
161,42,121274,6,0,L|56:53,1,83.9999974365235,8|2,1:2|0:3,0:0:0:0:
12,138,121666,2,0,L|110:131,1,83.9999974365235,4|2,1:2|0:0,0:0:0:0:
180,201,122059,1,8,1:2:0:0:
155,307,122255,1,2,0:3:0:0:
20,347,122451,6,0,P|-8:294|36:231,1,125.999996154785,4|0,1:0|0:0,0:0:0:0:
47,220,122843,2,0,L|144:230,1,83.9999974365235,8|2,1:2|0:3,0:0:0:0:
256,256,123235,2,0,L|266:353,1,83.9999974365235,4|2,1:2|0:0,0:0:0:0:
374,264,123627,2,0,L|371:163,1,83.9999974365235,12|2,1:2|1:3,0:0:0:0:
418,64,124019,6,0,L|484:74,2,41.9999987182618,4|0|2,1:0|0:0|0:0,0:0:0:0:
322,102,124412,2,0,L|256:92,2,41.9999987182618,8|0|2,1:2|0:0|0:3,0:0:0:0:
371,180,124804,2,0,L|437:190,2,41.9999987182618,4|0|2,1:2|0:0|0:0,0:0:0:0:
278,238,125196,1,8,1:2:0:0:
189,177,125392,1,2,0:3:0:0:
189,177,125490,1,0,0:0:0:0:
189,177,125588,6,0,P|179:109|165:49,1,125.999996154785,4|2,1:2|0:0,0:0:0:0:
141,46,125980,1,12,1:2:0:0:
45,93,126176,1,2,0:3:0:0:
60,197,126372,1,4,1:2:0:0:
170,222,126568,1,2,0:0:0:0:
170,222,126666,1,2,0:0:0:0:
170,222,126765,2,0,P|188:257|185:308,2,83.9999974365235,12|2|4,1:2|0:2|1:2,0:0:0:0:
35,308,139706,6,0,P|90:275|190:278,1,146.999995513916,4|2,0:0|3:0,0:0:0:0:
221,328,140490,2,0,P|265:317|305:317,2,73.4999977569581,2|2|2,0:0|0:0|3:0,0:0:0:0:
171,272,141274,2,0,P|165:183|193:112,1,146.999995513916,4|2,0:0|3:0,0:0:0:0:
125,78,142059,2,0,P|81:89|41:89,2,73.4999977569581,2|2|2,0:0|0:0|3:0,0:0:0:0:
198,53,142843,1,6,0:0:0:0:
256,192,142941,12,0,144412,0:0:0:0:
64,123,144804,5,4,0:0:0:0:
189,145,145196,1,2,0:0:0:0:
166,270,145588,1,4,0:0:0:0:
39,254,145980,6,0,P|32:197|62:102,1,146.999995513916,4|2,1:2|1:2,3:3:0:0:
115,60,146765,2,0,P|154:71|200:72,1,73.4999977569581,2|0,1:2|1:2,3:3:0:0:
278,31,147353,1,2,1:2:0:0:
333,86,147549,2,0,P|341:147|333:249,1,146.999995513916,2|2,1:3|1:2,0:0:0:0:
258,240,148333,5,6,1:2:0:0:
147,175,148725,1,2,1:2:0:0:
176,298,149117,1,4,1:2:0:0:
256,192,149216,12,4,151863,1:2:0:0:
328,342,152255,6,0,P|395:302|445:292,2,105,6|8|2,1:0|0:2|0:0,0:0:0:0:
222,314,153039,2,0,L|230:200,1,105,2|8,0:0|2:0,0:0:0:0:
248,200,153431,2,0,L|251:125,1,70,8|2,0:0|0:0,0:0:0:0:
137,90,153823,2,0,P|70:130|20:140,2,105,6|8|2,0:0|0:2|0:0,0:0:0:0:
251,27,154608,2,0,P|331:60|357:63,1,105,6|8,0:0|2:0,0:0:0:0:
368,55,155000,1,8,0:0:0:0:
428,131,155196,1,2,0:0:0:0:
333,209,155392,6,0,P|321:263|323:342,1,105,6|8,0:0|2:0,0:0:0:0:
303,325,155784,1,8,0:0:0:0:
203,283,155980,1,2,0:0:0:0:
79,337,156176,2,0,P|77:284|65:233,1,105,2|8,0:0|2:0,0:0:0:0:
59,213,156568,2,0,L|135:211,1,70,8|2,0:0|0:0,0:0:0:0:
215,110,156961,6,0,P|288:124|333:121,2,105,6|8|2,0:0|0:2|0:0,0:0:0:0:
278,228,157745,2,0,P|343:225|399:239,1,105,6|8,0:0|2:0,0:0:0:0:
399,244,158137,1,10,0:0:0:0:
434,343,158333,1,2,0:0:0:0:
485,224,158529,6,0,P|480:171|452:104,1,105,6|8,0:0|2:0,0:0:0:0:
442,117,158921,2,0,L|361:139,1,70,8|2,0:0|0:0,0:0:0:0:
249,137,159314,2,0,P|254:84|282:17,1,105,6|8,0:0|2:0,0:0:0:0:
251,29,159706,2,0,L|170:51,1,70,8|2,0:0|0:0,0:0:0:0:
59,83,160098,6,0,P|73:139|75:208,2,105,6|8|2,0:0|0:2|0:0,0:0:0:0:
176,144,160882,2,0,P|162:200|160:269,2,105,6|8|2,0:0|0:2|0:0,0:0:0:0:
267,228,161667,5,6,0:0:0:0:
267,228,162059,2,0,P|312:222|346:224,1,70,8|2,0:2|0:0,0:0:0:0:
419,331,162451,1,2,0:0:0:0:
419,331,162843,2,0,P|374:325|340:327,1,70,8|2,0:0|0:0,0:0:0:0:
225,311,163235,6,0,P|157:339|99:337,2,105,6|10|2,0:0|0:0|0:0,0:0:0:0:
139,221,164019,2,0,P|65:221|12:245,2,105,6|10|2,0:0|0:0|0:0,0:0:0:0:
240,177,164804,6,0,L|242:10,1,140,6|8,0:0|0:0,0:0:0:0:
337,78,165392,1,2,0:0:0:0:
355,173,165588,2,0,P|337:206|346:265,1,70,2|0,0:0|0:0,0:0:0:0:
423,285,165980,2,0,P|441:318|432:377,1,70,8|2,0:0|0:0,0:0:0:0:
317,353,166372,6,0,L|193:340,1,105,6|8,0:0|2:0,0:0:0:0:
192,348,166765,1,8,0:0:0:0:
95,353,166961,1,2,0:0:0:0:
146,260,167157,2,0,P|199:258|225:249,1,70,6|2,0:0|2:0,0:0:0:0:
157,157,167549,2,0,P|104:159|78:168,1,70,8|2,0:0|2:1,0:0:0:0:
14,220,167941,6,0,L|18:361,1,140,6|8,0:0|0:0,0:0:0:0:
114,326,168529,1,2,0:0:0:0:
114,326,168627,1,8,0:2:0:0:
114,326,168725,2,0,L|119:187,1,140,2|8,0:0|0:0,0:0:0:0:
119,186,169314,1,2,0:0:0:0:
207,127,169510,2,0,P|264:140|359:120,1,140,6|8,0:0|0:0,0:0:0:0:
440,141,170098,1,2,0:0:0:0:
440,141,170294,2,0,P|423:184|425:258,2,105,6|10|2,0:0|0:0|0:0,0:0:0:0:
504,43,171078,5,6,0:0:0:0:
504,43,171470,2,0,P|453:52|419:53,1,70,8|2,0:0|0:0,0:0:0:0:
316,37,171863,2,0,P|241:86|237:149,1,140,2|8,0:0|0:0,0:0:0:0:
271,220,172451,1,2,0:0:0:0:
171,292,172647,2,0,P|157:245|113:177,1,105,6|8,0:0|2:0,0:0:0:0:
108,201,173039,2,0,L|32:219,1,70,8|2,0:0|0:0,0:0:0:0:
92,102,173431,2,0,P|148:109|219:86,2,105,6|8|2,0:0|0:0|0:0,0:0:0:0:
39,217,174216,6,0,L|40:302,1,70,6|2,1:0|2:0,0:0:0:0:
134,269,174608,2,0,L|123:351,1,70,8|2,0:0|0:0,0:0:0:0:
241,278,175000,2,0,L|252:360,1,70,2|2,0:0|2:0,0:0:0:0:
336,226,175392,2,0,L|335:311,1,70,8|2,0:0|0:0,0:0:0:0:
253,181,175784,6,0,L|130:165,1,105,2|2,0:0|3:0,0:0:0:0:
133,182,176176,2,0,L|38:185,1,70,8|2,0:0|0:0,0:0:0:0:
43,191,176470,1,0,3:0:0:0:
24,201,176568,2,0,L|34:108,1,70,2|2,0:0|2:0,0:0:0:0:
99,50,176961,1,8,0:0:0:0:
186,87,177157,1,2,0:0:0:0:
167,216,177353,6,0,P|147:275|166:333,2,105,6|8|2,0:0|0:2|2:1,0:0:0:0:
274,267,178137,2,0,P|294:326|275:384,2,105,2|8|4,0:0|0:2|0:2,0:0:0:0:
273,154,178921,6,0,P|320:172|426:171,1,140,6|8,0:0|0:0,0:0:0:0:
489,113,179510,1,2,2:1:0:0:
416,33,179706,2,0,P|374:36|320:49,2,70,2|0|8,0:0|0:0|0:0,0:0:0:0:
497,122,180294,1,4,0:2:0:0:
497,122,180392,1,0,0:0:0:0:
497,122,180490,6,0,P|514:188|497:288,1,140,6|8,0:0|0:0,0:0:0:0:
423,312,181078,1,2,0:0:0:0:
349,247,181274,2,0,L|356:159,1,70,2|2,0:0|2:0,0:0:0:0:
254,246,181667,2,0,L|267:328,1,70,8|4,0:0|0:2,0:0:0:0:
160,375,182059,6,0,P|122:357|48:356,1,105,6|8,0:0|2:0,0:0:0:0:
45,338,182451,1,8,0:0:0:0:
43,245,182647,1,2,2:1:0:0:
138,221,182843,2,0,P|132:154|73:123,1,140,6|8,0:0|0:0,0:0:0:0:
168,61,183431,1,8,3:2:0:0:
272,119,183627,6,0,L|263:243,1,105,6|8,0:0|2:0,0:0:0:0:
277,240,184019,1,8,0:0:0:0:
369,281,184216,1,2,0:0:0:0:
369,281,184412,2,0,P|406:260|477:255,2,105,2|8|4,0:0|0:2|1:2,0:0:0:0:
284,332,185196,2,0,P|247:353|176:358,2,105,6|8|2,0:0|0:2|0:0,0:0:0:0:
324,214,185980,2,0,P|331:160|309:97,1,105,2|8,0:0|2:0,0:0:0:0:
300,100,186372,1,8,0:0:0:0:
205,66,186568,1,4,0:2:0:0:
131,138,186765,5,6,0:0:0:0:
131,138,187157,2,0,P|145:200|143:224,1,70,0|2,0:0|0:0,0:0:0:0:
32,278,187549,1,6,0:0:0:0:
32,278,187941,2,0,P|18:340|20:364,1,70,10|2,0:0|0:0,0:0:0:0:
139,335,188333,2,0,P|185:326|251:336,2,105,6|8|2,0:0|2:0|0:0,0:0:0:0:
184,220,189117,2,0,P|227:202|294:199,2,105,6|8|4,0:0|0:2|0:2,0:0:0:0:
57,253,189902,6,0,P|25:175|45:118,1,140,6|8,0:0|0:0,0:0:0:0:
93,47,190490,1,2,0:0:0:0:
209,23,190686,2,0,L|212:134,1,105,2|8,0:0|2:0,0:0:0:0:
232,129,191078,2,0,L|305:115,1,70,0|4,0:0|0:2,0:0:0:0:
434,164,191470,2,0,P|469:218|446:313,1,140,6|8,0:0|0:0,0:0:0:0:
390,351,192059,1,2,0:0:0:0:
277,302,192255,2,0,P|235:305|202:322,2,70,2|0|8,0:0|0:0|0:0,0:0:0:0:
352,228,192843,1,4,0:2:0:0:
237,169,193039,6,0,P|163:168|107:99,1,140,6|8,0:0|0:0,0:0:0:0:
117,28,193627,1,2,0:0:0:0:
18,106,193823,2,0,L|22:189,1,70,6|2,0:0|2:0,0:0:0:0:
104,230,194216,2,0,L|100:313,1,70,8|4,0:0|0:2,0:0:0:0:
216,357,194608,5,6,0:0:0:0:
216,357,195000,2,0,P|253:330|291:313,1,70,10|0,0:0|2:0,0:0:0:0:
359,250,195392,2,0,P|328:233|300:212,1,70,6|0,0:0|2:0,0:0:0:0:
229,136,195784,2,8,P|266:109|304:92,1,70,10|4,0:0|2:0,0:0:0:0:
386,63,196176,6,0,P|429:129|437:185,2,105,6|8|2,0:0|0:2|0:0,0:0:0:0:
264,23,196961,2,0,P|200:42|149:38,1,105,6|8,0:0|2:0,0:0:0:0:
146,27,197353,1,8,0:0:0:0:
50,71,197549,1,4,0:2:0:0:
103,188,197745,6,0,P|154:173|232:185,2,105,6|8|2,0:0|0:2|0:0,0:0:0:0:
38,262,198529,1,6,0:0:0:0:
118,328,198725,1,2,2:0:0:0:
118,328,198823,1,10,0:0:0:0:
118,328,198921,2,0,P|164:306|209:301,1,70,0|4,0:0|0:2,0:0:0:0:
305,360,199314,6,0,P|317:291|354:229,1,140,6|8,0:0|0:0,0:0:0:0:
445,226,199902,1,2,0:0:0:0:
396,144,200098,1,6,0:0:0:0:
235,180,200490,1,8,0:0:0:0:
154,126,200686,1,4,0:2:0:0:
237,68,200882,1,6,0:0:0:0:
32,198,201274,6,0,L|43:289,1,70,8|2,0:0|0:0,0:0:0:0:
139,233,201667,2,0,L|130:322,1,70,6|2,0:0|2:0,0:0:0:0:
212,356,202059,1,10,0:0:0:0:
272,282,202255,1,4,0:2:0:0:
350,342,202451,1,4,1:0:0:0:
350,342,202843,6,0,P|394:326|448:329,1,83.9999974365235,8|2,1:0|1:0,0:0:0:0:
487,232,203235,2,0,P|485:178|461:118,1,83.9999974365235,0|2,1:0|0:3,0:0:0:0:
421,55,203627,1,8,1:0:0:0:
321,100,203823,1,2,1:0:0:0:
321,100,203921,1,2,0:3:0:0:
321,100,204019,6,0,P|260:148|155:153,1,167.999994873047,4|4,1:2|1:2,0:0:0:0:
105,70,204608,1,0,0:0:0:0:
14,131,204804,2,0,L|21:226,1,83.9999974365235,4|2,1:2|0:0,0:0:0:0:
117,265,205196,1,4,1:2:0:0:
199,193,205392,1,2,0:3:0:0:
284,260,205588,6,0,P|276:327|376:367,1,167.999994873047,4|8,1:0|1:0,0:0:0:0:
452,325,206176,1,2,1:0:0:0:
369,253,206372,2,0,L|321:244,2,41.9999987182618,0|2|2,1:0|0:0|0:3,0:0:0:0:
473,219,206765,1,8,1:0:0:0:
441,114,206961,1,2,1:0:0:0:
441,114,207059,1,2,0:3:0:0:
441,114,207157,6,0,P|420:57|353:6,1,125.999996154785,4|2,1:2|0:3,0:0:0:0:
343,35,207549,2,0,L|252:49,1,83.9999974365235,12|2,1:2|1:0,0:0:0:0:
166,103,207941,2,0,P|171:65|163:10,1,83.9999974365235,4|0,1:2|0:0,0:0:0:0:
62,55,208333,1,8,1:0:0:0:
34,160,208529,1,2,0:3:0:0:
122,223,208725,6,0,P|167:204|214:207,1,83.9999974365235,4|2,1:0|0:0,0:0:0:0:
302,245,209117,2,0,L|355:245,2,41.9999987182618,8|2|2,1:0|0:0|1:0,0:0:0:0:
207,305,209510,2,0,L|154:305,2,41.9999987182618,0|2|2,1:0|0:0|0:3,0:0:0:0:
310,339,209902,2,0,L|363:339,2,41.9999987182618,8|0|2,1:0|0:0|0:3,0:0:0:0:
207,376,210294,6,0,P|134:348|38:357,1,167.999994873047,4|8,1:0|1:0,0:0:0:0:
69,247,210882,1,2,1:0:0:0:
69,247,210980,1,2,0:0:0:0:
69,247,211078,2,0,P|122:257|160:244,2,83.9999974365235,0|2|8,1:0|0:0|1:0,0:0:0:0:
46,139,211667,1,2,0:3:0:0:
128,67,211863,6,0,P|166:82|215:111,1,83.9999974365235,4|2,1:0|1:0,0:0:0:0:
263,11,212255,2,0,P|306:65|316:107,1,83.9999974365235,8|2,1:0|1:0,0:0:0:0:
413,41,212647,2,0,P|427:107|427:160,1,83.9999974365235,0|2,1:0|1:0,0:0:0:0:
360,209,213039,1,8,1:0:0:0:
250,213,213235,1,2,1:0:0:0:
200,310,213431,5,4,1:0:0:0:
91,297,213627,1,2,0:0:0:0:
91,297,213725,1,2,0:3:0:0:
91,297,213823,2,0,P|83:231|70:192,1,83.9999974365235,8|2,1:0|0:3,0:0:0:0:
44,110,214216,1,4,1:2:0:0:
149,137,214412,1,2,1:0:0:0:
190,36,214608,2,0,P|140:33|92:21,2,83.9999974365235,4|2|4,1:2|1:0|1:0,0:0:0:0:
448,104,215392,6,0,P|463:159|460:200,1,83.9999974365235,8|2,1:0|1:0,0:0:0:0:
373,249,215784,2,0,P|315:233|274:236,1,83.9999974365235,0|2,1:0|0:3,0:0:0:0:
197,288,216176,1,8,1:0:0:0:
281,356,216372,1,2,1:0:0:0:
281,356,216470,1,2,0:3:0:0:
281,356,216568,6,0,P|348:338|459:337,1,167.999994873047,4|4,1:2|1:2,0:0:0:0:
411,231,217157,1,0,0:0:0:0:
301,228,217353,2,0,L|247:255,2,41.9999987182618,4|0|2,1:2|0:0|0:0,0:0:0:0:
372,145,217745,1,8,1:0:0:0:
263,138,217941,1,2,0:3:0:0:
263,138,218039,1,2,0:3:0:0:
263,138,218137,6,0,P|262:90|253:36,1,83.9999974365235,4|0,1:0|0:0,0:0:0:0:
149,34,218529,2,0,P|101:41|49:32,1,83.9999974365235,8|2,1:0|1:0,0:0:0:0:
38,142,218921,2,0,L|-10:130,2,41.9999987182618,0|2|2,1:0|0:3|0:3,0:0:0:0:
133,197,219314,1,8,1:0:0:0:
36,248,219510,1,2,1:0:0:0:
36,248,219608,1,2,0:0:0:0:
36,248,219706,6,0,P|26:310|37:379,1,125.999996154785,4|0,1:2|0:0,0:0:0:0:
59,365,220098,2,0,P|108:347|170:348,1,83.9999974365235,4|0,1:2|0:0,0:0:0:0:
247,357,220490,2,0,P|288:352|327:336,2,83.9999974365235,4|0|8,1:2|0:0|1:0,0:0:0:0:
216,258,221078,1,2,0:3:0:0:
216,258,221176,1,2,0:3:0:0:
216,258,221274,6,0,P|153:228|86:225,1,125.999996154785,4|0,1:0|0:0,0:0:0:0:
72,222,221667,2,0,L|89:121,1,83.9999974365235,8|2,1:0|1:0,0:0:0:0:
77,30,222059,1,0,1:0:0:0:
184,47,222255,1,2,0:3:0:0:
226,147,222451,2,0,P|280:142|332:151,1,83.9999974365235,8|0,1:0|0:0,0:0:0:0:
392,216,222843,5,4,1:0:0:0:
299,273,223039,1,0,0:0:0:0:
299,273,223137,1,2,0:3:0:0:
299,273,223235,2,0,P|294:341|305:381,1,83.9999974365235,8|2,1:0|0:0,0:0:0:0:
187,349,223627,2,0,L|187:297,2,41.9999987182618,0|2|2,1:0|0:3|0:3,0:0:0:0:
80,327,224019,2,0,L|82:391,2,41.9999987182618,8|2|2,1:0|0:3|1:0,0:0:0:0:
121,225,224412,6,0,P|149:186|183:160,1,83.9999974365235,4|2,1:0|0:3,0:0:0:0:
107,79,224804,2,0,P|152:53|203:43,1,83.9999974365235,8|2,1:0|1:3,0:0:0:0:
42,29,225196,2,0,P|14:75|-4:130,1,83.9999974365235,4|2,1:2|0:3,0:0:0:0:
68,190,225588,2,0,P|54:251|54:298,1,83.9999974365235,8|2,1:0|1:0,0:0:0:0:
129,349,225980,5,4,1:2:0:0:
217,284,226176,1,2,0:3:0:0:
217,284,226274,1,2,0:0:0:0:
217,284,226372,2,0,P|290:289|329:280,1,83.9999974365235,4|2,1:2|1:3,0:0:0:0:
396,234,226765,1,4,1:2:0:0:
309,167,226961,1,2,0:3:0:0:
415,141,227157,2,0,L|451:141,6,27.9999991455078,4|0|0|0|0|0|4,1:2|0:0|0:0|0:0|0:0|0:0|1:2,0:0:0:45:soft-hitwhistle2.mp3
