osu file format v14

[General]
AudioFilename: audio.mp3
AudioLeadIn: 0
PreviewTime: 26667
Countdown: 0
SampleSet: Soft
StackLeniency: 0.7
Mode: 0
LetterboxInBreaks: 0
WidescreenStoryboard: 0

[Editor]
Bookmarks: 252647
DistanceSpacing: 0.9
BeatDivisor: 4
GridSize: 16
TimelineZoom: 1.8

[Metadata]
Title:Midorigo Queen Bee
TitleUnicode:嬰児クインビー
Artist:-45
ArtistUnicode:-45
Creator:PandaHero
Version:Another
Source:うみねこのなく頃に散
Tags:Mirash EijiKuinbii 07th Expansion Umineko no Naku Koro ni Chiru when they cry ep6 visual novel infant quimby quinby D'va Dva yoshikawa45
BeatmapID:1728260
BeatmapSetID:812792

[Difficulty]
HPDrainRate:7
CircleSize:4
OverallDifficulty:8
ApproachRate:9
SliderMultiplier:1.7
SliderTickRate:1

[Events]
//Background and Video events
0,0,"34535.jpg",0,0
//Break Periods
2,26964,38714
2,127356,138137
//Storyboard Layer 0 (Background)
//Storyboard Layer 1 (Fail)
//Storyboard Layer 2 (Pass)
//Storyboard Layer 3 (Foreground)
//Storyboard Sound Samples
Sample,227549,0,"soft-hitwhistle2.mp3",45

[TimingPoints]
1667,392.156862745098,4,2,0,45,1,0
1667,-200,4,2,0,45,0,0
14216,-125,4,2,0,70,0,0
23627,-100,4,2,0,70,0,0
39314,-100,4,2,0,85,0,0
51863,-100,4,1,0,85,0,0
76961,-83.3333333333333,4,1,0,85,0,0
102059,-66.6666666666667,4,2,0,95,0,0
139706,-142.857142857143,4,2,1,70,0,0
139902,-142.857142857143,4,3,1,100,0,0
140000,-142.857142857143,4,2,1,70,0,0
141470,-142.857142857143,4,3,1,100,0,0
141568,-142.857142857143,4,2,1,70,0,0
142843,-142.857142857143,4,2,1,70,0,0
143039,-142.857142857143,4,3,1,100,0,0
143137,-142.857142857143,4,2,1,70,0,0
143431,-142.857142857143,4,3,1,100,0,0
143529,-142.857142857143,4,2,1,70,0,0
143823,-142.857142857143,4,3,1,100,0,0
143921,-142.857142857143,4,2,1,70,0,0
145980,-142.857142857143,4,2,0,75,0,0
148333,-142.857142857143,4,2,0,80,0,0
149117,-142.857142857143,4,2,0,85,0,0
150686,-111.111111111111,4,2,0,90,0,0
152255,-83.3333333333333,4,1,0,85,0,0
202451,-66.6666666666667,4,2,0,95,0,0
230686,-100,4,2,0,70,0,0
230784,-100,4,2,0,45,0,0
233823,-100,4,2,0,70,0,0
233921,-100,4,2,0,45,0,0
236961,-100,4,2,0,70,0,0
237059,-100,4,2,0,45,0,0
240098,-100,4,2,0,70,0,0
240196,-142.857142857143,4,2,0,70,0,0
252647,-142.857142857143,4,2,0,45,0,0

[Colours]
Combo1 : 17,254,176
Combo2 : 173,255,95
Combo3 : 255,88,100
Combo4 : 255,94,55

[HitObjects]
32,197,1667,5,2,1:2:0:0:
126,110,2255,2,0,P|204:113|248:137,1,127.5,2|0,0:0|0:0,0:0:0:0:
468,82,3235,2,0,P|389:78|345:54,2,127.5,2|2|0,1:2|0:0|0:0,0:0:0:0:
437,355,4804,5,2,1:2:0:0:
325,295,5392,2,0,P|307:209|328:161,1,127.5,2|0,0:0|0:0,0:0:0:0:
75,29,6372,1,2,1:2:0:0:
187,89,6960,2,0,P|205:175|184:223,1,127.5,2|0,0:0|0:0,0:0:0:0:
40,350,7941,6,0,L|35:215,2,127.5,4|2|0,1:2|0:0|0:0,0:0:0:0:
192,236,9510,2,0,L|181:97,2,127.5,4|0|2,1:2|1:0|0:0,0:0:0:0:
321,336,11078,2,0,L|330:195,2,127.5,4|2|0,1:2|0:0|0:0,0:0:0:0:
479,212,12647,2,0,L|472:80,2,127.5,2|0|2,1:2|1:0|0:0,0:0:0:0:
362,377,14216,5,4,1:2:0:0:
109,301,14510,1,0,0:0:0:0:
109,301,14608,2,0,P|100:250|102:210,1,68,2|0,1:3|0:0,0:0:0:0:
101,110,14902,1,0,0:0:0:0:
101,110,15000,2,0,P|63:133|16:149,1,68,0|0,1:0|0:0,0:0:0:0:
196,182,15392,2,0,B|234:166|234:166|303:179,1,102,2|0,1:3|0:0,0:0:0:0:
317,202,15784,6,0,P|310:268|310:365,1,136,0|2,1:0|1:3,0:0:0:0:
84,65,16470,1,0,0:0:0:0:
84,65,16568,2,0,P|87:116|87:155,1,68,0|0,1:0|0:0,0:0:0:0:
219,234,16961,2,2,P|173:260|155:314,1,102,2|0,1:3|0:0,0:0:0:0:
159,337,17353,6,0,P|97:322|33:322,1,102,4|0,1:2|0:0,0:0:0:0:
26,329,17745,2,0,L|40:210,1,102,2|0,1:3|0:0,0:0:0:0:
26,195,18137,1,0,1:0:0:0:
147,160,18333,1,0,0:0:0:0:
254,224,18529,2,0,B|275:259|275:259|274:335,1,102,2|0,1:3|0:0,0:0:0:0:
301,340,18921,6,0,P|335:335|456:340,1,136,0|2,1:0|1:3,0:0:0:0:
208,144,19608,1,0,0:0:0:0:
208,144,19706,2,0,L|117:144,1,68,0|0,1:0|0:0,0:0:0:0:
246,39,20098,2,2,P|306:62|363:48,1,102,2|0,1:3|0:0,0:0:0:0:
373,45,20490,6,0,P|353:129|386:187,1,136,4|2,1:2|1:3,0:0:0:0:
217,319,21176,1,0,0:0:0:0:
217,319,21274,2,0,P|179:286|148:272,1,68,0|0,1:0|0:0,0:0:0:0:
3,236,21667,2,2,P|49:217|45:158,1,102,2|0,1:3|0:0,0:0:0:0:
41,141,22059,5,4,1:2:0:0:
151,104,22255,1,0,0:0:0:0:
212,215,22451,2,0,P|212:274|207:341,1,102,2|0,1:3|0:0,0:0:0:0:
214,350,22843,2,0,P|261:354|296:361,1,68,0|0,1:0|0:0,0:0:0:0:
446,231,23235,2,2,P|428:282|375:286,1,102,2|0,1:3|0:0,0:0:0:0:
287,281,23627,5,4,1:0:0:0:
260,259,23725,1,0,3:0:0:0:
249,227,23823,1,0,3:0:0:0:
257,195,23921,1,0,3:0:0:0:
215,165,24019,5,4,1:2:0:0:
216,131,24117,1,0,3:0:0:0:
232,102,24216,1,0,3:0:0:0:
256,79,24314,1,0,3:0:0:0:
241,30,24412,5,4,1:0:0:0:
267,16,24510,1,0,3:0:0:0:
299,16,24608,1,0,3:0:0:0:
333,16,24706,1,0,3:0:0:0:
362,57,24804,5,4,1:2:0:0:
389,77,24902,1,0,3:0:0:0:
421,89,25000,1,0,3:0:0:0:
454,92,25098,1,0,3:0:0:0:
483,133,25196,6,0,L|511:133,4,28.3333333333333,4|0|0|0|0,1:0|3:0|3:0|3:0|3:0,3:0:0:0:
373,196,25588,2,0,L|345:196,4,28.3333333333333,4|0|0|0|0,1:2|3:0|3:0|3:0|3:0,3:0:0:0:
482,286,25980,6,0,L|510:285,4,28.3333333333333,4|0|0|0|0,1:0|3:0|3:0|3:0|3:0,3:0:0:0:
344,359,26372,2,0,L|315:358,6,28.3333333333333,4|0|0|0|0|0|4,1:2|3:0|3:0|3:0|3:0|3:0|1:0,3:0:0:0:
29,44,39314,6,0,L|32:192,1,127.5,4|0,1:2|1:0,0:0:0:0:
67,194,39706,1,2,1:3:0:0:
195,84,39902,1,0,1:0:0:0:
195,84,40000,1,2,1:3:0:0:
195,84,40098,6,0,P|213:150|194:233,2,127.5,4|2|2,1:2|1:2|0:0,0:0:0:0:
325,168,40882,2,0,P|307:234|249:296,2,127.5,4|2|2,1:2|1:2|0:0,0:0:0:0:
431,287,41667,2,0,P|382:335|301:360,2,127.5,4|2|2,1:2|1:2|0:0,0:0:0:0:
474,84,42451,5,4,1:2:0:0:
360,62,42647,1,0,1:0:0:0:
360,62,42745,1,0,1:0:0:0:
360,62,42843,1,2,1:3:0:0:
398,164,43039,1,2,0:0:0:0:
256,234,43235,6,0,P|248:137|204:100,1,127.5,4|0,1:2|1:0,0:0:0:0:
231,117,43627,1,2,1:3:0:0:
150,67,43823,1,2,0:0:0:0:
32,352,44019,2,0,P|40:255|84:218,1,127.5,4|0,1:2|1:0,0:0:0:0:
57,235,44411,1,2,1:3:0:0:
138,185,44607,1,2,0:0:0:0:
213,358,44804,5,4,1:2:0:0:
468,353,45098,1,0,1:0:0:0:
468,353,45196,1,2,1:3:0:0:
375,303,45392,1,2,0:0:0:0:
264,240,45588,6,0,P|259:182|290:94,1,127.5,4|0,1:2|1:0,0:0:0:0:
312,91,45980,2,0,P|245:110|202:94,1,85,2|2,1:3|0:0,0:0:0:0:
102,35,46372,2,0,P|169:16|212:32,1,85,4|0,1:2|0:0,0:0:0:0:
412,53,46765,1,2,1:3:0:0:
478,131,46961,1,2,1:2:0:0:
478,131,47059,1,2,1:2:0:0:
478,131,47157,6,0,P|459:241|466:300,1,170,4|2,1:2|1:3,0:0:0:0:
332,206,47745,1,2,1:2:0:0:
332,206,47843,1,0,1:0:0:0:
332,206,47941,2,0,P|341:286|321:356,1,127.5,4|0,1:2|1:0,0:0:0:0:
290,320,48333,1,2,1:3:0:0:
178,287,48529,1,2,0:0:0:0:
32,253,48725,6,0,P|31:191|13:101,2,127.5,4|2|2,1:2|1:2|0:0,0:0:0:0:
97,346,49412,1,4,1:2:0:0:
97,346,49510,2,0,P|141:265|190:208,2,127.5,4|2|2,1:2|1:2|0:0,0:0:0:0:
256,159,50294,2,0,P|255:97|237:7,2,127.5,4|2|2,1:2|1:2|0:0,0:0:0:0:
321,252,50981,1,4,1:2:0:0:
321,252,51079,2,0,P|365:171|414:114,2,127.5,4|2|2,1:2|1:2|0:0,0:0:0:0:
382,369,51863,6,0,P|427:347|485:341,1,85,4|0,0:0|2:0,0:0:0:0:
236,321,52255,2,0,P|178:345|53:321,1,170,8|0,0:2|0:0,0:0:0:0:
16,217,52843,1,0,0:0:0:0:
16,217,52941,1,8,0:2:0:0:
16,217,53039,1,8,0:2:0:0:
102,130,53235,1,2,1:2:0:0:
206,35,53431,6,0,L|199:144,1,85,4|0,1:2|2:0,0:0:0:0:
334,192,53823,2,0,P|380:146|445:124,1,127.5,8|0,0:2|2:0,0:0:0:0:
479,116,54216,2,0,L|469:230,1,85,4|2,0:2|2:0,0:0:0:0:
278,346,54608,1,8,0:2:0:0:
200,251,54804,1,8,0:2:0:0:
49,359,55000,5,4,0:0:0:0:
49,359,55098,1,8,0:2:0:0:
49,359,55196,1,2,0:2:0:0:
98,253,55392,2,0,P|102:188|78:119,1,127.5,8|8,0:2|2:0,0:0:0:0:
43,114,55784,1,0,0:0:0:0:
174,148,55980,1,2,0:2:0:0:
311,181,56176,2,0,L|299:293,1,85,8|4,1:2|2:0,0:0:0:0:
455,35,56568,5,4,0:0:0:0:
324,69,56764,1,2,0:2:0:0:
187,102,56960,2,0,L|201:248,1,127.5,8|8,0:2|2:0,0:0:0:0:
169,260,57353,1,0,0:0:0:0:
11,222,57549,1,2,0:2:0:0:
57,370,57745,1,8,0:2:0:0:
83,294,57941,1,8,0:2:0:0:
114,218,58137,6,0,L|146:103,1,85,4|2,0:0|2:0,0:0:0:0:
244,246,58529,2,0,L|239:134,1,85,8|2,0:2|2:0,0:0:0:0:
486,232,58921,2,0,L|454:347,1,85,4|2,0:2|2:0,0:0:0:0:
351,197,59313,2,0,L|357:306,1,85,8|8,0:2|2:0,0:0:0:0:
442,57,59706,5,4,0:0:0:0:
317,21,59902,1,2,0:2:0:0:
188,73,60098,2,0,P|216:123|223:202,1,127.5,8|8,0:2|2:0,0:0:0:0:
196,223,60490,2,0,L|88:209,1,85,0|2,0:0|2:0,0:0:0:0:
27,268,60882,1,8,0:2:0:0:
74,358,61078,1,8,0:2:0:0:
229,343,61274,6,0,P|288:323|334:319,1,85,4|2,0:0|2:0,0:0:0:0:
484,199,61666,2,0,P|466:295|477:401,1,170,8|4,0:2|0:2,0:0:0:0:
375,256,62255,1,2,0:2:0:0:
400,148,62451,1,8,0:2:0:0:
264,245,62647,1,4,0:2:0:0:
264,245,62745,1,2,0:2:0:0:
264,245,62843,6,0,P|189:234|143:238,1,85,4|2,0:0|2:0,0:0:0:0:
25,262,63235,2,0,P|47:197|38:109,1,127.5,8|8,0:2|2:0,0:0:0:0:
73,106,63627,1,4,0:2:0:0:
174,129,63823,1,2,0:2:0:0:
177,38,64019,1,8,0:2:0:0:
78,10,64216,1,8,0:2:0:0:
264,161,64412,6,0,P|296:128|349:106,1,85,4|2,0:0|2:0,0:0:0:0:
482,49,64804,1,8,0:2:0:0:
395,346,65098,1,8,0:2:0:0:
395,346,65196,1,0,0:0:0:0:
289,288,65392,1,2,0:2:0:0:
393,230,65588,1,8,0:2:0:0:
395,346,65784,1,2,0:2:0:0:
289,288,65980,6,0,P|229:292|179:313,1,85,4|2,0:2|2:0,0:0:0:0:
26,361,66372,2,0,P|22:289|0:232,1,127.5,8|8,0:2|2:0,0:0:0:0:
44,225,66765,1,0,0:0:0:0:
105,308,66961,1,2,0:2:0:0:
128,182,67157,2,0,P|133:132|144:82,1,85,8|4,0:2|2:0,0:0:0:0:
343,57,67549,5,4,0:0:0:0:
343,57,67647,1,8,2:0:0:0:
343,57,67745,1,2,0:2:0:0:
286,139,67941,2,0,P|270:226|294:302,1,170,8|0,0:2|0:0,0:0:0:0:
412,335,68529,1,2,0:2:0:0:
472,234,68725,2,0,P|420:232|356:251,1,85,8|2,0:2|2:0,0:0:0:0:
169,366,69117,6,0,P|150:278|126:232,1,127.5,4|8,0:2|2:0,0:0:0:0:
91,239,69510,1,8,0:2:0:0:
21,340,69706,1,2,0:2:0:0:
167,149,69902,6,0,P|148:61|124:15,1,127.5,4|8,0:2|2:0,0:0:0:0:
89,22,70295,1,8,0:2:0:0:
19,123,70491,1,4,0:2:0:0:
292,148,70686,6,0,P|302:104|326:29,1,85,4|2,0:0|2:0,0:0:0:0:
389,228,71078,2,0,P|407:186|445:117,1,85,8|8,0:2|2:0,0:0:0:0:
245,303,71470,2,0,P|235:259|211:184,1,85,0|2,0:0|2:0,0:0:0:0:
148,383,71862,2,0,P|129:341|91:272,1,85,8|2,0:2|2:0,0:0:0:0:
35,115,72255,6,0,P|45:71|69:-4,1,85,4|2,0:0|2:0,0:0:0:0:
132,195,72647,2,0,P|150:153|188:84,1,85,8|8,0:2|2:0,0:0:0:0:
457,280,73039,2,0,P|447:236|423:161,1,85,0|2,0:0|2:0,0:0:0:0:
360,360,73431,2,0,P|341:318|303:249,1,85,8|4,0:2|0:2,0:0:0:0:
35,351,73823,6,0,P|112:346|199:342,1,127.5,4|8,0:0|2:0,0:0:0:0:
162,343,74216,1,8,0:2:0:0:
336,187,74412,1,2,0:2:0:0:
336,187,74608,2,0,P|259:182|172:178,1,127.5,4|8,0:2|2:0,0:0:0:0:
208,179,75001,1,8,0:2:0:0:
37,43,75196,1,4,0:2:0:0:
37,43,75392,2,0,P|114:38|201:34,1,127.5,4|8,0:0|2:0,0:0:0:0:
164,35,75785,1,8,0:2:0:0:
410,86,75980,1,2,0:2:0:0:
320,264,76176,5,4,0:2:0:0:
320,264,76274,1,8,0:2:0:0:
412,354,76470,1,8,0:2:0:0:
412,354,76568,1,8,0:2:0:0:
485,259,76765,1,4,0:2:0:0:
257,356,76961,6,0,P|211:295|122:221,1,152.999995330811,6|8,0:0|2:0,0:0:0:0:
129,244,77353,1,8,0:2:0:0:
26,122,77549,1,2,0:0:0:0:
50,129,77647,1,0,0:0:0:0:
75,133,77745,2,0,P|156:116|179:44,1,152.999995330811,2|8,0:0|2:0,0:0:0:0:
193,34,78137,2,0,P|213:88|226:160,1,101.999996887207,10|2,0:0|2:1,0:0:0:0:
401,98,78529,6,0,P|372:168|357:252,1,152.999995330811,6|8,0:0|2:0,0:0:0:0:
366,267,78921,1,8,0:2:0:0:
494,237,79117,1,2,0:0:0:0:
277,350,79314,2,0,P|236:252|203:194,1,152.999995330811,6|8,0:0|2:0,0:0:0:0:
192,196,79706,1,10,0:0:0:0:
100,273,79902,1,2,0:0:0:0:
296,154,80098,6,0,P|296:66|255:-9,2,152.999995330811,6|8|2,0:0|2:0|0:0,0:0:0:0:
284,176,80784,1,8,0:2:0:0:
270,197,80882,2,0,P|343:208|492:262,1,203.999993774414,2|10,0:0|0:0,0:0:0:0:
172,215,81470,1,2,0:0:0:0:
11,105,81666,2,0,P|13:178|26:238,1,101.999996887207,6|0,0:0|2:0,0:0:0:0:
103,255,81961,1,8,0:2:0:0:
103,255,82059,2,0,P|101:328|88:388,1,101.999996887207,8|2,0:2|2:1,0:0:0:0:
279,360,82451,2,0,P|272:309|272:258,1,101.999996887207,6|0,0:0|2:0,0:0:0:0:
211,173,82746,1,8,0:2:0:0:
211,173,82844,2,0,P|213:100|226:40,1,101.999996887207,10|2,0:0|2:1,0:0:0:0:
337,28,83137,1,0,0:0:0:0:
337,28,83235,6,0,P|466:58|517:43,1,152.999995330811,6|8,0:0|2:0,0:0:0:0:
483,54,83627,1,8,0:2:0:0:
387,193,83823,1,2,0:0:0:0:
387,193,84019,2,0,P|286:166|222:180,2,152.999995330811,6|8|2,0:0|2:0|0:0,0:0:0:0:
222,336,84804,2,0,P|121:363|57:349,2,152.999995330811,6|8|2,0:0|2:0|0:0,0:0:0:0:
152,241,85490,1,8,0:2:0:0:
152,241,85588,2,0,P|80:215|4:221,2,152.999995330811,6|8|2,0:0|2:0|0:0,0:0:0:0:
367,355,86372,5,6,0:0:0:0:
467,272,86568,1,0,0:0:0:0:
467,272,86666,1,8,0:2:0:0:
364,195,86863,1,8,0:2:0:0:
364,195,86961,1,2,0:0:0:0:
189,234,87157,5,6,0:0:0:0:
89,152,87353,1,0,0:0:0:0:
89,152,87451,1,8,0:2:0:0:
192,75,87648,1,8,0:2:0:0:
192,75,87746,1,2,0:0:0:0:
391,178,87941,6,0,L|390:307,1,101.999996887207,6|0,0:0|2:0,0:0:0:0:
464,374,88235,1,8,0:2:0:0:
464,374,88333,2,0,P|474:324|513:261,1,101.999996887207,8|2,0:2|2:1,0:0:0:0:
301,371,88725,2,0,P|300:320|274:250,1,101.999996887207,6|0,0:0|0:0,0:0:0:0:
159,45,89117,1,2,0:3:0:0:
184,46,89216,1,2,0:3:0:0:
209,48,89314,1,2,0:3:0:0:
234,49,89412,1,2,0:3:0:0:
246,71,89510,6,0,L|219:235,1,152.999995330811,6|8,0:0|2:0,0:0:0:0:
203,239,89902,2,0,B|157:228|157:228|91:244,1,101.999996887207,8|2,0:2|2:1,0:0:0:0:
276,305,90294,2,0,L|499:319,1,203.999993774414,2|10,0:0|0:0,0:0:0:0:
351,359,90882,1,2,0:0:0:0:
305,192,91078,2,0,P|362:173|423:172,1,101.999996887207,6|0,0:0|2:0,0:0:0:0:
249,121,91372,1,8,0:2:0:0:
249,121,91470,2,0,P|277:75|330:37,1,101.999996887207,8|2,0:2|0:0,0:0:0:0:
183,226,91863,2,0,P|105:219|19:230,2,152.999995330811,6|8|2,0:0|2:0|0:0,0:0:0:0:
60,360,92647,5,6,0:0:0:0:
32,108,92941,1,8,0:2:0:0:
32,108,93039,1,8,0:2:0:0:
153,139,93235,1,2,0:0:0:0:
277,173,93431,2,0,L|268:326,2,152.999995330811,2|8|2,0:0|2:0|0:0,0:0:0:0:
279,41,94216,5,6,0:0:0:0:
153,139,94412,1,0,0:0:0:0:
153,139,94510,1,8,0:2:0:0:
185,267,94804,1,2,0:0:0:0:
53,17,95000,5,2,0:0:0:0:
153,139,95196,1,0,0:0:0:0:
153,139,95294,1,8,0:2:0:0:
65,253,95588,1,2,0:0:0:0:
276,344,95784,6,0,P|276:275|286:180,1,152.999995330811,6|8,0:0|2:0,0:0:0:0:
304,175,96176,1,8,0:2:0:0:
397,254,96372,1,2,0:0:0:0:
174,204,96568,2,0,P|174:135|164:40,1,152.999995330811,6|8,0:0|2:0,0:0:0:0:
146,35,96960,1,10,0:0:0:0:
53,114,97156,1,2,0:0:0:0:
294,123,97353,6,0,P|358:96|487:93,1,152.999995330811,6|8,0:0|2:0,0:0:0:0:
366,51,97745,1,8,0:2:0:0:
237,281,97941,1,2,0:0:0:0:
237,281,98039,1,0,0:0:0:0:
237,281,98137,2,0,P|173:254|44:251,1,152.999995330811,6|8,0:0|2:0,0:0:0:0:
164,210,98529,1,10,0:0:0:0:
103,368,98725,1,4,0:2:0:0:
0,216,98921,6,0,P|13:152|75:72,1,152.999995330811,6|8,0:0|2:0,0:0:0:0:
88,78,99314,1,8,0:2:0:0:
241,179,99510,1,2,0:0:0:0:
241,179,99608,1,8,0:2:0:0:
241,179,99706,2,0,L|235:312,1,101.999996887207,6|0,0:0|2:0,0:0:0:0:
384,339,100098,1,10,0:0:0:0:
421,220,100294,1,2,0:0:0:0:
328,254,100490,5,6,0:0:0:0:
488,327,100686,1,0,0:0:0:0:
488,327,100784,1,8,0:2:0:0:
388,121,100980,1,8,0:2:0:0:
388,121,101078,1,2,0:0:0:0:
328,254,101274,1,6,0:0:0:0:
428,222,101470,1,0,0:0:0:0:
428,222,101568,1,8,0:2:0:0:
285,354,101765,1,8,0:2:0:0:
285,354,101863,1,2,0:0:0:0:
292,168,102059,5,4,1:0:0:0:
292,168,102451,5,8,1:2:0:0:
260,163,102549,1,2,0:0:0:0:
239,138,102647,1,2,0:3:0:0:
239,106,102745,1,2,0:0:0:0:
256,79,102843,1,0,1:0:0:0:
32,132,103039,1,2,0:0:0:0:
41,162,103137,1,2,0:3:0:0:
30,194,103235,1,8,1:2:0:0:
159,33,103431,1,2,1:3:0:0:
206,228,103627,5,4,1:2:0:0:
237,235,103725,1,2,0:0:0:0:
268,230,103823,1,2,0:0:0:0:
146,311,104019,1,12,1:2:0:0:
115,304,104117,1,2,0:0:0:0:
84,309,104215,1,2,0:0:0:0:
267,349,104412,1,4,1:2:0:0:
296,336,104510,1,2,0:3:0:0:
327,337,104608,1,2,0:0:0:0:
350,358,104706,1,2,0:0:0:0:
381,360,104804,1,8,1:2:0:0:
478,310,105000,1,2,1:3:0:0:
405,119,105196,5,4,1:0:0:0:
401,151,105294,1,2,0:0:0:0:
397,183,105392,1,2,0:0:0:0:
278,28,105588,1,8,1:2:0:0:
279,59,105686,1,2,0:0:0:0:
279,90,105784,1,2,0:0:0:0:
155,197,105980,5,0,1:0:0:0:
151,165,106078,1,2,0:3:0:0:
147,133,106176,1,2,0:0:0:0:
21,287,106372,1,8,1:2:0:0:
21,256,106470,1,2,0:0:0:0:
20,225,106568,1,2,0:3:0:0:
296,358,106765,5,4,1:2:0:0:
296,326,106863,1,2,0:3:0:0:
295,294,106961,1,2,0:0:0:0:
294,262,107059,1,2,0:0:0:0:
294,230,107157,1,8,1:2:0:0:
288,125,107353,1,2,1:3:0:0:
450,26,107549,5,4,1:2:0:0:
450,58,107647,1,2,0:3:0:0:
451,90,107745,1,2,0:0:0:0:
452,122,107843,1,2,0:3:0:0:
452,154,107941,1,8,1:2:0:0:
458,259,108137,1,2,1:3:0:0:
296,208,108333,5,4,1:0:0:0:
265,199,108431,1,2,0:3:0:0:
234,206,108529,1,2,0:0:0:0:
216,232,108627,1,2,0:0:0:0:
191,251,108725,1,8,1:2:0:0:
159,254,108823,1,2,0:0:0:0:
127,249,108921,1,2,0:3:0:0:
99,232,109019,1,2,0:0:0:0:
90,201,109117,1,0,1:0:0:0:
95,169,109216,1,2,0:3:0:0:
106,139,109314,1,2,0:0:0:0:
130,118,109412,1,2,0:0:0:0:
161,123,109510,2,0,L|172:292,1,127.500004863739,8|2,1:2|0:3,0:0:0:0:
374,53,109902,5,4,1:2:0:0:
344,66,110000,1,2,0:3:0:0:
312,63,110098,1,2,0:0:0:0:
479,69,110294,2,0,L|467:226,1,127.500004863739,8|2,1:2|0:3,0:0:0:0:
233,184,110686,5,4,1:2:0:0:
263,197,110784,1,2,0:3:0:0:
295,194,110882,1,2,0:0:0:0:
128,200,111078,2,0,L|140:357,1,127.500004863739,8|2,1:2|0:3,0:0:0:0:
359,340,111470,5,4,1:0:0:0:
374,312,111568,1,2,0:3:0:0:
381,281,111666,1,2,0:0:0:0:
369,251,111765,1,2,0:0:0:0:
358,220,111863,1,8,1:2:0:0:
367,189,111961,1,2,0:0:0:0:
382,161,112059,1,2,0:3:0:0:
367,132,112157,1,2,0:0:0:0:
340,114,112255,1,0,1:0:0:0:
309,123,112353,1,2,0:3:0:0:
285,144,112451,1,2,0:0:0:0:
258,161,112549,1,2,0:3:0:0:
226,154,112647,1,8,1:2:0:0:
198,137,112745,1,2,0:0:0:0:
192,105,112843,1,2,0:3:0:0:
162,94,112941,1,2,0:0:0:0:
131,102,113039,6,0,P|32:116|11:28,1,191.250007295609,4|2,1:2|0:0,0:0:0:0:
26,68,113431,2,0,L|27:226,1,127.500004863739,12|2,1:2|0:3,0:0:0:0:
48,218,113725,1,2,1:2:0:0:
74,235,113823,2,0,L|315:246,1,191.250007295609,4|0,1:2|0:0,0:0:0:0:
280,271,114216,1,8,1:2:0:0:
268,300,114314,1,2,0:3:0:0:
240,316,114412,1,2,0:3:0:0:
208,311,114510,1,2,0:3:0:0:
188,285,114608,6,0,P|185:201|200:152,1,127.500004863739,4|2,1:0|0:0,0:0:0:0:
52,181,115000,2,0,P|95:123|152:75,1,127.500004863739,8|2,1:2|0:3,0:0:0:0:
272,25,115392,2,0,P|363:77|463:52,1,191.250007295609,0|2,1:0|0:0,0:0:0:0:
473,76,115784,1,8,1:2:0:0:
405,197,115980,1,2,1:3:0:0:
214,135,116176,5,4,1:2:0:0:
200,164,116274,1,2,0:3:0:0:
202,195,116372,1,2,0:0:0:0:
306,281,116568,1,8,1:2:0:0:
308,180,116765,1,2,1:3:0:0:
77,258,116961,5,0,1:0:0:0:
107,267,117059,1,2,0:3:0:0:
127,291,117157,1,2,0:0:0:0:
273,280,117353,1,8,1:2:0:0:
246,298,117451,1,2,0:0:0:0:
235,328,117549,1,2,1:3:0:0:
247,357,117647,1,2,0:0:0:0:
276,369,117745,6,0,P|354:344|475:361,1,191.250007295609,4|2,1:0|0:0,0:0:0:0:
438,333,118137,2,0,P|423:256|440:189,1,127.500004863739,8|2,1:2|0:3,0:0:0:0:
357,56,118529,1,0,1:0:0:0:
279,198,118725,1,2,1:2:0:0:
360,150,118921,1,8,1:2:0:0:
444,105,119117,1,2,1:3:0:0:
444,105,119216,1,2,1:2:0:0:
444,105,119314,1,4,1:2:0:0:
197,57,119510,1,2,0:0:0:0:
130,121,119706,6,0,P|141:200|145:292,1,127.500004863739,12|2,1:2|0:0,0:0:0:0:
22,31,120098,2,0,P|11:110|7:202,1,127.500004863739,4|2,1:2|0:0,0:0:0:0:
106,344,120490,1,12,1:2:0:0:
136,333,120588,1,2,0:3:0:0:
165,344,120686,1,2,0:0:0:0:
194,357,120784,1,2,0:3:0:0:
225,353,120882,6,0,P|234:285|224:217,1,127.500004863739,4|2,1:0|0:0,0:0:0:0:
143,20,121274,1,8,1:2:0:0:
126,47,121372,1,2,0:0:0:0:
144,72,121470,1,2,0:3:0:0:
172,85,121568,1,2,0:0:0:0:
202,74,121666,1,4,1:2:0:0:
234,73,121765,1,2,0:3:0:0:
261,88,121863,1,2,0:0:0:0:
280,113,121961,1,2,0:0:0:0:
264,140,122059,1,8,1:2:0:0:
124,184,122255,1,2,0:3:0:0:
93,194,122353,1,2,0:0:0:0:
62,183,122451,6,0,P|32:246|31:321,1,127.500004863739,4|2,1:0|0:0,0:0:0:0:
226,228,122843,2,0,P|231:297|268:363,1,127.500004863739,8|2,1:2|0:3,0:0:0:0:
476,255,123235,1,4,1:2:0:0:
444,260,123333,1,2,0:3:0:0:
413,254,123431,1,2,0:0:0:0:
386,238,123529,1,2,0:0:0:0:
373,209,123627,1,12,1:2:0:0:
405,208,123725,1,2,0:0:0:0:
434,196,123823,1,2,1:3:0:0:
457,175,123921,1,0,0:0:0:0:
475,148,124019,6,0,P|398:145|348:111,1,127.500004863739,4|2,1:0|0:0,0:0:0:0:
286,28,124412,1,8,1:2:0:0:
207,173,124608,1,2,0:3:0:0:
207,173,124706,1,2,0:0:0:0:
207,173,124804,2,0,P|217:268|208:312,1,127.500004863739,4|2,1:2|0:0,0:0:0:0:
31,191,125196,2,0,P|21:96|30:52,1,127.500004863739,8|2,1:2|0:3,0:0:0:0:
286,28,125588,5,4,1:2:0:0:
273,57,125686,1,2,0:3:0:0:
261,86,125784,1,2,0:0:0:0:
277,113,125882,1,2,0:0:0:0:
295,138,125980,1,12,1:2:0:0:
316,161,126078,1,2,0:0:0:0:
322,192,126176,1,2,0:3:0:0:
317,223,126274,1,2,0:0:0:0:
303,251,126372,5,4,1:2:0:0:
329,233,126470,1,2,0:3:0:0:
359,223,126568,1,2,0:0:0:0:
392,222,126666,1,2,0:0:0:0:
421,230,126764,1,12,1:2:0:0:
449,246,126862,1,2,0:3:0:0:
471,268,126960,1,2,0:2:0:0:
487,296,127058,1,2,0:3:0:0:
494,327,127156,1,4,1:2:0:0:
94,45,139706,6,0,P|69:132|62:242,1,178.499994552612,4|2,0:0|3:0,0:0:0:0:
119,269,140490,2,0,P|151:241|215:216,1,89.2499972763062,2|2,0:0|0:0,0:0:0:0:
309,149,141078,1,2,3:0:0:0:
380,178,141274,2,0,P|399:253|389:367,1,178.499994552612,4|2,0:0|3:0,0:0:0:0:
315,353,142059,2,0,P|278:331|210:319,1,89.2499972763062,2|2,0:0|0:0,0:0:0:0:
104,349,142647,1,2,3:0:0:0:
55,288,142843,6,0,P|77:109|276:135,1,416.499987289429,6|2,0:0|3:0,0:0:0:0:
271,128,144412,1,2,0:0:0:0:
392,224,144804,6,0,L|311:220,1,59.4999981842042,4|0,0:0|0:0,0:0:0:0:
249,282,145196,2,0,L|173:276,1,59.4999981842042,2|0,0:0|0:0,0:0:0:0:
340,344,145588,2,0,L|421:337,1,59.4999981842042,4|0,0:0|0:0,0:0:0:0:
250,184,145980,6,0,L|206:188,7,29.7499990921021,4|0|0|0|0|0|2|0,1:2|3:0|3:0|3:0|3:0|3:0|1:2|3:0,3:0:0:0:
305,122,146765,2,0,L|334:119,7,29.7499990921021,2|0|0|0|0|0|2|0,1:2|3:0|3:0|1:2|3:0|3:0|1:2|3:0,3:0:0:0:
239,75,147549,2,0,L|195:79,7,29.7499990921021,2|0|2|0|0|0|2|0,1:2|3:0|1:3|3:0|3:0|3:0|1:2|3:0,3:0:0:0:
134,137,148333,6,0,L|136:166,3,29.7499990921021,6|2|2|2,1:2|3:0|3:2|1:3,3:0:0:0:
52,99,148725,2,0,L|49:69,3,29.7499990921021,2|0|2|0,1:2|3:0|1:2|3:0,3:0:0:0:
36,211,149117,6,0,L|43:326,1,89.2499972763062,4|2,1:2|1:2,0:0:0:0:
41,300,149510,1,0,1:0:0:0:
138,272,149706,1,2,3:0:0:0:
240,221,149902,2,0,L|233:336,1,89.2499972763062,2|2,1:2|1:2,0:0:0:0:
234,310,150295,1,0,1:0:0:0:
138,272,150490,1,2,3:0:0:0:
355,250,150686,6,0,L|364:393,1,114.749996498108,4|2,1:2|1:2,0:0:0:0:
362,364,151078,1,0,1:0:0:0:
479,257,151274,1,2,3:0:0:0:
371,127,151470,6,0,P|305:142|230:124,1,114.749996498108,4|2,1:2|1:2,0:0:0:0:
146,69,151863,2,0,P|213:46|240:24,1,76.4999976654053,4|2,1:2|1:2,0:0:0:0:
47,184,152157,1,0,1:0:0:0:
47,184,152255,6,0,P|60:238|54:346,2,152.999995330811,6|8|2,1:0|0:0|0:0,0:0:0:0:
233,218,152941,1,8,0:2:0:0:
233,218,153039,2,0,P|214:290|214:376,2,152.999995330811,2|8|2,0:0|0:0|0:0,0:0:0:0:
335,146,153823,6,0,P|394:157|499:123,1,152.999995330811,6|8,0:0|2:0,0:0:0:0:
489,98,154216,1,8,0:0:0:0:
370,18,154412,1,2,0:0:0:0:
186,62,154608,2,0,P|127:51|22:85,1,152.999995330811,6|8,0:0|2:0,0:0:0:0:
32,110,155001,1,8,0:0:0:0:
151,190,155197,1,2,0:0:0:0:
30,338,155392,6,0,P|27:271|30:229,1,101.999996887207,6|2,0:0|2:0,0:0:0:0:
159,366,155686,1,8,0:2:0:0:
159,366,155784,2,0,P|171:308|194:247,1,101.999996887207,8|2,0:0|0:0,0:0:0:0:
359,194,156176,2,0,P|382:270|386:375,1,152.999995330811,2|8,0:0|2:0,0:0:0:0:
352,347,156568,1,8,0:0:0:0:
257,188,156765,1,2,0:0:0:0:
257,188,156863,1,8,0:2:0:0:
257,188,156961,6,0,P|259:103|284:15,1,152.999995330811,6|8,0:0|2:0,0:0:0:0:
309,46,157353,2,0,P|428:57|450:50,1,101.999996887207,8|2,0:0|0:0,0:0:0:0:
268,264,157745,2,0,P|211:262|149:281,1,101.999996887207,6|2,0:0|2:0,0:0:0:0:
145,244,158039,2,0,L|40:248,1,101.999996887207,10|8,0:0|2:0,0:0:0:0:
18,221,158333,1,2,0:0:0:0:
35,189,158431,1,8,0:2:0:0:
59,163,158529,6,0,L|61:346,1,152.999995330811,6|8,0:0|2:0,0:0:0:0:
92,332,158921,1,8,0:0:0:0:
218,290,159117,1,2,0:0:0:0:
170,171,159314,1,4,0:2:0:0:
170,171,159412,1,8,0:2:0:0:
218,290,159608,1,8,0:2:0:0:
218,290,159706,1,8,0:0:0:0:
92,332,159902,1,2,0:0:0:0:
218,290,160098,6,0,P|297:291|387:297,1,152.999995330811,6|8,0:0|2:0,0:0:0:0:
403,310,160490,1,8,0:0:0:0:
439,176,160686,1,2,0:0:0:0:
439,176,160882,2,0,P|360:177|270:183,1,152.999995330811,6|8,0:0|2:0,0:0:0:0:
254,196,161274,1,8,0:0:0:0:
219,44,161470,1,2,0:0:0:0:
219,44,161568,1,8,0:2:0:0:
219,44,161667,6,0,P|305:52|387:53,1,152.999995330811,6|8,0:0|2:0,0:0:0:0:
386,85,162059,1,8,0:2:0:0:
485,48,162255,1,2,0:0:0:0:
323,148,162451,2,0,L|304:286,1,101.999996887207,2|2,0:0|2:0,0:0:0:0:
268,247,162745,2,0,P|224:262|199:374,1,152.999995330811,8|2,0:2|0:0,0:0:0:0:
27,176,163235,6,0,L|144:186,1,101.999996887207,6|2,0:0|2:0,0:0:0:0:
145,152,163529,2,0,P|226:109|217:34,1,152.999995330811,10|2,0:0|0:0,0:0:0:0:
257,77,163921,1,8,0:2:0:0:
287,96,164019,2,0,L|282:216,1,101.999996887207,6|2,0:0|2:0,0:0:0:0:
317,208,164314,2,0,L|304:329,1,101.999996887207,10|8,0:0|0:2,0:0:0:0:
274,326,164608,1,2,0:0:0:0:
241,339,164706,1,8,0:2:0:0:
207,351,164804,6,0,P|134:334|9:338,2,152.999995330811,6|8|2,0:0|0:0|0:0,0:0:0:0:
289,201,165490,1,8,0:2:0:0:
289,201,165588,2,0,P|362:184|487:188,2,152.999995330811,2|8|2,0:0|0:0|0:0,0:0:0:0:
202,69,166274,1,8,0:2:0:0:
202,69,166372,2,0,P|129:52|4:56,2,152.999995330811,6|8|2,0:0|0:0|0:0,0:0:0:0:
185,209,167157,6,0,L|182:325,1,101.999996887207,6|2,0:0|2:0,0:0:0:0:
78,269,167451,1,8,0:2:0:0:
78,269,167549,2,0,P|85:330|86:395,1,101.999996887207,8|2,0:0|2:1,0:0:0:0:
283,381,167843,1,8,0:2:0:0:
283,381,167941,6,0,P|285:303|306:211,1,152.999995330811,6|8,0:0|0:2,0:0:0:0:
318,193,168333,2,0,P|387:208|435:208,1,101.999996887207,8|2,0:0|0:0,0:0:0:0:
456,194,168627,1,8,0:2:0:0:
493,178,168725,2,0,P|490:241|481:308,1,101.999996887207,2|2,0:0|2:0,0:0:0:0:
345,108,169117,1,8,0:0:0:0:
421,29,169314,1,2,0:0:0:0:
421,29,169412,1,8,0:2:0:0:
421,29,169510,6,0,P|352:68|236:82,1,152.999995330811,6|8,0:0|2:0,0:0:0:0:
251,61,169902,1,8,0:0:0:0:
135,234,170098,1,2,0:0:0:0:
135,234,170196,1,8,0:2:0:0:
135,234,170294,2,0,P|202:201|241:190,1,101.999996887207,6|2,0:0|2:0,0:0:0:0:
263,199,170588,2,0,P|268:275|264:361,1,152.999995330811,10|2,0:0|0:0,0:0:0:0:
72,339,171078,5,6,0:0:0:0:
26,145,171274,1,2,0:2:0:0:
26,145,171372,1,8,0:2:0:0:
118,57,171568,1,8,0:0:0:0:
118,57,171667,1,2,0:0:0:0:
348,136,171863,2,0,P|341:209|350:317,1,152.999995330811,2|8,0:0|2:0,0:0:0:0:
374,308,172255,2,0,P|438:271|481:264,1,101.999996887207,8|2,0:0|0:0,0:0:0:0:
249,358,172647,6,0,P|177:329|82:320,1,152.999995330811,6|8,0:0|2:0,0:0:0:0:
69,333,173039,1,8,0:0:0:0:
36,208,173235,1,2,0:0:0:0:
36,208,173333,1,8,0:2:0:0:
36,208,173431,1,6,0:0:0:0:
203,120,173627,1,2,0:2:0:0:
203,120,173725,1,8,0:0:0:0:
245,242,173921,1,8,0:0:0:0:
245,242,174019,1,2,0:0:0:0:
426,238,174216,5,6,1:0:0:0:
422,211,174314,1,2,3:0:0:0:
419,185,174412,1,2,2:0:0:0:
416,159,174510,1,2,3:0:0:0:
384,133,174608,5,8,0:0:0:0:
388,106,174706,1,0,3:0:0:0:
391,80,174804,1,2,0:0:0:0:
394,54,174902,1,0,3:0:0:0:
312,54,175000,5,2,0:0:0:0:
285,58,175098,1,2,3:0:0:0:
259,61,175196,1,2,2:0:0:0:
233,64,175294,1,2,3:0:0:0:
201,90,175392,5,8,0:0:0:0:
174,86,175490,1,0,3:0:0:0:
148,83,175588,1,2,0:0:0:0:
122,80,175686,1,0,3:0:0:0:
59,147,175784,5,2,0:0:0:0:
63,182,175882,1,2,3:0:0:0:
68,217,175980,1,2,2:0:0:0:
73,252,176078,1,2,3:0:0:0:
109,270,176176,5,8,0:0:0:0:
112,244,176274,1,0,3:0:0:0:
115,218,176372,1,2,0:0:0:0:
119,191,176470,1,0,3:0:0:0:
203,225,176568,5,2,0:0:0:0:
208,260,176666,1,2,3:0:0:0:
213,295,176764,1,2,2:0:0:0:
218,330,176862,1,2,3:0:0:0:
256,344,176961,5,8,0:0:0:0:
259,318,177059,1,0,3:0:0:0:
262,292,177157,1,2,0:0:0:0:
382,135,177353,5,6,0:0:0:0:
382,135,177451,1,8,0:2:0:0:
382,135,177549,1,2,0:2:0:0:
506,39,177745,2,0,P|457:22|407:24,1,101.999996887207,8|2,0:0|2:1,0:0:0:0:
212,110,178137,1,2,0:0:0:0:
212,110,178235,1,8,0:2:0:0:
85,58,178431,1,8,0:2:0:0:
85,58,178529,1,8,0:0:0:0:
165,14,178725,1,4,0:2:0:0:
104,192,178921,5,6,0:0:0:0:
104,192,179019,1,8,0:2:0:0:
104,192,179117,1,2,0:2:0:0:
233,261,179314,2,0,P|280:242|364:242,1,101.999996887207,8|2,0:0|2:1,0:0:0:0:
134,318,179706,1,2,0:0:0:0:
134,318,179804,1,8,0:2:0:0:
266,369,180000,1,8,0:2:0:0:
266,369,180098,1,8,0:0:0:0:
364,320,180294,1,4,0:2:0:0:
457,246,180490,6,0,P|450:315|452:378,1,101.999996887207,6|2,0:0|2:0,0:0:0:0:
396,171,180784,1,8,0:2:0:0:
396,171,180882,2,0,P|403:102|401:39,1,101.999996887207,8|2,0:0|0:0,0:0:0:0:
290,245,181274,2,0,P|283:314|285:377,1,101.999996887207,2|2,0:0|2:0,0:0:0:0:
229,170,181568,1,8,0:2:0:0:
229,170,181667,2,0,P|230:119|236:68,1,101.999996887207,8|4,0:0|0:2,0:0:0:0:
48,44,182059,5,6,0:0:0:0:
48,44,182157,1,8,0:2:0:0:
48,44,182255,1,2,0:2:0:0:
108,119,182451,2,0,P|134:182|130:252,1,101.999996887207,8|2,0:0|2:1,0:0:0:0:
39,355,182843,2,0,P|12:280|34:191,1,152.999995330811,6|8,0:0|2:0,0:0:0:0:
61,193,183235,1,8,0:0:0:0:
101,195,183333,1,0,3:0:0:0:
141,201,183431,1,8,3:2:0:0:
181,206,183529,1,0,3:0:0:0:
207,236,183627,6,0,P|234:161|212:72,1,152.999995330811,6|8,0:0|2:0,0:0:0:0:
191,62,184019,2,0,P|252:90|326:91,1,101.999996887207,8|2,0:0|0:0,0:0:0:0:
475,40,184412,5,2,0:0:0:0:
375,147,184608,1,2,0:2:0:0:
375,147,184706,1,8,0:2:0:0:
475,242,184902,1,8,0:0:0:0:
475,242,185000,1,4,1:2:0:0:
375,147,185196,5,6,0:0:0:0:
275,254,185392,1,2,0:2:0:0:
275,254,185490,1,8,0:2:0:0:
375,349,185686,1,8,0:0:0:0:
375,349,185784,1,2,0:0:0:0:
184,251,185980,6,0,P|117:245|14:259,1,152.999995330811,2|8,0:0|2:0,0:0:0:0:
6,286,186372,2,0,P|13:218|15:148,1,101.999996887207,8|4,0:0|0:2,0:0:0:0:
153,33,186765,6,0,P|196:66|253:68,1,101.999996887207,6|2,0:0|2:0,0:0:0:0:
374,111,187059,2,0,L|213:110,1,152.999995330811,10|2,0:0|0:0,0:0:0:0:
157,281,187549,2,0,P|200:248|257:246,1,101.999996887207,6|2,0:0|2:0,0:0:0:0:
398,278,187843,2,0,L|237:277,1,152.999995330811,10|2,0:0|0:0,0:0:0:0:
429,367,188333,6,0,P|437:257|445:183,1,152.999995330811,6|8,0:0|2:0,0:0:0:0:
441,214,188725,1,8,0:0:0:0:
279,48,188921,1,2,0:0:0:0:
279,48,189019,1,8,0:2:0:0:
279,48,189117,1,6,0:0:0:0:
245,230,189314,1,0,1:2:0:0:
245,230,189412,1,8,0:2:0:0:
138,151,189608,1,8,0:0:0:0:
138,151,189706,1,4,0:2:0:0:
363,142,189902,6,0,P|424:144|521:180,1,152.999995330811,6|8,0:0|2:0,0:0:0:0:
449,238,190294,1,8,0:0:0:0:
300,58,190490,1,2,0:0:0:0:
300,58,190588,1,8,0:2:0:0:
300,58,190686,2,0,P|243:68|190:63,1,101.999996887207,2|2,0:0|2:0,0:0:0:0:
164,44,190980,2,0,P|113:41|63:50,1,101.999996887207,10|8,0:0|0:2,0:0:0:0:
34,79,191274,1,4,0:2:0:0:
37,268,191470,6,0,P|95:231|194:213,1,152.999995330811,6|8,0:0|2:0,0:0:0:0:
211,235,191863,1,8,0:0:0:0:
321,355,192059,1,2,0:0:0:0:
321,355,192157,1,8,0:2:0:0:
321,355,192255,2,0,P|317:265|322:188,1,152.999995330811,2|8,0:0|2:0,0:0:0:0:
352,177,192647,1,8,0:0:0:0:
225,82,192843,1,4,0:2:0:0:
449,117,193039,6,0,P|455:169|449:337,1,203.999993774414,6|8,0:0|0:0,0:0:0:0:
179,185,193627,1,2,0:0:0:0:
87,213,193823,2,0,P|53:244|40:299,1,101.999996887207,6|2,0:0|2:0,0:0:0:0:
179,185,194216,1,8,0:0:0:0:
92,97,194412,1,4,0:2:0:0:
92,97,194510,1,8,0:2:0:0:
92,97,194608,1,6,0:0:0:0:
179,185,194804,1,2,0:2:0:0:
318,323,195000,6,0,P|384:300|456:314,1,101.999996887207,10|0,0:0|2:0,0:0:0:0:
245,243,195392,2,0,P|290:190|360:166,1,101.999996887207,6|0,0:0|2:0,0:0:0:0:
133,179,195784,2,8,P|146:110|194:54,1,101.999996887207,10|4,0:0|2:0,0:0:0:0:
21,211,196176,6,0,P|35:286|45:399,1,152.999995330811,6|8,0:0|2:0,0:0:0:0:
83,354,196568,1,8,0:0:0:0:
190,256,196765,1,2,0:0:0:0:
190,256,196863,1,8,0:2:0:0:
190,256,196961,2,0,P|198:179|212:104,1,152.999995330811,6|8,0:0|2:0,0:0:0:0:
186,72,197353,1,8,0:0:0:0:
278,149,197549,1,4,0:2:0:0:
359,212,197745,6,0,P|421:194|513:198,1,152.999995330811,6|8,0:0|2:0,0:0:0:0:
478,223,198137,1,8,0:0:0:0:
360,340,198333,1,2,0:0:0:0:
256,267,198529,2,0,P|254:202|257:134,1,101.999996887207,6|2,0:0|2:0,0:0:0:0:
218,146,198823,2,0,P|220:81|217:13,1,101.999996887207,10|8,0:0|2:0,0:0:0:0:
255,25,199117,1,4,0:2:0:0:
24,152,199314,6,0,P|75:186|114:284,1,152.999995330811,6|8,0:0|2:0,0:0:0:0:
107,307,199706,2,0,P|45:299|-11:296,1,101.999996887207,8|2,0:0|0:0,0:0:0:0:
218,368,200098,2,0,P|273:340|382:332,1,152.999995330811,6|8,0:0|2:0,0:0:0:0:
397,350,200490,1,8,0:0:0:0:
463,205,200686,1,4,0:2:0:0:
463,205,200784,1,8,0:2:0:0:
463,205,200882,6,0,P|374:146|381:61,1,152.999995330811,6|8,0:0|2:0,0:0:0:0:
381,69,201274,2,0,P|322:100|277:109,1,101.999996887207,8|2,0:0|0:0,0:0:0:0:
247,103,201568,1,8,0:2:0:0:
206,93,201667,2,0,L|214:231,1,101.999996887207,6|2,0:0|2:0,0:0:0:0:
172,205,201961,2,0,L|184:318,1,101.999996887207,10|8,0:0|2:0,0:0:0:0:
147,326,202255,1,4,0:2:0:0:
106,321,202353,1,8,0:2:0:0:
62,348,202451,6,0,P|46:246|77:132,1,191.250007295609,4|0,1:0|0:0,0:0:0:0:
72,110,202843,1,8,1:0:0:0:
119,92,202941,1,2,0:0:0:0:
169,99,203039,1,2,1:0:0:0:
213,122,203137,1,2,0:3:0:0:
261,137,203235,1,0,1:0:0:0:
311,129,203333,1,2,0:3:0:0:
337,85,203431,1,2,0:3:0:0:
319,37,203529,1,2,0:0:0:0:
269,26,203627,5,8,1:0:0:0:
269,57,203725,1,2,0:0:0:0:
272,88,203823,1,2,1:0:0:0:
271,119,203921,1,2,0:3:0:0:
271,150,204019,6,0,P|343:146|413:150,1,127.500004863739,4|0,1:2|0:0,0:0:0:0:
170,246,204412,2,0,P|174:174|170:104,1,127.500004863739,4|0,1:2|0:0,0:0:0:0:
244,336,204804,2,0,P|316:332|386:336,1,127.500004863739,4|2,1:2|0:0,0:0:0:0:
61,357,205196,2,0,P|65:285|61:215,1,127.500004863739,4|2,1:2|0:3,0:0:0:0:
276,220,205588,5,4,1:0:0:0:
325,231,205686,1,2,0:3:0:0:
375,216,205784,1,2,0:0:0:0:
215,143,205980,5,8,1:0:0:0:
239,98,206078,1,2,0:0:0:0:
231,47,206176,1,2,1:0:0:0:
187,243,206372,5,0,1:0:0:0:
163,288,206470,1,2,0:0:0:0:
171,339,206568,1,2,0:3:0:0:
219,321,206667,1,2,0:3:0:0:
269,326,206765,1,8,1:0:0:0:
314,349,206863,1,2,0:3:0:0:
363,361,206961,1,2,1:0:0:0:
409,339,207059,1,2,0:0:0:0:
459,347,207157,6,0,P|459:274|407:159,1,191.250007295609,4|2,1:2|0:3,0:0:0:0:
362,167,207549,1,12,1:2:0:0:
211,174,207745,1,2,1:0:0:0:
65,186,207941,2,0,P|60:115|112:-1,1,191.250007295609,4|2,1:2|0:3,0:0:0:0:
149,32,208333,1,8,0:0:0:0:
150,82,208431,1,2,3:0:0:0:
109,113,208529,1,2,3:0:0:0:
64,88,208627,1,2,3:0:0:0:
101,46,208725,5,4,1:0:0:0:
149,32,208823,1,2,0:3:0:0:
194,53,208921,1,2,0:0:0:0:
218,97,209019,1,2,0:3:0:0:
268,89,209117,5,8,1:0:0:0:
278,139,209216,1,2,0:0:0:0:
261,187,209314,1,2,1:0:0:0:
217,214,209412,1,2,0:0:0:0:
141,247,209510,5,0,1:0:0:0:
176,283,209608,1,2,0:0:0:0:
187,331,209706,1,2,0:3:0:0:
168,379,209804,1,2,0:3:0:0:
132,342,209902,6,0,P|68:318|4:336,1,127.500004863739,8|2,1:0|0:3,0:0:0:0:
318,351,210294,5,4,1:0:0:0:
365,366,210392,1,2,0:0:0:0:
415,359,210490,1,2,0:3:0:0:
447,319,210588,1,2,0:3:0:0:
437,268,210686,1,8,1:0:0:0:
296,162,210882,5,2,1:0:0:0:
278,114,210980,1,2,0:0:0:0:
292,65,211078,1,0,1:0:0:0:
332,34,211176,1,2,0:3:0:0:
382,31,211274,1,2,0:0:0:0:
422,62,211372,1,2,0:3:0:0:
441,108,211470,5,8,1:0:0:0:
432,138,211568,1,2,0:3:0:0:
420,168,211667,1,2,0:3:0:0:
410,198,211765,1,2,0:0:0:0:
399,227,211863,6,0,L|322:221,1,63.7500024318696,4|0,1:0|0:0,0:0:0:0:
244,266,212059,2,0,L|159:271,1,63.7500024318696,2|0,1:0|0:0,0:0:0:0:
7,80,212255,6,0,L|84:86,1,63.7500024318696,8|0,1:0|0:0,0:0:0:0:
120,158,212451,2,0,L|205:153,1,63.7500024318696,2|0,1:0|0:0,0:0:0:0:
361,108,212647,6,0,L|284:102,1,63.7500024318696,0|0,1:0|0:0,0:0:0:0:
248,30,212843,2,0,L|163:35,1,63.7500024318696,2|0,1:0|0:0,0:0:0:0:
282,209,213039,6,0,L|359:215,1,63.7500024318696,8|0,1:0|0:0,0:0:0:0:
395,287,213235,2,0,L|480:282,1,63.7500024318696,2|0,1:0|0:0,0:0:0:0:
284,368,213431,5,4,1:0:0:0:
17,353,213627,1,2,0:0:0:0:
31,304,213725,1,2,0:3:0:0:
69,271,213823,1,8,1:0:0:0:
119,266,213921,1,2,0:3:0:0:
163,290,214019,1,2,0:3:0:0:
180,337,214117,1,2,0:0:0:0:
141,371,214216,6,0,L|155:270,1,63.7500024318696,4|0,1:2|0:0,0:0:0:0:
169,181,214412,1,2,1:0:0:0:
36,104,214608,2,0,L|24:190,1,63.7500024318696,4|0,1:2|0:0,0:0:0:0:
169,181,214804,1,2,1:0:0:0:
274,127,215000,6,0,P|360:172|490:106,1,191.250007295609,4|2,1:0|0:3,0:0:0:0:
475,108,215392,5,8,1:0:0:0:
461,58,215490,1,2,0:3:0:0:
417,31,215588,1,2,1:0:0:0:
366,27,215686,1,2,0:0:0:0:
320,46,215784,1,0,1:0:0:0:
315,96,215882,1,2,0:3:0:0:
274,127,215980,1,2,0:3:0:0:
223,121,216078,1,0,0:0:0:0:
173,131,216176,5,8,1:0:0:0:
166,162,216274,1,2,0:0:0:0:
161,193,216372,1,2,1:0:0:0:
156,224,216470,1,2,0:3:0:0:
151,255,216568,6,0,P|218:217|310:217,1,127.500004863739,4|0,1:2|0:0,0:0:0:0:
374,52,216961,2,0,P|373:129|327:208,1,127.500004863739,4|0,1:2|0:0,0:0:0:0:
459,334,217353,2,0,P|392:294|346:215,1,127.500004863739,4|2,1:2|0:0,0:0:0:0:
153,277,217745,5,8,1:0:0:0:
179,233,217843,1,2,0:3:0:0:
229,223,217941,1,2,0:3:0:0:
264,259,218039,1,2,0:3:0:0:
251,308,218137,6,0,P|249:248|269:153,1,127.500004863739,4|0,1:0|0:0,0:0:0:0:
232,35,218529,6,0,L|153:47,1,63.7500024318696,8|0,1:0|0:0,0:0:0:0:
127,132,218725,2,0,L|57:129,1,63.7500024318696,2|0,1:0|0:0,0:0:0:0:
259,181,218921,1,0,1:0:0:0:
290,184,219019,1,2,0:3:0:0:
321,185,219117,1,2,0:3:0:0:
212,331,219314,1,8,1:0:0:0:
165,309,219412,1,2,0:3:0:0:
115,296,219510,1,2,1:0:0:0:
64,299,219608,1,0,0:0:0:0:
27,334,219706,6,0,L|37:244,3,63.7500024318696,4|0|0|0,1:2|0:0|0:0|0:0,0:0:0:0:
160,203,220098,2,0,L|167:139,3,63.7500024318696,4|0|0|0,1:2|0:0|0:0|0:0,0:0:0:0:
47,81,220490,2,0,L|57:-9,3,63.7500024318696,4|0|0|0,1:2|0:0|0:0|0:0,0:0:0:0:
230,56,220882,5,8,1:0:0:0:
242,85,220980,1,2,0:3:0:0:
256,113,221078,1,2,0:3:0:0:
272,140,221176,1,2,0:3:0:0:
283,169,221274,2,0,P|371:156|461:167,1,127.500004863739,4|2,1:0|0:0,0:0:0:0:
280,339,221667,5,8,1:0:0:0:
234,315,221765,1,2,0:3:0:0:
185,331,221863,1,2,1:0:0:0:
23,253,222059,5,0,1:0:0:0:
46,298,222157,1,2,0:3:0:0:
31,346,222255,1,2,0:3:0:0:
198,171,222451,5,8,1:0:0:0:
183,122,222549,1,2,0:3:0:0:
191,71,222647,1,0,0:0:0:0:
223,32,222745,1,2,0:3:0:0:
271,49,222843,6,0,B|319:72|319:72|422:55,1,127.500004863739,4|0,1:0|0:0,0:0:0:0:
415,37,223137,1,2,0:3:0:0:
440,55,223235,2,0,L|432:191,1,127.500004863739,8|2,1:0|0:0,0:0:0:0:
445,211,223529,1,2,0:3:0:0:
483,244,223627,5,0,1:0:0:0:
498,292,223725,1,2,0:3:0:0:
480,339,223823,1,2,0:3:0:0:
434,362,223921,1,2,0:0:0:0:
389,337,224019,1,8,1:0:0:0:
340,307,224117,1,2,0:3:0:0:
288,303,224216,1,2,1:0:0:0:
247,333,224314,1,2,0:3:0:0:
167,357,224412,5,4,1:0:0:0:
118,373,224510,1,2,0:3:0:0:
72,352,224608,1,2,0:3:0:0:
2,202,224804,5,8,1:0:0:0:
50,217,224902,1,2,0:3:0:0:
96,196,225000,1,2,1:3:0:0:
313,121,225196,5,4,1:2:0:0:
323,170,225294,1,2,0:0:0:0:
335,219,225392,1,2,0:3:0:0:
348,268,225490,1,2,0:3:0:0:
369,221,225588,1,8,1:0:0:0:
383,172,225686,1,2,0:3:0:0:
398,123,225784,1,2,1:0:0:0:
416,75,225882,1,2,0:0:0:0:
436,28,225980,5,4,1:2:0:0:
385,37,226078,1,2,0:3:0:0:
335,49,226176,1,2,0:3:0:0:
286,63,226274,1,2,0:0:0:0:
236,73,226372,5,4,1:2:0:0:
279,99,226470,1,2,0:3:0:0:
325,119,226568,1,2,1:3:0:0:
373,137,226667,1,2,0:0:0:0:
420,155,226765,5,4,1:2:0:0:
371,170,226863,1,2,0:3:0:0:
321,181,226961,1,2,0:3:0:0:
270,190,227059,1,2,0:0:0:0:
220,199,227157,6,0,L|276:231,6,42.5000016212464,4|0|0|0|0|0|4,1:2|0:0|0:0|0:0|0:0|0:0|1:2,0:0:0:45:soft-hitwhistle2.mp3
256,192,227647,12,4,230686,0:0:0:0:
256,192,230784,12,4,233823,0:0:0:0:
256,192,233921,12,4,236961,0:0:0:0:
256,192,237059,12,4,240098,0:0:0:0:
97,143,240490,5,2,0:0:0:0:
97,143,240588,1,0,0:0:0:0:
97,143,240686,1,0,0:0:0:0:
178,203,240882,1,2,0:0:0:0:
178,203,240980,1,0,0:0:0:0:
178,203,241078,1,2,0:0:0:0:
84,242,241274,1,0,0:0:0:0:
84,242,241372,1,0,0:0:0:0:
84,242,241470,1,2,0:0:0:0:
190,109,241667,6,0,L|329:122,1,118.999996368408,2|0,0:0|0:0,0:0:0:0:
308,120,242255,1,2,0:0:0:0:
408,198,242451,2,0,L|338:209,1,59.4999981842042,2|0,0:0|0:0,0:0:0:0:
275,276,242843,1,2,0:0:0:0:
359,331,243039,1,0,0:0:0:0:
441,275,243235,6,0,L|434:140,1,118.999996368408,4|2,0:0|0:0,0:0:0:0:
434,156,243823,1,0,0:0:0:0:
359,87,244019,1,2,0:0:0:0:
359,87,244117,1,0,0:0:0:0:
359,87,244216,1,2,0:0:0:0:
455,58,244412,1,0,0:0:0:0:
455,58,244510,1,0,0:0:0:0:
455,58,244608,1,2,0:0:0:0:
352,176,244804,6,0,P|308:175|248:152,2,89.2499972763062,2|0|2,0:0|0:0|0:0,0:0:0:0:
275,255,245588,2,0,P|231:256|171:279,2,89.2499972763062,2|0|2,0:0|0:0|0:0,0:0:0:0:
178,171,246372,6,0,P|117:176|47:157,1,118.999996368408,4|0,0:0|0:0,0:0:0:0:
61,163,246961,1,2,0:0:0:0:
151,48,247157,2,0,P|212:43|282:62,1,118.999996368408,2|0,0:0|0:0,0:0:0:0:
267,55,247746,1,2,0:0:0:0:
341,124,247941,6,0,L|337:234,1,89.2499972763062,2|0,0:0|0:0,0:0:0:0:
347,241,248333,2,0,P|391:232|426:228,1,59.4999981842042,2|0,0:0|0:0,0:0:0:0:
485,292,248725,1,2,0:0:0:0:
485,292,248823,1,0,0:0:0:0:
485,292,248921,1,2,0:0:0:0:
402,350,249117,1,0,0:0:0:0:
402,350,249216,1,0,0:0:0:0:
402,350,249314,1,2,0:0:0:0:
302,331,249510,6,0,L|242:290,1,59.4999981842042,4|2,0:0|0:0,0:0:0:0:
183,361,249902,2,0,L|142:300,1,59.4999981842042,0|2,0:0|0:0,0:0:0:0:
65,342,250294,2,0,L|50:270,1,59.4999981842042,0|2,0:0|0:0,0:0:0:0:
103,196,250686,1,0,0:0:0:0:
103,196,250784,1,0,0:0:0:0:
103,196,250882,1,2,0:0:0:0:
19,81,251078,6,0,P|14:146|12:185,2,89.2499972763062,2|0|2,0:0|0:0|0:0,0:0:0:0:
114,45,251863,2,0,L|177:55,1,59.4999981842042,2|0,0:0|0:0,0:0:0:0:
242,127,252255,2,0,L|305:117,1,59.4999981842042,2|0,0:0|0:0,0:0:0:0:
398,143,252647,1,2,3:0:0:0:
