osu file format v14

[General]
AudioFilename: audio.mp3
AudioLeadIn: 0
PreviewTime: 152255
Countdown: 0
SampleSet: Soft
StackLeniency: 0.5
Mode: 0
LetterboxInBreaks: 0
WidescreenStoryboard: 1

[Editor]
Bookmarks: 51863,76961,102059,114608,120882,127157,127255,127451,127483,127549,127647,127745,127843,127974,128039,128137,128202,128235,128333,128431,128464,128627,128693,128725,128823,128889,128921,129085,129117,129216,129248,129314,129412,129510,129608,129640,129706,129804,129836,129967,130000,130098,130163,130196,130294,130392,130490,130588,130621,130784,130817,130882,130980,131013,131078,131144,131274,131340,131372,131470,131601,131667,131765,131797,131863,131928,132059,132124,132157,132255,132385,132451,132549,132582,132712,132745,132843,132941,133039,133137,133170,133235,133300,133333,133431,133529,133627,133725,133758,133823,133889,133921,134085,134117,134216,134314,134346,134477,134510,134608,134706,134738,134869,134902,135000,135065,135098,135196,135294,135327,135392,135457,135490,135653,135686,135784,135850,135882,136046,136078,136176,136372,136470,136503,136568,136634,136765,136830,136863,136961,137157,137255,137287,137353,137418,137549,137614,137647,137745,137843,137876,137941,138039,138137,138235,138268,138333,138399,138529,138627,138660,138725,138823,138856,138921,138987,139019,139117,139216,139248,139314,139510,139575,139608,177353,202451,227549,240098,252647
DistanceSpacing: 1.2
BeatDivisor: 4
GridSize: 16
TimelineZoom: 3.499999

[Metadata]
Title:Midorigo Queen Bee
TitleUnicode:嬰児クインビー
Artist:-45
ArtistUnicode:-45
Creator:Luscent
Version:Dada's Insane
Source:うみねこのなく頃に散
Tags:07th Expansion Umineko no Naku Koro ni Chiru when they cry ep6 furudo erika visual novel infant Eiji Kuin bii kuinbii D'va Dva yoshikawa45 Affirmation AF Dada
BeatmapID:2277700
BeatmapSetID:1055780

[Difficulty]
HPDrainRate:4
CircleSize:4
OverallDifficulty:7.5
ApproachRate:8
SliderMultiplier:1.4
SliderTickRate:1

[Events]
//Background and Video events
0,0,"VEEEEEEEEERYGOOOOOOOOOD.jpg",0,0
//Break Periods
2,26935,38534
2,127326,138926
2,227719,239318
//Storyboard Layer 0 (Background)
//Storyboard Layer 1 (Fail)
//Storyboard Layer 2 (Pass)
//Storyboard Layer 3 (Foreground)
//Storyboard Layer 4 (Overlay)
//Storyboard Sound Samples

[TimingPoints]
1637,392.156862745098,4,2,1,40,1,0
1637,-142.857142857143,4,2,1,40,0,0
14186,-125,4,2,1,50,0,0
39284,-125,4,2,1,55,0,0
51833,-125,4,2,1,60,0,0
76931,-100,4,2,1,65,0,0
102029,-111.111111111111,4,2,1,65,0,0
125558,-83.3333333333333,4,2,1,75,0,0
139676,-125,4,2,1,55,0,0
145950,-125,4,2,1,60,0,0
151440,-83.3333333333333,4,2,1,70,0,0
152225,-83.3333333333333,4,2,1,75,0,1
177323,-83.3333333333333,4,2,1,80,0,1
202421,-83.3333333333333,4,2,1,70,0,0
224382,-83.3333333333333,4,2,1,75,0,1
227519,-83.3333333333333,4,2,1,70,0,0
240068,-142.857142857143,4,2,1,50,0,0

[Colours]
Combo1 : 212,2,1
Combo2 : 255,236,89
Combo3 : 107,132,198
Combo4 : 250,145,160

[HitObjects]
129,145,1637,6,0,P|183:146|239:156,1,97.9999970092774,0|0,0:0|0:0,0:0:0:0:
300,210,2225,2,0,P|350:159|430:114,1,146.999995513916,0|0,0:0|0:0,0:0:0:0:
472,279,3205,6,0,P|420:266|363:263,1,97.9999970092774,2|0,0:0|0:0,0:0:0:0:
290,298,3793,2,0,P|271:232|263:144,1,146.999995513916,2|0,0:0|0:0,0:0:0:0:
401,98,4774,6,0,L|512:103,1,97.9999970092774,0|0,0:0|0:0,0:0:0:0:
407,0,5362,2,0,P|333:17|244:21,1,146.999995513916,0|0,0:0|0:0,0:0:0:0:
261,192,6342,6,0,L|319:102,1,97.9999970092774,0|0,0:0|0:0,0:0:0:0:
189,122,6931,2,0,P|127:195|66:237,1,146.999995513916,0|0,0:0|0:0,0:0:0:0:
44,64,7911,5,2,0:0:0:0:
193,126,8303,1,0,0:0:0:0:
193,126,8499,2,0,P|196:181|219:291,1,146.999995513916,2|0,0:0|0:0,0:0:0:0:
379,308,9480,5,0,0:0:0:0:
257,384,9872,1,0,0:0:0:0:
257,384,10068,2,0,P|173:373|91:373,1,146.999995513916,0|0,0:0|0:0,0:0:0:0:
10,238,11048,5,2,0:0:0:0:
159,265,11440,1,0,0:0:0:0:
159,265,11637,2,0,P|205:259|319:263,1,146.999995513916,2|0,0:0|0:0,0:0:0:0:
488,322,12617,5,2,0:0:0:0:
403,190,13009,1,2,0:0:0:0:
403,190,13205,2,0,L|411:25,1,146.999995513916,2|0,0:0|0:0,0:0:0:0:
461,247,14186,5,0,1:0:0:0:
375,128,14382,1,0,0:0:0:0:
347,129,14480,1,0,0:0:0:0:
319,130,14578,1,8,0:0:0:0:
195,214,14872,1,0,0:0:0:0:
195,214,14970,2,0,P|203:178|207:137,1,56,0|0,1:0|0:0,0:0:0:0:
185,136,15264,1,0,0:0:0:0:
185,136,15362,1,8,0:0:0:0:
110,237,15558,1,0,0:0:0:0:
211,312,15754,5,0,1:0:0:0:
338,229,15950,1,0,0:0:0:0:
311,219,16048,1,0,0:0:0:0:
285,210,16146,1,8,0:0:0:0:
328,351,16439,1,0,0:0:0:0:
328,351,16538,1,0,1:0:0:0:
211,312,16735,1,0,1:0:0:0:
94,351,16931,1,8,0:0:0:0:
124,195,17127,1,0,0:0:0:0:
140,217,17225,1,0,0:0:0:0:
157,240,17323,6,0,P|184:199|203:148,1,84,0|0,1:0|0:0,0:0:0:0:
184,138,17715,1,8,0:0:0:0:
285,210,17911,1,0,0:0:0:0:
312,208,18009,1,0,0:0:0:0:
340,207,18107,2,0,P|377:207|412:212,1,56,0|0,1:0|0:0,0:0:0:0:
481,306,18499,1,8,0:0:0:0:
499,143,18793,1,0,0:0:0:0:
499,143,18891,5,0,1:0:0:0:
404,70,19087,1,0,0:0:0:0:
405,97,19185,1,0,0:0:0:0:
406,125,19284,2,0,P|401:182|392:221,1,84,8|0,0:0|0:0,0:0:0:0:
369,229,19676,1,0,1:0:0:0:
472,277,19872,1,0,1:0:0:0:
321,332,20068,1,8,0:0:0:0:
256,155,20362,1,0,0:0:0:0:
256,155,20460,5,0,1:0:0:0:
195,336,20754,1,0,0:0:0:0:
195,336,20852,1,8,0:0:0:0:
113,244,21048,1,0,0:0:0:0:
136,229,21146,1,0,0:0:0:0:
160,214,21244,1,0,1:0:0:0:
115,323,21440,1,0,1:0:0:0:
43,206,21637,1,8,0:0:0:0:
213,78,22029,6,0,P|167:81|133:78,1,56,0|0,1:0|0:0,0:0:0:0:
138,56,22323,1,0,0:0:0:0:
138,56,22421,1,8,0:0:0:0:
278,125,22715,1,0,0:0:0:0:
278,125,22813,1,0,1:0:0:0:
241,5,23009,1,0,1:0:0:0:
182,156,23205,2,0,P|184:219|189:255,1,84,8|0,0:0|0:0,0:0:0:0:
217,250,23597,5,0,1:0:0:0:
189,254,23695,1,0,3:0:0:0:
161,257,23793,1,0,3:0:0:0:
133,258,23891,1,0,3:0:0:0:
105,256,23989,1,0,1:0:0:0:
78,265,24087,1,0,3:0:0:0:
59,285,24185,1,0,3:0:0:0:
51,312,24283,1,0,3:0:0:0:
56,339,24381,5,0,1:0:0:0:
72,362,24479,1,0,3:0:0:0:
97,374,24577,1,0,3:0:0:0:
124,375,24675,1,0,3:0:0:0:
149,363,24774,1,0,1:0:0:0:
175,353,24872,1,0,3:0:0:0:
202,346,24970,1,0,3:0:0:0:
230,342,25068,1,0,3:0:0:0:
258,341,25166,6,0,L|292:342,3,18.6666666666667,0|0|0|0,3:0|0:0|0:0|2:0,0:0:0:0:
335,275,25460,1,0,2:0:0:0:
335,275,25558,2,0,L|317:275,3,18.6666666666667,0|0|0|0,3:0|0:0|0:0|2:0,0:0:0:0:
258,209,25852,1,0,0:0:0:0:
258,209,25950,2,0,L|292:207,10,18.6666666666667,0|0|0|0|0|0|0|0|0|0|0,3:0|0:0|0:0|3:0|0:0|0:0|3:0|0:0|0:0|3:0|0:0,0:0:0:0:
339,147,26735,5,4,1:0:0:0:
76,221,39284,6,0,P|123:224|174:219,1,84,0|0,1:0|0:0,0:0:0:0:
177,193,39676,1,8,0:0:0:0:
118,301,39872,1,0,0:0:0:0:
132,323,39970,1,0,0:0:0:0:
147,347,40068,2,0,P|172:319|191:285,1,56,2|0,1:2|0:0,0:0:0:0:
213,312,40362,2,0,P|247:311|288:317,1,56,2|0,0:0|0:0,0:0:0:0:
295,338,40656,1,2,0:0:0:0:
271,206,40852,6,0,P|306:194|340:174,1,56,2|0,1:2|0:0,0:0:0:0:
345,208,41146,2,0,P|374:224|407:249,1,56,2|0,0:0|0:0,0:0:0:0:
403,272,41440,1,2,0:0:0:0:
448,145,41637,1,0,1:0:0:0:
367,68,41833,1,0,1:0:0:0:
339,69,41931,1,0,0:0:0:0:
311,70,42029,1,8,0:0:0:0:
429,19,42225,1,0,0:0:0:0:
367,149,42421,6,0,P|321:155|259:152,1,84,0|0,1:0|0:0,0:0:0:0:
257,129,42813,1,8,0:0:0:0:
325,234,43009,1,0,0:0:0:0:
309,257,43107,1,0,0:0:0:0:
294,280,43205,2,0,P|268:248|248:230,1,56,2|0,1:2|0:0,0:0:0:0:
227,252,43499,1,2,0:0:0:0:
210,373,43695,1,0,0:0:0:0:
210,373,43793,1,2,0:0:0:0:
87,349,43989,5,0,1:0:0:0:
113,234,44186,1,0,0:0:0:0:
113,234,44284,1,2,0:0:0:0:
138,119,44480,1,0,0:0:0:0:
138,119,44578,1,2,0:0:0:0:
159,0,44774,5,0,1:0:0:0:
26,43,44970,1,0,1:0:0:0:
53,44,45068,1,0,0:0:0:0:
81,45,45166,1,8,0:0:0:0:
230,54,45362,1,8,0:0:0:0:
221,203,45558,6,0,P|222:246|230:290,1,84,2|0,1:2|0:0,0:0:0:0:
258,300,45950,1,8,0:0:0:0:
323,219,46146,1,0,0:0:0:0:
376,327,46342,1,0,1:0:0:0:
484,274,46538,1,0,1:0:0:0:
457,265,46636,1,0,0:0:0:0:
430,256,46734,1,8,0:0:0:0:
453,348,46931,1,0,0:0:0:0:
495,195,47127,5,0,1:0:0:0:
384,167,47323,1,0,0:0:0:0:
384,167,47421,1,2,0:0:0:0:
434,260,47617,1,0,0:0:0:0:
434,260,47715,1,2,0:0:0:0:
323,255,47911,2,0,P|285:258|256:264,1,56,0|0,1:0|0:0,0:0:0:0:
250,290,48205,1,0,0:0:0:0:
250,290,48303,1,8,0:0:0:0:
376,314,48499,1,0,0:0:0:0:
304,177,48695,6,0,P|266:176|207:167,1,84,2|0,1:2|0:0,0:0:0:0:
208,141,49087,1,2,0:0:0:0:
267,261,49284,1,0,0:0:0:0:
152,260,49480,2,0,P|115:249|60:225,1,84,0|0,1:0|0:0,0:0:0:0:
68,200,49872,1,10,0:0:0:0:
47,316,50068,1,0,0:0:0:0:
73,325,50166,1,0,0:0:0:0:
99,335,50264,5,2,1:2:0:0:
68,200,50558,5,2,0:2:0:0:
195,136,50852,5,0,0:2:0:0:
195,136,50950,1,0,0:0:0:0:
195,136,51048,5,2,1:2:0:0:
340,218,51342,5,2,0:2:0:0:
463,104,51636,5,0,0:2:0:0:
287,142,51833,5,4,1:2:0:0:
271,165,51931,1,0,1:0:0:0:
258,190,52029,1,0,1:0:0:0:
378,136,52225,1,8,3:2:0:0:
269,50,52421,1,0,0:0:0:0:
390,22,52617,2,0,P|437:24|475:20,1,84,4|0,3:0|0:0,0:0:0:0:
497,0,53009,2,0,P|503:36|510:62,1,56,8|0,3:2|0:0,0:0:0:0:
420,171,53401,5,0,1:0:0:0:
399,153,53499,1,0,1:0:0:0:
378,136,53597,1,0,1:0:0:0:
490,134,53793,1,8,3:2:0:0:
432,249,53989,1,0,0:0:0:0:
305,230,54186,2,0,P|249:227|203:232,1,84,4|0,3:0|0:0,0:0:0:0:
201,257,54578,1,8,3:2:0:0:
300,150,54774,1,0,0:0:0:0:
361,287,54970,5,0,1:0:0:0:
355,314,55068,1,0,1:0:0:0:
344,340,55166,1,0,1:0:0:0:
184,310,55362,1,8,1:2:0:0:
190,283,55460,1,0,1:0:0:0:
201,257,55558,1,0,1:0:0:0:
256,367,55754,1,4,3:0:0:0:
129,384,55950,1,0,0:0:0:0:
59,245,56146,2,0,L|133:248,1,56,8|0,3:2|0:0,0:0:0:0:
20,351,56538,6,0,P|25:298|38:257,1,84,0|0,1:0|0:0,0:0:0:0:
59,245,56931,2,0,P|33:224|15:204,1,56,8|0,3:2|0:0,0:0:0:0:
149,47,57323,2,0,P|144:100|131:141,1,84,0|0,1:0|0:0,0:0:0:0:
114,151,57715,2,0,L|186:154,1,56,8|0,3:2|0:0,0:0:0:0:
282,49,58107,5,0,1:0:0:0:
254,45,58205,1,0,1:0:0:0:
227,43,58303,1,0,1:0:0:0:
287,164,58499,1,8,3:2:0:0:
166,224,58695,1,0,0:0:0:0:
311,267,58891,2,0,P|341:267|405:273,1,84,4|0,3:0|0:0,0:0:0:0:
417,295,59284,2,0,P|409:331|401:354,1,56,8|0,3:2|0:0,0:0:0:0:
260,288,59676,5,0,1:0:0:0:
285,275,59774,1,0,1:0:0:0:
311,267,59872,1,0,1:0:0:0:
303,384,60068,1,8,3:2:0:0:
192,337,60264,1,0,0:0:0:0:
81,384,60460,2,0,P|62:347|35:311,1,84,4|0,3:0|0:0,0:0:0:0:
4,318,60852,2,0,L|8:253,1,56,8|0,3:2|0:0,0:0:0:0:
96,143,61244,5,0,1:0:0:0:
123,142,61342,1,0,1:0:0:0:
151,145,61440,1,0,1:0:0:0:
231,241,61636,1,8,1:2:0:0:
203,241,61734,1,0,1:0:0:0:
176,239,61832,1,0,1:0:0:0:
256,137,62029,1,4,3:0:0:0:
337,226,62225,1,0,0:0:0:0:
346,85,62421,2,0,L|349:23,1,56,8|0,3:2|0:0,0:0:0:0:
201,37,62813,6,0,P|212:84|231:126,1,84,0|0,1:0|0:0,0:0:0:0:
256,137,63205,2,0,P|223:157|201:178,1,56,8|0,3:2|0:0,0:0:0:0:
57,244,63597,2,0,P|46:197|27:155,1,84,0|0,1:0|0:0,0:0:0:0:
2,144,63989,1,8,3:2:0:0:
128,183,64186,1,8,0:0:0:0:
84,44,64382,5,4,1:2:0:0:
56,42,64480,1,0,1:0:0:0:
28,44,64578,1,0,1:0:0:0:
150,100,64774,1,8,3:2:0:0:
200,0,64970,1,0,0:0:0:0:
250,150,65166,2,0,P|245:205|237:234,1,84,4|0,3:0|0:0,0:0:0:0:
207,247,65558,2,0,P|232:274|252:304,1,56,8|0,3:2|0:0,0:0:0:0:
96,344,65950,5,0,1:0:0:0:
103,317,66048,1,0,1:0:0:0:
114,291,66146,1,0,1:0:0:0:
194,384,66342,1,8,3:2:0:0:
306,337,66538,1,0,0:0:0:0:
418,384,66735,2,0,P|440:357|491:319,1,84,4|0,3:0|0:0,0:0:0:0:
508,335,67127,2,0,L|504:277,1,56,8|0,3:2|0:0,0:0:0:0:
379,186,67519,5,0,1:0:0:0:
351,188,67617,1,0,1:0:0:0:
323,194,67715,1,0,1:0:0:0:
258,97,67911,1,8,1:2:0:0:
235,113,68009,1,0,1:0:0:0:
214,132,68107,1,0,1:0:0:0:
216,259,68303,1,4,3:0:0:0:
106,196,68499,1,0,0:0:0:0:
66,342,68695,2,0,P|99:336|129:334,1,56,8|0,3:2|0:0,0:0:0:0:
285,347,69087,6,0,P|267:308|247:272,1,84,0|0,1:0|0:0,0:0:0:0:
216,259,69480,2,0,P|245:241|274:229,1,56,8|0,3:2|0:0,0:0:0:0:
424,294,69872,2,0,P|441:255|461:219,1,84,0|0,1:0|0:0,0:0:0:0:
493,206,70265,2,0,P|464:188|435:176,1,56,8|0,3:2|0:0,0:0:0:0:
317,116,70656,5,0,1:0:0:0:
315,88,70754,1,0,1:0:0:0:
318,60,70852,1,0,1:0:0:0:
365,180,71048,1,8,3:2:0:0:
242,143,71244,1,0,0:0:0:0:
396,102,71440,2,0,P|433:77|470:43,1,84,4|0,3:0|0:0,0:0:0:0:
458,18,71833,2,0,P|490:39|512:60,1,56,8|0,3:2|0:0,0:0:0:0:
420,185,72225,5,0,1:0:0:0:
392,181,72323,1,0,1:0:0:0:
365,180,72421,1,0,1:0:0:0:
273,262,72617,1,8,3:2:0:0:
323,375,72813,1,0,0:0:0:0:
456,291,73009,2,0,P|451:238|439:193,1,84,4|0,3:0|0:0,0:0:0:0:
420,185,73401,2,0,P|452:163|473:142,1,56,8|0,3:2|0:0,0:0:0:0:
309,130,73793,5,0,1:0:0:0:
301,157,73891,1,0,1:0:0:0:
297,184,73989,1,0,1:0:0:0:
165,247,74186,1,8,1:2:0:0:
172,219,74284,1,0,1:0:0:0:
176,192,74382,1,0,1:0:0:0:
107,90,74578,1,4,3:0:0:0:
5,159,74774,1,0,0:0:0:0:
62,308,74970,2,0,P|89:315|116:326,1,56,8|0,3:2|0:0,0:0:0:0:
311,305,75362,6,0,P|260:324|231:339,1,84,0|0,1:0|0:0,0:0:0:0:
223,369,75754,2,0,P|204:335|183:310,1,56,8|0,3:2|0:0,0:0:0:0:
46,280,76146,5,0,1:0:0:0:
172,219,76342,1,0,1:0:0:0:
65,62,76538,5,8,1:2:0:0:
54,201,76734,1,8,1:2:0:0:
183,80,76931,6,0,P|232:76|275:79,1,70,6|0,1:2|0:0,0:0:0:0:
276,99,77225,2,0,L|279:40,1,35,2|0,1:2|0:0,0:0:0:0:
217,153,77519,1,0,1:0:0:0:
356,96,77715,2,0,P|374:63|400:26,1,70,2|0,1:2|0:0,0:0:0:0:
425,43,78009,2,0,L|422:-4,1,35,2|0,1:2|0:2,0:0:0:0:
441,135,78303,1,0,1:0:0:0:
329,187,78499,5,2,1:2:0:0:
389,314,78695,1,0,0:0:0:0:
423,313,78793,1,2,1:2:0:0:
458,310,78891,1,0,0:0:0:0:
407,207,79087,1,0,1:0:0:0:
291,258,79284,1,0,1:0:0:0:
326,118,79480,1,0,0:0:0:0:
326,152,79578,1,2,1:2:0:0:
329,187,79676,1,8,0:2:0:0:
250,93,79872,1,0,1:0:0:0:
214,236,80068,6,0,P|217:294|227:334,1,70,2|0,1:2|0:0,0:0:0:0:
241,329,80362,2,0,L|186:331,1,35,2|0,1:2|0:0,0:0:0:0:
135,227,80656,1,0,1:0:0:0:
291,258,80852,2,0,P|329:263|368:262,1,70,2|0,1:2|0:0,0:0:0:0:
389,246,81146,2,0,L|387:299,1,35,2|0,1:2|0:2,0:0:0:0:
301,382,81440,1,0,1:0:0:0:
329,187,81636,5,2,1:2:0:0:
476,258,81833,1,0,0:0:0:0:
476,258,81931,1,2,1:2:0:0:
445,90,82127,1,0,0:0:0:0:
445,90,82225,1,0,1:2:0:0:
277,121,82421,5,2,1:2:0:0:
149,14,82618,1,0,0:0:0:0:
149,14,82716,1,10,1:2:0:0:
115,199,82912,1,0,0:0:0:0:
115,199,83010,1,10,1:2:0:0:
77,380,83205,5,0,1:0:0:0:
184,262,83401,1,0,0:0:0:0:
213,280,83499,1,2,1:2:0:0:
241,302,83597,1,0,0:2:0:0:
96,290,83793,1,0,1:0:0:0:
205,171,83989,2,0,P|221:138|232:100,1,70,2|0,1:2|0:0,0:0:0:0:
213,83,84284,1,2,1:2:0:0:
213,83,84382,1,8,0:2:0:0:
86,110,84578,1,0,1:0:0:0:
184,262,84774,6,0,P|227:254|272:233,1,70,2|0,1:2|0:0,0:0:0:0:
283,223,85068,1,2,1:2:0:0:
283,223,85166,2,0,P|293:278|302:303,1,70,0|0,0:2|1:0,0:0:0:0:
378,181,85558,2,0,P|373:146|362:112,1,70,2|0,1:2|0:0,0:0:0:0:
341,88,85852,1,2,1:2:0:0:
341,88,85950,1,8,0:2:0:0:
473,135,86146,1,0,1:0:0:0:
313,206,86342,5,0,1:0:0:0:
344,190,86440,1,0,0:0:0:0:
378,181,86538,1,0,0:0:0:0:
466,310,86735,2,0,P|434:295|400:285,1,70,8|0,0:2|1:0,0:0:0:0:
274,312,87127,1,0,1:0:0:0:
245,291,87225,1,0,0:0:0:0:
220,267,87323,1,0,0:0:0:0:
348,343,87519,1,8,0:2:0:0:
213,364,87715,1,0,1:0:0:0:
286,221,87911,5,2,1:2:0:0:
113,170,88205,5,2,1:2:0:0:
18,330,88499,5,2,1:2:0:0:
18,330,88597,1,0,0:0:0:0:
18,330,88695,5,2,1:2:0:0:
113,170,88989,5,2,1:2:0:0:
6,1,89284,5,2,1:2:0:0:
6,1,89382,1,0,0:0:0:0:
6,1,89480,6,0,P|35:25|71:44,1,70,6|0,1:2|0:0,0:0:0:0:
93,28,89774,2,0,L|91:73,1,35,2|0,1:2|0:0,0:0:0:0:
5,133,90068,1,0,1:0:0:0:
160,104,90264,2,0,P|197:97|237:99,1,70,2|0,1:2|0:0,0:0:0:0:
256,118,90558,2,0,L|253:62,1,35,2|0,1:2|0:2,0:0:0:0:
195,206,90852,1,0,1:0:0:0:
355,156,91048,5,2,1:2:0:0:
305,279,91244,1,0,0:0:0:0:
320,310,91342,1,2,1:2:0:0:
339,339,91440,1,0,0:2:0:0:
470,354,91636,1,0,1:0:0:0:
305,279,91833,1,2,1:2:0:0:
436,260,92029,1,0,0:0:0:0:
455,232,92127,1,2,1:2:0:0:
471,201,92225,1,8,0:2:0:0:
418,81,92421,1,0,1:0:0:0:
256,192,92617,6,0,P|294:192|328:186,1,70,2|0,1:2|0:0,0:0:0:0:
350,166,92911,2,0,L|348:203,1,35,2|0,1:2|0:0,0:0:0:0:
233,288,93205,1,0,1:0:0:0:
172,139,93401,2,0,P|181:102|196:71,1,70,2|0,1:2|0:0,0:0:0:0:
221,54,93695,2,0,L|183:46,1,35,2|0,1:2|0:2,0:0:0:0:
83,179,93989,1,0,1:0:0:0:
272,139,94186,5,2,1:2:0:0:
265,260,94382,1,0,0:0:0:0:
265,260,94480,1,2,1:2:0:0:
259,382,94676,1,0,0:0:0:0:
259,382,94774,1,0,1:0:0:0:
437,371,94970,5,2,1:2:0:0:
426,195,95166,1,0,0:0:0:0:
426,195,95264,1,10,1:2:0:0:
417,20,95460,1,0,0:0:0:0:
417,20,95558,1,10,1:2:0:0:
251,102,95754,6,0,P|287:123|320:133,1,70,2|0,1:2|0:0,0:0:0:0:
339,110,96048,1,2,1:2:0:0:
339,110,96146,1,0,0:0:0:0:
247,207,96342,1,0,1:0:0:0:
163,70,96538,2,0,P|129:81|100:99,1,70,2|0,1:2|0:0,0:0:0:0:
92,133,96833,1,2,1:2:0:0:
92,133,96931,1,8,0:2:0:0:
89,0,97127,1,0,1:0:0:0:
0,160,97323,6,0,P|21:206|30:244,1,70,2|0,1:2|0:0,0:0:0:0:
11,250,97617,1,2,1:2:0:0:
11,250,97715,2,0,L|91:254,1,70,0|0,0:0|1:0,0:0:0:0:
237,351,98107,2,0,P|216:305|207:267,1,70,2|0,1:2|0:0,0:0:0:0:
226,261,98401,1,2,1:2:0:0:
226,261,98499,2,0,L|145:256,1,70,8|0,0:2|1:0,0:0:0:0:
32,352,98891,5,0,1:0:0:0:
66,347,98989,1,0,0:0:0:0:
101,346,99087,1,0,0:0:0:0:
11,250,99284,1,8,0:2:0:0:
108,160,99480,1,0,1:0:0:0:
17,63,99676,1,0,1:0:0:0:
43,41,99774,1,0,0:0:0:0:
73,23,99872,1,0,0:0:0:0:
184,68,100068,1,8,0:2:0:0:
108,160,100264,1,0,1:0:0:0:
276,144,100460,6,0,P|300:96|308:60,1,70,2|0,1:2|0:0,0:0:0:0:
286,53,100754,1,2,1:2:0:0:
286,53,100852,1,8,0:2:0:0:
197,203,101048,1,0,1:0:0:0:
198,237,101146,1,0,0:0:0:0:
200,272,101244,5,0,1:0:0:0:
276,144,101440,1,0,1:0:0:0:
371,378,101636,5,8,1:2:0:0:
287,237,101832,1,8,1:2:0:0:
213,372,102029,5,4,1:2:0:0:
213,372,102127,1,0,0:0:0:0:
213,372,102225,1,0,0:0:0:0:
61,364,102421,2,0,L|138:368,1,62.9999980773926,8|0,0:2|0:0,0:0:0:0:
200,272,102813,5,0,1:0:0:0:
229,260,102911,1,0,0:0:0:0:
260,254,103009,1,0,0:0:0:0:
291,259,103107,1,0,1:0:0:0:
319,272,103205,1,8,0:2:0:0:
348,284,103303,1,0,0:0:0:0:
379,289,103401,1,0,1:0:0:0:
410,283,103499,1,0,0:0:0:0:
446,278,103597,5,0,1:0:0:0:
446,278,103695,1,0,0:0:0:0:
446,278,103793,1,0,0:0:0:0:
380,166,103989,1,8,0:2:0:0:
512,179,104186,5,0,1:0:0:0:
510,147,104284,1,0,0:0:0:0:
508,116,104382,1,0,1:0:0:0:
390,18,104578,1,0,1:0:0:0:
388,49,104676,1,0,1:0:0:0:
386,80,104774,1,8,0:2:0:0:
268,179,104970,1,0,1:0:0:0:
266,148,105068,1,0,0:0:0:0:
271,124,105166,5,0,1:0:0:0:
271,124,105264,1,0,0:0:0:0:
271,124,105362,1,0,0:0:0:0:
114,116,105558,2,0,L|186:119,1,62.9999980773926,8|0,0:2|0:0,0:0:0:0:
85,24,105950,5,0,1:0:0:0:
56,38,106048,1,0,0:0:0:0:
34,60,106146,1,0,0:0:0:0:
21,88,106244,1,0,1:0:0:0:
16,119,106342,1,8,0:2:0:0:
23,150,106440,1,0,0:0:0:0:
38,177,106538,1,0,1:0:0:0:
62,198,106636,1,0,0:0:0:0:
99,217,106734,5,0,1:0:0:0:
99,217,106833,1,0,0:0:0:0:
99,217,106931,1,0,0:0:0:0:
176,119,107127,1,8,0:2:0:0:
218,273,107323,1,0,1:0:0:0:
218,273,107421,1,0,0:0:0:0:
218,273,107519,5,0,1:0:0:0:
333,241,107715,1,0,0:0:0:0:
406,346,107911,1,8,1:2:0:0:
291,314,108107,1,0,1:0:0:0:
375,168,108303,5,0,1:0:0:0:
375,136,108401,1,0,0:0:0:0:
367,106,108499,1,0,0:0:0:0:
350,79,108597,1,0,1:0:0:0:
326,59,108695,1,8,0:2:0:0:
256,157,108891,1,0,1:0:0:0:
185,59,109087,5,0,1:0:0:0:
161,79,109185,1,0,0:0:0:0:
144,106,109283,1,0,0:0:0:0:
136,136,109381,1,0,1:0:0:0:
137,168,109479,1,8,0:0:0:0:
256,220,109676,1,0,1:0:0:0:
256,188,109774,1,0,0:0:0:0:
263,164,109872,5,0,1:0:0:0:
263,164,109970,1,0,0:0:0:0:
263,164,110068,1,0,0:0:0:0:
305,299,110264,1,8,0:2:0:0:
179,272,110460,1,0,0:0:0:0:
342,212,110656,5,0,1:0:0:0:
373,210,110754,1,0,0:0:0:0:
403,218,110852,1,0,0:0:0:0:
430,234,110950,1,0,1:0:0:0:
451,258,111048,1,8,0:2:0:0:
475,238,111146,1,0,0:0:0:0:
492,211,111244,1,0,1:0:0:0:
502,182,111342,1,0,0:0:0:0:
510,157,111440,5,0,1:0:0:0:
510,157,111538,1,0,0:0:0:0:
510,157,111636,1,0,0:0:0:0:
339,150,111833,2,0,L|342:212,1,62.9999980773926,8|0,0:2|0:0,0:0:0:0:
425,114,112225,1,0,1:0:0:0:
451,258,112421,1,0,0:0:0:0:
449,289,112519,1,0,1:0:0:0:
447,320,112617,1,8,0:2:0:0:
502,182,112813,1,0,1:0:0:0:
368,287,113009,5,0,1:0:0:0:
346,308,113107,1,0,0:0:0:0:
317,321,113205,1,0,0:0:0:0:
286,325,113303,1,0,0:0:0:0:
256,318,113401,1,8,0:2:0:0:
229,302,113499,1,0,0:0:0:0:
209,278,113597,1,0,1:0:0:0:
197,249,113695,1,0,0:0:0:0:
196,218,113793,5,0,1:0:0:0:
194,186,113891,1,0,0:0:0:0:
183,157,113989,1,0,0:0:0:0:
162,133,114087,1,0,1:0:0:0:
135,117,114186,1,8,0:0:0:0:
105,110,114284,1,0,0:0:0:0:
74,114,114382,1,8,1:2:0:0:
45,127,114480,1,0,0:0:0:0:
30,156,114578,5,4,1:2:0:0:
30,156,114676,1,0,0:0:0:0:
30,156,114774,1,0,0:0:0:0:
103,265,114970,2,0,L|100:203,1,62.9999980773926,8|0,0:2|0:0,0:0:0:0:
46,356,115362,5,0,1:0:0:0:
77,357,115460,1,0,0:0:0:0:
108,359,115558,1,0,0:0:0:0:
140,360,115656,1,0,0:0:0:0:
171,362,115754,1,8,0:2:0:0:
203,364,115852,1,0,0:0:0:0:
234,365,115950,1,0,1:0:0:0:
266,367,116048,1,0,0:0:0:0:
304,376,116146,5,0,1:0:0:0:
304,376,116244,1,0,0:0:0:0:
304,376,116342,1,0,0:0:0:0:
209,278,116538,1,8,0:2:0:0:
329,212,116735,5,0,1:0:0:0:
360,213,116833,1,0,0:0:0:0:
391,215,116931,1,0,1:0:0:0:
271,135,117127,1,0,1:0:0:0:
302,134,117225,1,0,0:0:0:0:
333,132,117323,1,8,0:2:0:0:
212,51,117519,1,0,1:0:0:0:
243,52,117617,1,0,0:0:0:0:
281,61,117715,5,0,1:0:0:0:
281,61,117813,1,0,0:0:0:0:
281,61,117911,1,0,0:0:0:0:
160,141,118107,2,0,L|68:144,1,62.9999980773926,8|0,0:2|0:0,0:0:0:0:
215,227,118499,5,0,1:0:0:0:
245,237,118597,1,0,0:0:0:0:
270,255,118695,1,0,0:0:0:0:
290,280,118793,1,0,1:0:0:0:
303,309,118891,1,8,0:2:0:0:
271,302,118989,1,0,0:0:0:0:
240,305,119087,1,0,1:0:0:0:
211,316,119185,1,0,0:0:0:0:
192,342,119283,5,0,1:0:0:0:
192,342,119382,1,0,0:0:0:0:
192,342,119480,1,0,0:0:0:0:
91,224,119676,2,0,P|85:170|87:139,1,62.9999980773926,8|0,0:2|0:0,0:0:0:0:
113,140,119970,1,0,0:0:0:0:
113,140,120068,5,0,1:0:0:0:
39,300,120264,1,0,0:0:0:0:
0,125,120460,2,0,P|17:61|18:11,1,94.499997116089,8|0,0:2|0:0,0:0:0:0:
8,12,120852,5,0,1:0:0:0:
8,12,120950,1,0,0:0:0:0:
8,12,121048,1,0,0:0:0:0:
140,56,121244,2,0,L|210:52,1,62.9999980773926,8|0,0:2|0:0,0:0:0:0:
317,0,121636,5,0,1:0:0:0:
344,14,121734,1,0,0:0:0:0:
362,40,121832,1,0,0:0:0:0:
368,71,121930,1,0,0:0:0:0:
359,101,122028,1,8,0:2:0:0:
386,86,122127,1,0,0:0:0:0:
414,72,122225,1,0,1:0:0:0:
442,58,122323,1,0,0:0:0:0:
477,50,122421,5,0,1:0:0:0:
477,50,122519,1,0,0:0:0:0:
477,50,122617,1,0,0:0:0:0:
459,197,122813,1,8,0:2:0:0:
359,101,123009,5,0,1:0:0:0:
327,102,123107,1,0,0:0:0:0:
296,104,123205,1,0,1:0:0:0:
313,239,123401,1,0,1:0:0:0:
327,210,123499,1,0,0:0:0:0:
341,182,123597,1,8,0:2:0:0:
212,125,123793,1,0,1:0:0:0:
230,152,123891,1,0,0:0:0:0:
254,185,123989,5,0,1:0:0:0:
254,185,124087,1,0,0:0:0:0:
254,185,124186,1,0,0:0:0:0:
119,130,124382,1,8,0:2:0:0:
140,277,124578,1,0,1:0:0:0:
277,333,124774,5,0,1:0:0:0:
305,346,124872,1,0,0:0:0:0:
336,351,124970,1,0,0:0:0:0:
367,348,125068,1,0,1:0:0:0:
396,336,125166,1,8,0:2:0:0:
294,255,125362,1,0,1:0:0:0:
206,370,125558,5,0,1:0:0:0:
164,376,125656,1,0,0:0:0:0:
125,363,125754,1,0,0:0:0:0:
95,335,125852,1,0,0:0:0:0:
80,295,125950,1,8,0:2:0:0:
85,254,126048,1,0,0:0:0:0:
107,219,126146,1,0,1:0:0:0:
142,197,126244,1,0,0:0:0:0:
184,193,126342,5,0,1:0:0:0:
225,189,126440,1,0,0:0:0:0:
260,167,126538,1,0,1:0:0:0:
283,132,126636,1,0,0:0:0:0:
287,90,126734,1,8,1:2:0:0:
273,51,126832,1,0,0:0:0:0:
243,23,126930,1,8,1:2:0:0:
203,10,127028,1,0,0:0:0:0:
162,16,127126,5,4,1:2:0:0:
160,0,139676,5,2,0:0:0:0:
320,128,141244,1,2,0:0:0:0:
224,256,142813,1,2,0:0:0:0:
256,384,144774,5,2,0:0:0:0:
224,256,145166,1,2,0:0:0:0:
320,128,145558,1,2,0:0:0:0:
160,0,145950,5,4,3:2:0:0:
158,27,146048,1,0,3:2:0:0:
157,55,146146,1,0,3:2:0:0:
155,83,146244,1,0,3:2:0:0:
154,111,146342,1,8,3:2:0:0:
48,76,146538,1,0,3:2:0:0:
13,182,146735,5,0,3:2:0:0:
10,209,146833,1,0,3:2:0:0:
16,236,146931,1,0,3:2:0:0:
30,260,147029,1,0,3:2:0:0:
51,279,147127,1,8,3:2:0:0:
157,243,147323,1,0,3:2:0:0:
193,349,147519,6,0,L|231:346,3,28,0|0|0|0,3:2|3:2|3:2|3:2,3:2:0:0:
233,269,147911,2,0,L|271:271,3,28,0|0|0|0,3:2|3:2|3:2|3:2,3:2:0:0:
300,339,148303,5,6,3:2:0:0:
327,337,148401,1,0,3:2:0:0:
355,336,148499,1,0,3:2:0:0:
383,334,148597,1,0,3:2:0:0:
411,333,148695,5,14,3:2:0:0:
399,307,148793,1,0,3:2:0:0:
395,280,148891,1,0,3:2:0:0:
399,252,148989,1,0,3:2:0:0:
411,227,149087,6,0,L|450:229,3,28,4|0|0|0,3:2|3:2|3:2|3:2,3:2:0:0:
336,202,149480,2,0,L|296:204,3,28,0|0|0|0,3:2|3:2|3:2|3:2,3:2:0:0:
395,148,149872,5,4,3:2:0:0:
395,137,149970,1,0,3:2:0:0:
396,127,150068,1,0,3:2:0:0:
396,116,150166,1,0,3:2:0:0:
397,106,150264,1,0,3:2:0:0:
397,95,150362,1,0,3:2:0:0:
398,85,150460,1,0,3:2:0:0:
398,74,150558,1,0,3:2:0:0:
399,64,150656,5,4,3:2:0:0:
378,82,150754,1,0,3:2:0:0:
352,94,150852,1,0,3:2:0:0:
325,99,150950,1,0,3:2:0:0:
297,97,151048,1,4,3:2:0:0:
270,89,151146,1,0,3:2:0:0:
242,89,151244,1,4,3:2:0:0:
215,97,151342,1,0,3:2:0:0:
193,113,151440,5,4,3:2:0:0:
233,121,151538,1,0,3:2:0:0:
264,149,151636,1,0,3:2:0:0:
274,190,151734,1,4,3:2:0:0:
261,229,151832,1,2,3:2:0:0:
229,255,151930,1,0,3:2:0:0:
188,260,152028,1,4,3:2:0:0:
151,242,152126,1,0,3:2:0:0:
129,207,152225,6,0,L|124:291,1,83.9999974365235,6|0,1:2|0:0,0:0:0:0:
72,360,152519,1,2,1:2:0:0:
72,360,152617,2,0,P|55:312|27:276,1,83.9999974365235,8|0,0:0|0:0,0:0:0:0:
203,361,153009,6,0,L|296:365,1,83.9999974365235,2|0,1:2|0:0,0:0:0:0:
351,304,153303,1,2,1:2:0:0:
351,304,153401,2,0,P|300:294|255:273,1,83.9999974365235,8|0,0:0|0:0,0:0:0:0:
418,137,153793,5,2,1:2:0:0:
512,243,153989,1,0,0:0:0:0:
509,284,154087,1,2,1:2:0:0:
507,326,154185,1,8,0:0:0:0:
416,233,154382,1,0,1:0:0:0:
501,88,154578,5,2,1:2:0:0:
394,0,154774,1,0,0:0:0:0:
352,2,154872,1,2,1:2:0:0:
310,4,154970,1,8,0:0:0:0:
321,141,155166,1,0,1:0:0:0:
173,15,155362,6,0,P|102:15|62:21,1,83.9999974365235,2|0,1:2|0:0,0:0:0:0:
161,93,155656,1,2,1:2:0:0:
161,93,155754,2,0,P|232:93|272:87,1,83.9999974365235,8|0,0:0|0:0,0:0:0:0:
86,177,156146,6,0,P|24:212|-7:237,1,83.9999974365235,2|0,1:2|0:0,0:0:0:0:
114,250,156440,1,2,1:2:0:0:
114,250,156538,2,0,P|175:214|207:189,1,83.9999974365235,8|0,0:0|0:0,0:0:0:0:
87,379,156931,5,2,1:2:0:0:
190,300,157127,1,0,0:0:0:0:
229,312,157225,1,2,1:2:0:0:
269,325,157323,1,8,0:0:0:0:
167,376,157519,1,0,1:0:0:0:
292,249,157715,5,2,1:2:0:0:
411,375,157911,1,0,0:0:0:0:
411,375,158009,1,2,1:2:0:0:
233,316,158205,1,0,0:0:0:0:
233,316,158303,1,6,0:2:0:0:
413,250,158499,6,0,P|425:209|430:168,1,83.9999974365235,2|0,1:2|0:0,0:0:0:0:
498,248,158793,1,2,1:2:0:0:
498,247,158891,2,0,P|486:288|483:331,1,83.9999974365235,8|0,0:0|0:0,0:0:0:0:
430,167,159284,6,0,P|378:167|332:175,1,83.9999974365235,2|0,1:2|0:0,0:0:0:0:
405,86,159578,1,2,1:2:0:0:
405,86,159676,2,0,P|456:85|502:77,1,83.9999974365235,8|0,0:0|0:0,0:0:0:0:
286,64,160068,5,2,1:2:0:0:
209,158,160264,1,0,0:0:0:0:
211,199,160362,1,2,1:2:0:0:
213,241,160460,1,8,0:0:0:0:
295,331,160656,1,0,1:0:0:0:
303,159,160852,5,2,1:2:0:0:
213,241,161048,1,0,0:0:0:0:
171,238,161146,1,2,1:2:0:0:
129,236,161244,1,8,0:0:0:0:
209,327,161440,1,0,1:0:0:0:
62,336,161637,5,0,1:2:0:0:
50,308,161735,1,0,0:0:0:0:
62,280,161833,1,0,1:0:0:0:
50,252,161931,1,2,1:2:0:0:
50,252,162029,2,0,P|42:204|24:151,1,83.9999974365235,8|0,0:2|0:0,0:0:0:0:
79,12,162421,6,0,P|87:60|105:113,1,83.9999974365235,0|0,1:2|0:0,0:0:0:0:
219,160,162813,1,0,1:2:0:0:
243,142,162911,1,0,0:0:0:0:
247,112,163009,1,2,1:2:0:0:
269,99,163107,1,0,0:0:0:0:
269,99,163205,5,8,1:2:0:0:
289,230,163401,1,0,0:0:0:0:
289,230,163499,1,2,1:2:0:0:
420,210,163695,1,0,0:0:0:0:
420,210,163793,1,2,1:2:0:0:
358,348,163989,6,0,P|308:345|257:349,1,83.9999974365235,8|0,1:2|0:0,0:0:0:0:
254,373,164284,1,2,1:2:0:0:
365,270,164480,1,0,0:0:0:0:
365,270,164578,1,0,1:0:0:0:
495,376,164774,6,0,P|480:317|477:277,1,83.9999974365235,6|0,1:2|0:0,0:0:0:0:
512,222,165068,1,2,1:2:0:0:
512,222,165166,2,0,P|453:205|417:188,1,83.9999974365235,8|0,0:0|0:0,0:0:0:0:
360,59,165558,6,0,P|301:75|265:92,1,83.9999974365235,2|0,1:2|0:0,0:0:0:0:
235,151,165852,1,2,1:2:0:0:
235,151,165950,2,0,P|191:108|158:85,1,83.9999974365235,8|0,0:0|0:0,0:0:0:0:
33,203,166342,5,2,1:2:0:0:
71,83,166538,1,0,0:0:0:0:
68,41,166637,1,2,1:2:0:0:
66,0,166734,1,8,0:0:0:0:
4,128,166931,1,0,1:0:0:0:
133,191,167127,5,2,1:2:0:0:
223,99,167323,1,0,0:0:0:0:
264,101,167421,1,2,1:2:0:0:
306,103,167519,1,8,0:0:0:0:
392,200,167715,1,0,1:0:0:0:
512,102,167911,6,0,P|490:62|465:32,1,83.9999974365235,2|0,1:2|0:0,0:0:0:0:
383,32,168205,1,2,1:2:0:0:
383,32,168303,2,0,P|390:74|389:116,1,83.9999974365235,8|0,0:0|0:0,0:0:0:0:
244,244,168695,6,0,P|294:251|333:265,1,83.9999974365235,2|0,1:2|0:0,0:0:0:0:
408,298,168989,1,2,1:2:0:0:
408,298,169087,2,0,P|368:330|341:361,1,83.9999974365235,8|0,0:0|0:0,0:0:0:0:
191,372,169480,5,2,1:2:0:0:
244,244,169676,1,0,0:0:0:0:
206,224,169774,1,2,1:2:0:0:
169,205,169872,1,8,0:0:0:0:
275,332,170068,1,0,1:0:0:0:
397,161,170264,5,2,1:2:0:0:
216,126,170460,1,0,0:0:0:0:
216,126,170558,1,10,1:2:0:0:
35,91,170754,1,0,0:0:0:0:
35,91,170852,1,10,1:2:0:0:
224,0,171048,6,0,P|271:7|320:7,1,83.9999974365235,2|0,1:2|0:0,0:0:0:0:
164,52,171342,1,2,1:2:0:0:
164,52,171440,2,0,P|134:89|109:131,1,83.9999974365235,8|0,0:0|0:0,0:0:0:0:
267,196,171833,5,2,1:2:0:0:
242,177,171931,1,0,0:2:0:0:
238,147,172029,1,0,1:0:0:0:
216,126,172127,1,10,1:2:0:0:
248,274,172323,1,0,0:0:0:0:
248,274,172421,1,8,1:2:0:0:
396,150,172617,6,0,P|390:103|380:61,1,83.9999974365235,2|0,1:2|0:0,0:0:0:0:
350,215,172911,1,2,1:2:0:0:
350,215,173009,2,0,P|393:233|435:245,1,83.9999974365235,8|0,0:0|0:0,0:0:0:0:
381,67,173401,5,2,1:2:0:0:
352,54,173499,1,0,1:2:0:0:
324,66,173597,1,0,1:2:0:0:
294,57,173695,1,10,1:2:0:0:
439,11,173891,1,0,0:0:0:0:
439,11,173989,1,8,1:2:0:0:
510,145,174186,5,2,3:2:0:0:
508,176,174284,1,0,0:2:0:0:
506,207,174382,1,2,3:3:0:0:
505,239,174480,1,0,0:2:0:0:
503,270,174578,1,8,3:2:0:0:
432,353,174774,1,2,3:3:0:0:
355,243,174970,6,0,P|299:238|252:240,1,83.9999974365235,2|0,1:2|0:0,0:0:0:0:
229,307,175264,2,0,P|185:309|142:305,1,83.9999974365235,2|0,1:2|0:0,0:0:0:0:
128,289,175558,1,0,1:0:0:0:
128,289,175656,1,0,0:0:0:0:
128,289,175754,5,2,1:2:0:0:
8,160,176048,5,2,1:2:0:0:
192,50,176342,5,2,1:2:0:0:
233,196,176538,1,6,3:2:0:0:
260,211,176637,1,0,3:2:0:0:
291,215,176734,1,0,3:2:0:0:
321,208,176832,1,6,3:2:0:0:
347,190,176930,1,0,3:2:0:0:
364,163,177028,1,0,3:2:0:0:
370,133,177126,1,6,3:2:0:0:
364,102,177224,1,0,3:2:0:0:
348,75,177323,6,0,L|401:77,1,41.9999987182618,6|0,1:2|0:0,0:0:0:0:
284,130,177519,2,0,L|243:93,1,41.9999987182618,0|0,1:0|0:2,0:0:0:0:
364,163,177715,2,0,P|388:204|402:237,1,83.9999974365235,8|0,0:0|0:0,0:0:0:0:
284,374,178107,5,2,1:2:0:0:
422,318,178303,1,0,0:0:0:0:
422,318,178401,1,2,1:2:0:0:
286,261,178597,1,0,0:0:0:0:
286,261,178695,1,0,1:0:0:0:
148,317,178891,6,0,L|97:314,1,41.9999987182618,2|0,1:2|0:0,0:0:0:0:
182,220,179087,2,0,L|202:258,1,41.9999987182618,0|0,1:0|0:2,0:0:0:0:
82,239,179284,2,0,P|106:200|123:165,1,83.9999974365235,8|0,0:0|0:0,0:0:0:0:
10,53,179676,5,2,1:2:0:0:
137,4,179872,1,0,0:0:0:0:
137,4,179970,1,2,1:2:0:0:
222,109,180166,1,0,0:0:0:0:
222,109,180264,1,0,1:0:0:0:
344,0,180460,5,2,1:2:0:0:
372,14,180558,1,0,0:0:0:0:
400,28,180656,1,0,1:0:0:0:
428,42,180754,1,0,0:2:0:0:
456,57,180852,2,0,P|494:91|512:118,1,83.9999974365235,8|0,0:0|0:0,0:0:0:0:
373,205,181244,6,0,L|401:160,1,41.9999987182618,2|0,1:2|0:0,0:0:0:0:
413,299,181440,2,0,L|371:296,1,41.9999987182618,0|0,1:0|0:2,0:0:0:0:
475,218,181637,2,0,P|490:257|512:295,1,83.9999974365235,8|0,0:0|0:0,0:0:0:0:
278,294,182029,5,2,1:2:0:0:
251,311,182127,1,0,0:0:0:0:
225,328,182225,1,0,1:0:0:0:
198,345,182323,1,0,0:2:0:0:
172,362,182421,2,0,P|131:376|91:382,1,83.9999974365235,8|0,0:2|0:0,0:0:0:0:
51,180,182813,5,10,1:2:0:0:
257,192,183009,1,0,0:0:0:0:
257,192,183107,1,10,1:2:0:0:
463,205,183303,1,0,0:0:0:0:
463,205,183401,1,10,1:2:0:0:
370,12,183597,6,0,L|332:69,1,41.9999987182618,2|0,1:2|0:0,0:0:0:0:
250,62,183793,2,0,L|272:97,1,41.9999987182618,0|0,1:0|0:2,0:0:0:0:
396,123,183989,2,0,P|364:159|342:197,1,83.9999974365235,8|0,1:2|0:2,0:0:0:0:
341,384,184382,5,2,1:2:0:0:
494,302,184578,1,0,0:0:0:0:
494,302,184676,1,2,1:2:0:0:
329,273,184872,1,0,0:0:0:0:
329,273,184970,1,0,1:2:0:0:
201,375,185166,6,0,L|244:377,1,41.9999987182618,2|0,1:2|0:0,0:0:0:0:
142,302,185362,2,0,L|121:338,1,41.9999987182618,0|0,1:0|0:2,0:0:0:0:
234,287,185558,2,0,P|210:246|192:207,1,83.9999974365235,8|0,1:2|0:2,0:0:0:0:
329,99,185950,5,2,1:2:0:0:
192,25,186146,1,0,0:0:0:0:
192,25,186244,1,2,1:2:0:0:
118,162,186440,1,0,0:0:0:0:
118,162,186538,1,0,1:0:0:0:
256,67,186735,6,0,P|284:33|305:0,1,83.9999974365235,2|0,1:2|0:0,0:0:0:0:
333,103,187029,1,2,1:2:0:0:
333,103,187127,2,0,P|334:144|341:186,1,83.9999974365235,8|0,0:0|0:0,0:0:0:0:
481,96,187519,6,0,L|407:34,1,83.9999974365235,2|0,1:2|0:0,0:0:0:0:
376,35,187813,1,2,1:2:0:0:
256,67,188009,1,0,0:0:0:0:
235,94,188107,1,2,1:2:0:0:
248,124,188205,1,0,0:0:0:0:
227,151,188303,5,2,1:2:0:0:
312,267,188499,1,0,0:0:0:0:
312,267,188597,1,8,1:2:0:0:
397,383,188793,1,0,0:0:0:0:
397,383,188891,1,8,1:2:0:0:
400,211,189087,6,0,P|344:221|308:235,1,83.9999974365235,8|0,1:2|0:0,0:0:0:0:
312,267,189382,1,2,1:2:0:0:
473,299,189578,1,0,0:0:0:0:
473,299,189676,1,0,1:0:0:0:
291,372,189872,6,0,L|254:348,1,41.9999987182618,6|0,1:2|0:0,0:0:0:0:
178,363,190068,2,0,L|180:319,1,41.9999987182618,0|0,1:0|0:2,0:0:0:0:
129,260,190264,2,0,P|172:237|203:213,1,83.9999974365235,8|0,0:0|0:0,0:0:0:0:
86,343,190656,5,2,1:2:0:0:
42,194,190852,1,0,0:0:0:0:
42,194,190950,1,2,1:2:0:0:
204,220,191146,1,0,0:0:0:0:
204,220,191244,1,0,1:0:0:0:
347,337,191440,6,0,L|366:297,1,41.9999987182618,2|0,1:2|0:0,0:0:0:0:
440,272,191636,2,0,L|416:235,1,41.9999987182618,0|0,1:0|0:2,0:0:0:0:
431,159,191832,2,0,P|381:160|343:155,1,83.9999974365235,8|0,1:2|0:0,0:0:0:0:
510,209,192224,5,2,1:2:0:0:
473,58,192420,1,0,0:0:0:0:
473,58,192518,1,2,1:2:0:0:
351,160,192714,1,0,0:0:0:0:
351,160,192812,1,0,1:0:0:0:
210,33,193009,5,2,1:2:0:0:
193,58,193107,1,0,0:2:0:0:
163,63,193205,1,0,1:2:0:0:
146,88,193303,1,10,1:2:0:0:
216,221,193499,1,0,0:0:0:0:
216,221,193597,1,8,1:2:0:0:
93,323,193793,5,2,1:2:0:0:
81,295,193891,1,0,1:2:0:0:
93,267,193989,1,0,1:2:0:0:
81,239,194087,1,10,1:2:0:0:
6,372,194284,1,0,0:0:0:0:
6,372,194382,1,8,1:2:0:0:
189,350,194578,6,0,P|232:341|277:340,1,83.9999974365235,2|0,1:2|0:0,0:0:0:0:
315,253,194872,1,2,1:2:0:0:
315,253,194970,2,0,P|272:262|227:263,1,83.9999974365235,12|0,1:2|0:0,0:0:0:0:
376,339,195362,5,4,1:2:0:0:
386,171,195558,1,0,0:0:0:0:
218,161,195754,2,0,P|162:179|137:195,1,83.9999974365235,12|0,1:2|0:0,0:0:0:0:
186,90,196048,1,0,0:0:0:0:
186,90,196146,6,0,P|241:71|266:55,1,83.9999974365235,6|0,1:2|0:0,0:0:0:0:
312,0,196440,2,0,P|360:32|380:54,1,83.9999974365235,8|0,1:2|0:0,0:0:0:0:
324,106,196735,1,8,1:2:0:0:
188,0,196931,5,2,1:2:0:0:
160,12,197029,1,0,0:2:0:0:
132,0,197127,1,0,1:2:0:0:
104,12,197225,1,10,1:2:0:0:
4,137,197421,1,0,0:0:0:0:
4,137,197519,1,8,1:2:0:0:
187,173,197715,6,0,P|190:124|182:75,1,83.9999974365235,2|0,1:2|0:0,0:0:0:0:
265,154,198009,2,0,P|262:203|270:252,1,83.9999974365235,8|0,1:2|0:0,0:0:0:0:
324,106,198303,1,8,1:2:0:0:
372,284,198499,6,0,P|328:293|289:310,1,83.9999974365235,2|0,1:2|0:0,0:0:0:0:
285,344,198793,1,2,1:2:0:0:
285,344,198891,1,8,1:2:0:0:
380,186,199087,1,8,1:2:0:0:
512,322,199284,6,0,P|468:331|429:348,1,83.9999974365235,2|0,1:2|0:0,0:0:0:0:
419,378,199578,1,0,1:2:0:0:
419,378,199676,1,10,1:2:0:0:
460,236,199872,1,0,1:0:0:0:
372,284,200068,5,2,1:2:0:0:
320,116,200362,5,2,1:2:0:0:
221,247,200656,5,2,1:2:0:0:
221,247,200754,1,0,0:0:0:0:
221,247,200852,5,6,1:2:0:0:
346,200,201146,5,2,1:2:0:0:
205,110,201440,5,2,1:2:0:0:
205,110,201538,1,0,0:0:0:0:
205,110,201637,5,6,1:2:0:0:
96,294,201931,5,2,1:2:0:0:
327,336,202225,5,2,1:2:0:0:
199,378,202421,2,0,P|217:330|225:295,1,83.9999974365235,4|0,0:0|0:0,0:0:0:0:
205,276,202715,1,0,0:0:0:0:
205,276,202813,1,8,0:0:0:0:
327,336,203009,1,0,0:0:0:0:
387,214,203205,5,0,1:2:0:0:
365,191,203303,1,0,1:0:0:0:
349,164,203401,1,0,0:0:0:0:
340,133,203499,1,0,1:0:0:0:
339,102,203597,1,8,1:2:0:0:
345,71,203695,1,0,0:0:0:0:
358,43,203793,1,0,1:0:0:0:
378,18,203891,1,0,0:0:0:0:
411,8,203989,5,0,1:2:0:0:
411,8,204087,1,0,0:0:0:0:
411,8,204186,1,0,0:0:0:0:
472,112,204382,1,8,0:0:0:0:
304,219,204578,5,0,1:0:0:0:
345,216,204676,1,0,0:0:0:0:
387,214,204774,1,0,1:0:0:0:
262,102,204970,1,0,1:0:0:0:
221,99,205068,1,0,0:0:0:0:
179,97,205166,1,8,1:2:0:0:
54,219,205362,1,0,1:0:0:0:
96,217,205460,1,0,0:0:0:0:
145,222,205558,5,0,1:0:0:0:
145,222,205656,1,0,0:0:0:0:
145,222,205754,1,0,0:0:0:0:
201,345,205950,2,0,L|109:341,1,83.9999974365235,8|0,0:0|1:0,0:0:0:0:
249,279,206342,5,0,1:2:0:0:
280,276,206440,1,0,0:0:0:0:
311,281,206538,1,0,0:0:0:0:
339,295,206636,1,0,1:0:0:0:
362,316,206734,1,8,1:2:0:0:
386,337,206832,1,0,0:0:0:0:
414,350,206930,1,0,1:0:0:0:
445,355,207028,1,0,0:0:0:0:
484,359,207126,5,0,1:0:0:0:
484,359,207225,1,0,0:0:0:0:
484,359,207323,1,0,0:0:0:0:
454,220,207519,1,8,0:0:0:0:
285,193,207715,5,0,1:0:0:0:
282,234,207813,1,0,0:0:0:0:
280,276,207911,1,0,1:0:0:0:
378,155,208107,1,0,1:0:0:0:
221,117,208303,1,8,0:0:0:0:
285,193,208499,1,0,1:0:0:0:
280,38,208695,5,0,1:0:0:0:
280,38,208793,1,0,0:0:0:0:
280,38,208891,1,0,0:0:0:0:
123,70,209087,2,0,L|127:155,1,83.9999974365235,8|0,0:0|0:0,0:0:0:0:
209,257,209480,5,0,1:0:0:0:
86,303,209676,1,0,0:0:0:0:
109,268,209774,1,0,0:0:0:0:
132,232,209872,1,8,0:2:0:0:
213,337,210068,1,0,1:0:0:0:
325,264,210264,5,0,1:0:0:0:
325,264,210362,1,0,0:0:0:0:
325,264,210460,1,0,0:0:0:0:
457,351,210656,2,0,L|365:346,1,83.9999974365235,8|0,0:0|0:0,0:0:0:0:
440,230,211048,5,0,1:0:0:0:
426,201,211146,1,0,0:0:0:0:
406,177,211244,1,0,1:0:0:0:
381,158,211342,1,0,1:0:0:0:
352,146,211440,1,8,1:2:0:0:
382,136,211538,1,0,0:0:0:0:
412,127,211636,1,0,1:0:0:0:
442,117,211734,1,0,0:0:0:0:
480,116,211833,5,0,1:0:0:0:
480,116,211931,1,0,0:0:0:0:
480,116,212029,1,0,0:0:0:0:
360,46,212225,2,0,L|270:41,1,83.9999974365235,8|0,0:0|0:0,0:0:0:0:
146,39,212617,5,0,1:0:0:0:
214,190,212813,1,0,0:0:0:0:
211,148,212911,1,0,1:0:0:0:
209,106,213009,1,8,0:0:0:0:
126,219,213205,1,0,1:0:0:0:
284,252,213401,5,0,1:0:0:0:
314,260,213499,1,0,0:0:0:0:
345,256,213597,1,0,0:0:0:0:
371,240,213695,1,0,0:0:0:0:
389,215,213793,1,8,0:0:0:0:
395,184,213891,1,0,0:0:0:0:
389,153,213989,1,0,0:0:0:0:
370,128,214087,1,0,1:0:0:0:
343,113,214186,5,0,0:0:0:0:
316,98,214284,1,0,1:0:0:0:
300,72,214382,1,0,1:0:0:0:
301,41,214480,1,0,0:0:0:0:
318,15,214578,1,8,1:2:0:0:
346,2,214676,1,0,0:0:0:0:
377,7,214774,1,8,1:2:0:0:
401,27,214872,1,0,0:0:0:0:
418,64,214970,5,4,1:2:0:0:
418,64,215068,1,0,0:0:0:0:
418,64,215166,1,0,0:0:0:0:
477,194,215362,2,0,L|481:108,1,83.9999974365235,8|0,0:0|0:0,0:0:0:0:
474,278,215754,5,0,1:0:0:0:
458,305,215852,1,0,0:0:0:0:
432,321,215950,1,0,1:0:0:0:
401,323,216048,1,0,0:0:0:0:
373,310,216146,1,8,0:0:0:0:
342,304,216244,1,0,0:0:0:0:
312,313,216342,1,0,1:0:0:0:
290,335,216440,1,0,1:0:0:0:
289,373,216538,5,0,1:0:0:0:
289,373,216637,1,0,0:0:0:0:
289,373,216735,1,0,0:0:0:0:
229,247,216931,1,8,0:0:0:0:
149,375,217127,5,0,1:0:0:0:
107,372,217225,1,0,0:0:0:0:
65,370,217323,1,0,1:0:0:0:
129,222,217519,1,0,1:0:0:0:
147,259,217617,1,0,0:0:0:0:
166,297,217715,1,8,1:2:0:0:
7,316,217911,1,0,1:2:0:0:
30,281,218009,1,0,0:0:0:0:
61,254,218107,5,0,1:2:0:0:
61,254,218205,1,0,0:0:0:0:
61,254,218303,1,0,0:0:0:0:
0,125,218499,2,0,L|87:120,1,83.9999974365235,8|0,0:0|0:0,0:0:0:0:
198,35,218891,5,0,1:0:0:0:
228,41,218989,1,0,0:0:0:0:
256,56,219087,1,0,1:0:0:0:
278,78,219185,1,0,0:0:0:0:
292,106,219283,1,8,0:0:0:0:
260,104,219382,1,0,0:0:0:0:
230,111,219480,1,0,1:0:0:0:
203,127,219578,1,0,0:0:0:0:
189,158,219676,5,0,1:0:0:0:
189,158,219774,1,0,0:0:0:0:
189,158,219872,1,0,0:0:0:0:
331,176,220068,1,8,0:2:0:0:
247,307,220264,5,0,1:0:0:0:
211,284,220362,1,0,0:0:0:0:
176,261,220460,1,0,0:0:0:0:
333,269,220656,1,0,1:0:0:0:
178,371,220852,1,8,1:2:0:0:
335,379,221048,1,0,1:2:0:0:
264,221,221244,5,0,1:2:0:0:
264,221,221342,1,0,0:0:0:0:
264,221,221440,1,0,0:0:0:0:
92,256,221637,2,0,L|176:260,1,83.9999974365235,8|0,0:0|0:0,0:0:0:0:
106,136,222029,5,0,1:0:0:0:
10,253,222225,1,0,1:0:0:0:
12,294,222323,1,0,1:0:0:0:
14,336,222421,1,8,0:0:0:0:
135,289,222617,1,0,0:0:0:0:
36,176,222813,5,0,1:0:0:0:
26,146,222911,1,0,0:0:0:0:
28,115,223009,1,0,1:0:0:0:
42,87,223107,1,0,1:0:0:0:
66,66,223205,1,8,0:0:0:0:
204,78,223401,1,0,1:0:0:0:
318,0,223597,5,0,1:0:0:0:
348,6,223695,1,0,1:0:0:0:
374,23,223793,1,0,0:0:0:0:
391,49,223891,1,0,1:0:0:0:
397,80,223989,1,8,0:0:0:0:
301,192,224186,1,8,0:0:0:0:
456,228,224382,5,8,3:0:0:0:
462,269,224480,1,0,3:0:0:0:
452,309,224578,1,0,3:0:0:0:
427,343,224676,1,8,3:0:0:0:
391,364,224774,1,8,3:2:0:0:
350,369,224872,1,0,3:0:0:0:
310,358,224970,1,8,3:0:0:0:
277,332,225068,1,0,3:0:0:0:
257,295,225166,5,8,3:0:0:0:
237,258,225264,1,0,3:0:0:0:
205,232,225362,1,0,3:0:0:0:
165,219,225460,1,8,3:0:0:0:
124,222,225558,1,8,3:2:0:0:
86,240,225656,1,0,3:0:0:0:
58,270,225754,1,8,3:0:0:0:
43,309,225852,1,0,3:0:0:0:
43,351,225950,6,0,L|96:353,3,27.9999991455078,8|0|0|0,0:0|0:0|0:0|0:0,0:0:0:0:
167,303,226244,1,0,0:0:0:0:
167,303,226342,2,0,L|113:305,3,27.9999991455078,8|0|0|0,0:0|0:0|0:0|0:0,0:0:0:0:
235,351,226637,1,0,0:0:0:0:
235,351,226735,2,0,L|263:353,3,27.9999991455078,8|0|0|8,0:0|0:0|0:0|0:0,0:0:0:0:
332,295,227029,1,0,0:0:0:0:
332,295,227127,6,0,L|333:309,12,13.9999995727539,8|0|0|8|0|0|8|0|0|8|0|0|4,0:0|0:0|0:0|0:0|0:0|0:0|0:0|0:0|0:0|0:0|0:0|0:0|1:0,0:0:0:0:
76,172,240068,6,0,L|113:173,2,24.4999992523194,0|0|0,0:0|0:0|0:0,0:0:0:0:
171,250,240460,2,0,L|134:251,2,24.4999992523194,0|0|0,0:0|0:0|0:0,0:0:0:0:
174,135,240852,1,0,0:0:0:0:
187,155,240950,1,0,0:0:0:0:
200,176,241048,1,0,0:0:0:0:
288,155,241244,1,0,0:0:0:0:
281,178,241342,1,0,0:0:0:0:
276,202,241440,1,0,0:0:0:0:
350,281,241637,6,0,P|382:280|414:268,1,48.9999985046387,0|0,0:0|0:0,0:0:0:0:
411,246,241931,1,0,0:0:0:0:
411,246,242029,1,0,0:0:0:0:
455,330,242225,1,0,0:0:0:0:
355,382,242421,1,2,0:2:0:0:
273,305,242617,1,0,0:0:0:0:
173,357,242813,1,2,0:2:0:0:
91,280,243009,1,0,0:0:0:0:
191,228,243205,6,0,L|226:226,2,24.4999992523194,0|0|0,0:0|0:0|0:0,0:0:0:0:
107,188,243597,2,0,L|71:186,2,24.4999992523194,0|0|0,0:0|0:0|0:0,0:0:0:0:
182,133,243989,2,0,L|217:131,2,24.4999992523194,0|0|0,0:0|0:0|0:0,0:0:0:0:
98,93,244381,2,0,L|62:91,2,24.4999992523194,0|0|0,0:0|0:0|0:0,0:0:0:0:
6,157,244774,6,0,P|2:184|2:206,1,48.9999985046387,0|0,0:0|0:0,0:0:0:0:
54,271,245068,1,0,0:0:0:0:
54,271,245166,2,0,P|53:295|49:319,1,48.9999985046387,0|0,0:0|0:0,0:0:0:0:
152,375,245558,6,0,P|135:353|124:334,1,48.9999985046387,2|0,0:0|0:0,0:0:0:0:
136,252,245852,1,0,0:0:0:0:
136,252,245950,2,0,P|123:230|108:211,1,48.9999985046387,2|0,0:0|0:0,0:0:0:0:
198,302,246342,6,0,L|239:304,2,24.4999992523194,0|0|0,0:0|0:0|0:0,0:0:0:0:
273,242,246735,2,0,L|314:239,2,24.4999992523194,0|0|0,0:0|0:0|0:0,0:0:0:0:
348,302,247127,1,0,0:0:0:0:
371,309,247225,1,0,0:0:0:0:
394,317,247323,1,0,0:0:0:0:
399,233,247519,1,0,0:0:0:0:
419,219,247617,1,0,0:0:0:0:
440,206,247715,1,0,0:0:0:0:
458,100,247911,6,0,P|427:108|394:110,1,48.9999985046387,0|0,0:0|0:0,0:0:0:0:
389,90,248205,1,0,0:0:0:0:
389,90,248303,1,0,0:0:0:0:
333,174,248499,1,0,0:0:0:0:
440,206,248695,6,0,P|462:228|490:246,1,48.9999985046387,2|0,0:0|0:0,0:0:0:0:
504,231,248989,1,0,0:0:0:0:
504,231,249087,1,2,0:0:0:0:
425,301,249283,1,0,0:0:0:0:
315,344,249480,6,0,P|324:309|325:286,1,48.9999985046387,0|0,0:0|0:0,0:0:0:0:
269,248,249774,1,0,0:0:0:0:
269,248,249872,2,0,P|278:213|279:190,1,48.9999985046387,0|0,0:0|0:0,0:0:0:0:
194,158,250264,6,0,P|203:193|204:216,1,48.9999985046387,0|0,0:0|0:0,0:0:0:0:
148,254,250558,1,0,0:0:0:0:
148,254,250656,2,0,P|157:289|158:312,1,48.9999985046387,0|0,0:0|0:0,0:0:0:0:
242,328,251048,6,0,P|270:332|299:344,1,48.9999985046387,2|0,0:2|0:0,0:0:0:0:
309,362,251342,2,0,P|313:333|325:304,1,48.9999985046387,2|0,0:2|0:0,0:0:0:0:
343,295,251637,1,8,0:0:0:0:
348,190,251833,6,0,P|323:200|300:214,1,48.9999985046387,2|0,0:2|0:0,0:0:0:0:
275,255,252127,2,0,P|264:230|250:207,1,48.9999985046387,2|0,0:2|0:0,0:0:0:0:
210,182,252422,1,8,0:2:0:0:
284,104,252617,1,4,1:0:0:0:
