osu file format v14

[General]
AudioFilename: audio.mp3
AudioLeadIn: 0
PreviewTime: 152255
Countdown: 0
SampleSet: Soft
StackLeniency: 0.5
Mode: 0
LetterboxInBreaks: 0
WidescreenStoryboard: 0

[Editor]
Bookmarks: 51863,76961,102059,114608,120882,127157,127255,127451,127483,127549,127647,127745,127843,127974,128039,128137,128202,128235,128333,128431,128464,128627,128693,128725,128823,128889,128921,129085,129117,129216,129248,129314,129412,129510,129608,129640,129706,129804,129836,129967,130000,130098,130163,130196,130294,130392,130490,130588,130621,130784,130817,130882,130980,131013,131078,131144,131274,131340,131372,131470,131601,131667,131765,131797,131863,131928,132059,132124,132157,132255,132385,132451,132549,132582,132712,132745,132843,132941,133039,133137,133170,133235,133300,133333,133431,133529,133627,133725,133758,133823,133889,133921,134085,134117,134216,134314,134346,134477,134510,134608,134706,134738,134869,134902,135000,135065,135098,135196,135294,135327,135392,135457,135490,135653,135686,135784,135850,135882,136046,136078,136176,136372,136470,136503,136568,136634,136765,136830,136863,136961,137157,137255,137287,137353,137418,137549,137614,137647,137745,137843,137876,137941,138039,138137,138235,138268,138333,138399,138529,138627,138660,138725,138823,138856,138921,138987,139019,139117,139216,139248,139314,139510,139575,139608,177353,202451,227549,252647
DistanceSpacing: 1
BeatDivisor: 4
GridSize: 32
TimelineZoom: 2.199999

[Metadata]
Title:Midorigo Queen Bee
TitleUnicode:嬰児クインビー
Artist:-45
ArtistUnicode:-45
Creator:Luscent
Version:Collapse
Source:うみねこのなく頃に散
Tags:07th Expansion Umineko no Naku Koro ni Chiru when they cry ep6 furudo erika visual novel infant Eiji Kuin bii kuinbii D'va Dva yoshikawa45 Affirmation AF Dada
BeatmapID:2206544
BeatmapSetID:1055780

[Difficulty]
HPDrainRate:4
CircleSize:4
OverallDifficulty:8
ApproachRate:8
SliderMultiplier:1.4
SliderTickRate:0.5

[Events]
//Background and Video events
0,0,"d2w8i45-01442f1c-70f7-4aaf-a74b-772be8a4107c.jpg",0,0
//Break Periods
2,26935,38534
2,127326,138926
//Storyboard Layer 0 (Background)
//Storyboard Layer 1 (Fail)
//Storyboard Layer 2 (Pass)
//Storyboard Layer 3 (Foreground)
//Storyboard Layer 4 (Overlay)
//Storyboard Sound Samples

[TimingPoints]
1637,392.156862745098,4,2,1,45,1,0
1637,-153.846153846154,4,2,1,45,0,0
2225,-250,4,2,1,45,0,0
3205,-153.846153846154,4,2,1,45,0,0
3793,-250,4,2,1,45,0,0
7911,-153.846153846154,4,2,1,45,0,0
8499,-250,4,2,1,45,0,0
9480,-153.846153846154,4,2,1,45,0,0
10068,-250,4,2,1,45,0,0
14186,-100,4,2,1,70,0,0
23597,-83.3333333333333,4,2,1,60,0,0
25166,-100,4,2,1,60,0,0
26735,-100,4,2,1,75,0,0
39284,-83.3333333333333,4,2,1,65,0,0
40460,-66.6666666666667,4,2,1,65,0,0
42421,-83.3333333333333,4,2,1,65,0,0
43597,-66.6666666666667,4,2,1,65,0,0
45558,-83.3333333333333,4,2,1,65,0,0
46735,-66.6666666666667,4,2,1,65,0,0
49480,-100,4,2,1,65,0,0
50264,-166.666666666667,4,2,1,65,0,0
51048,-333.333333333333,4,2,1,65,0,0
51440,-74.0740740740741,4,2,1,65,0,0
51833,-74.0740740740741,4,2,1,70,0,0
76931,-83.3333333333333,4,2,1,70,0,0
101636,-250,4,2,1,70,0,0
102029,-80,4,2,1,70,0,0
102813,-71.4285714285714,4,2,1,70,0,0
104382,-62.5,4,2,1,70,0,0
105166,-74.0740740740741,4,2,1,70,0,0
106735,-80,4,2,1,70,0,0
108303,-86.9565217391304,4,2,1,70,0,0
111440,-76.9230769230769,4,2,1,70,0,0
114578,-86.9565217391304,4,2,1,70,0,0
139676,-90.9090909090909,4,2,1,50,0,0
145950,-250,4,2,1,55,0,0
146735,-166.666666666667,4,2,1,60,0,0
147519,-125,4,2,1,60,0,0
149087,-111.111111111111,4,2,1,65,0,0
149872,-100,4,2,1,70,0,0
150656,-95.2380952380952,4,2,1,75,0,0
152225,-76.9230769230769,4,2,1,90,0,1
174186,-90.9090909090909,4,2,1,90,0,1
176538,-90.9090909090909,4,2,1,30,0,0
176735,-90.9090909090909,4,2,1,45,0,0
176931,-90.9090909090909,4,2,1,60,0,0
177127,-90.9090909090909,4,2,1,75,0,0
177323,-83.3333333333333,4,2,1,90,0,1
196146,-76.9230769230769,4,2,1,90,0,1
200852,-83.3333333333333,4,2,1,90,0,1
202421,-83.3333333333333,4,2,1,70,0,0
214578,-200,4,2,1,70,0,0
214970,-83.3333333333333,4,2,1,70,0,0
224382,-83.3333333333333,4,2,1,70,0,1
227519,-1000,4,2,1,40,0,0
240068,-133.333333333333,4,2,1,50,0,0
242421,-200,4,2,1,50,0,0
243205,-133.333333333333,4,2,1,50,0,0
249480,-166.666666666667,4,2,1,50,0,0
250264,-222.222222222222,4,2,1,50,0,0
251048,-333.333333333333,4,2,1,50,0,0
251833,-666.666666666667,4,2,1,50,0,0
252617,-666.666666666667,4,2,1,40,0,0

[Colours]
Combo1 : 212,2,1
Combo2 : 255,236,89
Combo3 : 107,132,198
Combo4 : 250,145,160

[HitObjects]
368,323,1637,6,0,P|416:325|467:347,1,90.9999958343508
470,354,2225,2,0,L|492:264,1,84
158,235,3205,6,0,P|110:237|59:259,1,90.9999958343508
46,274,3793,2,0,L|24:184,1,84
189,53,4774,5,0,0:0:0:0:
293,71,5166,1,0,0:0:0:0:
293,71,5362,1,0,0:0:0:0:
396,94,5950,1,0,0:0:0:0:
323,331,6342,5,0,0:0:0:0:
219,313,6734,1,0,0:0:0:0:
219,313,6930,1,0,0:0:0:0:
116,290,7518,1,0,0:0:0:0:
480,208,7911,6,0,L|485:88,1,90.9999958343508
423,201,8499,2,0,L|433:296,1,84
32,208,9480,6,0,L|27:88,1,90.9999958343508
89,201,10068,2,0,L|79:296,1,84
236,349,11048,5,0,0:0:0:0:
295,260,11440,1,0,0:0:0:0:
295,260,11637,1,0,0:0:0:0:
246,165,12225,1,0,0:0:0:0:
244,31,12617,5,0,0:0:0:0:
184,119,13009,1,0,0:0:0:0:
184,119,13206,1,0,0:0:0:0:
230,214,13793,1,0,0:0:0:0:
490,336,14186,5,0,1:0:0:0:
490,336,14284,2,0,P|444:339|399:344,1,70
345,356,14578,2,0,P|333:300|347:263,1,70,8|0,0:0|0:0,0:0:0:0:
496,206,14970,1,0,1:0:0:0:
496,206,15068,1,0,0:0:0:0:
496,206,15166,1,0,1:0:0:0:
412,269,15362,1,8,0:0:0:0:
44,162,15754,5,0,1:0:0:0:
44,162,15852,2,0,P|46:200|52:245,1,70
108,285,16146,2,0,P|153:282|189:271,1,70,8|0,0:0|0:0,0:0:0:0:
189,123,16538,1,0,1:0:0:0:
189,123,16637,1,0,0:0:0:0:
189,123,16735,1,0,1:0:0:0:
120,208,16931,1,8,0:0:0:0:
473,44,17323,5,0,1:0:0:0:
473,44,17421,1,0,0:0:0:0:
366,88,17617,1,0,0:0:0:0:
366,88,17715,1,8,0:0:0:0:
259,44,17911,1,0,0:0:0:0:
439,119,18107,5,0,1:0:0:0:
313,208,18303,1,0,1:0:0:0:
499,292,18499,1,8,0:0:0:0:
39,340,18891,5,0,1:0:0:0:
39,340,18989,1,0,0:0:0:0:
146,296,19185,1,0,0:0:0:0:
146,296,19283,1,8,0:0:0:0:
253,340,19479,1,0,0:0:0:0:
187,167,19676,5,0,1:0:0:0:
69,265,19872,1,0,1:0:0:0:
179,369,20068,1,8,0:0:0:0:
503,266,20460,5,0,1:0:0:0:
503,266,20558,2,0,P|470:283|418:287,1,70
365,300,20852,2,0,L|358:374,1,70,8|0,0:0|0:0,0:0:0:0:
290,237,21244,5,0,1:0:0:0:
285,202,21342,1,0,0:0:0:0:
291,167,21440,1,0,1:0:0:0:
306,136,21538,1,0,0:0:0:0:
329,110,21636,1,8,0:0:0:0:
22,42,22029,5,0,1:0:0:0:
22,42,22127,2,0,L|33:120,1,70
91,163,22421,2,0,P|134:149|180:151,1,70,8|0,0:0|0:0,0:0:0:0:
247,166,22813,5,0,1:0:0:0:
236,198,22911,1,0,0:0:0:0:
211,223,23009,1,0,1:0:0:0:
178,233,23107,1,0,0:0:0:0:
144,226,23205,1,8,0:0:0:0:
366,335,23597,5,0,1:0:0:0:
407,339,23695,1,0,3:0:0:0:
445,322,23793,1,0,3:0:0:0:
470,289,23891,1,0,3:0:0:0:
476,248,23989,1,0,1:0:0:0:
461,209,24087,1,0,3:0:0:0:
432,177,24186,1,0,3:0:0:0:
392,161,24284,1,0,3:0:0:0:
340,155,24382,5,0,1:0:0:0:
318,120,24480,1,0,3:0:0:0:
313,79,24578,1,0,3:0:0:0:
329,40,24676,1,0,3:0:0:0:
360,13,24774,1,0,1:0:0:0:
400,3,24872,1,0,3:0:0:0:
441,12,24970,1,0,3:0:0:0:
472,39,25068,1,0,3:0:0:0:
488,78,25166,6,0,L|483:107,2,23.3333333333333,0|0|0,3:0|3:0|3:0,0:0:0:0:
432,177,25362,1,0,2:0:0:0:
432,177,25460,1,0,2:0:0:0:
432,177,25558,2,0,L|428:204,2,23.3333333333333,0|0|0,3:0|3:0|3:0,0:0:0:0:
339,146,25754,1,0,2:0:0:0:
335,150,25852,1,0,0:0:0:0:
331,154,25950,6,0,L|317:120,2,23.3333333333333,0|0|0,3:0|3:0|3:0,0:0:0:0:
276,193,26146,2,0,L|252:184,2,23.3333333333333,0|0|0,3:0|3:0|3:0,0:0:0:0:
279,260,26342,2,0,L|251:274,2,23.3333333333333,0|0|0,3:0|3:0|3:0,0:0:0:0:
337,293,26538,2,0,L|325:323,2,23.3333333333333,0|0|0,3:0|3:0|3:0,0:0:0:0:
401,273,26735,5,4,1:0:0:0:
205,216,39284,5,0,1:0:0:0:
205,216,39382,2,0,P|154:221|106:243,1,83.9999974365235
66,280,39676,1,8,0:0:0:0:
436,342,39872,5,0,0:0:0:0:
436,342,39970,1,0,0:0:0:0:
436,342,40068,2,0,P|442:283|429:234,1,83.9999974365235,0|0,1:0|1:0,0:0:0:0:
325,183,40460,2,0,P|386:179|442:161,1,105.000004005432,8|0,0:0|0:0,0:0:0:0:
54,207,40852,5,0,1:0:0:0:
76,121,41048,1,0,0:0:0:0:
76,121,41146,1,0,0:0:0:0:
76,121,41244,1,8,0:0:0:0:
91,28,41440,1,0,0:0:0:0:
307,285,41637,5,0,1:0:0:0:
210,268,41833,1,0,1:0:0:0:
210,268,41931,1,0,0:0:0:0:
210,268,42029,1,8,0:0:0:0:
193,365,42225,1,0,0:0:0:0:
304,384,42421,6,0,P|368:378|412:376,1,83.9999974365235,0|0,1:0|0:0,0:0:0:0:
433,357,42715,1,0,0:0:0:0:
433,357,42813,2,0,P|441:296|431:250,1,83.9999974365235,8|0,0:0|0:0,0:0:0:0:
161,285,43205,6,0,P|159:225|172:178,1,83.9999974365235,0|0,1:0|1:0,0:0:0:0:
195,165,43499,1,0,0:0:0:0:
195,165,43597,2,0,P|118:187|54:179,1,105.000004005432,8|0,0:0|0:0,0:0:0:0:
40,128,43989,5,0,1:0:0:0:
3,270,44186,1,0,0:0:0:0:
3,270,44284,1,0,0:0:0:0:
3,270,44382,1,8,0:0:0:0:
118,352,44578,1,0,0:0:0:0:
390,315,44774,5,0,1:0:0:0:
417,209,44970,1,0,1:0:0:0:
417,209,45068,1,0,0:0:0:0:
417,209,45166,1,8,0:0:0:0:
429,87,45362,1,0,0:0:0:0:
165,59,45558,5,0,1:0:0:0:
165,59,45656,2,0,P|109:62|50:65,1,83.9999974365235
19,103,45950,2,0,P|28:161|25:200,1,83.9999974365235,8|0,0:0|0:0,0:0:0:0:
239,367,46342,5,0,1:0:0:0:
239,367,46440,1,0,0:0:0:0:
239,367,46538,1,0,1:0:0:0:
295,294,46735,2,0,P|301:230|294:165,1,105.000004005432,8|0,0:0|0:0,0:0:0:0:
265,34,47127,5,0,1:0:0:0:
265,34,47225,1,0,0:0:0:0:
363,70,47421,1,0,0:0:0:0:
363,70,47519,1,8,0:0:0:0:
464,43,47715,1,0,0:0:0:0:
294,114,47911,5,0,1:0:0:0:
294,114,48009,1,0,0:0:0:0:
294,114,48107,1,0,1:0:0:0:
278,217,48303,1,8,0:0:0:0:
345,297,48499,1,0,0:0:0:0:
449,309,48695,6,0,P|370:320|303:371,2,157.500006008148,0|0|0,1:0|0:0|0:0,0:0:0:0:
82,273,49480,6,0,P|138:272|200:307,2,105,0|0|0,1:0|0:0|0:0,0:0:0:0:
392,153,50264,6,0,P|360:169|321:176,2,62.9999980773926,0|0|0,1:0|0:0|0:0,0:0:0:0:
151,65,51048,6,0,L|149:103,1,31.4999990386963,0|0,1:0|0:0,0:0:0:0:
149,96,51440,6,0,P|244:96|311:83,1,141.750000540733,8|0,0:0|0:0,0:0:0:0:
468,59,51833,6,0,B|493:115|493:115|468:202,1,141.750000540733,4|0,3:1|0:0,0:0:0:0:
439,227,52225,1,8,3:2:0:0:
278,181,52421,1,0,0:0:0:0:
278,181,52519,1,0,0:0:0:0:
278,181,52617,2,0,P|341:178|380:176,1,94.5000003604889,0|0,3:0|0:0,0:0:0:0:
224,255,53009,2,0,P|186:210|177:149,1,94.5000003604889,8|0,3:2|0:0,0:0:0:0:
221,111,53401,5,0,3:0:0:0:
112,248,53597,1,0,0:0:0:0:
112,248,53695,1,0,0:0:0:0:
112,248,53793,1,8,3:2:0:0:
217,368,53989,1,0,0:0:0:0:
417,354,54186,5,0,3:0:0:0:
270,287,54382,1,0,0:0:0:0:
270,287,54480,1,0,0:0:0:0:
270,287,54578,1,8,3:2:0:0:
136,343,54774,1,0,0:0:0:0:
332,331,54970,6,0,P|361:276|354:195,1,141.750000540733,0|0,3:0|0:0,0:0:0:0:
310,176,55362,1,8,3:2:0:0:
442,294,55558,1,0,0:0:0:0:
442,294,55656,1,0,0:0:0:0:
442,294,55754,2,0,L|411:395,1,94.5000003604889,0|0,3:0|0:0,0:0:0:0:
368,229,56146,2,0,L|395:138,1,94.5000003604889,8|0,3:2|0:0,0:0:0:0:
477,93,56538,5,0,3:0:0:0:
477,93,56637,1,0,0:0:0:0:
477,93,56735,1,0,0:0:0:0:
318,71,56931,1,8,3:2:0:0:
169,54,57127,1,0,0:0:0:0:
73,232,57323,5,0,3:0:0:0:
73,232,57422,1,0,0:0:0:0:
73,232,57520,1,0,0:0:0:0:
274,211,57716,1,8,3:2:0:0:
73,232,57912,1,0,0:0:0:0:
398,332,58107,5,0,3:0:0:0:
398,332,58205,1,0,0:0:0:0:
398,332,58303,2,0,P|455:329|504:332,1,94.5000003604889,0|8,0:0|3:2,0:0:0:0:
312,278,58695,2,0,P|310:325|313:372,1,94.5000003604889,0|0,0:0|3:0,0:0:0:0:
470,253,59087,1,0,0:0:0:0:
470,253,59186,1,0,0:0:0:0:
470,253,59284,1,8,3:2:0:0:
231,328,59480,1,0,0:0:0:0:
95,265,59676,5,0,3:0:0:0:
95,265,59774,1,0,0:0:0:0:
95,265,59872,2,0,P|79:197|92:152,1,94.5000003604889,0|8,0:0|3:2,0:0:0:0:
201,122,60264,2,0,L|89:97,1,94.5000003604889,0|0,0:0|3:0,0:0:0:0:
7,200,60656,1,0,0:0:0:0:
7,200,60754,1,0,0:0:0:0:
7,200,60852,1,8,3:2:0:0:
215,200,61048,1,0,0:0:0:0:
337,62,61244,5,0,3:0:0:0:
337,62,61342,1,0,0:0:0:0:
337,62,61440,2,0,P|340:120|357:164,1,94.5000003604889,0|8,0:0|3:2,0:0:0:0:
512,171,61833,2,0,P|454:174|410:191,1,94.5000003604889,0|0,0:0|3:0,0:0:0:0:
512,96,62225,1,0,0:0:0:0:
496,252,62421,1,8,3:2:0:0:
352,234,62617,1,0,0:0:0:0:
74,294,62813,5,0,3:0:0:0:
74,294,62911,1,0,0:0:0:0:
74,294,63009,2,0,P|64:217|82:164,1,94.5000003604889,0|8,0:0|3:2,0:0:0:0:
152,54,63401,2,0,P|162:131|144:184,1,94.5000003604889,0|0,0:0|3:0,0:0:0:0:
143,224,63793,1,0,0:0:0:0:
43,128,63989,1,8,3:2:0:0:
235,165,64186,1,0,0:0:0:0:
332,78,64382,5,0,3:0:0:0:
332,78,64480,1,0,0:0:0:0:
332,78,64578,2,0,L|218:95,1,94.5000003604889,0|8,0:0|3:2,0:0:0:0:
419,129,64970,2,0,L|512:115,1,94.5000003604889,0|0,0:0|3:0,0:0:0:0:
309,164,65362,1,0,0:0:0:0:
475,204,65558,1,8,3:2:0:0:
426,43,65754,1,0,0:0:0:0:
247,254,65950,5,0,3:0:0:0:
247,254,66048,1,0,0:0:0:0:
247,254,66146,2,0,P|243:197|213:146,1,94.5000003604889,0|8,0:0|3:2,0:0:0:0:
77,291,66538,2,0,L|91:389,1,94.5000003604889,0|0,0:0|3:0,0:0:0:0:
188,308,66931,1,0,0:0:0:0:
4,282,67127,1,8,3:2:0:0:
56,106,67323,1,0,0:0:0:0:
310,143,67519,5,0,3:0:0:0:
310,143,67617,1,0,0:0:0:0:
310,143,67715,2,0,P|377:139|419:136,1,94.5000003604889,0|8,0:0|3:2,0:0:0:0:
316,300,68107,1,0,0:0:0:0:
241,259,68303,1,0,3:0:0:0:
471,192,68499,1,0,0:0:0:0:
471,192,68597,1,0,0:0:0:0:
471,192,68695,1,8,3:2:0:0:
430,267,68891,1,0,0:0:0:0:
276,101,69087,5,0,3:0:0:0:
304,230,69284,1,0,0:0:0:0:
430,267,69480,1,8,3:2:0:0:
402,138,69677,1,0,0:0:0:0:
232,273,69872,5,0,3:0:0:0:
501,317,70068,1,0,0:0:0:0:
501,317,70166,1,0,0:0:0:0:
501,317,70264,2,0,L|515:202,1,94.5000003604889,8|0,3:2|0:0,0:0:0:0:
369,355,70656,5,0,3:0:0:0:
369,355,70754,1,0,0:0:0:0:
369,355,70852,1,0,0:0:0:0:
256,340,71048,1,8,3:2:0:0:
145,329,71244,1,0,0:0:0:0:
34,143,71440,5,0,3:0:0:0:
34,143,71538,1,0,0:0:0:0:
34,143,71636,1,0,0:0:0:0:
145,129,71832,1,8,3:2:0:0:
256,118,72028,1,0,0:0:0:0:
461,239,72225,5,0,3:0:0:0:
466,211,72323,1,0,0:0:0:0:
471,183,72421,2,0,L|481:70,1,94.5000003604889,0|8,0:0|3:2,0:0:0:0:
347,144,72813,1,0,0:0:0:0:
351,152,72911,1,0,0:0:0:0:
355,160,73009,1,0,3:0:0:0:
330,301,73205,5,0,0:0:0:0:
283,301,73303,1,0,0:0:0:0:
249,270,73401,1,8,3:2:0:0:
246,223,73499,1,0,0:0:0:0:
274,187,73597,1,0,0:0:0:0:
466,326,73793,5,0,3:0:0:0:
466,326,73891,1,0,0:0:0:0:
466,326,73989,1,0,0:0:0:0:
330,301,74186,2,0,P|294:313|226:305,1,94.5000003604889,8|0,3:2|0:0,0:0:0:0:
10,250,74578,5,0,3:0:0:0:
10,250,74676,1,0,0:0:0:0:
10,250,74774,1,0,0:0:0:0:
163,210,74970,2,0,B|216:209|279:189,1,94.5000003604889,8|0,3:2|0:0,0:0:0:0:
334,20,75362,5,2,3:2:0:0:
334,20,75460,1,0,0:0:0:0:
334,20,75558,1,0,0:0:0:0:
233,10,75754,1,10,3:2:0:0:
222,102,75950,1,0,0:0:0:0:
314,113,76146,1,2,3:2:0:0:
45,53,76342,5,0,0:0:0:0:
52,69,76440,1,0,0:0:0:0:
52,88,76538,1,10,3:2:0:0:
60,105,76636,1,0,0:0:0:0:
58,123,76735,1,0,0:0:0:0:
66,140,76833,1,0,0:0:0:0:
66,158,76931,6,0,P|126:148|177:148,1,83.9999974365235,0|0,1:0|0:0,0:0:0:0:
225,171,77225,2,0,P|261:143|291:90,1,83.9999974365235,0|0,1:0|0:0,0:0:0:0:
355,80,77519,1,0,1:0:0:0:
172,250,77715,5,0,1:0:0:0:
153,252,77813,2,0,L|136:156,1,83.9999974365235,0|0,0:0|1:0,0:0:0:0:
246,277,78107,2,0,L|218:385,1,83.9999974365235,8|0,0:2|1:0,0:0:0:0:
293,377,78401,1,0,0:0:0:0:
356,343,78499,6,0,P|363:280|344:225,1,83.9999974365235,0|0,1:0|0:0,0:0:0:0:
303,209,78793,2,0,P|366:216|421:197,1,83.9999974365235,0|0,1:0|0:0,0:0:0:0:
449,166,79087,1,0,1:0:0:0:
503,349,79284,5,0,1:0:0:0:
512,363,79382,2,0,P|453:356|420:355,1,83.9999974365235,0|0,0:0|1:0,0:0:0:0:
328,367,79676,2,0,L|318:277,1,83.9999974365235,8|0,0:2|1:0,0:0:0:0:
17,191,80068,6,0,P|70:218|109:212,1,83.9999974365235,0|0,1:0|0:0,0:0:0:0:
175,199,80362,2,0,L|147:311,1,83.9999974365235,0|0,1:0|0:0,0:0:0:0:
221,331,80656,1,0,1:0:0:0:
309,211,80852,5,0,1:0:0:0:
332,209,80950,2,0,P|346:158|347:113,1,83.9999974365235,0|0,0:0|1:0,0:0:0:0:
416,41,81244,2,0,P|419:82|431:122,1,83.9999974365235,8|0,0:2|1:0,0:0:0:0:
476,178,81538,1,0,0:0:0:0:
510,240,81636,6,0,P|430:244|393:250,1,83.9999974365235,0|0,1:0|0:0,0:0:0:0:
301,301,81931,2,0,P|381:305|418:311,1,83.9999974365235,0|0,1:0|0:0,0:0:0:0:
429,365,82225,1,0,1:0:0:0:
149,363,82421,5,0,1:0:0:0:
133,360,82519,2,0,P|130:298|147:247,1,83.9999974365235,0|0,0:0|1:0,0:0:0:0:
166,202,82813,2,0,P|123:218|61:222,1,83.9999974365235,8|0,0:2|1:0,0:0:0:0:
13,169,83205,5,0,1:0:0:0:
72,98,83401,1,0,0:0:0:0:
72,98,83499,1,0,1:0:0:0:
72,98,83597,1,8,0:2:0:0:
163,112,83793,1,0,1:0:0:0:
297,317,83989,5,0,1:0:0:0:
314,312,84087,2,0,P|330:264|310:221,1,83.9999974365235,0|0,0:0|1:0,0:0:0:0:
250,191,84382,2,0,P|234:143|254:100,1,83.9999974365235,8|0,0:2|1:0,0:0:0:0:
512,161,84774,5,0,1:0:0:0:
430,208,84970,1,0,0:0:0:0:
430,208,85068,1,0,1:0:0:0:
430,208,85166,1,8,0:2:0:0:
348,164,85362,1,0,1:0:0:0:
107,271,85558,5,0,1:0:0:0:
90,272,85656,2,0,P|81:225|92:176,1,83.9999974365235,0|0,0:0|1:0,0:0:0:0:
208,273,85950,2,0,P|217:320|206:369,1,83.9999974365235,8|0,0:2|1:0,0:0:0:0:
0,306,86342,5,0,1:0:0:0:
134,359,86538,1,0,0:0:0:0:
134,359,86636,1,0,1:0:0:0:
134,359,86735,1,8,0:2:0:0:
287,311,86931,1,0,1:0:0:0:
236,114,87127,5,0,1:0:0:0:
144,126,87323,1,0,0:0:0:0:
144,126,87421,1,0,1:0:0:0:
144,126,87519,1,8,0:2:0:0:
158,217,87715,1,0,1:0:0:0:
454,169,87911,6,0,L|468:70,1,83.9999974365235,0|0,1:0|0:0,0:0:0:0:
382,194,88205,2,0,L|393:277,1,83.9999974365235,0|0,1:0|0:0,0:0:0:0:
467,303,88499,1,0,1:0:0:0:
301,365,88695,5,0,1:0:0:0:
239,285,88891,1,0,0:0:0:0:
253,242,88989,1,0,1:0:0:0:
284,219,89087,5,8,0:2:0:0:
277,190,89185,1,0,0:0:0:0:
270,160,89284,1,0,1:0:0:0:
264,131,89382,1,0,0:0:0:0:
215,131,89480,6,0,P|168:135|131:131,1,83.9999974365235,0|0,1:0|0:0,0:0:0:0:
89,126,89774,2,0,P|85:167|89:209,1,83.9999974365235,0|0,1:0|0:0,0:0:0:0:
119,238,90068,1,0,1:0:0:0:
335,304,90264,5,0,1:0:0:0:
345,317,90362,2,0,P|400:307|437:311,1,83.9999974365235,0|0,0:0|1:0,0:0:0:0:
505,345,90656,2,0,L|512:239,1,83.9999974365235,8|0,0:2|1:0,0:0:0:0:
492,105,91048,5,0,1:0:0:0:
396,187,91244,1,0,0:0:0:0:
396,187,91342,1,0,1:0:0:0:
396,187,91440,1,8,0:2:0:0:
266,157,91636,1,0,1:0:0:0:
49,265,91833,5,0,1:0:0:0:
74,368,92029,1,0,0:0:0:0:
74,368,92127,1,0,1:0:0:0:
74,368,92225,1,8,0:2:0:0:
170,350,92421,1,0,1:0:0:0:
201,223,92617,6,0,P|195:169|174:120,1,83.9999974365235,0|0,1:0|0:0,0:0:0:0:
80,73,92911,2,0,B|109:57|109:57|140:67|190:65,1,83.9999974365235,0|0,1:0|0:0,0:0:0:0:
241,83,93205,1,0,1:0:0:0:
452,100,93401,5,0,1:0:0:0:
468,102,93499,2,0,P|478:53|491:12,1,83.9999974365235,0|0,0:0|1:0,0:0:0:0:
376,141,93793,2,0,P|387:181|395:222,1,83.9999974365235,8|0,0:2|1:0,0:0:0:0:
509,283,94186,5,0,1:0:0:0:
413,315,94382,1,0,0:0:0:0:
413,315,94480,1,0,1:0:0:0:
413,315,94578,1,8,0:2:0:0:
305,334,94774,1,0,1:0:0:0:
60,266,94970,5,0,1:0:0:0:
52,313,95068,1,0,0:0:0:0:
195,240,95264,1,0,1:0:0:0:
189,215,95362,1,8,0:2:0:0:
183,190,95460,1,0,0:0:0:0:
177,165,95558,1,0,1:0:0:0:
171,140,95656,1,0,0:0:0:0:
166,115,95754,6,0,P|110:116|78:113,1,83.9999974365235,0|0,1:0|0:0,0:0:0:0:
247,141,96048,2,0,P|303:142|335:139,1,83.9999974365235,0|0,1:0|0:0,0:0:0:0:
397,92,96342,1,0,1:0:0:0:
479,193,96538,5,0,1:0:0:0:
490,206,96636,2,0,P|495:252|478:298,1,83.9999974365235,0|0,0:0|1:0,0:0:0:0:
364,362,96931,2,0,B|350:335|350:335|361:303|364:252,1,83.9999974365235,8|0,0:2|1:0,0:0:0:0:
50,261,97323,6,0,P|63:318|66:359,1,83.9999974365235,0|0,1:0|0:0,0:0:0:0:
122,224,97617,2,0,P|127:182|137:141,1,83.9999974365235,0|0,1:0|0:0,0:0:0:0:
196,248,97911,1,0,1:0:0:0:
59,71,98107,5,0,1:0:0:0:
77,81,98205,1,0,0:0:0:0:
212,90,98401,1,0,1:0:0:0:
232,84,98499,1,8,0:2:0:0:
259,92,98597,1,0,0:0:0:0:
279,86,98695,1,0,1:0:0:0:
452,54,98891,6,0,P|440:120|438:157,1,83.9999974365235,0|0,1:0|0:0,0:0:0:0:
493,187,99186,1,0,1:0:0:0:
506,184,99284,2,0,P|506:243|487:298,1,83.9999974365235,8|0,0:2|1:0,0:0:0:0:
249,372,99676,6,0,L|262:275,1,83.9999974365235,0|0,1:0|0:0,0:0:0:0:
196,248,99970,1,0,1:0:0:0:
181,253,100068,2,0,L|194:156,1,83.9999974365235,8|0,0:2|1:0,0:0:0:0:
321,61,100460,5,0,1:0:0:0:
391,195,100656,1,0,0:0:0:0:
394,187,100754,1,0,1:0:0:0:
398,179,100852,1,8,0:2:0:0:
261,156,101048,1,0,1:0:0:0:
377,305,101244,2,0,B|338:284|301:273|257:289,1,125.999996154785,0|0,1:0|1:0,0:0:0:0:
187,326,101636,6,0,L|178:285,1,42,8|0,0:2|0:0,0:0:0:0:
106,238,102029,5,0,1:0:0:0:
121,197,102127,1,0,0:0:0:0:
153,168,102225,1,0,0:0:0:0:
195,159,102323,1,0,1:0:0:0:
241,181,102421,5,8,0:2:0:0:
283,173,102519,1,0,0:0:0:0:
318,147,102617,1,0,1:0:0:0:
339,109,102715,1,0,0:0:0:0:
333,58,102813,5,0,1:0:0:0:
293,30,102911,1,0,0:0:0:0:
245,27,103009,1,0,0:0:0:0:
203,51,103107,1,0,1:0:0:0:
172,90,103205,5,8,0:2:0:0:
133,103,103303,1,0,0:0:0:0:
93,103,103401,1,0,1:0:0:0:
55,88,103499,1,0,0:0:0:0:
15,84,103597,5,0,1:0:0:0:
0,130,103695,1,0,0:0:0:0:
7,178,103793,1,0,0:0:0:0:
34,219,103891,1,0,1:0:0:0:
83,238,103989,5,8,0:2:0:0:
96,278,104087,1,0,0:0:0:0:
89,322,104185,1,0,1:0:0:0:
61,356,104283,1,0,0:0:0:0:
17,334,104382,5,0,1:0:0:0:
55,304,104480,1,0,0:0:0:0:
104,296,104578,1,0,0:0:0:0:
151,311,104676,1,0,1:0:0:0:
198,327,104774,5,8,0:2:0:0:
234,319,104872,1,0,0:0:0:0:
264,298,104970,1,0,1:0:0:0:
282,266,105068,1,0,0:0:0:0:
268,223,105166,5,0,1:0:0:0:
255,177,105264,1,0,0:0:0:0:
265,131,105362,1,0,0:0:0:0:
293,94,105460,1,0,1:0:0:0:
344,84,105558,5,8,0:2:0:0:
387,100,105656,1,0,0:0:0:0:
414,138,105754,1,0,1:0:0:0:
413,184,105852,1,0,0:0:0:0:
398,221,105950,5,0,1:0:0:0:
357,243,106048,1,0,0:0:0:0:
310,244,106146,1,0,0:0:0:0:
268,223,106244,1,0,1:0:0:0:
231,180,106342,5,8,0:2:0:0:
186,152,106440,1,0,0:0:0:0:
135,148,106538,1,0,1:0:0:0:
87,169,106636,1,0,0:0:0:0:
48,210,106735,6,0,P|46:253|58:322,1,87.5,0|0,1:0|0:0,0:0:0:0:
270,309,107127,2,0,B|293:326|293:326|321:316|366:311,1,87.5,8|0,0:2|1:0,0:0:0:0:
328,160,107519,6,0,P|308:114|305:75,1,87.5,0|0,1:0|0:0,0:0:0:0:
457,179,107813,1,0,1:0:0:0:
461,183,107911,2,0,P|456:226|437:265,1,87.5,8|0,0:2|1:0,0:0:0:0:
8,151,108303,5,0,1:0:0:0:
42,131,108401,1,0,0:0:0:0:
82,126,108499,1,0,0:0:0:0:
121,136,108597,2,0,P|137:105|145:74,2,40.2500007677078,0|8|0,1:0|0:2|0:0,0:0:0:0:
242,201,108891,1,0,1:0:0:0:
242,201,108989,1,0,0:0:0:0:
242,201,109087,5,0,1:0:0:0:
269,172,109185,1,0,0:0:0:0:
279,134,109283,1,0,0:0:0:0:
269,95,109382,2,0,P|278:53|297:37,2,40.2500007677078,0|8|0,1:0|0:2|0:0,0:0:0:0:
499,96,109676,1,0,1:0:0:0:
499,96,109774,1,0,0:0:0:0:
499,96,109872,5,0,1:0:0:0:
462,111,109970,1,0,0:0:0:0:
422,114,110068,1,0,0:0:0:0:
384,102,110166,2,0,P|353:95|324:100,2,40.2500007677078,0|8|0,1:0|0:2|0:0,0:0:0:0:
434,223,110460,1,0,1:0:0:0:
434,223,110558,1,0,0:0:0:0:
434,223,110656,5,0,1:0:0:0:
399,204,110754,1,0,0:0:0:0:
362,216,110852,1,0,0:0:0:0:
345,252,110950,1,0,1:0:0:0:
358,288,111048,1,8,0:2:0:0:
381,322,111146,1,0,0:0:0:0:
371,360,111244,1,0,1:0:0:0:
339,382,111342,1,0,0:0:0:0:
300,378,111440,6,0,P|234:370|182:368,1,90.9999958343508,0|0,1:0|0:0,0:0:0:0:
45,294,111833,2,0,P|38:339|35:384,1,90.9999958343508,8|0,0:2|1:0,0:0:0:0:
176,287,112225,5,0,1:0:0:0:
294,279,112421,1,0,0:0:0:0:
294,279,112519,1,0,1:0:0:0:
294,279,112617,1,8,0:2:0:0:
401,263,112813,1,0,1:0:0:0:
233,183,113009,5,0,1:0:0:0:
401,263,113205,1,0,0:0:0:0:
270,361,113401,5,8,0:2:0:0:
493,264,113597,1,0,1:0:0:0:
330,127,113793,5,0,1:0:0:0:
478,164,113989,1,0,1:0:0:0:
465,133,114087,1,0,1:0:0:0:
311,199,114284,1,0,0:0:0:0:
298,230,114382,1,0,1:0:0:0:
269,233,114480,1,0,0:0:0:0:
256,264,114578,6,0,P|188:262|145:259,1,80.5000015354157,0|0,1:0|0:0,0:0:0:0:
45,212,114970,2,0,B|29:233|29:233|38:266|35:305,1,80.5000015354157,8|0,0:2|1:0,0:0:0:0:
127,360,115362,5,0,1:0:0:0:
127,360,115460,1,0,0:0:0:0:
127,360,115558,1,0,0:0:0:0:
143,159,115754,1,8,0:2:0:0:
106,257,115950,1,0,1:0:0:0:
334,117,116146,6,0,B|338:89|338:89|326:50|318:11,1,80.5000015354157,0|0,1:0|0:0,0:0:0:0:
245,183,116538,2,0,P|255:239|259:273,1,80.5000015354157,8|0,0:2|1:0,0:0:0:0:
420,223,116931,5,0,1:0:0:0:
420,223,117029,1,0,0:0:0:0:
420,223,117127,1,0,0:0:0:0:
252,107,117323,1,8,0:2:0:0:
321,187,117519,1,0,1:0:0:0:
502,186,117715,6,0,P|509:225|501:264,1,80.5000015354157,0|0,1:0|0:0,0:0:0:0:
389,354,118107,1,8,0:2:0:0:
348,282,118303,1,0,1:0:0:0:
232,362,118499,1,0,1:0:0:0:
160,236,118695,1,0,0:0:0:0:
160,236,118793,1,0,1:0:0:0:
160,236,118891,1,8,0:2:0:0:
31,287,119087,1,0,1:0:0:0:
300,221,119284,6,0,B|301:192|299:182|299:182|301:175|300:125,1,80.5000015354157,0|0,1:0|0:0,0:0:0:0:
90,98,119676,2,0,B|89:127|91:137|91:137|89:144|90:194,1,80.5000015354157,8|0,0:2|1:0,0:0:0:0:
292,295,120068,2,0,B|357:306|347:254|417:267,1,120.750002303124,0|0,1:0|1:0,0:0:0:0:
417,273,120460,2,0,B|417:307|415:314|415:314|417:324|416:353,1,80.5000015354157,8|0,0:2|1:0,0:0:0:0:
505,250,120852,5,0,1:0:0:0:
512,227,120950,1,0,0:0:0:0:
505,203,121048,1,0,0:0:0:0:
351,81,121244,1,8,0:2:0:0:
496,112,121440,5,0,1:0:0:0:
496,112,121538,1,8,0:0:0:0:
338,195,121735,1,8,0:0:0:0:
338,195,121833,1,0,0:0:0:0:
89,178,122029,6,0,B|89:144|91:137|91:137|89:127|90:98,1,80.5000015354157,8|0,0:2|1:0,0:0:0:0:
183,66,122421,5,0,1:0:0:0:
190,89,122519,1,0,0:0:0:0:
183,113,122617,1,0,0:0:0:0:
29,235,122813,1,8,0:2:0:0:
196,342,123009,5,0,1:0:0:0:
196,342,123107,1,8,0:0:0:0:
315,271,123303,1,8,0:0:0:0:
315,271,123401,1,0,0:0:0:0:
220,182,123597,5,8,0:2:0:0:
101,253,123793,1,0,1:0:0:0:
404,345,123989,5,0,1:0:0:0:
415,313,124087,1,0,0:0:0:0:
414,280,124185,1,0,0:0:0:0:
401,249,124283,1,0,1:0:0:0:
438,237,124382,5,8,0:2:0:0:
434,209,124480,1,0,0:0:0:0:
458,183,124578,1,0,1:0:0:0:
454,155,124676,1,0,0:0:0:0:
418,115,124774,5,0,1:0:0:0:
381,118,124872,1,0,0:0:0:0:
344,121,124970,1,0,0:0:0:0:
307,124,125068,1,0,1:0:0:0:
268,148,125166,5,8,0:2:0:0:
239,145,125264,1,0,0:0:0:0:
211,142,125362,1,0,1:0:0:0:
182,140,125460,1,0,0:0:0:0:
149,170,125558,5,0,1:0:0:0:
149,170,125656,1,0,0:0:0:0:
149,170,125754,1,0,0:0:0:0:
328,265,125950,1,8,0:2:0:0:
328,265,126048,1,0,0:0:0:0:
328,265,126146,1,0,1:0:0:0:
180,349,126342,5,0,1:0:0:0:
162,358,126440,1,0,0:0:0:0:
143,363,126538,1,0,0:0:0:0:
123,364,126636,1,0,1:0:0:0:
103,363,126734,1,8,0:2:0:0:
83,358,126832,1,0,0:0:0:0:
64,351,126930,1,0,1:0:0:0:
47,340,127028,1,0,0:0:0:0:
32,327,127126,1,4,1:2:0:0:
186,254,139676,6,0,P|237:253|283:259,1,77.0000023498536,0|2,0:0|0:0,0:0:0:0:
346,289,140068,2,0,P|345:238|351:192,1,77.0000023498536,0|2,0:0|0:0,0:0:0:0:
244,58,140460,1,0,0:0:0:0:
168,68,140656,1,2,0:0:0:0:
179,145,140852,1,0,0:0:0:0:
255,134,141048,1,2,0:0:0:0:
463,111,141244,6,0,P|471:73|483:36,1,77.0000023498536,0|2,0:0|0:0,0:0:0:0:
408,164,141637,2,0,P|420:200|427:238,1,77.0000023498536,0|2,0:0|0:0,0:0:0:0:
489,312,142029,1,0,0:0:0:0:
423,352,142225,1,2,0:0:0:0:
423,352,142323,1,2,0:0:0:0:
423,352,142421,1,0,0:0:0:0:
342,325,142617,1,2,0:0:0:0:
153,310,142813,6,0,P|164:348|172:397,1,77.0000023498536,0|2,0:0|0:0,0:0:0:0:
209,244,143205,2,0,P|198:206|190:157,1,77.0000023498536,0|2,0:0|0:0,0:0:0:0:
16,235,143597,1,0,0:0:0:0:
0,311,143793,1,2,0:0:0:0:
75,327,143989,1,0,0:0:0:0:
91,251,144186,1,2,0:0:0:0:
0,159,144382,5,2,0:0:0:0:
216,370,144774,1,2,0:0:0:0:
512,225,145166,1,2,0:0:0:0:
296,14,145558,1,2,0:0:0:0:
166,93,145950,5,4,0:0:0:0:
162,106,146048,1,0,0:0:0:0:
159,120,146146,1,0,0:0:0:0:
157,134,146244,1,0,0:0:0:0:
156,148,146342,1,0,0:0:0:0:
156,162,146440,1,0,0:0:0:0:
156,176,146538,1,0,0:0:0:0:
157,189,146636,1,0,0:0:0:0:
177,227,146735,5,0,0:0:0:0:
197,233,146833,1,0,0:0:0:0:
217,236,146931,1,0,0:0:0:0:
238,236,147029,1,0,0:0:0:0:
259,234,147127,1,0,0:0:0:0:
279,228,147225,1,0,0:0:0:0:
298,219,147323,1,0,0:0:0:0:
316,208,147421,1,0,0:0:0:0:
344,173,147519,5,0,0:0:0:0:
370,163,147617,1,0,0:0:0:0:
398,163,147715,1,0,0:0:0:0:
423,173,147813,1,0,0:0:0:0:
444,192,147911,1,0,0:0:0:0:
457,217,148009,1,0,0:0:0:0:
460,244,148107,1,0,0:0:0:0:
454,271,148205,1,0,0:0:0:0:
425,291,148303,6,0,L|390:283,3,28,6|0|0|0,0:0|0:0|0:0|0:0,0:0:0:0:
318,352,148695,2,0,L|347:358,3,28,6|0|0|0,0:0|0:0|0:0|0:0,0:0:0:0:
202,380,149087,5,4,0:0:0:0:
183,354,149185,1,0,0:0:0:0:
174,324,149283,1,0,0:0:0:0:
176,293,149381,1,0,0:0:0:0:
189,265,149479,1,0,0:0:0:0:
211,243,149577,1,0,0:0:0:0:
240,230,149675,1,0,0:0:0:0:
271,228,149773,1,0,0:0:0:0:
316,248,149872,5,4,0:0:0:0:
349,238,149970,1,0,0:0:0:0:
377,217,150068,1,0,0:0:0:0:
396,188,150166,1,0,0:0:0:0:
403,154,150264,1,0,0:0:0:0:
398,120,150362,1,0,0:0:0:0:
381,89,150460,1,0,0:0:0:0:
355,67,150558,1,0,0:0:0:0:
308,82,150656,5,4,0:0:0:0:
272,91,150754,1,0,0:0:0:0:
236,88,150852,1,0,0:0:0:0:
203,72,150950,1,0,0:0:0:0:
151,84,151048,6,0,L|125:80,2,24.4999992523194,4|0|0,0:0|0:0|0:0,0:0:0:0:
213,172,151244,1,0,0:0:0:0:
213,172,151342,1,0,0:0:0:0:
213,172,151440,6,0,L|244:166,2,24.4999992523194,4|0|0,0:0|0:0|0:0,0:0:0:0:
125,234,151637,2,0,L|94:228,2,24.4999992523194,4|0|0,0:0|0:0|0:0,0:0:0:0:
285,290,151833,6,0,L|303:293,6,18.3749994392395,6|0|0|0|0|0|0,0:0|0:0|0:0|0:0|0:0|0:0|0:0,0:0:0:0:
387,338,152225,5,4,1:0:0:0:
397,301,152323,1,0,0:2:0:0:
392,263,152421,1,0,0:0:0:0:
373,229,152519,2,0,P|360:203|356:172,1,45.4999979171754,0|8,1:0|0:0,0:0:0:0:
485,175,152715,5,0,0:0:0:0:
485,175,152813,2,0,P|458:178|432:177,1,45.4999979171754,0|0,1:0|0:0,0:0:0:0:
286,138,153009,5,0,1:0:0:0:
254,116,153107,1,0,0:2:0:0:
217,107,153205,1,0,0:0:0:0:
179,112,153303,2,0,P|152:127|110:129,1,45.4999979171754,0|8,1:0|0:0,0:0:0:0:
58,111,153499,5,0,0:0:0:0:
58,111,153597,2,0,P|53:145|59:165,1,45.4999979171754,0|0,1:0|0:0,0:0:0:0:
48,259,153793,5,0,1:0:0:0:
80,279,153891,1,0,0:2:0:0:
117,288,153989,1,0,0:0:0:0:
155,282,154087,2,0,P|187:273|225:278,1,45.4999979171754,0|8,1:0|0:0,0:0:0:0:
275,340,154284,5,0,0:0:0:0:
275,340,154382,2,0,P|289:304|293:269,1,45.4999979171754,0|0,1:0|0:0,0:0:0:0:
331,176,154578,5,0,1:0:0:0:
341,212,154676,1,0,0:2:0:0:
365,243,154774,1,0,0:0:0:0:
395,260,154872,2,0,P|409:287|409:312,1,45.4999979171754,0|8,1:0|0:0,0:0:0:0:
506,284,155068,5,0,0:0:0:0:
506,284,155166,2,0,P|511:251|505:214,1,45.4999979171754,0|0,1:0|0:0,0:0:0:0:
484,95,155362,5,0,1:0:0:0:
470,130,155460,1,0,0:2:0:0:
443,157,155558,1,0,0:0:0:0:
407,169,155656,2,0,P|377:159|346:156,1,45.4999979171754,0|8,1:0|0:0,0:0:0:0:
270,113,155852,5,0,0:0:0:0:
270,113,155950,2,0,P|233:110|210:110,1,45.4999979171754,0|0,1:0|0:0,0:0:0:0:
111,141,156146,5,0,1:0:0:0:
123,177,156244,1,0,0:2:0:0:
148,205,156342,1,0,0:0:0:0:
183,221,156440,2,0,P|193:257|187:283,1,45.4999979171754,0|8,1:0|0:0,0:0:0:0:
290,262,156636,5,0,0:0:0:0:
290,262,156734,2,0,P|327:259|350:259,1,45.4999979171754,0|0,1:0|0:0,0:0:0:0:
448,303,156931,5,0,1:0:0:0:
437,339,157029,1,0,0:2:0:0:
408,363,157127,1,0,0:0:0:0:
370,368,157225,2,0,P|343:358|312:356,1,45.4999979171754,0|8,1:0|0:0,0:0:0:0:
236,364,157421,5,0,0:0:0:0:
236,364,157519,2,0,P|219:344|205:313,1,45.4999979171754,0|0,1:0|0:0,0:0:0:0:
279,217,157715,5,0,1:2:0:0:
279,217,157813,1,0,0:0:0:0:
9,296,158009,1,0,1:2:0:0:
9,296,158107,1,8,0:0:0:0:
157,379,158303,1,4,0:0:0:0:
190,254,158499,5,0,1:0:0:0:
160,229,158597,1,0,0:2:0:0:
124,216,158695,1,0,0:0:0:0:
86,216,158793,2,0,P|71:201|55:166,1,45.4999979171754,0|8,1:0|0:0,0:0:0:0:
156,88,158989,5,0,0:0:0:0:
156,88,159087,2,0,P|155:121|143:151,1,45.4999979171754,0|0,1:0|0:0,0:0:0:0:
237,165,159284,5,0,1:0:0:0:
271,147,159382,1,0,0:2:0:0:
309,143,159480,1,0,0:0:0:0:
346,153,159578,2,0,P|381:146|405:125,1,45.4999979171754,0|8,1:0|0:0,0:0:0:0:
312,19,159774,5,0,0:0:0:0:
312,19,159872,2,0,P|301:50|301:82,1,45.4999979171754,0|0,1:0|0:0,0:0:0:0:
460,193,160068,5,0,1:0:0:0:
474,157,160166,1,0,0:2:0:0:
473,119,160264,1,0,0:0:0:0:
455,86,160362,2,0,P|444:62|439:33,1,45.4999979171754,0|8,1:0|0:0,0:0:0:0:
346,153,160558,5,0,0:0:0:0:
346,153,160656,2,0,P|381:146|405:125,1,45.4999979171754,0|0,1:0|0:0,0:0:0:0:
412,281,160852,5,0,1:0:0:0:
381,258,160950,1,0,0:2:0:0:
344,249,161048,1,0,0:0:0:0:
306,254,161146,2,0,P|280:263|249:261,1,45.4999979171754,0|8,1:0|0:0,0:0:0:0:
151,327,161342,5,0,0:0:0:0:
151,327,161440,2,0,P|137:291|137:242,1,45.4999979171754,0|0,1:0|0:0,0:0:0:0:
196,223,161637,5,0,1:2:0:0:
96,94,161833,1,0,0:0:0:0:
96,94,161931,1,8,1:2:0:0:
3,288,162127,1,0,0:0:0:0:
3,288,162225,1,8,0:0:0:0:
248,368,162421,5,0,1:2:0:0:
302,223,162617,1,0,0:0:0:0:
302,223,162715,1,8,1:2:0:0:
237,82,162911,1,0,0:0:0:0:
237,82,163009,1,12,0:0:0:0:
0,192,163205,5,0,1:2:0:0:
178,229,163401,1,0,0:0:0:0:
178,229,163499,1,8,1:2:0:0:
329,128,163695,1,0,0:2:0:0:
329,128,163793,1,8,0:0:0:0:
438,166,163989,5,0,0:0:0:0:
438,166,164087,1,8,1:2:0:0:
459,273,164284,1,8,0:2:0:0:
459,273,164382,1,8,0:0:0:0:
459,273,164480,1,0,0:0:0:0:
459,273,164578,1,0,1:0:0:0:
342,342,164774,5,4,1:1:0:0:
310,319,164872,1,0,0:2:0:0:
274,307,164970,1,0,0:0:0:0:
236,307,165068,2,0,P|220:287|206:262,1,45.4999979171754,0|8,1:0|0:0,0:0:0:0:
121,322,165264,5,0,0:0:0:0:
121,322,165362,2,0,P|111:358|107:378,1,45.4999979171754,0|0,1:0|0:0,0:0:0:0:
45,229,165558,5,0,1:0:0:0:
83,231,165656,1,0,0:2:0:0:
119,220,165754,1,0,0:0:0:0:
150,198,165852,2,0,P|178:200|217:212,1,45.4999979171754,0|8,1:0|0:0,0:0:0:0:
289,184,166048,5,0,0:0:0:0:
289,184,166146,2,0,P|299:220|303:240,1,45.4999979171754,0|0,1:0|0:0,0:0:0:0:
404,230,166342,5,0,1:0:0:0:
427,199,166440,1,0,0:2:0:0:
440,163,166538,1,0,0:0:0:0:
442,125,166637,2,0,P|444:89|454:69,1,45.4999979171754,0|8,1:0|0:0,0:0:0:0:
419,4,166833,5,0,0:0:0:0:
419,4,166931,2,0,P|447:-1|486:4,1,45.4999979171754,0|0,1:0|0:0,0:0:0:0:
353,61,167127,5,0,1:0:0:0:
316,73,167225,1,0,0:2:0:0:
278,73,167323,1,0,0:0:0:0:
242,59,167421,2,0,P|203:67|180:76,1,45.4999979171754,0|8,1:0|0:0,0:0:0:0:
102,51,167617,5,0,0:0:0:0:
102,51,167715,2,0,P|100:89|104:112,1,45.4999979171754,0|0,1:0|0:0,0:0:0:0:
128,194,167911,5,0,1:0:0:0:
164,204,168009,1,0,0:2:0:0:
203,204,168107,1,0,0:0:0:0:
239,193,168205,2,0,P|273:185|308:188,1,45.4999979171754,0|8,1:0|0:0,0:0:0:0:
376,184,168401,5,0,0:0:0:0:
376,184,168499,2,0,P|384:221|384:244,1,45.4999979171754,0|0,1:0|0:0,0:0:0:0:
347,325,168695,5,0,1:0:0:0:
309,317,168793,1,0,0:2:0:0:
270,313,168891,1,0,0:0:0:0:
232,310,168989,2,0,P|200:317|178:321,1,45.4999979171754,0|8,1:0|0:0,0:0:0:0:
101,355,169186,5,0,0:0:0:0:
101,355,169284,2,0,P|92:322|93:291,1,45.4999979171754,0|0,1:0|0:0,0:0:0:0:
36,208,169480,5,0,1:0:0:0:
70,224,169578,1,0,0:2:0:0:
108,227,169676,1,0,0:0:0:0:
145,217,169774,2,0,P|174:205|207:206,1,45.4999979171754,0|8,1:0|0:0,0:0:0:0:
279,220,169970,5,0,0:0:0:0:
279,220,170068,2,0,P|276:175|263:140,1,45.4999979171754,0|0,1:0|0:0,0:0:0:0:
216,81,170264,5,0,1:0:0:0:
365,147,170460,1,0,0:0:0:0:
365,147,170558,1,8,1:2:0:0:
509,69,170754,1,0,0:0:0:0:
509,69,170852,1,8,1:2:0:0:
512,249,171048,5,0,1:0:0:0:
480,270,171146,1,0,0:2:0:0:
442,275,171244,1,0,0:0:0:0:
405,265,171342,2,0,P|392:295|393:321,1,45.4999979171754,0|8,1:0|0:0,0:0:0:0:
311,355,171538,5,0,0:0:0:0:
311,355,171637,2,0,P|278:359|246:357,1,45.4999979171754,0|0,1:0|0:0,0:0:0:0:
178,326,171833,5,0,1:0:0:0:
188,289,171931,1,0,0:2:0:0:
217,264,172029,1,0,0:0:0:0:
255,260,172127,2,0,P|274:251|301:221,1,45.4999979171754,0|8,1:0|0:0,0:0:0:0:
208,136,172323,5,0,0:0:0:0:
208,136,172421,2,0,P|205:168|209:197,1,45.4999979171754,0|0,1:0|0:0,0:0:0:0:
331,176,172617,5,0,1:0:0:0:
336,138,172715,1,0,0:2:0:0:
328,100,172813,1,0,0:0:0:0:
306,69,172911,2,0,P|266:65|236:52,1,45.4999979171754,0|8,1:0|0:0,0:0:0:0:
392,23,173107,5,0,0:0:0:0:
392,23,173205,2,0,P|432:19|462:6,1,45.4999979171754,0|0,1:0|0:0,0:0:0:0:
512,86,173401,5,0,1:0:0:0:
481,108,173499,1,0,0:2:0:0:
443,116,173597,1,0,0:0:0:0:
406,110,173695,2,0,P|373:108|337:115,1,45.4999979171754,0|8,1:0|0:0,0:0:0:0:
260,18,173891,5,0,0:0:0:0:
260,18,173989,2,0,P|259:46|261:71,1,45.4999979171754,0|0,1:0|0:0,0:0:0:0:
280,131,174186,5,0,1:0:0:0:
268,167,174284,1,0,0:0:0:0:
246,199,174382,1,0,0:0:0:0:
217,223,174480,1,0,1:0:0:0:
182,239,174578,1,8,0:0:0:0:
144,245,174676,1,0,0:0:0:0:
106,239,174774,1,0,1:0:0:0:
71,224,174872,1,0,0:0:0:0:
100,198,174970,5,0,1:0:0:0:
138,194,175068,1,0,0:0:0:0:
176,199,175166,1,0,0:0:0:0:
210,216,175264,1,0,1:0:0:0:
241,239,175362,1,8,0:0:0:0:
276,255,175460,1,0,0:0:0:0:
314,259,175558,1,0,1:0:0:0:
352,256,175656,1,0,0:0:0:0:
328,210,175754,5,0,1:0:0:0:
303,239,175852,1,0,0:0:0:0:
298,276,175950,1,0,0:0:0:0:
313,311,176048,1,0,1:0:0:0:
345,332,176146,1,8,0:0:0:0:
382,334,176244,1,0,0:0:0:0:
416,315,176342,1,0,1:0:0:0:
434,282,176440,1,0,0:0:0:0:
422,230,176538,6,0,L|396:224,14,19.2500005874634,0|0|0|0|0|0|0|0|0|0|0|0|0|0|0,1:0|0:0|0:0|0:0|0:0|0:0|1:0|0:0|0:0|0:0|0:0|0:0|1:0|0:0|0:0,0:0:0:0:
505,209,177323,5,4,1:1:0:0:
340,65,177519,1,0,0:0:0:0:
340,65,177617,1,0,0:0:0:0:
340,65,177715,1,8,0:0:0:0:
127,116,177911,1,0,1:0:0:0:
321,359,178107,5,0,1:0:0:0:
340,279,178303,1,0,0:0:0:0:
340,279,178401,1,0,0:0:0:0:
340,279,178499,1,8,0:0:0:0:
252,261,178695,1,0,1:0:0:0:
28,227,178891,5,0,1:0:0:0:
36,244,178989,1,0,0:0:0:0:
38,264,179087,1,0,0:0:0:0:
46,282,179185,1,0,0:0:0:0:
47,302,179284,1,8,0:0:0:0:
55,319,179382,1,0,0:0:0:0:
57,339,179480,1,0,1:0:0:0:
140,321,179676,5,0,1:0:0:0:
98,184,179872,1,0,0:0:0:0:
98,184,179970,1,0,0:0:0:0:
98,184,180068,1,8,0:0:0:0:
164,57,180264,1,0,1:0:0:0:
489,113,180460,5,0,1:0:0:0:
400,126,180656,1,0,0:0:0:0:
400,126,180754,1,0,0:0:0:0:
400,126,180852,1,8,0:0:0:0:
307,130,181048,1,0,1:0:0:0:
36,252,181244,5,0,1:0:0:0:
136,263,181440,1,0,0:0:0:0:
136,263,181538,1,0,0:0:0:0:
136,263,181636,1,8,0:0:0:0:
229,267,181832,1,0,1:0:0:0:
396,222,182029,5,0,1:0:0:0:
382,354,182225,1,0,0:0:0:0:
229,267,182421,5,8,1:2:0:0:
257,66,182617,1,0,0:0:0:0:
512,116,182813,5,0,1:0:0:0:
382,153,183009,1,0,0:0:0:0:
382,153,183107,1,0,1:0:0:0:
382,153,183205,1,8,0:0:0:0:
222,133,183401,1,0,1:0:0:0:
36,154,183597,5,4,1:2:0:0:
33,271,183793,1,0,0:0:0:0:
33,271,183891,1,0,1:0:0:0:
122,347,184087,1,0,0:0:0:0:
122,347,184186,1,8,1:2:0:0:
318,301,184382,6,0,P|381:294|430:297,1,83.9999974365235,0|0,1:0|0:0,0:0:0:0:
401,294,184676,1,0,1:0:0:0:
512,331,184872,1,0,0:0:0:0:
512,331,184970,1,8,1:2:0:0:
252,204,185166,6,0,P|269:178|275:160,2,41.9999987182618,0|0|0,1:0|0:0|0:0,0:0:0:0:
175,227,185460,2,0,P|114:211|68:178,1,83.9999974365235,0|0,1:0|0:0,0:0:0:0:
30,162,185754,1,8,1:2:0:0:
416,26,185950,5,0,1:0:0:0:
354,134,186146,1,0,0:0:0:0:
354,134,186244,1,0,1:0:0:0:
354,134,186342,1,8,0:0:0:0:
246,72,186538,1,0,1:0:0:0:
11,108,186735,5,0,1:0:0:0:
23,203,186931,1,0,0:0:0:0:
23,203,187029,1,0,0:0:0:0:
23,203,187127,1,8,0:0:0:0:
32,289,187323,1,0,1:0:0:0:
249,384,187519,5,0,1:0:0:0:
249,384,187617,1,8,0:0:0:0:
270,290,187813,1,0,0:0:0:0:
270,290,187911,1,8,0:0:0:0:
292,196,188107,1,0,1:0:0:0:
504,157,188303,5,0,1:0:0:0:
435,205,188499,1,0,0:0:0:0:
435,205,188597,1,0,1:0:0:0:
435,205,188695,1,8,1:2:0:0:
355,166,188891,1,0,0:0:0:0:
263,133,189087,6,0,B|229:128|198:146|198:146|124:124,2,125.999996154785,0|0|8,1:0|1:0|1:2,0:0:0:0:
393,102,189872,5,4,1:2:0:0:
503,121,190068,1,0,0:0:0:0:
503,121,190166,1,0,1:0:0:0:
503,121,190264,2,0,L|514:25,1,83.9999974365235,8|0,0:0|1:0,0:0:0:0:
211,219,190656,5,0,1:0:0:0:
81,195,190852,1,0,0:0:0:0:
81,195,190950,1,0,1:0:0:0:
81,195,191048,2,0,L|70:291,1,83.9999974365235,8|0,0:0|1:0,0:0:0:0:
179,302,191440,5,0,1:0:0:0:
277,351,191637,1,0,0:0:0:0:
376,305,191833,1,8,1:2:0:0:
278,256,192030,1,0,0:0:0:0:
205,372,192225,5,0,1:0:0:0:
452,336,192421,1,0,0:0:0:0:
452,336,192519,1,0,1:0:0:0:
452,336,192617,2,0,L|467:244,1,83.9999974365235,8|0,0:0|1:1,0:0:0:0:
483,91,193009,5,0,1:0:0:0:
325,115,193205,1,0,0:0:0:0:
58,173,193401,5,8,0:0:0:0:
216,197,193597,1,0,1:0:0:0:
374,334,193793,5,0,1:0:0:0:
383,252,193989,1,0,0:0:0:0:
383,252,194087,1,0,1:0:0:0:
383,252,194186,1,8,0:0:0:0:
290,243,194383,1,0,0:0:0:0:
282,328,194579,1,0,1:0:0:0:
495,169,194970,5,12,1:2:0:0:
275,19,195362,1,4,1:2:0:0:
17,215,195754,1,12,1:2:0:0:
205,275,196146,6,0,P|249:262|313:269,1,90.9999958343508,0|0,1:0|0:0,0:0:0:0:
395,381,196440,2,0,L|376:266,1,90.9999958343508,0|0,1:0|0:0,0:0:0:0:
509,179,196735,1,8,1:2:0:0:
509,179,196833,1,0,0:0:0:0:
509,179,196931,6,0,P|462:213|412:205,1,90.9999958343508,0|0,1:0|0:0,0:0:0:0:
354,161,197225,2,0,P|301:148|234:162,1,90.9999958343508,0|0,1:0|0:0,0:0:0:0:
138,217,197519,1,8,1:2:0:0:
138,217,197617,1,0,0:0:0:0:
138,217,197715,6,0,P|119:158|132:105,1,90.9999958343508,0|0,1:0|0:0,0:0:0:0:
267,69,198009,2,0,L|149:56,1,90.9999958343508,0|0,1:0|0:0,0:0:0:0:
90,56,198303,1,8,1:2:0:0:
90,56,198401,1,0,0:0:0:0:
90,56,198499,5,2,1:2:0:0:
17,153,198695,1,0,0:0:0:0:
17,153,198793,1,0,1:0:0:0:
17,153,198891,1,2,0:0:0:0:
67,264,199087,1,8,1:2:0:0:
249,297,199284,5,2,1:2:0:0:
347,251,199480,1,0,0:0:0:0:
347,251,199578,1,0,0:0:0:0:
347,251,199676,1,8,0:0:0:0:
441,281,199872,1,0,1:0:0:0:
256,30,200068,5,0,1:0:0:0:
164,56,200264,1,0,0:0:0:0:
164,56,200362,1,0,0:0:0:0:
164,56,200460,1,8,0:0:0:0:
192,148,200656,1,0,1:0:0:0:
286,132,200852,6,0,L|336:124,7,41.9999987182618,2|0|0|0|8|0|0|0,1:2|0:0|0:0|0:0|1:2|0:0|0:0|0:0,0:0:0:0:
391,168,201637,2,0,P|413:89|378:15,1,167.999994873047,4|0,0:0|2:2,0:0:0:0:
497,177,202421,5,4,1:1:0:0:
472,210,202519,1,0,0:0:0:0:
437,234,202617,1,0,0:0:0:0:
398,247,202715,1,0,0:0:0:0:
356,246,202813,1,8,1:2:0:0:
316,233,202911,1,0,0:0:0:0:
277,217,203009,1,0,0:0:0:0:
236,205,203107,1,0,0:0:0:0:
195,209,203205,6,0,L|142:224,1,41.9999987182618,0|0,1:2|0:0,0:0:0:0:
275,291,203401,2,0,L|260:238,1,41.9999987182618
178,366,203597,2,0,L|231:351,1,41.9999987182618,8|0,1:2|0:0,0:0:0:0:
98,284,203793,2,0,L|113:337,1,41.9999987182618
23,246,203989,5,0,1:2:0:0:
36,206,204087,1,0,0:0:0:0:
65,176,204185,1,0,0:0:0:0:
103,160,204283,1,0,0:0:0:0:
145,151,204382,1,8,1:2:0:0:
176,123,204480,1,0,0:0:0:0:
192,85,204578,1,0,0:0:0:0:
191,43,204676,1,0,1:0:0:0:
325,85,204872,5,0,1:0:0:0:
325,85,204970,1,0,1:0:0:0:
415,101,205166,1,8,1:2:0:0:
497,59,205362,1,0,1:0:0:0:
260,135,205558,5,0,1:0:0:0:
263,176,205656,1,0,0:0:0:0:
279,215,205754,1,0,0:0:0:0:
306,247,205852,1,0,0:0:0:0:
342,269,205950,1,8,1:2:0:0:
382,279,206048,1,0,0:0:0:0:
424,276,206146,1,0,0:0:0:0:
463,261,206244,1,0,0:0:0:0:
431,232,206342,5,0,1:2:0:0:
401,222,206440,1,0,0:0:0:0:
383,240,206538,1,0,0:0:0:0:
353,230,206637,1,0,0:0:0:0:
331,244,206735,1,8,1:2:0:0:
301,234,206834,1,0,0:0:0:0:
283,252,206931,1,0,0:0:0:0:
253,242,207030,1,0,0:0:0:0:
232,257,207127,6,0,P|224:310|241:368,1,83.9999974365235,0|0,1:0|0:0,0:0:0:0:
436,132,207519,2,0,P|444:79|427:21,1,83.9999974365235,8|0,1:2|0:0,0:0:0:0:
223,18,207911,6,0,L|233:128,1,83.9999974365235,0|0,1:0|1:0,0:0:0:0:
295,134,208205,1,0,1:0:0:0:
311,133,208303,2,0,L|292:246,1,83.9999974365235,8|0,1:2|0:0,0:0:0:0:
63,370,208695,5,0,1:0:0:0:
53,344,208793,1,0,0:0:0:0:
44,318,208891,1,0,0:0:0:0:
36,293,208989,1,0,0:0:0:0:
72,270,209087,5,8,1:2:0:0:
83,244,209185,1,0,0:0:0:0:
85,216,209283,1,0,0:0:0:0:
77,190,209381,1,0,0:0:0:0:
59,157,209480,5,0,1:0:0:0:
98,142,209578,1,0,0:0:0:0:
140,141,209676,1,0,0:0:0:0:
179,154,209774,1,0,0:0:0:0:
201,201,209872,5,8,1:2:0:0:
238,218,209970,1,0,0:0:0:0:
280,220,210068,1,0,0:0:0:0:
319,205,210166,1,0,0:0:0:0:
344,169,210264,6,0,L|358:48,1,83.9999974365235,0|0,1:0|0:0,0:0:0:0:
436,280,210656,2,0,L|426:363,1,83.9999974365235,8|0,1:2|0:0,0:0:0:0:
131,257,211048,6,0,P|137:201|113:144,1,83.9999974365235,0|0,1:0|1:0,0:0:0:0:
49,278,211342,1,0,1:0:0:0:
40,283,211440,2,0,L|59:378,1,83.9999974365235,8|0,1:2|0:0,0:0:0:0:
254,352,211833,5,0,1:0:0:0:
279,319,211931,1,0,0:0:0:0:
288,278,212029,1,0,0:0:0:0:
278,237,212127,1,0,0:0:0:0:
249,201,212225,5,8,1:2:0:0:
208,192,212323,1,0,0:0:0:0:
184,159,212421,1,0,0:0:0:0:
186,118,212519,1,0,0:0:0:0:
220,78,212617,5,0,1:2:0:0:
258,62,212715,1,0,0:0:0:0:
299,68,212813,1,0,0:0:0:0:
331,95,212911,1,0,0:0:0:0:
365,132,213009,5,8,1:2:0:0:
406,135,213107,1,0,0:0:0:0:
445,121,213205,1,0,0:0:0:0:
475,92,213303,1,0,0:0:0:0:
438,63,213401,5,0,1:2:0:0:
420,100,213499,1,0,0:0:0:0:
419,142,213597,1,0,0:0:0:0:
435,180,213695,1,0,0:0:0:0:
479,198,213793,5,8,1:2:0:0:
474,231,213891,1,0,0:0:0:0:
470,264,213989,1,0,0:0:0:0:
466,297,214087,1,0,1:0:0:0:
355,340,214284,5,0,1:0:0:0:
355,340,214382,1,0,1:0:0:0:
253,321,214578,2,0,L|245:368,1,35,8|0,1:2|0:0,0:0:0:0:
31,358,214970,5,0,1:2:0:0:
13,320,215068,1,0,0:0:0:0:
16,278,215166,1,0,0:0:0:0:
40,244,215264,1,0,0:0:0:0:
85,245,215362,5,8,1:2:0:0:
110,219,215460,1,0,0:0:0:0:
120,184,215558,1,0,0:0:0:0:
114,148,215656,1,0,0:0:0:0:
130,107,215754,5,0,1:2:0:0:
169,95,215852,1,0,0:0:0:0:
208,83,215950,1,0,0:0:0:0:
247,71,216048,1,0,0:0:0:0:
279,106,216146,5,8,1:2:0:0:
308,109,216244,1,0,0:0:0:0:
337,112,216342,1,0,0:0:0:0:
366,115,216440,1,0,0:0:0:0:
416,100,216538,5,0,1:2:0:0:
447,127,216636,1,0,0:0:0:0:
462,166,216734,1,0,0:0:0:0:
457,207,216832,1,0,0:0:0:0:
433,241,216931,2,0,P|366:224|322:232,1,83.9999974365235,8|0,1:2|0:0,0:0:0:0:
199,374,217323,5,0,1:0:0:0:
168,347,217421,1,0,0:0:0:0:
153,308,217519,1,0,0:0:0:0:
158,267,217617,1,0,0:0:0:0:
182,233,217716,2,0,P|249:250|293:242,1,83.9999974365235,8|0,1:2|0:0,0:0:0:0:
395,378,218107,5,0,1:2:0:0:
382,360,218205,1,0,0:0:0:0:
381,343,218303,1,0,0:0:0:0:
368,326,218401,1,0,0:0:0:0:
369,310,218499,1,8,1:2:0:0:
356,293,218597,1,0,0:0:0:0:
355,276,218695,1,0,0:0:0:0:
342,259,218793,1,0,0:0:0:0:
379,228,218891,5,0,1:2:0:0:
389,213,218989,1,0,0:0:0:0:
392,193,219087,1,0,0:0:0:0:
402,178,219185,1,0,0:0:0:0:
405,157,219284,1,8,1:2:0:0:
415,142,219382,1,0,0:0:0:0:
418,121,219480,1,0,0:0:0:0:
428,106,219578,1,0,0:0:0:0:
396,69,219676,5,0,1:2:0:0:
360,46,219774,1,0,0:0:0:0:
319,37,219872,1,0,0:0:0:0:
278,42,219970,1,0,0:0:0:0:
240,60,220068,6,0,P|199:64|145:37,1,83.9999974365235,8|0,1:2|1:0,0:0:0:0:
69,24,220362,1,0,0:0:0:0:
69,24,220460,2,0,P|76:60|78:81,1,41.9999987182618,0|0,0:0|1:0,0:0:0:0:
94,160,220656,2,0,P|121:135|138:123,1,41.9999987182618,0|0,1:0|0:0,0:0:0:0:
272,136,220852,5,8,1:2:0:0:
290,172,220950,1,0,0:0:0:0:
287,214,221048,1,0,0:0:0:0:
262,247,221146,1,0,0:0:0:0:
224,262,221244,5,0,1:2:0:0:
185,245,221342,1,0,0:0:0:0:
144,245,221440,1,0,0:0:0:0:
106,263,221538,1,0,0:0:0:0:
78,310,221637,5,8,1:2:0:0:
90,349,221735,1,0,0:0:0:0:
123,374,221833,1,0,0:0:0:0:
164,377,221931,1,0,0:0:0:0:
206,341,222029,5,0,1:2:0:0:
246,329,222127,1,0,0:0:0:0:
288,330,222225,1,0,0:0:0:0:
328,343,222323,1,0,0:0:0:0:
376,321,222421,5,8,1:2:0:0:
384,294,222519,1,0,0:0:0:0:
385,266,222617,1,0,0:0:0:0:
380,239,222715,1,0,0:0:0:0:
349,212,222813,5,0,1:2:0:0:
315,216,222911,1,0,0:0:0:0:
281,220,223009,1,0,0:0:0:0:
247,224,223107,1,0,0:0:0:0:
200,224,223205,5,8,1:2:0:0:
180,187,223303,1,0,0:0:0:0:
178,145,223401,1,0,0:0:0:0:
196,108,223499,1,0,0:0:0:0:
245,114,223597,5,0,1:2:0:0:
279,118,223695,1,0,0:0:0:0:
313,122,223793,1,0,0:0:0:0:
347,126,223891,1,0,0:0:0:0:
394,118,223989,5,8,1:2:0:0:
419,85,224087,1,0,0:0:0:0:
426,44,224185,1,0,0:0:0:0:
412,5,224283,1,0,0:0:0:0:
367,9,224382,5,8,3:0:0:0:
325,14,224480,1,0,3:0:0:0:
283,19,224578,1,0,3:0:0:0:
241,24,224676,1,8,3:0:0:0:
199,29,224774,1,8,3:2:0:0:
157,34,224872,1,0,3:0:0:0:
115,39,224970,1,8,3:0:0:0:
73,44,225068,1,0,3:0:0:0:
31,91,225166,5,8,3:0:0:0:
64,96,225264,1,0,3:0:0:0:
97,101,225362,1,0,3:0:0:0:
130,106,225460,1,8,3:0:0:0:
163,111,225558,1,8,3:2:0:0:
196,116,225656,1,0,3:0:0:0:
229,122,225754,1,8,3:0:0:0:
261,128,225852,1,0,3:0:0:0:
293,134,225950,6,0,L|333:125,2,27.9999991455078,8|0|0,0:0|0:0|0:0,0:0:0:0:
226,248,226146,5,0,0:0:0:0:
226,248,226244,1,0,0:0:0:0:
226,248,226342,2,0,L|216:281,2,27.9999991455078,8|0|0,0:0|0:0|0:0,0:0:0:0:
365,256,226538,5,0,0:0:0:0:
365,256,226636,1,0,0:0:0:0:
365,256,226735,2,0,L|397:249,11,27.9999991455078,8|0|0|8|0|0|8|0|0|8|0|0,0:0|0:0|0:0|0:0|0:0|0:0|0:0|0:0|0:0|0:0|0:0|0:0,0:0:0:0:
464,274,227519,6,0,L|454:360,1,83.9999974365235,2|0,0:0|0:0,0:0:0:0:
52,114,230656,6,0,L|62:28,1,83.9999974365235,2|0,0:0|0:0,0:0:0:0:
158,337,233793,6,0,B|135:343|117:335|117:335|74:345,1,84,2|0,0:0|0:0,0:0:0:0:
354,47,236931,6,0,B|377:41|395:49|395:49|438:39,1,84,2|0,0:0|0:0,0:0:0:0:
202,162,240068,6,0,P|148:166|97:159,1,105.000004005432,2|0,0:0|0:0,0:0:0:0:
34,108,240656,1,0,0:0:0:0:
149,211,240852,5,0,0:0:0:0:
145,234,240950,1,0,0:0:0:0:
142,257,241048,1,0,0:0:0:0:
37,296,241244,5,0,0:0:0:0:
40,305,241342,1,0,0:0:0:0:
43,314,241440,1,0,0:0:0:0:
208,316,241637,6,0,P|280:328|343:311,1,105.000004005432,6|0,0:0|0:0,0:0:0:0:
310,323,242225,1,0,0:0:0:0:
446,290,242421,2,0,L|455:370,1,70,2|0,0:0|0:0,0:0:0:0:
280,197,243205,6,0,B|317:181|340:163|340:163|412:178,1,105.000004005432,2|0,0:0|0:0,0:0:0:0:
448,196,243793,1,0,0:0:0:0:
428,64,243989,5,0,0:0:0:0:
422,84,244087,1,0,0:0:0:0:
416,104,244186,1,0,0:0:0:0:
286,95,244382,5,0,0:0:0:0:
289,102,244480,1,0,0:0:0:0:
292,109,244578,1,0,0:0:0:0:
131,156,244774,6,0,P|105:116|112:60,1,105.000004005432,6|0,0:0|0:0,0:0:0:0:
111,61,245362,1,2,0:0:0:0:
205,129,245558,2,0,B|215:161|215:161|184:213|183:268,1,105.000004005432,2|0,0:0|0:0,0:0:0:0:
33,295,246342,6,2,P|83:290|133:305,2,78.7500030040742
209,361,247127,1,2,0:0:0:0:
209,361,247225,2,0,B|213:332|231:312|231:312|225:269,1,78.7500030040742,2|0,0:0|0:0,0:0:0:0:
272,226,247715,1,2,0:0:0:0:
431,305,247911,6,2,P|494:291|521:292,2,78.7500030040742
350,228,248695,1,2,0:0:0:0:
350,228,248793,2,0,B|378:206|378:206|406:209|446:204,1,78.7500030040742,2|0,0:0|0:0,0:0:0:0:
486,170,249284,1,2,0:0:0:0:
396,97,249480,6,2,L|409:23,2,62.9999980773926
304,91,250166,1,0,0:0:0:0:
304,91,250264,2,2,L|312:44,2,47.2499985580445
212,85,250950,1,0,0:0:0:0:
212,85,251048,2,2,L|218:47,2,31.4999990386963
120,80,251735,1,0,0:0:0:0:
120,80,251833,2,2,L|123:61,2,15.7499995193482
55,114,252617,5,4,0:0:0:0:
