osu file format v14

[General]
AudioFilename: audio.mp3
AudioLeadIn: 0
PreviewTime: 152255
Countdown: 0
SampleSet: Soft
StackLeniency: 0.4
Mode: 0
LetterboxInBreaks: 0
WidescreenStoryboard: 1

[Editor]
DistanceSpacing: 1.2
BeatDivisor: 4
GridSize: 32
TimelineZoom: 2

[Metadata]
Title:Midorigo Queen Bee
TitleUnicode:嬰児クインビー
Artist:-45
ArtistUnicode:-45
Creator:Luscent
Version:AF's Hard
Source:うみねこのなく頃に散
Tags:07th Expansion Umineko no Naku Koro ni Chiru when they cry ep6 furudo erika visual novel infant Eiji Kuin bii kuinbii D'va Dva yoshikawa45 Affirmation AF Dada
BeatmapID:2210582
BeatmapSetID:1055780

[Difficulty]
HPDrainRate:4
CircleSize:4
OverallDifficulty:6.3
ApproachRate:7.8
SliderMultiplier:1
SliderTickRate:1

[Events]
//Background and Video events
0,0,"d2w8i45-01442f1c-70f7-4aaf-a74b-772be8a4107c.jpg",0,0
//Break Periods
2,26935,38505
2,127327,138897
//Storyboard Layer 0 (Background)
//Storyboard Layer 1 (Fail)
//Storyboard Layer 2 (Pass)
//Storyboard Layer 3 (Foreground)
//Storyboard Layer 4 (Overlay)
//Storyboard Sound Samples

[TimingPoints]
1637,392.156862745098,4,2,1,45,1,0
1637,-83.3333333333333,4,2,1,45,0,0
14186,-78.125,4,2,1,45,0,0
39284,-75.7575757575758,4,2,1,45,0,0
51833,-75.7575757575758,4,2,1,60,0,0
102029,-71.4285714285714,4,2,1,60,0,0
139676,-79.3650793650794,4,2,1,45,0,0
152225,-70.4225352112676,4,2,1,70,0,0

[Colours]
Combo1 : 212,2,1
Combo2 : 255,236,89
Combo3 : 107,132,198
Combo4 : 250,145,160

[HitObjects]
246,82,1637,6,0,L|365:91,1,119.999996337891
433,42,2225,2,0,P|476:117|450:201,1,179.999994506836
334,322,3205,2,0,L|325:203,1,119.999996337891
244,178,3793,2,0,L|230:356,1,179.999994506836
111,238,4774,6,0,P|66:199|7:194,1,119.999996337891
13,110,5362,2,0,P|100:101|164:40,1,179.999994506836
321,99,6342,2,0,L|440:92,1,119.999996337891
468,171,6931,2,0,L|288:181,1,179.999994506836
196,321,7911,6,0,P|142:345|84:334,1,119.999996337891
4,362,8499,2,0,L|14:182,1,179.999994506836
125,56,9480,2,0,P|184:52|243:39,1,119.999996337891
243,123,10068,2,0,P|330:141|420:147,1,179.999994506836
324,285,11048,6,0,L|204:294,1,119.999996337891
227,375,11637,2,0,L|47:360,1,179.999994506836
9,196,12617,6,0,P|55:159|114:160,1,119.999996337891
188,200,13205,2,0,L|202:20,1,179.999994506836
368,20,14186,6,0,P|431:25|482:61,1,128,0|8,1:0|0:0,0:0:0:0:
436,177,14872,1,0,0:0:0:0:
436,177,14970,2,0,P|384:213|321:218,1,128,0|8,1:0|0:0,0:0:0:0:
206,171,15656,1,0,0:0:0:0:
206,171,15754,6,0,L|212:298,1,128,0|8,1:0|0:0,0:0:0:0:
99,350,16440,1,0,0:0:0:0:
99,350,16538,2,0,L|92:222,1,128,0|8,1:0|0:0,0:0:0:0:
121,58,17323,6,0,B|161:84|161:84|238:63,1,128,0|8,1:0|0:0,0:0:0:0:
326,152,18009,1,0,0:0:0:0:
326,152,18107,2,0,B|366:126|366:126|443:146,1,128,0|8,1:0|0:0,0:0:0:0:
374,249,18793,1,0,0:0:0:0:
374,249,18891,6,0,P|311:261|248:273,1,128,0|8,1:0|0:0,0:0:0:0:
166,367,19578,1,0,0:0:0:0:
166,367,19676,2,0,P|103:355|40:342,1,128,0|8,1:0|0:0,0:0:0:0:
37,175,20460,6,0,P|91:143|154:137,1,128,0|8,1:0|0:0,0:0:0:0:
235,42,21146,1,0,0:0:0:0:
235,42,21244,2,0,P|289:74|352:80,1,128,0|8,1:0|0:0,0:0:0:0:
468,126,21931,1,0,0:0:0:0:
468,126,22029,6,0,P|462:189|455:253,1,128,0|8,1:0|0:0,0:0:0:0:
342,306,22715,1,0,0:0:0:0:
342,306,22813,2,0,P|335:242|329:178,1,128,0|8,1:0|0:0,0:0:0:0:
235,42,23597,6,0,L|203:47,3,32,0|0|0|0,1:0|3:0|3:0|3:0,0:0:0:0:
173,75,23989,2,0,L|141:69,3,32,0|0|0|0,1:0|3:0|3:0|3:0,0:0:0:0:
103,51,24382,2,0,L|97:82,3,32,0|0|0|0,1:0|3:0|3:0|3:0,0:0:0:0:
70,113,24774,2,0,L|75:144,3,32,0|0|0|0,1:0|3:0|3:0|3:0,0:0:0:0:
106,171,25166,6,0,L|101:191,3,21.3333333333333,0|0|0|0,3:0|3:0|3:0|3:0,0:0:0:0:
181,205,25558,2,0,L|176:225,3,21.3333333333333,0|0|0|0,3:0|3:0|3:0|3:0,0:0:0:0:
256,239,25950,2,0,L|251:259,3,21.3333333333333,0|0|0|0,3:0|3:0|3:0|3:0,0:0:0:0:
331,273,26342,2,0,L|326:293,3,21.3333333333333,0|0|0|0,3:0|3:0|3:0|3:0,0:0:0:0:
403,231,26735,5,4,1:0:0:0:
293,149,39284,6,0,L|358:143,1,65.999999798584,0|0,1:0|0:0,0:0:0:0:
389,223,39676,2,0,L|290:231,1,98.999999697876,8|0,0:0|0:0,0:0:0:0:
247,231,40068,2,0,L|241:296,1,65.999999798584,0|0,1:0|1:0,0:0:0:0:
170,345,40460,1,8,0:0:0:0:
129,179,40852,6,0,P|99:164|67:159,1,65.999999798584,0|0,1:0|0:0,0:0:0:0:
30,81,41244,2,0,P|79:76|126:61,1,98.999999697876,8|0,0:0|0:0,0:0:0:0:
136,20,41636,2,0,L|201:25,1,65.999999798584,0|0,1:0|1:0,0:0:0:0:
286,6,42029,1,8,0:0:0:0:
299,177,42421,6,0,P|332:185|364:180,1,65.999999798584,0|0,1:0|0:0,0:0:0:0:
445,206,42813,2,0,P|428:253|433:302,1,98.999999697876,8|0,0:0|0:0,0:0:0:0:
457,337,43205,2,0,L|391:339,1,65.999999798584,0|0,1:0|1:0,0:0:0:0:
339,270,43597,1,8,0:0:0:0:
204,376,43989,6,0,P|191:345|169:321,1,65.999999798584,0|0,1:0|0:0,0:0:0:0:
88,291,44382,2,0,P|83:241|79:192,1,98.999999697876,8|0,0:0|0:0,0:0:0:0:
63,152,44774,2,0,P|95:155|128:156,1,65.999999798584,0|0,1:0|1:0,0:0:0:0:
207,121,45166,1,8,0:0:0:0:
272,176,45362,1,0,0:0:0:0:
339,77,45558,6,0,P|371:72|403:64,1,65.999999798584,0|0,1:0|0:0,0:0:0:0:
478,105,45950,2,0,P|469:153|464:203,1,98.999999697876,8|0,0:0|0:0,0:0:0:0:
425,220,46342,2,0,P|433:251|438:284,1,65.999999798584,0|0,1:0|1:0,0:0:0:0:
398,361,46735,1,8,0:0:0:0:
240,293,47127,6,0,L|236:358,1,65.999999798584,0|0,1:0|0:0,0:0:0:0:
152,376,47519,2,0,P|129:333|139:285,1,98.999999697876,8|0,0:0|0:0,0:0:0:0:
155,245,47911,2,0,L|89:248,1,65.999999798584,0|0,1:0|1:0,0:0:0:0:
40,177,48303,1,8,0:0:0:0:
208,144,48695,6,0,P|215:112|208:80,1,65.999999798584,0|0,1:0|0:0,0:0:0:0:
151,17,49087,2,0,P|102:8|55:22,1,98.999999697876,8|0,0:0|0:0,0:0:0:0:
13,28,49480,2,0,L|16:93,1,65.999999798584,0|0,1:0|1:0,0:0:0:0:
59,168,49872,2,0,L|91:166,2,32.999999899292,8|0|0,0:0|0:0|0:0,0:0:0:0:
24,246,50264,6,0,L|22:278,2,32.999999899292,0|0|0,1:0|0:0|0:0,0:0:0:0:
105,272,50656,2,0,L|103:304,2,32.999999899292,8|0|0,0:0|0:0|0:0,0:0:0:0:
186,298,51048,2,0,L|184:330,2,32.999999899292,0|0|0,1:0|0:0|1:0,0:0:0:0:
267,324,51440,2,0,L|265:356,2,32.999999899292,8|0|0,0:0|0:0|0:0,0:0:0:0:
284,206,51833,6,0,P|273:175|263:144,1,65.999999798584,0|0,3:0|0:0,0:0:0:0:
345,121,52225,1,8,3:2:0:0:
345,121,52323,2,0,P|376:131|407:141,1,65.999999798584
449,132,52617,2,0,P|459:100|469:69,1,65.999999798584,0|0,3:0|0:0,0:0:0:0:
415,2,53009,1,8,3:2:0:0:
415,2,53107,2,0,P|383:11|352:22,1,65.999999798584
313,39,53401,6,0,L|247:32,1,65.999999798584,0|0,3:0|0:0,0:0:0:0:
172,74,53793,2,0,L|139:70,2,32.999999899292,8|0|0,3:2|0:0|0:0,0:0:0:0:
237,129,54186,2,0,P|248:159|244:191,1,65.999999798584,0|0,3:0|0:0,0:0:0:0:
184,252,54578,2,0,L|118:245,1,65.999999798584,8|0,3:2|0:0,0:0:0:0:
36,270,54970,6,0,L|32:237,2,32.999999899292,0|0|0,3:0|0:0|0:0,0:0:0:0:
79,343,55362,2,0,L|144:336,1,65.999999798584,8|0,3:2|0:0,0:0:0:0:
217,291,55754,2,0,L|213:258,2,32.999999899292,0|0|0,3:0|0:0|0:0,0:0:0:0:
259,365,56146,1,8,3:2:0:0:
344,367,56342,1,0,0:0:0:0:
378,289,56538,6,0,L|411:293,2,32.999999899292,0|0|0,3:0|0:0|0:0,0:0:0:0:
375,202,56931,2,0,L|408:206,2,32.999999899292,8|0|0,3:2|0:0|0:0,0:0:0:0:
372,115,57323,2,0,L|405:119,2,32.999999899292,0|0|0,3:0|0:0|0:0,0:0:0:0:
369,28,57715,2,0,L|402:32,2,32.999999899292,8|0|0,3:2|0:0|0:0,0:0:0:0:
291,65,58107,6,0,L|287:98,2,32.999999899292,0|0|0,3:0|0:0|0:0,0:0:0:0:
219,17,58499,1,8,3:2:0:0:
219,16,58597,2,0,P|201:44|194:76,1,65.999999798584
179,117,58891,2,0,L|146:113,2,32.999999899292,0|0|0,3:0|0:0|0:0,0:0:0:0:
234,182,59284,1,8,3:2:0:0:
234,182,59382,2,0,P|227:214|209:241,1,65.999999798584
178,272,59676,6,0,L|145:268,2,32.999999899292,0|0|0,3:0|0:0|0:0,0:0:0:0:
244,325,60068,1,8,3:2:0:0:
244,325,60166,2,0,L|310:317,1,65.999999798584
352,317,60460,2,0,L|348:350,2,32.999999899292,0|0|0,3:0|0:0|0:0,0:0:0:0:
398,245,60852,1,8,3:2:0:0:
398,245,60950,2,0,L|390:179,1,65.999999798584
373,140,61244,6,0,L|377:107,2,32.999999899292,0|0|0,3:0|0:0|0:0,0:0:0:0:
289,118,61637,2,0,L|293:85,2,32.999999899292,8|0|0,3:2|0:0|0:0,0:0:0:0:
205,96,62029,2,0,L|209:63,2,32.999999899292,0|0|0,3:0|0:0|0:0,0:0:0:0:
121,74,62421,2,0,L|125:41,2,32.999999899292,8|0|0,3:2|0:0|0:0,0:0:0:0:
60,135,62813,6,0,L|27:139,2,32.999999899292,0|0|0,3:0|0:0|0:0,0:0:0:0:
142,157,63205,2,0,L|134:223,1,65.999999798584,8|0,3:2|0:0,0:0:0:0:
78,287,63597,2,0,L|45:291,2,32.999999899292,0|0|0,3:0|0:0|0:0,0:0:0:0:
160,309,63989,2,0,L|152:375,1,65.999999798584,8|0,3:2|0:0,0:0:0:0:
250,307,64382,6,0,L|254:274,2,32.999999899292,0|0|0,3:0|0:0|0:0,0:0:0:0:
321,361,64774,1,8,3:2:0:0:
321,361,64872,2,0,P|353:366|385:359,1,65.999999798584
412,326,65166,2,0,L|445:330,2,32.999999899292,0|0|0,3:0|0:0|0:0,0:0:0:0:
371,250,65558,1,8,3:2:0:0:
371,250,65656,2,0,P|368:217|366:184,1,65.999999798584
366,141,65950,6,0,L|399:145,2,32.999999899292,0|0|0,3:0|0:0|0:0,0:0:0:0:
306,79,66342,2,0,L|310:46,2,32.999999899292,8|0|0,3:2|0:0|0:0,0:0:0:0:
221,98,66735,2,0,L|225:131,2,32.999999899292,0|0|0,3:0|0:0|0:0,0:0:0:0:
149,54,67127,1,8,3:2:0:0:
149,54,67225,2,0,P|116:59|84:66,1,65.999999798584
44,81,67519,6,0,L|40:48,2,32.999999899292,0|0|0,3:0|0:0|0:0,0:0:0:0:
86,155,67911,1,8,3:2:0:0:
86,155,68009,2,0,L|78:221,1,65.999999798584
72,263,68303,2,0,L|39:267,2,32.999999899292,0|0|0,3:0|0:0|0:0,0:0:0:0:
150,296,68695,1,8,3:2:0:0:
150,296,68793,2,0,L|216:288,1,65.999999798584
253,268,69087,6,0,L|257:235,2,32.999999899292,0|0|0,3:0|0:0|0:0,0:0:0:0:
331,303,69480,2,0,L|339:237,1,65.999999798584,8|0,3:2|0:0,0:0:0:0:
404,181,69872,2,0,L|408:148,2,32.999999899292,0|0|0,3:0|0:0|0:0,0:0:0:0:
482,216,70264,2,0,L|490:150,1,65.999999798584,8|0,3:2|0:0,0:0:0:0:
470,65,70656,6,0,P|443:48|411:44,1,65.999999798584,0|0,3:0|0:0,0:0:0:0:
325,52,71048,1,8,3:2:0:0:
325,52,71146,2,0,P|297:69|265:73,1,65.999999798584
222,73,71440,2,0,L|230:139,1,65.999999798584,0|0,3:0|0:0,0:0:0:0:
152,177,71833,1,8,3:2:0:0:
152,177,71931,2,0,L|144:111,1,65.999999798584
112,79,72225,6,0,P|80:81|50:96,1,65.999999798584,0|0,3:0|0:0,0:0:0:0:
11,172,72617,1,8,3:2:0:0:
11,172,72715,2,0,P|40:186|73:188,1,65.999999798584
81,230,73009,2,0,L|73:296,1,65.999999798584,0|0,3:0|0:0,0:0:0:0:
158,295,73401,1,8,3:2:0:0:
158,295,73499,2,0,P|187:280|220:278,1,65.999999798584
263,277,73793,6,0,L|261:244,2,32.999999899292,0|0|0,3:0|0:0|0:0,0:0:0:0:
339,316,74186,2,0,L|337:349,2,32.999999899292,8|0|0,3:2|0:0|0:0,0:0:0:0:
395,250,74578,2,0,P|424:236|456:229,1,65.999999798584,0|0,3:0|0:0,0:0:0:0:
494,152,74970,2,0,P|464:137|432:130,1,65.999999798584,8|0,3:2|0:0,0:0:0:0:
353,164,75362,6,0,L|351:98,1,65.999999798584,0|0,3:0|0:0,0:0:0:0:
275,137,75754,2,0,L|273:71,1,65.999999798584,8|0,3:2|0:0,0:0:0:0:
197,110,76146,2,0,L|195:44,1,65.999999798584,0|0,3:0|0:0,0:0:0:0:
119,83,76538,2,0,L|117:17,1,65.999999798584,8|0,3:2|0:0,0:0:0:0:
38,114,76931,6,0,L|36:180,1,65.999999798584,0|0,1:0|0:0,0:0:0:0:
105,232,77323,1,8,0:2:0:0:
50,298,77519,1,0,1:0:0:0:
122,343,77715,2,0,B|190:341|173:301|244:301,1,131.999999597168,0|8,1:0|0:2,0:0:0:0:
307,243,78303,1,0,1:0:0:0:
358,311,78499,6,0,P|406:316|450:295,2,98.999999697876,0|0|0,1:0|1:0|1:0,0:0:0:0:
307,243,79284,2,0,L|312:177,1,65.999999798584,0|0,1:0|0:0,0:0:0:0:
397,192,79676,2,0,L|402:126,1,65.999999798584,8|0,0:2|1:0,0:0:0:0:
362,50,80068,6,0,P|312:49|268:70,1,98.999999697876,0|0,1:0|1:0,0:0:0:0:
238,100,80460,2,0,P|205:100|175:86,1,65.999999798584,8|0,0:2|1:0,0:0:0:0:
98,48,80852,2,0,P|94:98|89:147,1,98.999999697876,0|0,1:0|1:0,0:0:0:0:
51,167,81244,2,0,P|53:199|56:232,1,65.999999798584,8|0,0:2|1:0,0:0:0:0:
122,286,81636,6,0,P|94:325|47:340,2,98.999999697876,0|0|0,1:0|1:0|1:0,0:0:0:0:
170,214,82421,1,0,1:0:0:0:
283,274,82715,1,0,1:0:0:0:
330,154,83009,1,0,1:0:0:0:
284,82,83205,6,0,P|330:63|379:62,2,98.999999697876,0|0|0,1:0|1:0|1:0,0:0:0:0:
216,30,83989,2,0,P|170:48|121:49,1,98.999999697876,0|0,1:0|1:0,0:0:0:0:
77,47,84382,1,8,0:2:0:0:
107,127,84578,1,0,1:0:0:0:
33,170,84774,6,0,P|61:210|70:258,1,98.999999697876,0|0,1:0|1:0,0:0:0:0:
94,293,85166,2,0,P|61:289|28:288,1,65.999999798584,8|0,0:2|1:0,0:0:0:0:
11,372,85558,2,0,P|60:376|109:379,1,98.999999697876,0|0,1:0|1:0,0:0:0:0:
150,365,85950,2,0,P|182:361|215:360,1,65.999999798584,8|0,0:2|1:0,0:0:0:0:
258,285,86342,5,0,1:0:0:0:
258,285,86440,1,0,0:0:0:0:
258,285,86538,1,0,0:0:0:0:
322,341,86735,2,0,L|317:373,2,32.999999899292,8|0|0,0:2|0:0|1:0,0:0:0:0:
374,273,87127,1,0,1:0:0:0:
374,273,87225,1,0,0:0:0:0:
374,273,87323,1,0,0:0:0:0:
438,329,87520,2,0,L|433:361,2,32.999999899292,8|0|0,0:2|0:0|1:0,0:0:0:0:
486,259,87911,6,0,P|493:210|481:162,1,98.999999697876,0|0,1:0|1:0,0:0:0:0:
462,124,88303,2,0,L|396:127,1,65.999999798584,8|0,0:2|1:0,0:0:0:0:
363,48,88695,2,0,L|461:42,2,98.999999697876,0|0|0,1:0|1:0|1:0,0:0:0:0:
298,105,89480,6,0,L|296:152,2,32.999999899292,0|0|0,1:0|0:0|0:0,0:0:0:0:
236,44,89872,1,8,0:2:0:0:
236,44,89970,1,0,0:0:0:0:
236,44,90068,1,0,1:0:0:0:
175,104,90264,2,0,P|127:115|79:102,1,98.999999697876,0|0,1:0|1:0,0:0:0:0:
41,84,90656,2,0,L|38:149,1,65.999999798584,8|0,0:2|1:0,0:0:0:0:
82,227,91048,6,0,P|35:241|10:282,1,98.999999697876,0|0,1:0|1:0,0:0:0:0:
18,323,91440,2,0,P|48:338|81:338,1,65.999999798584,8|0,0:2|1:0,0:0:0:0:
153,292,91833,2,0,P|178:251|225:237,1,98.999999697876,0|0,1:0|1:0,0:0:0:0:
264,255,92225,2,0,L|260:320,1,65.999999798584,8|0,0:2|1:0,0:0:0:0:
341,350,92617,6,0,L|339:382,2,32.999999899292,0|0|0,1:0|0:0|0:0,0:0:0:0:
398,286,93009,2,0,L|394:220,1,65.999999798584,8|0,0:2|1:0,0:0:0:0:
380,134,93401,2,0,P|428:126|474:143,2,98.999999697876,0|0|0,1:0|1:0|1:0,0:0:0:0:
299,164,94186,6,0,P|250:172|204:155,1,98.999999697876,0|0,1:0|1:0,0:0:0:0:
171,127,94578,2,0,P|176:95|182:62,1,65.999999798584,8|0,0:2|1:0,0:0:0:0:
107,20,94970,1,0,1:0:0:0:
4,98,95264,1,0,1:0:0:0:
77,204,95558,1,0,1:0:0:0:
37,280,95754,6,0,P|84:290|132:278,1,98.999999697876,0|0,1:0|1:0,0:0:0:0:
167,253,96146,2,0,L|163:318,1,65.999999798584,8|0,0:2|1:0,0:0:0:0:
243,348,96538,2,0,L|248:248,1,98.999999697876,0|0,1:0|1:0,0:0:0:0:
279,218,96931,2,0,P|311:213|342:222,1,65.999999798584,8|0,0:2|1:0,0:0:0:0:
409,275,97323,6,0,L|405:307,2,32.999999899292,0|0|0,1:0|0:0|0:0,0:0:0:0:
476,222,97715,2,0,L|508:225,2,32.999999899292,8|0|0,0:2|0:0|1:0,0:0:0:0:
409,168,98107,2,0,P|399:119|407:70,1,98.999999697876,0|0,1:0|1:0,0:0:0:0:
426,33,98499,1,8,0:2:0:0:
342,15,98695,1,0,1:0:0:0:
258,34,98891,6,0,L|225:32,2,32.999999899292,0|0|0,1:0|0:0|0:0,0:0:0:0:
242,118,99284,2,0,L|209:116,2,32.999999899292,8|0|0,0:2|0:0|1:0,0:0:0:0:
301,180,99676,2,0,P|310:245|300:310,1,131.999999597168,0|8,1:0|0:2,0:0:0:0:
237,367,100264,1,0,1:0:0:0:
175,307,100460,6,0,P|128:320|95:356,2,98.999999697876,0|0|0,1:0|1:0|1:0,0:0:0:0:
190,221,101244,2,0,P|158:185|111:171,2,98.999999697876,0|0|0,1:0|1:0|1:0,0:0:0:0:
269,174,102029,6,0,L|266:139,2,34.9999989318848,0|0|0,1:0|0:0|0:0,0:0:0:0:
333,227,102421,1,8,0:2:0:0:
333,227,102519,2,0,P|367:219|401:211,1,69.9999978637696
439,229,102813,2,0,P|446:194|454:160,1,69.9999978637696,0|0,1:0|0:0,0:0:0:0:
427,81,103205,1,8,0:2:0:0:
427,81,103303,2,0,P|392:88|358:96,1,69.9999978637696
317,88,103597,6,0,L|319:40,2,34.9999989318848,0|0|0,1:0|0:0|0:0,0:0:0:0:
246,133,103989,1,8,0:2:0:0:
176,85,104186,1,0,1:0:0:0:
97,114,104382,2,0,L|94:148,3,34.9999989318848,0|0|0|0,1:0|0:0|0:0|1:0,0:0:0:0:
64,178,104774,2,0,L|61:212,3,34.9999989318848,8|0|0|0,0:2|0:0|1:0|0:0,0:0:0:0:
88,245,105166,6,0,L|85:279,2,34.9999989318848,0|0|0,1:0|0:0|0:0,0:0:0:0:
171,242,105558,2,0,L|165:311,1,69.9999978637696,8|0,0:2|1:0,0:0:0:0:
220,374,105950,2,0,P|254:381|288:374,1,69.9999978637696,0|0,1:0|0:0,0:0:0:0:
335,304,106342,1,8,0:2:0:0:
400,356,106538,1,0,1:0:0:0:
484,362,106735,6,0,L|473:222,1,139.999995727539,0|8,1:0|0:2,0:0:0:0:
402,177,107323,1,0,1:0:0:0:
441,102,107519,2,0,P|475:94|509:88,1,69.9999978637696,0|0,1:0|0:0,0:0:0:0:
481,8,107911,2,0,P|446:14|412:21,1,69.9999978637696,8|0,0:2|1:0,0:0:0:0:
321,43,108303,6,0,P|263:80|195:74,1,139.999995727539,0|8,1:0|0:2,0:0:0:0:
114,48,108891,1,0,1:0:0:0:
90,129,109087,2,0,P|92:164|95:199,1,69.9999978637696,0|0,1:0|0:0,0:0:0:0:
179,203,109480,2,0,P|175:255|170:307,1,104.999996795654,8|0,0:2|0:0,0:0:0:0:
140,336,109872,6,0,B|218:321|195:371|275:353,1,139.999995727539,0|8,1:0|0:2,0:0:0:0:
335,296,110460,1,0,1:0:0:0:
397,352,110656,2,0,P|430:341|463:330,1,69.9999978637696,0|0,1:0|0:0,0:0:0:0:
487,250,111048,2,0,L|481:215,3,34.9999989318848,8|0|0|0,0:2|0:0|1:0|0:0,0:0:0:0:
460,179,111440,6,0,P|426:189|393:200,1,69.9999978637696,0|0,1:0|0:0,0:0:0:0:
309,207,111833,2,0,P|295:175|291:140,1,69.9999978637696,8|0,0:2|1:0,0:0:0:0:
328,64,112225,2,0,P|266:34|196:34,1,139.999995727539,0|8,1:0|0:2,0:0:0:0:
120,71,112813,1,0,1:0:0:0:
56,125,113009,5,0,1:0:0:0:
56,125,113107,1,0,0:0:0:0:
56,125,113205,1,0,0:0:0:0:
125,172,113401,2,0,L|159:168,2,34.9999989318848,8|0|0,0:2|0:0|1:0,0:0:0:0:
65,231,113793,1,0,1:0:0:0:
65,231,113891,1,0,0:0:0:0:
65,231,113989,1,0,0:0:0:0:
134,278,114185,2,0,L|168:274,2,34.9999989318848,8|0|0,0:2|0:0|1:0,0:0:0:0:
87,348,114578,6,0,P|115:367|149:376,1,69.9999978637696,0|0,1:0|0:0,0:0:0:0:
230,353,114970,2,0,P|271:322|322:311,1,104.999996795654,8|0,0:2|0:0,0:0:0:0:
355,336,115362,2,0,P|383:355|417:364,1,69.9999978637696,0|0,1:0|0:0,0:0:0:0:
455,289,115754,1,8,0:2:0:0:
455,289,115852,2,0,L|452:219,1,69.9999978637696
434,180,116146,6,0,P|400:171|366:176,1,69.9999978637696,0|0,1:0|0:0,0:0:0:0:
292,216,116538,1,8,0:2:0:0:
292,216,116636,2,0,P|257:221|224:212,1,69.9999978637696
190,187,116931,2,0,P|195:152|199:117,1,69.9999978637696,0|0,1:0|0:0,0:0:0:0:
125,76,117323,1,8,0:2:0:0:
58,137,117519,1,0,1:0:0:0:
58,137,117617,1,0,0:0:0:0:
58,137,117715,6,0,P|67:172|72:206,1,69.9999978637696,0|0,1:0|0:0,0:0:0:0:
20,271,118107,2,0,P|71:280|123:284,1,104.999996795654,8|0,0:2|0:0,0:0:0:0:
165,280,118499,1,0,1:0:0:0:
165,364,118695,1,0,0:0:0:0:
248,370,118891,2,0,L|253:265,1,104.999996795654,8|0,0:2|0:0,0:0:0:0:
268,226,119284,6,0,L|302:231,2,34.9999989318848,0|0|0,1:0|0:0|0:0,0:0:0:0:
216,159,119676,2,0,L|181:164,3,34.9999989318848,8|0|0|0,0:2|0:0|1:0|0:0,0:0:0:0:
152,194,120068,2,0,L|117:188,3,34.9999989318848,0|0|0|0,1:0|0:0|0:0|1:0,0:0:0:0:
88,159,120460,2,0,L|53:164,3,34.9999989318848,8|0|0|0,0:2|0:0|1:0|0:0,0:0:0:0:
21,192,120852,6,0,P|22:226|28:261,1,69.9999978637696,0|0,1:0|0:0,0:0:0:0:
102,300,121244,1,8,0:2:0:0:
102,300,121342,2,0,P|136:293|170:287,1,69.9999978637696
211,274,121636,2,0,P|204:309|211:343,1,69.9999978637696,0|0,1:0|0:0,0:0:0:0:
295,339,122029,1,8,0:2:0:0:
295,339,122127,2,0,P|301:304|294:270,1,69.9999978637696
286,229,122421,6,0,L|284:194,2,34.9999989318848,0|0|0,1:0|0:0|0:0,0:0:0:0:
369,236,122813,1,8,0:2:0:0:
369,236,122911,2,0,L|365:166,1,69.9999978637696
346,128,123205,2,0,P|381:129|416:130,1,69.9999978637696,0|0,1:0|0:0,0:0:0:0:
438,49,123597,2,0,P|403:47|368:45,1,69.9999978637696,8|0,0:2|1:0,0:0:0:0:
242,45,123989,6,0,P|216:22|183:13,1,69.9999978637696,0|0,1:0|0:0,0:0:0:0:
144,88,124382,2,0,P|152:139|160:191,1,104.999996795654,8|0,0:2|0:0,0:0:0:0:
147,231,124774,2,0,L|143:265,2,34.9999989318848,0|0|0,1:0|0:0|0:0,0:0:0:0:
228,252,125166,2,0,L|224:286,2,34.9999989318848,8|0|0,0:2|0:0|1:0,0:0:0:0:
324,182,125558,6,0,L|320:147,2,34.9999989318848,0|0|0,1:0|0:0|0:0,0:0:0:0:
406,165,125950,2,0,L|402:130,2,34.9999989318848,8|0|0,0:2|0:0|1:0,0:0:0:0:
451,235,126342,2,0,L|447:269,3,34.9999989318848,0|0|0|0,1:0|0:0|0:0|1:0,0:0:0:0:
407,283,126735,2,0,L|410:317,3,34.9999989318848,8|0|0|0,0:2|0:0|1:0|0:0,0:0:0:0:
433,350,127127,5,4,1:2:0:0:
205,82,139676,5,0,0:0:0:0:
279,116,139872,2,0,P|341:105|403:95,3,125.999996154785,2|2|2|2,0:0|0:0|0:0|0:0,0:0:0:0:
459,155,141244,5,0,0:0:0:0:
425,229,141440,2,0,P|362:218|300:208,3,125.999996154785,2|2|2|2,0:0|0:0|0:0|0:0,0:0:0:0:
228,247,142813,5,0,0:0:0:0:
162,197,143009,2,0,L|154:71,3,125.999996154785,2|2|2|2,0:0|0:0|0:0|0:0,0:0:0:0:
221,24,144382,6,0,P|253:28|284:31,1,62.9999980773926,2|0,0:0|0:0,0:0:0:0:
290,112,144774,2,0,P|321:108|352:104,1,62.9999980773926,2|0,0:0|0:0,0:0:0:0:
377,26,145166,2,0,P|408:30|439:33,1,62.9999980773926,2|0,0:0|0:0,0:0:0:0:
445,114,145558,2,0,P|476:110|507:106,1,62.9999980773926,2|0,0:0|0:0,0:0:0:0:
507,188,145950,5,4,0:0:0:0:
451,247,146146,1,0,0:0:0:0:
451,247,146244,1,0,0:0:0:0:
451,247,146342,2,0,L|453:278,3,31.4999990386963
424,307,146735,2,0,L|392:309,3,31.4999990386963
353,297,147127,2,0,L|321:294,3,31.4999990386963
288,270,147519,6,0,L|291:238,7,31.4999990386963
253,223,148303,6,0,L|249:191,3,31.4999990386963,6|0|0|0,0:0|0:0|0:0|0:0,0:0:0:0:
276,165,148695,2,0,L|280:133,3,31.4999990386963,6|0|0|0,0:0|0:0|0:0|0:0,0:0:0:0:
256,192,149087,12,6,151833,0:0:0:0:
258,88,152225,6,0,P|306:103|317:153,1,106.499994637299,4|0,1:0|1:0,0:0:0:0:
317,195,152617,2,0,P|282:188|246:184,1,70.9999964248659,8|0,0:0|1:0,0:0:0:0:
164,162,153009,2,0,P|168:215|171:268,1,106.499994637299,0|0,1:0|1:0,0:0:0:0:
158,309,153401,2,0,P|191:321|226:318,1,70.9999964248659,8|0,0:0|1:0,0:0:0:0:
305,288,153793,6,0,P|357:281|407:298,1,106.499994637299,0|0,1:0|1:0,0:0:0:0:
439,326,154186,2,0,P|437:290|433:255,1,70.9999964248659,8|0,0:0|1:0,0:0:0:0:
378,190,154578,1,0,1:0:0:0:
456,88,154872,1,0,1:0:0:0:
336,43,155166,1,0,1:0:0:0:
257,76,155362,6,0,L|150:65,2,106.499994637299,0|0|0,1:0|1:0|1:0,0:0:0:0:
219,152,156146,2,0,L|112:141,2,106.499994637299,0|0|0,1:0|1:0|1:0,0:0:0:0:
302,171,156931,6,0,P|318:222|307:273,1,106.499994637299,0|0,1:0|1:0,0:0:0:0:
279,305,157323,2,0,P|243:300|208:297,1,70.9999964248659,8|0,0:0|1:0,0:0:0:0:
137,250,157715,1,0,1:2:0:0:
91,322,157911,1,0,0:0:0:0:
91,322,158009,1,0,1:2:0:0:
91,322,158107,1,8,0:0:0:0:
6,316,158303,1,4,0:0:0:0:
53,203,158499,6,0,P|65:151|78:99,1,106.499994637299,0|0,1:0|1:0,0:0:0:0:
74,57,158891,2,0,P|107:44|142:49,1,70.9999964248659,8|0,0:0|1:0,0:0:0:0:
220,83,159284,2,0,P|272:82|317:55,2,106.499994637299,0|0|0,1:0|1:0|1:0,0:0:0:0:
199,165,160068,6,0,P|249:178|285:217,1,106.499994637299,0|0,1:0|1:0,0:0:0:0:
312,250,160460,2,0,P|347:244|382:240,1,70.9999964248659,8|0,0:0|1:0,0:0:0:0:
445,296,160852,1,0,1:0:0:0:
335,362,161146,1,0,1:0:0:0:
221,305,161440,1,0,1:0:0:0:
138,284,161637,6,0,P|88:302|50:339,2,106.499994637299,0|0|0,1:2|1:2|1:0,0:0:0:0:
182,212,162421,2,0,P|143:175|94:157,2,106.499994637299,0|0|4,1:2|1:2|1:2,0:0:0:0:
264,192,163205,6,0,P|263:138|261:85,2,106.499994637299,0|0|0,1:2|1:0|1:0,0:0:0:0:
330,244,163989,2,0,P|379:230|421:261,2,106.499994637299,0|0|0,1:0|1:0|1:0,0:0:0:0:
269,348,164774,6,0,P|217:338|165:328,1,106.499994637299,0|0,1:0|1:0,0:0:0:0:
124,340,165166,2,0,P|108:308|110:273,1,70.9999964248659,8|0,0:0|1:0,0:0:0:0:
167,211,165558,2,0,P|171:158|163:105,1,106.499994637299,0|0,1:0|1:0,0:0:0:0:
136,72,165950,2,0,L|206:75,1,70.9999964248659,8|0,0:0|1:0,0:0:0:0:
281,115,166342,6,0,P|262:66|287:21,2,106.499994637299,0|0|0,1:0|1:0|1:0,0:0:0:0:
364,95,167127,1,0,1:0:0:0:
423,208,167421,1,0,1:0:0:0:
306,260,167715,1,0,1:0:0:0:
224,238,167911,6,0,B|198:272|198:272|212:334,1,106.499994637299,0|0,1:0|1:0,0:0:0:0:
232,371,168303,2,0,L|161:366,1,70.9999964248659,8|0,0:0|1:0,0:0:0:0:
84,329,168695,2,0,P|70:277|79:225,1,106.499994637299,0|0,1:0|1:0,0:0:0:0:
109,195,169087,2,0,P|116:160|110:125,1,70.9999964248659,8|0,0:0|1:0,0:0:0:0:
98,41,169480,6,0,P|45:39|-1:64,2,106.499994637299,0|0|0,1:0|1:0|1:0,0:0:0:0:
175,76,170264,1,0,1:0:0:0:
259,68,170460,1,0,0:0:0:0:
259,68,170558,1,8,1:2:0:0:
259,68,170656,1,0,0:0:0:0:
312,134,170852,1,8,1:2:0:0:
432,168,171048,6,0,P|456:120|478:72,2,106.499994637299,0|0|0,1:0|1:0|1:0,0:0:0:0:
407,250,171833,2,0,P|429:298|452:346,2,106.499994637299,0|0|0,1:0|1:0|1:0,0:0:0:0:
324,227,172617,6,0,P|271:229|230:262,1,106.499994637299,0|0,1:0|1:0,0:0:0:0:
206,296,173009,2,0,P|171:291|143:269,1,70.9999964248659,8|0,0:0|1:0,0:0:0:0:
60,252,173401,2,0,P|51:304|42:357,2,106.499994637299,0|0|0,1:0|1:0|1:0,0:0:0:0:
60,136,174186,6,0,L|71:102,3,35.499998212433,0|0|0|0,1:0|0:0|0:0|1:0,0:0:0:0:
91,64,174578,2,0,L|125:57,3,35.499998212433,8|0|0|0,0:0|0:0|1:0|0:0,0:0:0:0:
169,54,174970,2,0,L|192:80,3,35.499998212433,0|0|0|0,1:0|0:0|0:0|1:0,0:3:0:0:
216,116,175362,2,0,L|204:149,3,35.499998212433,8|0|0|0,0:0|0:0|1:0|0:0,0:3:0:0:
182,186,175754,6,0,P|236:185|289:181,2,106.499994637299,0|0|0,1:0|1:0|1:0,0:0:0:0:
104,220,176538,1,0,1:0:0:0:
23,319,176833,1,0,1:0:0:0:
144,358,177127,1,0,1:0:0:0:
218,316,177323,6,0,P|254:310|288:302,1,70.9999964248659,4|0,1:2|0:0,0:0:0:0:
322,277,177617,1,0,0:0:0:0:
322,277,177715,2,0,P|356:284|391:290,1,70.9999964248659,8|0,0:0|1:0,0:0:0:0:
470,321,178107,2,0,P|485:270|477:218,1,106.499994637299,0|0,1:0|0:0,0:0:0:0:
440,196,178499,2,0,P|434:161|444:127,1,70.9999964248659,8|0,0:0|1:0,0:0:0:0:
401,53,178891,6,0,P|436:15|488:13,2,106.499994637299,2|0|0,1:2|1:0|1:0,0:0:0:0:
329,99,179676,1,0,1:0:0:0:
226,22,179970,1,0,1:0:0:0:
329,99,180264,1,0,1:0:0:0:
325,184,180460,6,0,P|289:180|254:177,1,70.9999964248659,0|0,1:0|0:0,0:0:0:0:
227,144,180754,1,0,0:0:0:0:
227,144,180852,2,0,P|191:147|156:150,1,70.9999964248659,8|0,0:0|1:0,0:0:0:0:
71,157,181244,2,0,P|82:208|92:261,1,106.499994637299,0|0,1:0|0:0,0:0:0:0:
123,291,181637,2,0,P|151:311|186:317,1,70.9999964248659,8|0,0:0|1:0,0:0:0:0:
262,279,182029,6,0,P|233:322|238:374,2,106.499994637299,0|0|0,1:0|1:0|1:0,0:0:0:0:
340,312,182813,1,0,1:0:0:0:
411,265,183009,1,0,0:0:0:0:
411,265,183107,1,0,1:0:0:0:
411,265,183205,1,8,0:0:0:0:
494,284,183401,1,0,1:0:0:0:
413,178,183597,6,0,P|405:143|399:108,1,70.9999964248659,0|0,1:2|0:0,0:0:0:0:
368,79,183891,1,0,1:0:0:0:
368,79,183989,2,0,P|333:72|298:65,1,70.9999964248659,0|8,0:0|1:2,0:0:0:0:
227,113,184382,2,0,P|175:98|123:90,1,106.499994637299,0|0,1:0|1:0,0:0:0:0:
85,110,184774,2,0,P|91:144|98:179,1,70.9999964248659,0|8,0:0|1:2,0:0:0:0:
82,263,185166,6,0,P|33:277|14:325,2,106.499994637299,0|0|0,1:0|1:0|1:0,0:0:0:0:
165,258,185950,2,0,L|149:363,2,106.499994637299,0|0|0,1:0|1:0|1:0,0:0:0:0:
237,211,186735,6,0,L|234:175,2,35.499998212433,0|0|0,1:0|0:0|0:0,0:0:0:0:
294,272,187127,2,0,P|328:260|362:250,1,70.9999964248659,8|0,0:0|1:0,0:0:0:0:
422,190,187519,2,0,L|457:192,2,35.499998212433,0|0|0,1:0|0:0|0:0,0:0:0:0:
358,133,187911,2,0,L|353:62,1,70.9999964248659,8|0,0:0|1:0,0:0:0:0:
268,54,188303,6,0,L|260:160,2,106.499994637299,0|0|0,1:0|1:0|0:0,0:0:0:0:
181,55,189087,2,0,P|140:25|89:34,2,106.499994637299,0|0|0,1:0|1:0|1:0,0:0:0:0:
146,134,189872,6,0,L|151:205,1,70.9999964248659,0|0,1:0|0:0,0:0:0:0:
168,243,190166,1,0,1:0:0:0:
168,243,190264,2,0,L|239:248,1,70.9999964248659,8|0,0:0|1:0,0:0:0:0:
322,234,190656,2,0,P|308:285|303:338,1,106.499994637299,0|0,1:0|1:0,0:0:0:0:
333,368,191048,2,0,L|404:363,1,70.9999964248659,8|0,0:0|1:0,0:0:0:0:
432,282,191440,6,0,P|483:286|511:329,2,106.499994637299,0|0|0,1:0|1:0|1:0,0:0:0:0:
346,274,192225,1,0,1:0:0:0:
431,179,192519,1,0,1:0:0:0:
326,105,192813,1,0,1:2:0:0:
252,148,193009,6,0,P|241:114|241:79,1,70.9999964248659,0|0,1:0|0:0,0:0:0:0:
252,38,193303,1,0,0:0:0:0:
252,38,193401,2,0,L|181:44,1,70.9999964248659,8|0,0:0|1:0,0:0:0:0:
166,127,193793,2,0,L|60:116,1,106.499994637299,0|0,1:0|1:0,0:0:0:0:
24,139,194186,2,0,P|13:172|13:207,1,70.9999964248659,8|0,0:0|0:0,0:0:0:0:
71,269,194578,6,0,P|69:321|43:367,2,106.499994637299,0|0|0,1:0|1:0|1:0,0:0:0:0:
130,207,195362,1,4,1:2:0:0:
207,171,195558,1,0,0:0:0:0:
207,171,195656,1,0,0:0:0:0:
207,171,195754,1,4,1:2:0:0:
280,214,195950,1,0,0:0:0:0:
378,126,196146,6,0,P|384:161|390:196,1,70.9999964248659,0|0,1:0|0:0,0:0:0:0:
422,224,196440,1,0,1:0:0:0:
422,224,196538,2,0,P|415:259|409:294,1,70.9999964248659,0|8,0:0|1:2,0:0:0:0:
334,336,196931,2,0,P|290:308|281:257,1,106.499994637299,0|0,1:0|1:0,0:0:0:0:
280,214,197323,1,0,0:0:0:0:
240,138,197519,1,8,1:2:0:0:
257,54,197715,6,0,P|309:43|362:37,2,106.499994637299,0|0|8,1:0|1:0|1:2,0:0:0:0:
175,78,198499,2,0,P|139:74|104:69,1,70.9999964248659,0|0,1:0|0:0,0:0:0:0:
20,55,198891,2,0,P|23:90|28:125,1,70.9999964248659,8|0,1:2|1:2,0:0:0:0:
104,206,199284,6,0,P|70:268|77:338,1,141.999992849732,0|8,1:0|0:0,0:0:0:0:
158,360,199872,1,0,1:0:0:0:
234,321,200068,2,0,P|286:315|339:309,2,106.499994637299,0|0|0,1:0|1:0|1:0,0:0:0:0:
240,236,200852,6,0,P|187:230|134:224,2,106.499994637299,0|0|0,1:0|1:0|1:0,0:0:0:0:
317,199,201637,1,4,1:2:0:0:
229,106,201931,1,0,1:0:0:0:
313,10,202225,1,0,1:0:0:0:
374,69,202421,6,0,P|343:133|316:198,1,141.999992849732,0|8,0:0|0:0,0:0:0:0:
363,269,203009,1,0,0:0:0:0:
299,325,203205,2,0,P|264:316|229:311,1,70.9999964248659,0|0,0:2|0:0,0:0:0:0:
190,235,203597,2,0,P|155:243|120:248,1,70.9999964248659,8|0,0:0|0:0,0:0:0:0:
54,195,203989,5,0,0:2:0:0:
216,141,204382,2,0,L|210:70,1,70.9999964248659,8|0,0:0|0:0,0:0:0:0:
146,14,204774,1,0,0:0:0:0:
316,14,205166,2,0,L|310:84,1,70.9999964248659,8|0,1:2|1:0,0:0:0:0:
341,164,205558,6,0,B|411:172|394:222|463:227,1,141.999992849732,0|8,0:0|0:0,0:0:0:0:
499,304,206146,1,0,0:0:0:0:
426,348,206342,2,0,P|391:339|356:334,1,70.9999964248659,0|0,0:2|0:0,0:0:0:0:
278,298,206735,2,0,P|269:332|264:367,1,70.9999964248659,8|0,0:0|0:0,0:0:0:0:
180,381,207127,6,0,P|169:310|152:241,1,141.999992849732,0|8,0:0|0:0,0:0:0:0:
103,172,207715,1,0,0:0:0:0:
155,105,207911,2,0,P|191:108|226:112,1,70.9999964248659
215,28,208303,1,8,0:0:0:0:
42,38,208695,6,0,P|20:85|26:137,1,106.499994637299
32,179,209087,2,0,P|67:175|102:171,1,70.9999964248659,8|0,0:0|0:0,0:0:0:0:
173,218,209480,1,0,0:0:0:0:
318,128,209872,2,0,P|314:92|310:57,1,70.9999964248659,8|0,0:0|0:0,0:0:0:0:
387,21,210264,6,0,P|411:86|398:155,1,141.999992849732,0|8,0:0|0:0,0:0:0:0:
340,218,210852,1,0,0:0:0:0:
402,275,211048,2,0,P|436:267|471:260,1,70.9999964248659
465,345,211440,1,8,1:2:0:0:
381,365,211637,1,0,0:0:0:0:
310,317,211833,6,0,B|238:325|256:369|182:372,1,141.999992849732,0|8,0:0|0:0,0:0:0:0:
111,326,212421,1,0,0:0:0:0:
163,258,212617,2,0,P|159:222|151:188,1,70.9999964248659
111,113,213009,2,0,P|76:121|41:124,1,70.9999964248659,8|0,0:0|0:0,0:0:0:0:
43,39,213401,6,0,L|78:34,3,35.499998212433
116,16,213793,2,0,L|151:20,3,35.499998212433,8|0|0|0,0:0|0:0|0:0|0:0,0:0:0:0:
188,41,214186,2,0,L|223:36,3,35.499998212433
261,18,214578,2,0,L|296:22,3,35.499998212433,8|0|0|0,0:2|0:0|0:0|0:0,0:0:0:0:
335,38,214970,6,0,P|326:109|319:180,1,141.999992849732,0|8,0:0|0:0,0:0:0:0:
264,244,215558,1,0,0:0:0:0:
339,283,215754,2,0,P|373:275|408:267,1,70.9999964248659
493,268,216146,2,0,P|485:302|477:337,1,70.9999964248659,8|0,0:0|0:0,0:0:0:0:
416,384,216538,6,0,P|347:365|276:366,1,141.999992849732,0|8,0:0|0:0,0:0:0:0:
207,316,217127,1,0,0:0:0:0:
130,353,217323,2,0,P|119:319|111:284,1,70.9999964248659
31,253,217715,2,0,P|41:219|49:184,1,70.9999964248659,8|0,0:0|0:0,0:0:0:0:
49,99,218107,6,0,P|114:86|149:143,1,141.999992849732,0|8,0:0|0:0,0:0:0:0:
228,111,218695,1,0,0:0:0:0:
292,165,218891,2,0,P|326:154|358:138,1,70.9999964248659
406,67,219284,2,0,P|439:77|471:93,1,70.9999964248659,8|0,0:0|0:0,0:0:0:0:
496,174,219676,6,0,L|491:315,1,141.999992849732,0|8,0:0|0:2,0:0:0:0:
417,358,220264,1,0,0:0:0:0:
357,296,220460,2,0,P|321:301|287:308,1,70.9999964248659
232,373,220852,2,0,P|196:367|162:360,1,70.9999964248659,8|0,1:2|0:0,0:0:0:0:
95,307,221244,6,0,B|86:224|131:259|114:170,1,141.999992849732,0|8,0:0|0:0,0:0:0:0:
74,95,221833,1,0,0:0:0:0:
138,41,222029,2,0,P|172:29|207:26,1,70.9999964248659
293,26,222421,2,0,P|289:61|278:94,1,70.9999964248659,8|0,0:0|0:0,0:0:0:0:
218,155,222813,6,0,P|225:225|247:292,1,141.999992849732,0|8,0:0|0:0,0:0:0:0:
316,341,223401,1,0,0:0:0:0:
362,269,223597,2,0,P|396:260|431:255,1,70.9999964248659
466,177,223989,2,0,P|430:171|396:163,1,70.9999964248659,8|0,0:0|0:0,0:0:0:0:
355,88,224382,6,0,L|319:91,3,35.499998212433,8|0|0|8,3:0|3:0|3:0|3:0,0:0:0:0:
282,70,224774,2,0,L|246:73,3,35.499998212433,8|0|8|0,3:2|3:0|3:0|3:0,0:0:0:0:
209,52,225166,2,0,L|173:55,3,35.499998212433,8|0|0|8,3:0|3:0|3:0|3:0,0:0:0:0:
136,34,225558,2,0,L|100:37,3,35.499998212433,8|0|8|0,3:2|3:0|3:0|3:0,0:0:0:0:
60,50,225950,6,0,L|36:47,3,23.6666654749553,8|0|0|0,0:0|0:0|0:0|0:0,0:0:0:0:
55,135,226342,2,0,L|31:132,3,23.6666654749553,8|0|0|0,0:0|0:0|0:0|0:0,0:0:0:0:
50,220,226735,2,0,L|26:217,3,23.6666654749553,8|0|0|0,0:0|0:0|0:0|0:0,0:0:0:0:
45,305,227127,2,0,L|21:302,3,23.6666654749553,8|0|0|0,0:0|0:0|0:0|0:0,0:0:0:0:
100,369,227519,5,4,0:0:0:0:
