osu file format v14

[General]
AudioFilename: audio x1,438 p1,00.mp3
AudioLeadIn: 0
PreviewTime: 97200
Countdown: 0
SampleSet: Soft
StackLeniency: 0.3
Mode: 0
LetterboxInBreaks: 0
WidescreenStoryboard: 0

[Editor]
Bookmarks: 18659,27386,36113,53566,71020,88473,92836,97200,114653,132107,149560
DistanceSpacing: 0.5
BeatDivisor: 4
GridSize: 16
TimelineZoom: 2.599999

[Metadata]
Title:Midorigo Queen Bee (Cut Ver.)
TitleUnicode:嬰児クインビー (Cut Ver.)
Artist:-45
ArtistUnicode:-45
Creator:Kastellan
Version:220
Source:うみねこのなく頃に散
Tags:video game instrumental featured artist fa 07th Expansion stamina practice fingercontrol training stream Umineko no Naku Koro ni Chiru when they cry ep6 vgm bgm ost answer arc visual novel infant Eiji Kuin bii kuinbii D'va Dva yoshikawa45
BeatmapID:2167822
BeatmapSetID:1036855

[Difficulty]
HPDrainRate:7.5
CircleSize:4
OverallDifficulty:9.6
ApproachRate:9.5
SliderMultiplier:1.4
SliderTickRate:1

[Events]
//Background and Video events
0,0,"eijikuinbii.jpg",0,0
//Break Periods
//Storyboard Layer 0 (Background)
//Storyboard Layer 1 (Fail)
//Storyboard Layer 2 (Pass)
//Storyboard Layer 3 (Foreground)
//Storyboard Layer 4 (Overlay)
//Storyboard Sound Samples

[TimingPoints]
9973,272.709918459734,4,2,1,35,1,0
16517,-100,4,2,1,50,0,0
18768,-100,4,2,1,35,0,0
27426,-100,4,2,1,43,0,0
36153,-100,4,2,1,50,0,0
88513,-100,4,2,1,43,0,0
92876,-100,4,2,1,50,0,0

[Colours]
Combo1 : 152,196,222
Combo2 : 217,81,95
Combo3 : 243,236,194
Combo4 : 109,91,208

[HitObjects]
52,39,9973,6,0,L|44:120,1,70,2|0,0:0|0:0,0:0:0:0:
91,227,10245,2,0,L|97:157,1,70,10|0,0:0|0:0,0:0:0:0:
58,47,10518,1,2,0:0:0:0:
58,47,10586,1,0,0:0:0:0:
58,47,10654,2,0,L|54:87,1,35,0|0,0:0|0:0,0:0:0:0:
97,235,10791,2,0,L|103:165,1,70,10|0,0:0|0:0,0:0:0:0:
211,125,11063,6,0,L|297:118,1,70,2|0,0:0|0:0,0:0:0:0:
233,216,11336,2,0,L|328:227,1,70,10|0,0:0|0:0,0:0:0:0:
219,132,11609,1,2,0:0:0:0:
219,132,11677,1,0,0:0:0:0:
219,132,11745,2,0,L|281:128,1,35,0|0,0:0|0:0,0:0:0:0:
241,223,11881,2,0,L|336:234,1,70,10|0,0:0|0:0,0:0:0:0:
421,220,12154,6,0,L|413:139,1,70,2|0,0:0|0:0,0:0:0:0:
460,32,12427,2,0,L|466:101,1,70,10|0,0:0|0:0,0:0:0:0:
429,227,12700,1,2,0:0:0:0:
429,227,12768,1,0,0:0:0:0:
429,227,12836,2,0,L|425:186,1,35,0|0,0:0|0:0,0:0:0:0:
468,39,12972,2,0,L|474:108,1,70,10|0,0:0|0:0,0:0:0:0:
373,78,13245,6,0,L|303:84,1,70,2|0,0:0|0:0,0:0:0:0:
253,162,13518,2,0,L|183:155,1,70,10|0,0:0|0:0,0:0:0:0:
110,79,13790,1,2,0:0:0:0:
110,79,13859,1,0,0:0:0:0:
110,79,13927,2,0,L|105:135,1,35,0|0,0:0|0:0,0:0:0:0:
59,186,14063,2,0,L|67:281,1,70,10|0,0:0|0:0,0:0:0:0:
155,312,14336,6,0,L|236:304,1,70,2|0,0:0|0:0,0:0:0:0:
343,351,14609,2,0,L|273:357,1,70,10|0,0:0|0:0,0:0:0:0:
163,318,14881,1,2,0:0:0:0:
163,318,14949,1,0,0:0:0:0:
163,318,15018,2,0,L|203:314,1,35,0|0,0:0|0:0,0:0:0:0:
351,357,15154,2,0,L|281:363,1,70,10|0,0:0|0:0,0:0:0:0:
328,183,15427,6,0,L|321:269,1,70,2|0,0:0|0:0,0:0:0:0:
419,205,15699,2,0,L|430:300,1,70,10|0,0:0|0:0,0:0:0:0:
335,191,15972,1,2,0:0:0:0:
335,191,16040,1,0,0:0:0:0:
335,191,16108,2,0,L|331:253,1,35,0|0,0:0|0:0,0:0:0:0:
426,213,16245,2,0,L|437:308,1,70,10|0,0:0|0:0,0:0:0:0:
432,53,16518,5,2,0:0:0:0:
416,44,16586,1,0,0:0:0:0:
400,38,16654,1,0,0:0:0:0:
383,33,16722,1,0,0:0:0:0:
366,31,16790,1,10,0:0:0:0:
348,31,16858,1,0,0:0:0:0:
331,34,16927,1,0,0:0:0:0:
314,38,16995,1,0,0:0:0:0:
299,45,17063,1,2,0:0:0:0:
282,51,17131,1,0,0:0:0:0:
265,55,17199,1,0,0:0:0:0:
248,58,17267,1,0,0:0:0:0:
231,58,17336,1,10,0:0:0:0:
213,56,17404,1,0,0:0:0:0:
196,51,17472,1,0,0:0:0:0:
180,45,17540,1,0,0:0:0:0:
165,36,17608,5,2,0:0:0:0:
164,45,17677,1,0,0:0:0:0:
163,54,17745,1,0,0:0:0:0:
161,62,17813,1,0,0:0:0:0:
160,71,17881,1,10,0:0:0:0:
159,80,17949,1,0,0:0:0:0:
159,88,18017,1,0,0:0:0:0:
158,97,18086,1,0,0:0:0:0:
158,106,18154,1,2,0:0:0:0:
158,115,18222,1,0,0:0:0:0:
158,123,18290,1,0,0:0:0:0:
159,132,18358,1,0,0:0:0:0:
159,141,18427,1,10,0:0:0:0:
160,150,18495,1,0,0:0:0:0:
161,158,18563,1,0,0:0:0:0:
163,167,18631,1,0,0:0:0:0:
165,176,18699,6,0,L|123:226,5,35,0|0|0|0|0|0,0:0|0:0|0:0|0:0|0:0|0:0,0:0:0:0:
215,322,19108,2,0,L|191:260,1,35,0|0,0:0|0:0,0:0:0:0:
62,291,19245,6,0,P|100:295|154:307,1,70
167,370,19449,2,0,P|195:365|249:352,1,70
272,291,19654,2,0,L|336:301,1,35,0|0,0:0|0:0,0:0:0:0:
464,272,19790,6,0,P|429:265|375:261,1,70,0|0,0:0|0:0,0:0:0:0:
354,384,19995,2,0,P|381:354|403:321,1,70
311,232,20199,2,0,L|331:294,1,35,0|0,0:0|0:0,0:0:0:0:
389,228,20335,6,0,P|398:192|400:158,1,70
307,88,20540,2,0,P|319:132|335:178,1,70
403,44,20745,2,0,L|382:106,1,35
285,20,20881,5,0,0:0:0:0:
267,17,20949,1,0,0:0:0:0:
250,15,21017,1,0,0:0:0:0:
232,14,21085,1,0,0:0:0:0:
215,13,21154,1,0,0:0:0:0:
197,13,21222,1,0,0:0:0:0:
180,13,21290,2,0,L|136:21,1,35,0|0,0:0|0:0,0:0:0:0:
20,26,21426,5,0,0:0:0:0:
32,37,21494,1,0,0:0:0:0:
44,51,21563,1,0,0:0:0:0:
53,65,21631,1,0,0:0:0:0:
61,81,21699,2,0,L|64:132,1,35,0|0,0:0|0:0,0:0:0:0:
138,209,21835,2,0,L|140:174,1,35,0|0,0:0|0:0,0:0:0:0:
24,201,21972,5,0,0:0:0:0:
25,218,22040,1,0,0:0:0:0:
28,236,22108,1,0,0:0:0:0:
33,252,22176,1,0,0:0:0:0:
39,269,22244,2,0,L|76:318,1,35,0|0,0:0|0:0,0:0:0:0:
107,376,22381,2,0,L|158:359,1,35,0|0,0:0|0:0,0:0:0:0:
177,273,22517,5,0,0:0:0:0:
193,266,22585,1,0,0:0:0:0:
210,262,22654,1,0,0:0:0:0:
227,260,22722,1,0,0:0:0:0:
245,260,22790,1,0,0:0:0:0:
262,263,22858,1,0,0:0:0:0:
279,267,22926,1,0,0:0:0:0:
295,273,22994,1,0,0:0:0:0:
311,282,23063,6,0,L|337:316,5,35,0|0|0|0|0|0,0:0|0:0|0:0|0:0|0:0|0:0,0:0:0:0:
394,384,23472,2,0,L|422:344,1,35,0|0,0:0|0:0,0:0:0:0:
498,330,23608,6,0,P|501:295|498:257,1,70
402,194,23813,2,0,P|407:225|418:269,1,70
501,141,24017,2,0,L|494:194,1,35,0|0,0:0|0:0,0:0:0:0:
402,104,24153,5,0,0:0:0:0:
406,87,24222,1,0,0:0:0:0:
406,69,24290,1,0,0:0:0:0:
401,52,24358,1,0,0:0:0:0:
392,38,24426,1,0,0:0:0:0:
380,26,24494,1,0,0:0:0:0:
364,18,24562,2,0,L|321:48,1,35,0|0,0:0|0:0,0:0:0:0:
196,23,24699,6,0,P|225:28|268:38,1,70,0|0,0:0|0:0,0:0:0:0:
175,99,24903,2,0,P|209:104|248:116,1,70
174,179,25108,2,0,L|219:190,1,35,0|0,0:0|0:0,0:0:0:0:
294,158,25244,5,0,0:0:0:0:
297,175,25312,1,0,0:0:0:0:
298,192,25381,1,0,0:0:0:0:
295,209,25449,1,0,0:0:0:0:
289,226,25517,2,0,L|264:256,1,35,0|0,0:0|0:0,0:0:0:0:
144,251,25653,2,0,L|190:278,1,35,0|0,0:0|0:0,0:0:0:0:
243,375,25790,6,0,P|209:361|178:351,1,70,0|0,0:0|0:0,0:0:0:0:
131,340,25994,2,0,P|94:364|61:382,1,70
0,327,26199,2,0,L|31:311,1,35,0|0,0:0|0:0,0:0:0:0:
84,209,26335,6,0,P|52:221|11:242,1,70,0|0,0:0|0:0,0:0:0:0:
81,126,26540,2,0,P|49:139|16:154,1,70
0,46,26744,2,0,L|31:61,1,35,0|0,0:0|0:0,0:0:0:0:
156,33,26881,6,0,P|188:21|229:0,1,70,0|0,0:0|0:0,0:0:0:0:
159,116,27085,2,0,P|193:100|229:80,1,70
240,196,27290,2,0,L|209:181,1,35,0|0,0:0|0:0,0:0:0:0:
166,248,27426,5,2,0:0:0:0:
187,263,27494,1,0,0:0:0:0:
211,273,27562,1,0,0:0:0:0:
237,275,27630,1,0,0:0:0:0:
263,271,27699,1,10,0:0:0:0:
287,260,27767,1,0,0:0:0:0:
308,244,27835,2,0,L|327:207,1,35
356,67,27971,5,2,0:0:0:0:
380,74,28040,1,0,0:0:0:0:
403,87,28108,1,0,0:0:0:0:
421,106,28176,1,0,0:0:0:0:
434,129,28244,2,0,L|393:177,1,35,10|0,0:0|0:0,0:0:0:0:
378,279,28380,2,0,L|400:252,1,35
509,248,28517,5,2,0:0:0:0:
483,256,28585,1,0,0:0:0:0:
458,260,28653,1,0,0:0:0:0:
432,255,28721,1,0,0:0:0:0:
408,244,28789,1,10,0:0:0:0:
388,228,28858,1,0,0:0:0:0:
372,207,28926,2,0,L|378:157,1,35,0|0,0:0|0:0,0:0:0:0:
457,83,29062,5,2,0:0:0:0:
457,83,29130,2,0,L|461:117,1,35,0|0,0:0|0:0,0:0:0:0:
371,40,29267,1,0,0:0:0:0:
371,40,29335,2,0,L|375:5,1,35,10|0,0:0|0:0,0:0:0:0:
285,83,29471,2,0,L|289:117,1,35,0|0,0:0|0:0,0:0:0:0:
197,18,29608,5,2,0:0:0:0:
172,8,29676,1,0,0:0:0:0:
146,8,29744,1,0,0:0:0:0:
121,17,29812,1,0,0:0:0:0:
101,33,29880,1,10,0:0:0:0:
88,56,29949,1,0,0:0:0:0:
83,81,30017,2,0,L|123:109,1,35
207,129,30153,5,2,0:0:0:0:
201,154,30221,1,0,0:0:0:0:
185,176,30289,1,0,0:0:0:0:
164,191,30358,1,0,0:0:0:0:
139,199,30426,2,0,L|83:198,1,35,10|0,0:0|0:0,0:0:0:0:
0,265,30562,2,0,L|56:274,1,35
29,362,30698,5,2,0:0:0:0:
55,370,30767,1,0,0:0:0:0:
80,374,30835,1,0,0:0:0:0:
106,369,30903,1,0,0:0:0:0:
130,358,30971,1,10,0:0:0:0:
150,342,31039,1,0,0:0:0:0:
166,321,31108,2,0,L|160:271,1,35,0|0,0:0|0:0,0:0:0:0:
233,200,31244,5,2,0:0:0:0:
233,200,31312,2,0,L|237:234,1,35,0|0,0:0|0:0,0:0:0:0:
145,171,31448,1,0,0:0:0:0:
145,171,31517,2,0,L|112:157,1,35,10|0,0:0|0:0,0:0:0:0:
214,109,31653,2,0,L|242:88,1,35,0|0,0:0|0:0,0:0:0:0:
142,29,31789,5,2,0:0:0:0:
163,14,31857,1,0,0:0:0:0:
187,4,31926,1,0,0:0:0:0:
213,2,31994,1,0,0:0:0:0:
239,6,32062,1,10,0:0:0:0:
263,17,32130,1,0,0:0:0:0:
284,33,32198,2,0,L|303:70,1,35
275,180,32335,5,2,0:0:0:0:
268,156,32403,1,0,0:0:0:0:
254,133,32471,1,0,0:0:0:0:
236,115,32539,1,0,0:0:0:0:
213,102,32607,2,0,L|164:142,1,35,10|0,0:0|0:0,0:0:0:0:
63,158,32744,2,0,L|89:135,1,35
129,206,32880,5,2,0:0:0:0:
153,218,32948,1,0,0:0:0:0:
173,233,33016,1,0,0:0:0:0:
188,255,33085,1,0,0:0:0:0:
197,280,33153,1,10,0:0:0:0:
200,305,33221,1,0,0:0:0:0:
196,331,33289,2,0,L|156:362,1,35,0|0,0:0|0:0,0:0:0:0:
53,362,33426,5,2,0:0:0:0:
53,362,33494,2,0,L|19:366,1,35,0|0,0:0|0:0,0:0:0:0:
96,276,33630,1,0,0:0:0:0:
96,276,33698,2,0,L|131:280,1,35,10|0,0:0|0:0,0:0:0:0:
53,190,33835,2,0,L|19:194,1,35,0|0,0:0|0:0,0:0:0:0:
163,193,33971,5,2,0:0:0:0:
189,194,34039,1,0,0:0:0:0:
214,199,34107,1,0,0:0:0:0:
237,210,34176,1,0,0:0:0:0:
258,224,34244,1,10,0:0:0:0:
277,241,34312,1,0,0:0:0:0:
290,263,34380,2,0,L|302:307,1,35
248,374,34516,5,2,0:0:0:0:
270,360,34585,1,0,0:0:0:0:
294,351,34653,1,0,0:0:0:0:
320,347,34721,1,0,0:0:0:0:
346,348,34789,2,0,L|382:356,1,35,10|0,0:0|0:0,0:0:0:0:
510,341,34925,2,0,L|472:364,1,35
461,252,35062,5,2,0:0:0:0:
461,252,35130,2,0,L|505:265,1,35,0|0,0:0|0:0,0:0:0:0:
379,213,35266,1,0,0:0:0:0:
379,213,35335,2,0,L|335:226,1,35,10|0,0:0|0:0,0:0:0:0:
451,154,35471,2,0,L|495:167,1,35,0|0,0:0|0:0,0:0:0:0:
371,108,35607,5,2,0:0:0:0:
371,108,35675,2,0,L|327:121,1,35,0|0,0:0|0:0,0:0:0:0:
453,69,35812,1,0,0:0:0:0:
453,69,35880,2,0,L|497:82,1,35,10|0,0:0|0:0,0:0:0:0:
381,10,36016,2,0,L|337:23,1,35,0|0,0:0|0:0,0:0:0:0:
257,25,36153,5,2,0:0:0:0:
280,36,36221,1,0,0:0:0:0:
300,53,36289,1,0,0:0:0:0:
316,74,36357,1,0,0:0:0:0:
326,98,36425,1,10,0:0:0:0:
330,124,36494,1,0,0:0:0:0:
328,150,36562,1,0,0:0:0:0:
319,175,36630,1,0,0:0:0:0:
305,197,36698,1,2,0:0:0:0:
290,219,36766,1,0,0:0:0:0:
282,243,36834,1,0,0:0:0:0:
280,269,36903,1,0,0:0:0:0:
284,295,36971,1,10,0:0:0:0:
294,319,37039,1,0,0:0:0:0:
309,341,37107,2,0,L|351:353,1,35,0|0,0:0|0:0,0:0:0:0:
477,361,37243,5,2,0:0:0:0:
477,361,37312,1,0,0:0:0:0:
477,361,37380,2,0,L|435:373,1,35,0|0,0:0|0:0,0:0:0:0:
478,277,37516,1,10,0:0:0:0:
478,277,37584,1,0,0:0:0:0:
478,277,37653,2,0,L|436:289,1,35,0|0,0:0|0:0,0:0:0:0:
479,193,37789,1,2,0:0:0:0:
479,193,37857,1,0,0:0:0:0:
479,193,37925,2,0,L|437:205,1,35,0|0,0:0|0:0,0:0:0:0:
480,109,38062,1,10,0:0:0:0:
480,109,38130,1,0,0:0:0:0:
480,109,38198,2,0,L|438:121,1,35,0|0,0:0|0:0,0:0:0:0:
481,25,38334,5,2,0:0:0:0:
457,36,38403,1,0,0:0:0:0:
432,45,38471,1,0,0:0:0:0:
407,52,38539,1,0,0:0:0:0:
381,56,38607,1,10,0:0:0:0:
355,57,38675,1,0,0:0:0:0:
329,55,38743,1,0,0:0:0:0:
303,50,38812,1,0,0:0:0:0:
278,43,38880,1,2,0:0:0:0:
252,35,38948,1,0,0:0:0:0:
226,31,39016,1,0,0:0:0:0:
200,29,39084,1,0,0:0:0:0:
174,30,39152,1,10,0:0:0:0:
148,34,39221,1,0,0:0:0:0:
123,40,39289,2,0,L|66:70,1,35,0|0,0:0|0:0,0:0:0:0:
26,133,39425,5,2,0:0:0:0:
26,133,39493,1,0,0:0:0:0:
26,133,39562,2,0,L|83:163,1,35,0|0,0:0|0:0,0:0:0:0:
154,140,39698,1,10,0:0:0:0:
154,140,39766,1,0,0:0:0:0:
154,140,39834,2,0,L|211:110,1,35,0|0,0:0|0:0,0:0:0:0:
284,145,39971,5,2,0:0:0:0:
284,145,40039,1,0,0:0:0:0:
284,145,40107,2,0,L|314:161,1,35,0|0,0:0|0:0,0:0:0:0:
412,152,40243,1,10,0:0:0:0:
412,152,40311,1,0,0:0:0:0:
412,152,40380,2,0,L|442:135,1,35,0|0,0:0|0:0,0:0:0:0:
480,213,40516,5,2,0:0:0:0:
453,214,40584,1,0,0:0:0:0:
426,217,40652,1,0,0:0:0:0:
402,220,40721,1,0,0:0:0:0:
375,226,40789,1,10,0:0:0:0:
350,233,40857,1,0,0:0:0:0:
325,242,40925,1,0,0:0:0:0:
301,252,40993,1,0,0:0:0:0:
277,261,41061,1,2,0:0:0:0:
251,267,41130,1,0,0:0:0:0:
226,271,41198,1,0,0:0:0:0:
199,274,41266,1,0,0:0:0:0:
173,276,41334,1,10,0:0:0:0:
147,276,41402,1,0,0:0:0:0:
121,275,41470,2,0,L|86:267,1,35,0|0,0:0|0:0,0:0:0:0:
44,205,41607,5,2,0:0:0:0:
69,196,41675,1,0,0:0:0:0:
94,187,41743,1,0,0:0:0:0:
119,179,41811,1,0,0:0:0:0:
144,173,41880,1,10,0:0:0:0:
170,169,41948,1,0,0:0:0:0:
196,167,42016,1,0,0:0:0:0:
221,164,42084,1,0,0:0:0:0:
247,161,42152,1,2,0:0:0:0:
273,155,42220,1,0,0:0:0:0:
298,148,42289,1,0,0:0:0:0:
323,139,42357,1,0,0:0:0:0:
348,130,42425,1,10,0:0:0:0:
372,119,42493,1,0,0:0:0:0:
395,107,42561,2,0,L|446:69,1,35,0|0,0:0|0:0,0:0:0:0:
455,26,42698,5,2,0:0:0:0:
476,41,42766,1,0,0:0:0:0:
490,63,42834,1,0,0:0:0:0:
494,88,42902,1,0,0:0:0:0:
489,114,42970,1,10,0:0:0:0:
474,135,43039,1,0,0:0:0:0:
452,149,43107,1,0,0:0:0:0:
426,154,43175,1,0,0:0:0:0:
401,149,43243,1,2,0:0:0:0:
375,143,43311,1,0,0:0:0:0:
349,148,43379,1,0,0:0:0:0:
327,162,43448,1,0,0:0:0:0:
313,184,43516,1,10,0:0:0:0:
307,209,43584,1,0,0:0:0:0:
312,235,43652,1,0,0:0:0:0:
326,257,43720,1,0,0:0:0:0:
347,272,43789,5,2,0:0:0:0:
321,268,43857,1,0,0:0:0:0:
295,267,43925,1,0,0:0:0:0:
269,269,43993,1,0,0:0:0:0:
243,276,44061,1,10,0:0:0:0:
219,285,44129,1,0,0:0:0:0:
196,298,44198,1,0,0:0:0:0:
175,314,44266,1,0,0:0:0:0:
156,332,44334,1,2,0:0:0:0:
137,349,44402,1,0,0:0:0:0:
112,359,44470,1,0,0:0:0:0:
86,359,44538,1,0,0:0:0:0:
62,350,44607,1,10,0:0:0:0:
42,333,44675,1,0,0:0:0:0:
29,310,44743,2,0,L|54:264,1,35,0|0,0:0|0:0,0:0:0:0:
119,205,44879,5,2,0:0:0:0:
139,188,44948,1,0,0:0:0:0:
154,167,45016,1,0,0:0:0:0:
164,142,45084,1,0,0:0:0:0:
167,116,45152,1,10,0:0:0:0:
163,90,45220,1,0,0:0:0:0:
153,66,45288,2,0,L|108:41,1,35,0|0,0:0|0:0,0:0:0:0:
16,11,45425,5,2,0:0:0:0:
16,11,45493,1,0,0:0:0:0:
16,11,45561,2,0,L|46:27,1,35,0|0,0:0|0:0,0:0:0:0:
19,106,45697,1,10,0:0:0:0:
19,106,45766,1,0,0:0:0:0:
19,106,45834,2,0,L|49:122,1,35,0|0,0:0|0:0,0:0:0:0:
117,197,45970,5,2,0:0:0:0:
138,211,46038,1,0,0:0:0:0:
162,220,46107,1,0,0:0:0:0:
189,224,46175,1,0,0:0:0:0:
215,220,46243,1,10,0:0:0:0:
239,209,46311,1,0,0:0:0:0:
260,193,46379,2,0,L|290:151,1,35,0|0,0:0|0:0,0:0:0:0:
219,62,46516,5,2,0:0:0:0:
219,62,46584,1,0,0:0:0:0:
219,62,46652,2,0,L|239:108,1,35,0|0,0:0|0:0,0:0:0:0:
352,91,46788,1,10,0:0:0:0:
352,91,46857,1,0,0:0:0:0:
352,91,46925,2,0,L|301:85,1,35,0|0,0:0|0:0,0:0:0:0:
375,0,47061,5,2,0:0:0:0:
399,9,47129,1,0,0:0:0:0:
419,25,47197,1,0,0:0:0:0:
435,47,47266,1,0,0:0:0:0:
444,71,47334,1,10,0:0:0:0:
446,97,47402,1,0,0:0:0:0:
441,123,47470,1,0,0:0:0:0:
428,146,47538,1,0,0:0:0:0:
410,165,47606,1,2,0:0:0:0:
388,178,47675,1,0,0:0:0:0:
363,185,47743,1,0,0:0:0:0:
337,191,47811,1,0,0:0:0:0:
315,204,47879,1,10,0:0:0:0:
297,223,47947,1,0,0:0:0:0:
285,247,48016,2,0,L|341:267,1,35,0|0,0:0|0:0,0:0:0:0:
443,309,48152,5,2,0:0:0:0:
443,309,48220,1,0,0:0:0:0:
443,309,48288,2,0,L|387:329,1,35,0|0,0:0|0:0,0:0:0:0:
340,371,48425,1,10,0:0:0:0:
340,371,48493,1,0,0:0:0:0:
340,371,48561,2,0,L|284:351,1,35,0|0,0:0|0:0,0:0:0:0:
241,301,48697,5,2,0:0:0:0:
241,301,48765,1,0,0:0:0:0:
241,301,48834,2,0,L|185:321,1,35,0|0,0:0|0:0,0:0:0:0:
138,363,48970,1,10,0:0:0:0:
138,363,49038,1,0,0:0:0:0:
138,363,49106,2,0,L|82:343,1,35,0|0,0:0|0:0,0:0:0:0:
7,335,49243,5,2,0:0:0:0:
4,308,49311,1,0,0:0:0:0:
8,283,49379,1,0,0:0:0:0:
18,259,49447,1,0,0:0:0:0:
35,238,49515,1,10,0:0:0:0:
56,223,49584,1,0,0:0:0:0:
80,213,49652,1,0,0:0:0:0:
106,210,49720,1,0,0:0:0:0:
132,214,49788,1,2,0:0:0:0:
157,210,49856,1,0,0:0:0:0:
182,201,49925,1,0,0:0:0:0:
203,185,49993,1,0,0:0:0:0:
219,165,50061,1,10,0:0:0:0:
230,141,50129,1,0,0:0:0:0:
234,115,50197,2,0,L|206:80,1,35,0|0,0:0|0:0,0:0:0:0:
100,18,50334,5,2,0:0:0:0:
110,42,50402,1,0,0:0:0:0:
126,61,50470,1,0,0:0:0:0:
147,77,50538,1,0,0:0:0:0:
172,87,50606,1,10,0:0:0:0:
197,89,50674,1,0,0:0:0:0:
223,86,50743,1,0,0:0:0:0:
247,75,50811,1,0,0:0:0:0:
268,59,50879,1,2,0:0:0:0:
292,51,50947,1,0,0:0:0:0:
318,46,51015,1,0,0:0:0:0:
344,49,51084,1,0,0:0:0:0:
368,59,51152,1,10,0:0:0:0:
390,74,51220,1,0,0:0:0:0:
406,95,51288,2,0,L|399:139,1,35,0|0,0:0|0:0,0:0:0:0:
352,200,51424,5,2,0:0:0:0:
337,221,51493,1,0,0:0:0:0:
329,246,51561,1,0,0:0:0:0:
327,272,51629,1,0,0:0:0:0:
331,298,51697,1,10,0:0:0:0:
341,322,51765,1,0,0:0:0:0:
357,343,51833,1,0,0:0:0:0:
377,360,51902,1,0,0:0:0:0:
401,371,51970,1,2,0:0:0:0:
394,345,52038,1,0,0:0:0:0:
381,323,52106,1,0,0:0:0:0:
362,304,52174,1,0,0:0:0:0:
339,292,52243,1,10,0:0:0:0:
314,285,52311,1,0,0:0:0:0:
288,285,52379,1,0,0:0:0:0:
263,293,52447,1,0,0:0:0:0:
240,306,52515,1,2,0:0:0:0:
217,319,52583,1,0,0:0:0:0:
192,326,52652,1,0,0:0:0:0:
166,326,52720,1,0,0:0:0:0:
140,320,52788,1,10,0:0:0:0:
118,307,52856,1,0,0:0:0:0:
99,289,52924,1,0,0:0:0:0:
86,266,52992,1,0,0:0:0:0:
79,241,53061,1,2,0:0:0:0:
79,215,53129,1,0,0:0:0:0:
86,189,53197,1,0,0:0:0:0:
99,167,53265,1,0,0:0:0:0:
118,149,53333,1,10,0:0:0:0:
136,130,53402,1,0,0:0:0:0:
149,108,53470,2,0,L|117:59,1,35,0|0,0:0|0:0,0:0:0:0:
40,17,53606,5,2,0:0:0:0:
27,40,53674,1,0,0:0:0:0:
20,65,53742,1,0,0:0:0:0:
18,91,53811,1,0,0:0:0:0:
21,117,53879,2,0,L|54:155,1,35,10|0,0:0|0:0,0:0:0:0:
105,221,54015,2,0,L|72:259,1,35,0|0,0:0|0:0,0:0:0:0:
4,306,54152,5,2,0:0:0:0:
27,293,54220,1,0,0:0:0:0:
52,286,54288,1,0,0:0:0:0:
78,284,54356,1,0,0:0:0:0:
104,287,54424,2,0,L|146:307,1,35,10|0,0:0|0:0,0:0:0:0:
201,373,54561,2,0,L|239:340,1,35,0|0,0:0|0:0,0:0:0:0:
255,237,54697,5,2,0:0:0:0:
268,259,54765,1,0,0:0:0:0:
286,278,54833,1,0,0:0:0:0:
307,294,54901,1,0,0:0:0:0:
330,305,54970,2,0,L|383:318,1,35,10|0,0:0|0:0,0:0:0:0:
478,375,55106,2,0,L|435:346,1,35,0|0,0:0|0:0,0:0:0:0:
487,247,55242,5,2,0:0:0:0:
487,247,55311,2,0,L|440:273,1,35,0|0,0:0|0:0,0:0:0:0:
490,160,55447,1,0,0:0:0:0:
490,160,55515,2,0,L|443:186,1,35,10|0,0:0|0:0,0:0:0:0:
493,73,55651,2,0,L|446:99,1,35,0|0,0:0|0:0,0:0:0:0:
382,17,55788,5,2,0:0:0:0:
359,30,55856,1,0,0:0:0:0:
334,37,55924,1,0,0:0:0:0:
308,39,55992,1,0,0:0:0:0:
282,36,56060,2,0,L|218:22,1,35,10|0,0:0|0:0,0:0:0:0:
133,11,56197,2,0,L|143:44,1,35,0|0,0:0|0:0,0:0:0:0:
203,107,56333,5,2,0:0:0:0:
202,133,56401,1,0,0:0:0:0:
196,158,56470,1,0,0:0:0:0:
185,182,56538,1,0,0:0:0:0:
169,203,56606,2,0,L|124:251,1,35,10|0,0:0|0:0,0:0:0:0:
27,184,56742,2,0,L|69:205,1,35,0|0,0:0|0:0,0:0:0:0:
0,297,56879,5,2,0:0:0:0:
24,288,56947,1,0,0:0:0:0:
50,285,57015,1,0,0:0:0:0:
76,286,57083,1,0,0:0:0:0:
101,294,57151,2,0,L|154:325,1,35,10|0,0:0|0:0,0:0:0:0:
192,375,57288,2,0,L|245:344,1,35,0|0,0:0|0:0,0:0:0:0:
272,281,57424,5,2,0:0:0:0:
272,281,57492,2,0,L|325:312,1,35,0|0,0:0|0:0,0:0:0:0:
339,384,57629,1,0,0:0:0:0:
339,384,57697,2,0,L|392:353,1,35,10|0,0:0|0:0,0:0:0:0:
457,315,57833,2,0,L|404:284,1,35,0|0,0:0|0:0,0:0:0:0:
335,227,57969,5,2,0:0:0:0:
348,205,58038,1,0,0:0:0:0:
367,186,58106,1,0,0:0:0:0:
388,171,58174,1,0,0:0:0:0:
412,162,58242,2,0,L|472:153,1,35,10|0,0:0|0:0,0:0:0:0:
512,77,58379,2,0,L|451:68,1,35,0|0,0:0|0:0,0:0:0:0:
405,14,58515,5,2,0:0:0:0:
405,14,58583,2,0,L|343:28,1,35,0|0,0:0|0:0,0:0:0:0:
296,78,58719,1,0,0:0:0:0:
296,78,58788,2,0,L|234:64,1,35,10|0,0:0|0:0,0:0:0:0:
187,14,58924,2,0,L|125:28,1,35,0|0,0:0|0:0,0:0:0:0:
33,44,59060,5,2,0:0:0:0:
58,48,59128,1,0,0:0:0:0:
83,57,59197,1,0,0:0:0:0:
106,69,59265,1,0,0:0:0:0:
127,85,59333,2,0,L|155:123,1,35,10|0,0:0|0:0,0:0:0:0:
21,158,59469,2,0,L|75:126,1,35,0|0,0:0|0:0,0:0:0:0:
140,216,59606,5,2,0:0:0:0:
140,216,59674,2,0,L|86:184,1,35,0|0,0:0|0:0,0:0:0:0:
11,259,59810,1,0,0:0:0:0:
11,259,59878,2,0,L|65:227,1,35,10|0,0:0|0:0,0:0:0:0:
137,305,60015,2,0,L|83:273,1,35,0|0,0:0|0:0,0:0:0:0:
5,369,60151,5,2,0:0:0:0:
27,356,60219,1,0,0:0:0:0:
51,345,60287,1,0,0:0:0:0:
77,338,60356,1,0,0:0:0:0:
102,333,60424,1,10,0:0:0:0:
129,332,60492,1,0,0:0:0:0:
155,334,60560,1,0,0:0:0:0:
181,338,60628,1,0,0:0:0:0:
206,346,60697,1,2,0:0:0:0:
231,353,60765,1,0,0:0:0:0:
256,358,60833,1,0,0:0:0:0:
283,360,60901,1,0,0:0:0:0:
309,358,60969,1,10,0:0:0:0:
335,354,61037,1,0,0:0:0:0:
360,346,61106,2,0,L|318:309,1,35,0|0,0:0|0:0,0:0:0:0:
384,222,61242,5,2,0:0:0:0:
384,222,61310,2,0,L|372:276,1,35,0|0,0:0|0:0,0:0:0:0:
265,263,61446,1,0,0:0:0:0:
265,263,61515,2,0,L|318:245,1,35,10|0,0:0|0:0,0:0:0:0:
300,132,61651,2,0,L|288:186,1,35,0|0,0:0|0:0,0:0:0:0:
383,107,61787,5,2,0:0:0:0:
383,107,61856,2,0,L|394:161,1,35,0|0,0:0|0:0,0:0:0:0:
308,24,61992,1,0,0:0:0:0:
308,24,62060,2,0,L|301:58,1,35,10|0,0:0|0:0,0:0:0:0:
409,0,62196,2,0,L|449:43,1,35,0|0,0:0|0:0,0:0:0:0:
501,80,62333,5,2,0:0:0:0:
487,102,62401,1,0,0:0:0:0:
477,126,62469,1,0,0:0:0:0:
470,151,62537,1,0,0:0:0:0:
467,178,62606,1,10,0:0:0:0:
468,204,62674,1,0,0:0:0:0:
473,230,62742,1,0,0:0:0:0:
481,254,62810,1,0,0:0:0:0:
493,278,62878,1,2,0:0:0:0:
470,264,62946,1,0,0:0:0:0:
446,254,63015,1,0,0:0:0:0:
421,247,63083,1,0,0:0:0:0:
394,244,63151,1,10,0:0:0:0:
368,245,63219,1,0,0:0:0:0:
342,250,63287,2,0,L|312:284,1,35,0|0,0:0|0:0,0:0:0:0:
381,384,63424,5,2,0:0:0:0:
381,384,63492,2,0,L|366:341,1,35,0|0,0:0|0:0,0:0:0:0:
245,350,63628,1,0,0:0:0:0:
245,350,63696,2,0,L|289:358,1,35,10|0,0:0|0:0,0:0:0:0:
157,350,63833,2,0,L|112:358,1,35,0|0,0:0|0:0,0:0:0:0:
60,250,63969,5,2,0:0:0:0:
60,250,64037,2,0,L|90:284,1,35,0|0,0:0|0:0,0:0:0:0:
21,384,64174,1,0,0:0:0:0:
21,384,64242,2,0,L|35:341,1,35,10|0,0:0|0:0,0:0:0:0:
157,350,64378,2,0,L|171:307,1,35,0|0,0:0|0:0,0:0:0:0:
174,224,64514,5,2,0:0:0:0:
163,199,64583,1,0,0:0:0:0:
148,178,64651,1,0,0:0:0:0:
129,160,64719,1,0,0:0:0:0:
106,147,64787,1,10,0:0:0:0:
81,139,64855,1,0,0:0:0:0:
55,137,64924,1,0,0:0:0:0:
29,141,64992,1,0,0:0:0:0:
4,150,65060,1,2,0:0:0:0:
28,159,65128,1,0,0:0:0:0:
54,164,65196,1,0,0:0:0:0:
80,163,65264,1,0,0:0:0:0:
105,156,65333,1,10,0:0:0:0:
128,144,65401,1,0,0:0:0:0:
148,127,65469,2,0,L|94:113,1,35,0|0,0:0|0:0,0:0:0:0:
151,45,65605,5,2,0:0:0:0:
151,45,65674,2,0,L|97:31,1,35,0|0,0:0|0:0,0:0:0:0:
237,17,65810,1,0,0:0:0:0:
237,17,65878,2,0,L|291:3,1,35,10|0,0:0|0:0,0:0:0:0:
234,101,66014,2,0,L|288:87,1,35,0|0,0:0|0:0,0:0:0:0:
269,180,66151,5,2,0:0:0:0:
269,180,66219,2,0,L|322:194,1,35,0|0,0:0|0:0,0:0:0:0:
259,265,66355,1,0,0:0:0:0:
259,265,66423,2,0,L|298:304,1,35,10|0,0:0|0:0,0:0:0:0:
207,333,66560,2,0,L|220:387,1,35,0|0,0:0|0:0,0:0:0:0:
321,384,66696,5,2,0:0:0:0:
345,374,66764,1,0,0:0:0:0:
366,358,66833,1,0,0:0:0:0:
383,338,66901,1,0,0:0:0:0:
395,315,66969,1,10,0:0:0:0:
400,289,67037,1,0,0:0:0:0:
400,263,67105,1,0,0:0:0:0:
393,238,67173,1,0,0:0:0:0:
381,215,67242,1,2,0:0:0:0:
368,191,67310,1,0,0:0:0:0:
362,166,67378,1,0,0:0:0:0:
361,140,67446,1,0,0:0:0:0:
367,114,67514,1,10,0:0:0:0:
379,91,67582,1,0,0:0:0:0:
396,71,67651,2,0,L|432:107,1,35,0|0,0:0|0:0,0:0:0:0:
512,152,67787,5,2,0:0:0:0:
502,176,67855,1,0,0:0:0:0:
486,197,67923,1,0,0:0:0:0:
466,214,67992,1,0,0:0:0:0:
443,226,68060,1,10,0:0:0:0:
417,231,68128,1,0,0:0:0:0:
391,231,68196,1,0,0:0:0:0:
366,224,68264,1,0,0:0:0:0:
343,212,68332,1,2,0:0:0:0:
319,199,68401,1,0,0:0:0:0:
294,193,68469,1,0,0:0:0:0:
268,192,68537,1,0,0:0:0:0:
242,198,68605,1,10,0:0:0:0:
219,210,68673,1,0,0:0:0:0:
199,227,68741,2,0,L|171:267,1,35,0|0,0:0|0:0,0:0:0:0:
130,381,68878,5,2,0:0:0:0:
107,367,68946,1,0,0:0:0:0:
89,348,69014,1,0,0:0:0:0:
76,325,69082,1,0,0:0:0:0:
69,300,69151,1,10,0:0:0:0:
68,274,69219,1,0,0:0:0:0:
74,248,69287,1,0,0:0:0:0:
85,225,69355,1,0,0:0:0:0:
102,205,69423,1,2,0:0:0:0:
118,185,69491,1,0,0:0:0:0:
130,161,69560,1,0,0:0:0:0:
136,135,69628,1,0,0:0:0:0:
135,109,69696,1,10,0:0:0:0:
128,84,69764,1,0,0:0:0:0:
115,61,69832,1,0,0:0:0:0:
97,43,69901,1,0,0:0:0:0:
74,29,69969,5,2,0:0:0:0:
94,46,70037,1,0,0:0:0:0:
116,61,70105,1,0,0:0:0:0:
139,72,70173,1,0,0:0:0:0:
165,79,70241,1,10,0:0:0:0:
191,82,70310,1,0,0:0:0:0:
217,81,70378,2,0,L|264:67,1,35,0|0,0:0|0:0,0:0:0:0:
303,5,70514,5,2,0:0:0:0:
303,5,70582,2,0,L|350:19,1,35,0|0,0:0|0:0,0:0:0:0:
372,93,70719,1,0,0:0:0:0:
372,93,70787,2,0,L|419:79,1,35,10|0,0:0|0:0,0:0:0:0:
486,9,70923,2,0,L|474:56,1,35,0|0,0:0|0:0,0:0:0:0:
512,123,71060,5,2,0:0:0:0:
500,136,71128,1,0,0:0:0:0:
492,151,71196,1,0,0:0:0:0:
486,166,71264,1,0,0:0:0:0:
481,183,71332,1,10,0:0:0:0:
480,201,71400,1,0,0:0:0:0:
481,218,71469,1,0,0:0:0:0:
485,236,71537,1,0,0:0:0:0:
490,252,71605,1,2,0:0:0:0:
496,269,71673,1,0,0:0:0:0:
499,286,71741,1,0,0:0:0:0:
501,303,71809,1,0,0:0:0:0:
499,321,71878,1,10,0:0:0:0:
495,338,71946,1,0,0:0:0:0:
488,353,72014,1,0,0:0:0:0:
480,369,72082,1,0,0:0:0:0:
469,382,72150,5,2,0:0:0:0:
454,370,72219,1,0,0:0:0:0:
438,364,72287,1,0,0:0:0:0:
422,359,72355,1,0,0:0:0:0:
405,356,72423,1,10,0:0:0:0:
387,356,72491,1,0,0:0:0:0:
369,359,72559,1,0,0:0:0:0:
353,364,72628,1,0,0:0:0:0:
336,371,72696,1,2,0:0:0:0:
321,377,72764,1,0,0:0:0:0:
303,381,72832,1,0,0:0:0:0:
287,383,72900,1,0,0:0:0:0:
270,384,72968,1,10,0:0:0:0:
252,381,73037,1,0,0:0:0:0:
235,376,73105,2,0,L|219:322,1,35
122,271,73241,5,2,0:0:0:0:
130,286,73309,1,0,0:0:0:0:
135,303,73378,1,0,0:0:0:0:
134,320,73446,1,0,0:0:0:0:
129,337,73514,1,10,0:0:0:0:
120,351,73582,1,0,0:0:0:0:
106,363,73650,1,0,0:0:0:0:
91,370,73718,1,0,0:0:0:0:
74,373,73787,1,2,0:0:0:0:
56,371,73855,1,0,0:0:0:0:
40,365,73923,1,0,0:0:0:0:
26,355,73991,1,0,0:0:0:0:
16,341,74059,1,10,0:0:0:0:
9,324,74128,1,0,0:0:0:0:
8,307,74196,1,0,0:0:0:0:
11,290,74264,1,0,0:0:0:0:
19,274,74332,5,2,0:0:0:0:
35,268,74400,1,0,0:0:0:0:
49,258,74468,1,0,0:0:0:0:
61,245,74537,1,0,0:0:0:0:
69,229,74605,1,10,0:0:0:0:
73,212,74673,1,0,0:0:0:0:
72,195,74741,1,0,0:0:0:0:
67,178,74809,1,0,0:0:0:0:
58,163,74877,1,2,0:0:0:0:
69,149,74946,1,0,0:0:0:0:
76,133,75014,1,0,0:0:0:0:
79,116,75082,1,0,0:0:0:0:
78,99,75150,1,10,0:0:0:0:
72,82,75218,1,0,0:0:0:0:
63,67,75287,2,0,L|107:37,1,35,0|0,0:0|0:0,0:0:0:0:
196,26,75423,5,2,0:0:0:0:
207,39,75491,1,0,0:0:0:0:
220,50,75559,1,0,0:0:0:0:
236,58,75627,1,0,0:0:0:0:
252,63,75696,1,10,0:0:0:0:
270,66,75764,1,0,0:0:0:0:
287,64,75832,1,0,0:0:0:0:
304,60,75900,1,0,0:0:0:0:
320,53,75968,1,2,0:0:0:0:
335,45,76036,1,0,0:0:0:0:
352,41,76105,1,0,0:0:0:0:
370,40,76173,1,0,0:0:0:0:
387,42,76241,1,10,0:0:0:0:
404,47,76309,1,0,0:0:0:0:
419,55,76377,1,0,0:0:0:0:
433,66,76446,1,0,0:0:0:0:
444,80,76514,1,2,0:0:0:0:
453,94,76582,1,0,0:0:0:0:
459,111,76650,1,0,0:0:0:0:
462,128,76718,1,0,0:0:0:0:
462,145,76786,1,10,0:0:0:0:
459,163,76855,1,0,0:0:0:0:
453,179,76923,1,0,0:0:0:0:
444,194,76991,1,0,0:0:0:0:
433,207,77059,5,2,0:0:0:0:
448,215,77127,1,0,0:0:0:0:
461,227,77195,1,0,0:0:0:0:
472,240,77264,1,0,0:0:0:0:
480,256,77332,1,10,0:0:0:0:
485,272,77400,1,0,0:0:0:0:
488,290,77468,2,0,L|446:328,1,35,0|0,0:0|0:0,0:0:0:0:
393,384,77605,5,2,0:0:0:0:
383,369,77673,1,0,0:0:0:0:
376,353,77741,1,0,0:0:0:0:
370,336,77809,1,0,0:0:0:0:
365,320,77877,1,10,0:0:0:0:
362,302,77945,1,0,0:0:0:0:
360,285,78014,1,0,0:0:0:0:
360,267,78082,1,0,0:0:0:0:
362,250,78150,1,2,0:0:0:0:
365,233,78218,1,0,0:0:0:0:
370,216,78286,1,0,0:0:0:0:
376,200,78355,1,0,0:0:0:0:
384,184,78423,1,10,0:0:0:0:
393,169,78491,1,0,0:0:0:0:
403,155,78559,1,0,0:0:0:0:
415,142,78627,1,0,0:0:0:0:
428,130,78695,5,2,0:0:0:0:
419,145,78764,1,0,0:0:0:0:
409,159,78832,1,0,0:0:0:0:
398,173,78900,1,0,0:0:0:0:
386,185,78968,1,10,0:0:0:0:
373,197,79036,1,0,0:0:0:0:
358,207,79104,1,0,0:0:0:0:
343,216,79173,1,0,0:0:0:0:
327,223,79241,1,2,0:0:0:0:
311,229,79309,1,0,0:0:0:0:
294,233,79377,1,0,0:0:0:0:
277,236,79445,1,0,0:0:0:0:
259,237,79514,1,10,0:0:0:0:
242,237,79582,1,0,0:0:0:0:
224,235,79650,2,0,L|179:223,1,35,0|0,0:0|0:0,0:0:0:0:
155,138,79786,5,2,0:0:0:0:
138,146,79854,1,0,0:0:0:0:
125,157,79923,1,0,0:0:0:0:
113,169,79991,1,0,0:0:0:0:
105,185,80059,1,10,0:0:0:0:
99,201,80127,1,0,0:0:0:0:
96,218,80195,1,0,0:0:0:0:
97,236,80263,1,0,0:0:0:0:
101,253,80332,1,2,0:0:0:0:
107,269,80400,1,0,0:0:0:0:
116,283,80468,1,0,0:0:0:0:
129,297,80536,1,0,0:0:0:0:
143,306,80604,1,10,0:0:0:0:
158,315,80673,1,0,0:0:0:0:
175,318,80741,2,0,L|216:332,1,35
334,361,80877,5,2,0:0:0:0:
319,348,80945,1,0,0:0:0:0:
309,334,81013,1,0,0:0:0:0:
301,320,81082,1,0,0:0:0:0:
297,302,81150,1,10,0:0:0:0:
296,285,81218,1,0,0:0:0:0:
297,268,81286,1,0,0:0:0:0:
303,251,81354,1,0,0:0:0:0:
311,235,81422,1,2,0:0:0:0:
321,222,81491,1,0,0:0:0:0:
333,210,81559,1,0,0:0:0:0:
350,200,81627,1,0,0:0:0:0:
365,195,81695,1,10,0:0:0:0:
382,192,81763,1,0,0:0:0:0:
399,192,81832,2,0,L|434:162,1,35
512,128,81968,5,2,0:0:0:0:
502,113,82036,1,0,0:0:0:0:
491,99,82104,1,0,0:0:0:0:
477,89,82172,1,0,0:0:0:0:
462,81,82241,1,10,0:0:0:0:
445,75,82309,1,0,0:0:0:0:
428,73,82377,1,0,0:0:0:0:
410,75,82445,1,0,0:0:0:0:
393,79,82513,1,2,0:0:0:0:
376,83,82582,1,0,0:0:0:0:
358,84,82650,1,0,0:0:0:0:
341,82,82718,1,0,0:0:0:0:
324,77,82786,1,10,0:0:0:0:
309,69,82854,1,0,0:0:0:0:
295,58,82922,1,0,0:0:0:0:
283,45,82991,1,0,0:0:0:0:
274,30,83059,5,2,0:0:0:0:
257,36,83127,1,0,0:0:0:0:
241,42,83195,2,0,L|178:55,1,35,0|0,0:0|0:0,0:0:0:0:
116,26,83331,1,10,0:0:0:0:
116,26,83400,1,0,0:0:0:0:
116,26,83468,2,0,L|131:81,1,35,0|0,0:0|0:0,0:0:0:0:
78,164,83604,1,2,0:0:0:0:
78,164,83672,1,0,0:0:0:0:
78,164,83741,2,0,L|118:123,1,35,0|0,0:0|0:0,0:0:0:0:
216,127,83877,1,10,0:0:0:0:
216,127,83945,1,0,0:0:0:0:
216,127,84013,2,0,L|160:112,1,35,0|0,0:0|0:0,0:0:0:0:
30,70,84150,5,2,0:0:0:0:
24,86,84218,1,0,0:0:0:0:
21,103,84286,1,0,0:0:0:0:
21,121,84354,1,0,0:0:0:0:
23,138,84422,1,10,0:0:0:0:
27,155,84490,1,0,0:0:0:0:
34,171,84559,1,0,0:0:0:0:
43,186,84627,1,0,0:0:0:0:
54,200,84695,1,2,0:0:0:0:
67,212,84763,1,0,0:0:0:0:
81,222,84831,1,0,0:0:0:0:
97,230,84900,1,0,0:0:0:0:
113,236,84968,1,10,0:0:0:0:
130,239,85036,1,0,0:0:0:0:
148,240,85104,1,0,0:0:0:0:
165,238,85172,1,0,0:0:0:0:
182,234,85240,1,2,0:0:0:0:
199,232,85309,1,0,0:0:0:0:
216,234,85377,1,0,0:0:0:0:
232,241,85445,1,0,0:0:0:0:
245,252,85513,1,10,0:0:0:0:
255,266,85581,1,0,0:0:0:0:
260,283,85650,1,0,0:0:0:0:
261,300,85718,1,0,0:0:0:0:
256,317,85786,5,2,0:0:0:0:
273,311,85854,1,0,0:0:0:0:
290,309,85922,1,0,0:0:0:0:
307,313,85990,1,0,0:0:0:0:
323,322,86059,1,10,0:0:0:0:
335,334,86127,1,0,0:0:0:0:
343,349,86195,1,0,0:0:0:0:
347,366,86263,1,0,0:0:0:0:
346,384,86331,5,2,0:0:0:0:
338,373,86399,1,0,0:0:0:0:
331,361,86468,1,0,0:0:0:0:
327,349,86536,1,0,0:0:0:0:
324,336,86604,1,10,0:0:0:0:
322,323,86672,1,0,0:0:0:0:
322,310,86740,1,0,0:0:0:0:
324,297,86809,1,0,0:0:0:0:
328,285,86877,1,2,0:0:0:0:
331,272,86945,1,0,0:0:0:0:
333,259,87013,1,0,0:0:0:0:
333,246,87081,1,0,0:0:0:0:
332,233,87149,1,10,0:0:0:0:
329,220,87218,1,0,0:0:0:0:
324,208,87286,1,0,0:0:0:0:
318,196,87354,1,0,0:0:0:0:
310,186,87422,5,2,0:0:0:0:
310,212,87490,1,0,0:0:0:0:
318,237,87558,1,0,0:0:0:0:
332,259,87627,1,0,0:0:0:0:
352,276,87695,1,10,0:0:0:0:
375,287,87763,1,0,0:0:0:0:
401,292,87831,1,0,0:0:0:0:
427,289,87899,1,0,0:0:0:0:
451,279,87968,1,2,0:0:0:0:
472,263,88036,1,0,0:0:0:0:
487,242,88104,1,0,0:0:0:0:
496,217,88172,1,0,0:0:0:0:
499,191,88240,1,10,0:0:0:0:
494,166,88308,1,0,0:0:0:0:
482,142,88377,1,0,0:0:0:0:
464,123,88445,1,0,0:0:0:0:
441,110,88513,6,0,L|345:122,1,70,0|0,0:0|0:0,0:0:0:0:
225,180,88786,2,0,L|294:171,1,70,0|0,0:0|0:0,0:0:0:0:
434,106,89058,2,0,L|338:118,1,70,0|0,0:0|0:0,0:0:0:0:
218,176,89331,2,0,L|287:167,1,70,0|0,0:0|0:0,0:0:0:0:
285,25,89604,6,0,L|293:94,1,70,0|0,0:0|0:0,0:0:0:0:
176,47,89877,2,0,L|167:116,1,70,0|0,0:0|0:0,0:0:0:0:
280,31,90149,2,0,L|288:100,1,70,0|0,0:0|0:0,0:0:0:0:
171,53,90422,2,0,L|162:122,1,70,0|0,0:0|0:0,0:0:0:0:
39,226,90695,6,0,L|103:198,1,70,0|0,0:0|0:0,0:0:0:0:
255,253,90967,2,8,L|199:210,1,70,0|0,0:0|0:0,0:0:0:0:
38,235,91240,2,0,L|102:207,1,70,0|0,0:0|0:0,0:0:0:0:
254,262,91513,2,8,L|198:219,1,70,0|0,0:0|0:0,0:0:0:0:
343,324,91785,6,8,L|273:333,1,70,0|0,0:0|0:0,0:0:0:0:
440,298,92058,2,8,L|449:367,1,70,0|0,0:0|0:0,0:0:0:0:
414,201,92331,2,8,L|483:191,1,70,0|0,0:0|0:0,0:0:0:0:
317,227,92604,2,8,L|307:157,1,70,0|0,0:0|0:0,0:0:0:0:
257,39,92876,5,0,0:0:0:0:
260,44,92944,1,0,0:0:0:0:
264,50,93013,1,0,0:0:0:0:
268,56,93081,1,0,0:0:0:0:
271,63,93149,1,0,0:0:0:0:
273,69,93217,1,0,0:0:0:0:
276,76,93285,1,0,0:0:0:0:
278,82,93354,1,0,0:0:0:0:
280,89,93422,1,0,0:0:0:0:
281,96,93490,1,0,0:0:0:0:
282,103,93558,1,0,0:0:0:0:
283,110,93626,1,0,0:0:0:0:
283,117,93694,1,0,0:0:0:0:
283,124,93763,1,0,0:0:0:0:
283,131,93831,1,0,0:0:0:0:
283,138,93899,1,0,0:0:0:0:
281,145,93967,1,0,0:0:0:0:
280,152,94035,1,0,0:0:0:0:
278,158,94104,1,0,0:0:0:0:
276,165,94172,1,0,0:0:0:0:
274,172,94240,1,0,0:0:0:0:
271,178,94308,1,0,0:0:0:0:
268,184,94376,1,0,0:0:0:0:
265,191,94444,1,0,0:0:0:0:
261,197,94513,1,0,0:0:0:0:
257,202,94581,1,0,0:0:0:0:
254,209,94649,1,0,0:0:0:0:
251,215,94717,1,0,0:0:0:0:
248,221,94785,1,0,0:0:0:0:
246,228,94853,1,0,0:0:0:0:
244,235,94922,1,0,0:0:0:0:
242,242,94990,1,0,0:0:0:0:
240,248,95058,1,0,0:0:0:0:
239,255,95126,1,0,0:0:0:0:
239,262,95194,1,0,0:0:0:0:
239,269,95263,1,0,0:0:0:0:
239,276,95331,1,0,0:0:0:0:
239,283,95399,1,0,0:0:0:0:
240,290,95467,1,0,0:0:0:0:
241,297,95535,1,0,0:0:0:0:
242,304,95603,1,0,0:0:0:0:
244,311,95672,1,0,0:0:0:0:
246,317,95740,1,0,0:0:0:0:
249,324,95808,1,0,0:0:0:0:
251,330,95876,1,0,0:0:0:0:
254,337,95944,1,0,0:0:0:0:
258,343,96012,1,0,0:0:0:0:
261,349,96081,1,0,0:0:0:0:
265,355,96149,5,0,0:0:0:0:
279,345,96217,1,0,0:0:0:0:
290,332,96285,1,0,0:0:0:0:
299,316,96353,1,0,0:0:0:0:
304,299,96422,1,0,0:0:0:0:
305,282,96490,1,0,0:0:0:0:
301,265,96558,1,0,0:0:0:0:
294,249,96626,1,0,0:0:0:0:
284,235,96694,1,0,0:0:0:0:
270,224,96762,1,0,0:0:0:0:
255,216,96831,1,0,0:0:0:0:
238,212,96899,1,0,0:0:0:0:
220,212,96967,1,0,0:0:0:0:
203,215,97035,1,0,0:0:0:0:
188,223,97103,2,0,L|180:275,1,35,0|0,0:0|0:0,0:0:0:0:
118,374,97240,5,2,0:0:0:0:
107,349,97308,1,0,0:0:0:0:
101,324,97376,1,0,0:0:0:0:
100,298,97444,1,0,0:0:0:0:
102,272,97512,2,0,L|115:223,1,35,10|0,0:0|0:0,0:0:0:0:
65,157,97649,2,0,L|56:190,1,35,0|0,0:0|0:0,0:0:0:0:
144,133,97785,5,2,0:0:0:0:
136,107,97853,1,0,0:0:0:0:
121,84,97921,1,0,0:0:0:0:
100,67,97990,1,0,0:0:0:0:
76,54,98058,2,0,L|21:64,1,35,10|0,0:0|0:0,0:0:0:0:
142,5,98194,2,0,L|196:15,1,35,0|0,0:0|0:0,0:0:0:0:
258,39,98331,5,2,0:0:0:0:
282,47,98399,1,0,0:0:0:0:
308,50,98467,1,0,0:0:0:0:
334,49,98535,1,0,0:0:0:0:
360,45,98603,2,0,L|416:23,1,35,10|0,0:0|0:0,0:0:0:0:
510,22,98740,2,0,L|477:34,1,35,0|0,0:0|0:0,0:0:0:0:
430,110,98876,5,2,0:0:0:0:
422,135,98944,1,0,0:0:0:0:
416,160,99012,1,0,0:0:0:0:
413,186,99080,1,0,0:0:0:0:
413,212,99149,2,0,L|420:261,1,35,10|0,0:0|0:0,0:0:0:0:
512,350,99285,2,0,L|466:331,1,35,0|0,0:0|0:0,0:0:0:0:
373,331,99421,5,2,0:0:0:0:
347,327,99490,1,0,0:0:0:0:
320,324,99558,1,0,0:0:0:0:
293,324,99626,1,0,0:0:0:0:
267,327,99694,2,0,L|224:340,1,35,10|0,0:0|0:0,0:0:0:0:
124,384,99830,2,0,L|150:349,1,35,0|0,0:0|0:0,0:0:0:0:
173,267,99967,5,2,0:0:0:0:
191,248,100035,1,0,0:0:0:0:
214,235,100103,1,0,0:0:0:0:
239,227,100171,1,0,0:0:0:0:
265,225,100239,2,0,L|309:233,1,35,10|0,0:0|0:0,0:0:0:0:
372,298,100376,2,0,L|416:306,1,35,0|0,0:0|0:0,0:0:0:0:
494,277,100512,5,2,0:0:0:0:
499,251,100580,1,0,0:0:0:0:
503,225,100649,1,0,0:0:0:0:
504,198,100717,1,0,0:0:0:0:
501,171,100785,2,0,L|488:133,1,35,10|0,0:0|0:0,0:0:0:0:
489,42,100921,2,0,L|463:80,1,35,0|0,0:0|0:0,0:0:0:0:
409,32,101058,5,2,0:0:0:0:
409,32,101126,2,0,L|383:70,1,35,0|0,0:0|0:0,0:0:0:0:
329,22,101262,1,0,0:0:0:0:
329,22,101330,2,0,L|303:60,1,35,10|0,0:0|0:0,0:0:0:0:
249,12,101467,2,0,L|223:50,1,35,0|0,0:0|0:0,0:0:0:0:
150,0,101603,5,2,0:0:0:0:
124,6,101671,1,0,0:0:0:0:
100,18,101739,1,0,0:0:0:0:
79,34,101808,1,0,0:0:0:0:
64,55,101876,2,0,L|43:93,1,35,10|0,0:0|0:0,0:0:0:0:
7,152,102012,2,0,L|17:195,1,35,0|0,0:0|0:0,0:0:0:0:
55,258,102148,5,2,0:0:0:0:
64,282,102217,1,0,0:0:0:0:
69,307,102285,1,0,0:0:0:0:
68,333,102353,1,0,0:0:0:0:
64,359,102421,2,0,L|24:387,1,35,10|0,0:0|0:0,0:0:0:0:
147,350,102558,2,0,L|187:378,1,35,0|0,0:0|0:0,0:0:0:0:
262,377,102694,5,2,0:0:0:0:
267,351,102762,1,0,0:0:0:0:
265,324,102830,1,0,0:0:0:0:
257,298,102898,1,0,0:0:0:0:
241,276,102967,2,0,L|196:246,1,35,10|0,0:0|0:0,0:0:0:0:
137,227,103103,2,0,L|145:183,1,35,0|0,0:0|0:0,0:0:0:0:
111,96,103239,5,2,0:0:0:0:
137,91,103307,1,0,0:0:0:0:
164,93,103376,1,0,0:0:0:0:
190,100,103444,1,0,0:0:0:0:
212,117,103512,2,0,L|242:162,1,35,10|0,0:0|0:0,0:0:0:0:
261,221,103648,2,0,L|305:213,1,35,0|0,0:0|0:0,0:0:0:0:
400,178,103785,5,2,0:0:0:0:
382,197,103853,1,0,0:0:0:0:
368,219,103921,1,0,0:0:0:0:
357,243,103989,1,0,0:0:0:0:
350,268,104057,2,0,L|342:318,1,35,10|0,0:0|0:0,0:0:0:0:
410,384,104194,2,0,L|370:352,1,35,0|0,0:0|0:0,0:0:0:0:
279,377,104330,5,2,0:0:0:0:
279,377,104398,2,0,L|326:358,1,35,0|0,0:0|0:0,0:0:0:0:
213,298,104535,1,0,0:0:0:0:
213,298,104603,2,0,L|260:316,1,35,10|0,0:0|0:0,0:0:0:0:
147,377,104739,2,0,L|194:358,1,35,0|0,0:0|0:0,0:0:0:0:
58,346,104876,5,2,0:0:0:0:
58,346,104944,2,0,L|76:393,1,35,0|0,0:0|0:0,0:0:0:0:
137,280,105080,1,0,0:0:0:0:
137,280,105148,2,0,L|118:327,1,35,10|0,0:0|0:0,0:0:0:0:
58,214,105285,2,0,L|76:261,1,35,0|0,0:0|0:0,0:0:0:0:
128,176,105421,5,2,0:0:0:0:
128,176,105489,2,0,L|167:207,1,35,0|0,0:0|0:0,0:0:0:0:
169,108,105626,1,0,0:0:0:0:
169,108,105694,2,0,L|218:116,1,35,10|0,0:0|0:0,0:0:0:0:
170,28,105830,2,0,L|217:9,1,35,0|0,0:0|0:0,0:0:0:0:
77,5,105966,5,2,0:0:0:0:
61,25,106035,1,0,0:0:0:0:
48,48,106103,1,0,0:0:0:0:
40,73,106171,1,0,0:0:0:0:
36,99,106239,2,0,L|36:138,1,35,10|0,0:0|0:0,0:0:0:0:
87,195,106375,2,0,L|75:240,1,35,0|0,0:0|0:0,0:0:0:0:
8,295,106512,5,2,0:0:0:0:
24,315,106580,1,0,0:0:0:0:
43,332,106648,1,0,0:0:0:0:
65,345,106716,1,0,0:0:0:0:
89,354,106785,2,0,L|137:365,1,35,10|0,0:0|0:0,0:0:0:0:
237,382,106921,2,0,L|203:357,1,35,0|0,0:0|0:0,0:0:0:0:
163,281,107057,5,2,0:0:0:0:
164,254,107125,1,0,0:0:0:0:
168,228,107194,1,0,0:0:0:0:
175,202,107262,1,0,0:0:0:0:
187,178,107330,2,0,L|219:145,1,35,10|0,0:0|0:0,0:0:0:0:
241,66,107466,2,0,L|295:88,1,35,0|0,0:0|0:0,0:0:0:0:
331,9,107603,5,2,0:0:0:0:
354,20,107671,1,0,0:0:0:0:
375,35,107739,1,0,0:0:0:0:
394,52,107807,1,0,0:0:0:0:
408,73,107875,2,0,L|423:118,1,35,10|0,0:0|0:0,0:0:0:0:
507,130,108012,2,0,L|495:181,1,35,0|0,0:0|0:0,0:0:0:0:
424,204,108148,5,2,0:0:0:0:
426,230,108216,1,0,0:0:0:0:
432,255,108284,1,0,0:0:0:0:
442,279,108353,1,0,0:0:0:0:
456,301,108421,2,0,L|481:340,1,35,10|0,0:0|0:0,0:0:0:0:
374,379,108557,2,0,L|355:349,1,35,0|0,0:0|0:0,0:0:0:0:
340,244,108693,5,2,0:0:0:0:
344,218,108762,1,0,0:0:0:0:
346,191,108830,1,0,0:0:0:0:
343,164,108898,1,0,0:0:0:0:
336,138,108966,2,0,L|314:111,1,35,10|0,0:0|0:0,0:0:0:0:
239,25,109103,2,0,L|216:80,1,35,0|0,0:0|0:0,0:0:0:0:
166,133,109239,5,2,0:0:0:0:
178,156,109307,1,0,0:0:0:0:
188,180,109375,1,0,0:0:0:0:
195,205,109443,1,0,0:0:0:0:
199,230,109512,2,0,L|199:276,1,35,10|0,0:0|0:0,0:0:0:0:
161,370,109648,2,0,L|200:347,1,35,0|0,0:0|0:0,0:0:0:0:
301,332,109784,5,2,0:0:0:0:
301,332,109853,2,0,L|261:309,1,35,0|0,0:0|0:0,0:0:0:0:
308,256,109989,1,0,0:0:0:0:
308,256,110057,2,0,L|268:233,1,35,10|0,0:0|0:0,0:0:0:0:
315,180,110193,2,0,L|275:157,1,35,0|0,0:0|0:0,0:0:0:0:
328,92,110330,5,2,0:0:0:0:
306,76,110398,1,0,0:0:0:0:
281,66,110466,1,0,0:0:0:0:
255,60,110534,1,0,0:0:0:0:
228,61,110602,2,0,L|172:67,1,35,10|0,0:0|0:0,0:0:0:0:
126,11,110739,2,0,L|87:35,1,35,0|0,0:0|0:0,0:0:0:0:
11,53,110875,5,2,0:0:0:0:
24,75,110943,1,0,0:0:0:0:
35,98,111012,1,0,0:0:0:0:
41,123,111080,1,0,0:0:0:0:
44,149,111148,2,0,L|43:189,1,35,10|0,0:0|0:0,0:0:0:0:
87,258,111284,2,0,L|58:302,1,35,0|0,0:0|0:0,0:0:0:0:
4,342,111421,5,2,0:0:0:0:
30,341,111489,1,0,0:0:0:0:
55,345,111557,1,0,0:0:0:0:
80,348,111625,1,0,0:0:0:0:
104,356,111693,2,0,L|146:368,1,35,10|0,0:0|0:0,0:0:0:0:
220,358,111830,2,0,L|273:372,1,35,0|0,0:0|0:0,0:0:0:0:
337,378,111966,5,2,0:0:0:0:
363,375,112034,1,0,0:0:0:0:
388,367,112102,1,0,0:0:0:0:
411,355,112171,1,0,0:0:0:0:
431,339,112239,2,0,L|453:303,1,35,10|0,0:0|0:0,0:0:0:0:
509,240,112375,2,0,L|514:296,1,35,0|0,0:0|0:0,0:0:0:0:
425,223,112511,5,2,0:0:0:0:
439,201,112580,1,0,0:0:0:0:
449,176,112648,1,0,0:0:0:0:
454,151,112716,1,0,0:0:0:0:
454,125,112784,1,10,0:0:0:0:
449,99,112852,1,0,0:0:0:0:
439,75,112920,1,0,0:0:0:0:
425,53,112989,1,0,0:0:0:0:
406,34,113057,1,2,0:0:0:0:
384,20,113125,1,0,0:0:0:0:
360,9,113193,1,0,0:0:0:0:
335,4,113261,1,0,0:0:0:0:
308,4,113330,1,10,0:0:0:0:
283,9,113398,1,0,0:0:0:0:
258,19,113466,2,0,L|211:38,1,35,0|0,0:0|0:0,0:0:0:0:
117,25,113602,5,2,0:0:0:0:
117,25,113670,2,0,L|164:44,1,35,0|0,0:0|0:0,0:0:0:0:
112,101,113807,1,0,0:0:0:0:
112,101,113875,2,0,L|159:120,1,35,10|0,0:0|0:0,0:0:0:0:
107,177,114011,2,0,L|154:196,1,35,0|0,0:0|0:0,0:0:0:0:
240,145,114148,5,2,0:0:0:0:
240,145,114216,2,0,L|193:164,1,35,0|0,0:0|0:0,0:0:0:0:
245,221,114352,1,0,0:0:0:0:
245,221,114420,2,0,L|198:240,1,35,10|0,0:0|0:0,0:0:0:0:
250,297,114557,2,0,L|203:316,1,35,0|0,0:0|0:0,0:0:0:0:
134,375,114693,5,2,0:0:0:0:
159,378,114761,1,0,0:0:0:0:
185,378,114829,1,0,0:0:0:0:
211,377,114898,1,0,0:0:0:0:
237,374,114966,1,10,0:0:0:0:
263,369,115034,1,0,0:0:0:0:
287,361,115102,1,0,0:0:0:0:
311,353,115170,1,0,0:0:0:0:
337,348,115239,1,2,0:0:0:0:
363,345,115307,1,0,0:0:0:0:
389,344,115375,1,0,0:0:0:0:
415,344,115443,1,0,0:0:0:0:
440,350,115511,2,0,L|489:369,1,35,10|0,0:0|0:0,0:0:0:0:
512,273,115648,2,0,L|463:292,1,35,0|0,0:0|0:0,0:0:0:0:
397,267,115784,5,2,0:0:0:0:
371,262,115852,1,0,0:0:0:0:
350,247,115920,1,0,0:0:0:0:
338,224,115988,1,0,0:0:0:0:
338,198,116057,1,10,0:0:0:0:
349,174,116125,1,0,0:0:0:0:
370,159,116193,1,0,0:0:0:0:
396,154,116261,1,0,0:0:0:0:
421,162,116329,1,2,0:0:0:0:
445,169,116398,1,0,0:0:0:0:
471,164,116466,1,0,0:0:0:0:
492,149,116534,1,0,0:0:0:0:
503,125,116602,2,0,L|509:86,1,35,10|0,0:0|0:0,0:0:0:0:
470,0,116738,2,0,L|464:34,1,35,0|0,0:0|0:0,0:0:0:0:
379,33,116875,5,2,0:0:0:0:
355,43,116943,1,0,0:0:0:0:
329,49,117011,1,0,0:0:0:0:
303,51,117079,1,0,0:0:0:0:
277,49,117147,1,10,0:0:0:0:
252,42,117216,1,0,0:0:0:0:
228,31,117284,1,0,0:0:0:0:
204,19,117352,1,0,0:0:0:0:
178,13,117420,1,2,0:0:0:0:
152,10,117488,1,0,0:0:0:0:
126,12,117557,1,0,0:0:0:0:
101,19,117625,1,0,0:0:0:0:
77,29,117693,2,0,L|109:51,1,35,10|0,0:0|0:0,0:0:0:0:
33,97,117829,2,0,L|1:119,1,35,0|0,0:0|0:0,0:0:0:0:
107,148,117966,5,2,0:0:0:0:
112,173,118034,1,0,0:0:0:0:
113,199,118102,1,0,0:0:0:0:
110,225,118170,1,0,0:0:0:0:
100,249,118238,2,0,L|79:287,1,35,10|0,0:0|0:0,0:0:0:0:
0,341,118375,2,0,L|47:348,1,35,0|0,0:0|0:0,0:0:0:0:
123,372,118511,5,2,0:0:0:0:
145,358,118579,1,0,0:0:0:0:
169,349,118647,1,0,0:0:0:0:
194,344,118716,1,0,0:0:0:0:
220,341,118784,2,0,L|276:351,1,35,10|0,0:0|0:0,0:0:0:0:
336,380,118920,2,0,L|393:370,1,35,0|0,0:0|0:0,0:0:0:0:
460,337,119056,5,2,0:0:0:0:
478,318,119125,1,0,0:0:0:0:
486,293,119193,1,0,0:0:0:0:
483,268,119261,1,0,0:0:0:0:
468,246,119329,1,10,0:0:0:0:
445,233,119397,1,0,0:0:0:0:
419,232,119466,1,0,0:0:0:0:
396,243,119534,1,0,0:0:0:0:
379,262,119602,1,2,0:0:0:0:
362,281,119670,1,0,0:0:0:0:
338,292,119738,1,0,0:0:0:0:
312,290,119806,1,0,0:0:0:0:
289,278,119875,1,10,0:0:0:0:
275,256,119943,1,0,0:0:0:0:
271,230,120011,1,0,0:0:0:0:
279,206,120079,1,0,0:0:0:0:
298,187,120147,1,2,0:0:0:0:
323,180,120215,1,0,0:0:0:0:
348,184,120284,1,0,0:0:0:0:
373,188,120352,1,0,0:0:0:0:
398,180,120420,2,0,L|434:149,1,35,10|0,0:0|0:0,0:0:0:0:
512,167,120556,2,0,L|485:189,1,35,0|0,0:0|0:0,0:0:0:0:
503,86,120693,5,2,0:0:0:0:
479,74,120761,1,0,0:0:0:0:
453,68,120829,1,0,0:0:0:0:
426,66,120897,1,0,0:0:0:0:
400,70,120965,2,0,L|357:84,1,35,10|0,0:0|0:0,0:0:0:0:
319,18,121102,2,0,L|276:4,1,35,0|0,0:0|0:0,0:0:0:0:
173,14,121238,5,2,0:0:0:0:
180,39,121306,1,0,0:0:0:0:
192,62,121375,1,0,0:0:0:0:
206,83,121443,1,0,0:0:0:0:
224,101,121511,2,0,L|270:129,1,35,10|0,0:0|0:0,0:0:0:0:
351,159,121647,2,0,L|309:181,1,35,0|0,0:0|0:0,0:0:0:0:
357,260,121784,5,2,0:0:0:0:
357,260,121852,2,0,L|321:298,1,35,0|0,0:0|0:0,0:0:0:0:
269,241,121988,1,0,0:0:0:0:
269,241,122056,2,0,L|218:256,1,35,10|0,0:0|0:0,0:0:0:0:
204,181,122193,2,0,L|152:169,1,35,0|0,0:0|0:0,0:0:0:0:
260,69,122329,5,2,0:0:0:0:
260,69,122397,2,0,L|311:80,1,35,0|0,0:0|0:0,0:0:0:0:
289,154,122534,1,0,0:0:0:0:
289,154,122602,2,0,L|327:189,1,35,10|0,0:0|0:0,0:0:0:0:
269,241,122738,2,0,L|284:291,1,35,0|0,0:0|0:0,0:0:0:0:
144,248,122874,5,2,0:0:0:0:
144,248,122943,2,0,L|128:198,1,35,0|0,0:0|0:0,0:0:0:0:
204,181,123079,1,0,0:0:0:0:
204,181,123147,2,0,L|215:129,1,35,10|0,0:0|0:0,0:0:0:0:
289,154,123283,2,0,L|324:115,1,35,0|0,0:0|0:0,0:0:0:0:
333,28,123420,5,2,0:0:0:0:
357,35,123488,1,0,0:0:0:0:
379,50,123556,1,0,0:0:0:0:
397,69,123624,1,0,0:0:0:0:
409,92,123693,1,10,0:0:0:0:
414,118,123761,1,0,0:0:0:0:
413,144,123829,1,0,0:0:0:0:
405,169,123897,1,0,0:0:0:0:
390,191,123965,1,2,0:0:0:0:
375,212,124033,1,0,0:0:0:0:
367,237,124102,1,0,0:0:0:0:
365,263,124170,1,0,0:0:0:0:
371,289,124238,2,0,L|429:289,1,35,10|0,0:0|0:0,0:0:0:0:
509,332,124374,2,0,L|474:332,1,35,0|0,0:0|0:0,0:0:0:0:
398,372,124511,5,2,0:0:0:0:
372,376,124579,1,0,0:0:0:0:
345,378,124647,1,0,0:0:0:0:
319,377,124715,1,0,0:0:0:0:
293,374,124783,1,10,0:0:0:0:
267,368,124852,1,0,0:0:0:0:
242,361,124920,1,0,0:0:0:0:
216,353,124988,1,0,0:0:0:0:
191,347,125056,1,2,0:0:0:0:
165,344,125124,1,0,0:0:0:0:
139,343,125192,1,0,0:0:0:0:
112,345,125261,1,0,0:0:0:0:
86,350,125329,2,0,L|35:365,1,35,10|0,0:0|0:0,0:0:0:0:
0,267,125465,2,0,L|51:282,1,35,0|0,0:0|0:0,0:0:0:0:
110,243,125602,5,2,0:0:0:0:
124,221,125670,1,0,0:0:0:0:
131,195,125738,1,0,0:0:0:0:
130,169,125806,1,0,0:0:0:0:
121,145,125874,1,10,0:0:0:0:
112,120,125942,1,0,0:0:0:0:
111,94,126011,1,0,0:0:0:0:
118,69,126079,1,0,0:0:0:0:
132,47,126147,1,2,0:0:0:0:
151,29,126215,1,0,0:0:0:0:
175,18,126283,1,0,0:0:0:0:
201,15,126351,1,0,0:0:0:0:
226,19,126420,1,10,0:0:0:0:
249,29,126488,1,0,0:0:0:0:
269,47,126556,1,0,0:0:0:0:
282,70,126624,1,0,0:0:0:0:
288,95,126692,5,2,0:0:0:0:
298,71,126761,1,0,0:0:0:0:
316,51,126829,2,0,L|371:41,1,35,0|0,0:0|0:0,0:0:0:0:
464,37,126965,1,10,0:0:0:0:
464,37,127033,1,0,0:0:0:0:
464,37,127101,2,0,L|454:87,1,35,0|0,0:0|0:0,0:0:0:0:
389,115,127238,1,2,0:0:0:0:
389,115,127306,1,0,0:0:0:0:
389,115,127374,2,0,L|399:165,1,35,0|0,0:0|0:0,0:0:0:0:
464,193,127510,1,10,0:0:0:0:
464,193,127579,1,0,0:0:0:0:
464,193,127647,2,0,L|454:243,1,35,0|0,0:0|0:0,0:0:0:0:
493,305,127783,5,2,0:0:0:0:
467,300,127851,1,0,0:0:0:0:
440,298,127920,1,0,0:0:0:0:
413,301,127988,1,0,0:0:0:0:
388,309,128056,2,0,L|335:331,1,35,10|0,0:0|0:0,0:0:0:0:
297,382,128192,2,0,L|255:369,1,35,0|0,0:0|0:0,0:0:0:0:
189,321,128329,5,2,0:0:0:0:
170,339,128397,1,0,0:0:0:0:
147,353,128465,1,0,0:0:0:0:
122,362,128533,1,0,0:0:0:0:
96,367,128601,2,0,L|51:363,1,35,10|0,0:0|0:0,0:0:0:0:
0,296,128738,2,0,L|45:292,1,35,0|0,0:0|0:0,0:0:0:0:
114,245,128874,5,2,0:0:0:0:
124,221,128942,1,0,0:0:0:0:
127,194,129010,1,0,0:0:0:0:
124,167,129079,1,0,0:0:0:0:
117,141,129147,2,0,L|92:101,1,35,10|0,0:0|0:0,0:0:0:0:
6,91,129283,2,0,L|24:120,1,35,0|0,0:0|0:0,0:0:0:0:
72,29,129419,5,2,0:0:0:0:
97,22,129488,1,0,0:0:0:0:
122,16,129556,1,0,0:0:0:0:
148,15,129624,1,0,0:0:0:0:
173,18,129692,2,0,L|214:31,1,35,10|0,0:0|0:0,0:0:0:0:
289,52,129829,2,0,L|329:41,1,35,0|0,0:0|0:0,0:0:0:0:
412,0,129965,5,2,0:0:0:0:
421,24,130033,1,0,0:0:0:0:
423,50,130101,1,0,0:0:0:0:
418,76,130169,1,0,0:0:0:0:
407,100,130238,1,10,0:0:0:0:
389,119,130306,1,0,0:0:0:0:
368,134,130374,1,0,0:0:0:0:
343,142,130442,1,0,0:0:0:0:
317,144,130510,1,2,0:0:0:0:
290,145,130578,1,0,0:0:0:0:
266,154,130647,1,0,0:0:0:0:
244,168,130715,1,0,0:0:0:0:
227,188,130783,1,10,0:0:0:0:
215,212,130851,1,0,0:0:0:0:
210,237,130919,2,0,L|257:252,1,35,0|0,0:0|0:0,0:0:0:0:
351,209,131056,5,2,0:0:0:0:
351,209,131124,2,0,L|304:224,1,35,0|0,0:0|0:0,0:0:0:0:
354,284,131260,1,0,0:0:0:0:
354,284,131328,2,0,L|307:299,1,35,10|0,0:0|0:0,0:0:0:0:
357,359,131465,2,0,L|310:374,1,35,0|0,0:0|0:0,0:0:0:0:
435,384,131601,5,2,0:0:0:0:
435,384,131669,2,0,L|482:369,1,35,0|0,0:0|0:0,0:0:0:0:
432,309,131806,1,0,0:0:0:0:
432,309,131874,2,0,L|479:294,1,35,10|0,0:0|0:0,0:0:0:0:
429,234,132010,2,0,L|476:219,1,35,0|0,0:0|0:0,0:0:0:0:
488,156,132147,5,2,0:0:0:0:
498,142,132215,1,0,0:0:0:0:
506,126,132283,1,0,0:0:0:0:
511,109,132351,1,0,0:0:0:0:
512,92,132419,1,10,0:0:0:0:
511,75,132487,1,0,0:0:0:0:
507,58,132556,1,0,0:0:0:0:
498,42,132624,1,0,0:0:0:0:
487,28,132692,1,2,0:0:0:0:
473,17,132760,1,0,0:0:0:0:
458,9,132828,1,0,0:0:0:0:
442,3,132896,1,0,0:0:0:0:
425,1,132965,1,10,0:0:0:0:
408,3,133033,1,0,0:0:0:0:
390,6,133101,1,0,0:0:0:0:
375,15,133169,1,0,0:0:0:0:
360,25,133237,1,2,0:0:0:0:
346,34,133306,1,0,0:0:0:0:
331,44,133374,1,0,0:0:0:0:
315,52,133442,1,0,0:0:0:0:
299,58,133510,1,10,0:0:0:0:
282,63,133578,1,0,0:0:0:0:
265,67,133646,1,0,0:0:0:0:
247,69,133715,1,0,0:0:0:0:
230,68,133783,1,2,0:0:0:0:
212,67,133851,1,0,0:0:0:0:
195,65,133919,1,0,0:0:0:0:
179,61,133987,1,0,0:0:0:0:
161,55,134056,1,10,0:0:0:0:
146,48,134124,1,0,0:0:0:0:
130,40,134192,1,0,0:0:0:0:
116,30,134260,1,0,0:0:0:0:
102,20,134328,5,2,0:0:0:0:
118,12,134396,1,0,0:0:0:0:
135,7,134465,1,0,0:0:0:0:
152,6,134533,1,0,0:0:0:0:
169,7,134601,1,10,0:0:0:0:
187,10,134669,1,0,0:0:0:0:
203,16,134737,1,0,0:0:0:0:
219,24,134805,1,0,0:0:0:0:
232,35,134874,1,2,0:0:0:0:
245,47,134942,1,0,0:0:0:0:
255,61,135010,1,0,0:0:0:0:
262,76,135078,1,0,0:0:0:0:
268,93,135146,1,10,0:0:0:0:
271,111,135215,1,0,0:0:0:0:
272,128,135283,2,0,L|221:124,1,35,0|0,0:0|0:0,0:0:0:0:
129,151,135419,5,2,0:0:0:0:
129,151,135487,1,0,0:0:0:0:
129,151,135555,2,0,L|163:153,1,35,0|0,0:0|0:0,0:0:0:0:
129,73,135692,1,10,0:0:0:0:
129,73,135760,1,0,0:0:0:0:
129,73,135828,2,0,L|163:75,1,35,0|0,0:0|0:0,0:0:0:0:
55,23,135964,1,2,0:0:0:0:
55,23,136033,1,0,0:0:0:0:
55,23,136101,2,0,L|20:25,1,35,0|0,0:0|0:0,0:0:0:0:
55,101,136237,1,10,0:0:0:0:
55,101,136305,1,0,0:0:0:0:
55,101,136374,2,0,L|20:103,1,35,0|0,0:0|0:0,0:0:0:0:
22,176,136510,5,2,0:0:0:0:
17,192,136578,1,0,0:0:0:0:
15,210,136646,1,0,0:0:0:0:
17,227,136714,1,0,0:0:0:0:
21,244,136783,1,10,0:0:0:0:
27,260,136851,1,0,0:0:0:0:
37,275,136919,1,0,0:0:0:0:
48,288,136987,1,0,0:0:0:0:
62,299,137055,1,2,0:0:0:0:
77,308,137123,1,0,0:0:0:0:
94,314,137192,1,0,0:0:0:0:
111,317,137260,1,0,0:0:0:0:
128,318,137328,1,10,0:0:0:0:
146,315,137396,1,0,0:0:0:0:
162,310,137464,1,0,0:0:0:0:
178,302,137533,1,0,0:0:0:0:
192,292,137601,5,2,0:0:0:0:
197,308,137669,1,0,0:0:0:0:
206,323,137737,1,0,0:0:0:0:
216,337,137805,1,0,0:0:0:0:
228,350,137873,1,10,0:0:0:0:
242,360,137942,1,0,0:0:0:0:
258,368,138010,1,0,0:0:0:0:
274,374,138078,1,0,0:0:0:0:
291,378,138146,1,2,0:0:0:0:
309,378,138214,1,0,0:0:0:0:
326,376,138283,1,0,0:0:0:0:
343,372,138351,1,0,0:0:0:0:
359,365,138419,1,10,0:0:0:0:
374,356,138487,1,0,0:0:0:0:
387,344,138555,1,0,0:0:0:0:
399,331,138623,1,0,0:0:0:0:
408,316,138692,5,2,0:0:0:0:
391,311,138760,1,0,0:0:0:0:
373,309,138828,1,0,0:0:0:0:
356,308,138896,1,0,0:0:0:0:
338,308,138964,1,10,0:0:0:0:
321,310,139032,1,0,0:0:0:0:
304,314,139101,1,0,0:0:0:0:
287,319,139169,1,0,0:0:0:0:
271,326,139237,1,2,0:0:0:0:
254,332,139305,1,0,0:0:0:0:
238,337,139373,1,0,0:0:0:0:
221,341,139442,1,0,0:0:0:0:
203,343,139510,1,10,0:0:0:0:
186,344,139578,1,0,0:0:0:0:
168,343,139646,2,0,L|115:338,1,35,0|0,0:0|0:0,0:0:0:0:
45,283,139782,5,2,0:0:0:0:
45,283,139851,1,0,0:0:0:0:
45,283,139919,2,0,L|98:278,1,35,0|0,0:0|0:0,0:0:0:0:
154,234,140055,1,10,0:0:0:0:
154,234,140123,1,0,0:0:0:0:
154,234,140191,2,0,L|207:239,1,35,0|0,0:0|0:0,0:0:0:0:
265,289,140328,1,2,0:0:0:0:
265,289,140396,1,0,0:0:0:0:
265,289,140464,2,0,L|318:284,1,35,0|0,0:0|0:0,0:0:0:0:
365,231,140601,1,10,0:0:0:0:
365,231,140669,1,0,0:0:0:0:
365,231,140737,2,0,L|418:236,1,35,0|0,0:0|0:0,0:0:0:0:
479,287,140873,5,2,0:0:0:0:
487,271,140941,1,0,0:0:0:0:
492,255,141010,1,0,0:0:0:0:
494,237,141078,1,0,0:0:0:0:
493,220,141146,1,10,0:0:0:0:
488,203,141214,1,0,0:0:0:0:
481,187,141282,1,0,0:0:0:0:
470,174,141351,1,0,0:0:0:0:
457,162,141419,1,2,0:0:0:0:
441,153,141487,1,0,0:0:0:0:
425,148,141555,1,0,0:0:0:0:
408,146,141623,1,0,0:0:0:0:
390,147,141691,1,10,0:0:0:0:
373,151,141760,1,0,0:0:0:0:
358,159,141828,1,0,0:0:0:0:
344,169,141896,1,0,0:0:0:0:
332,182,141964,5,2,0:0:0:0:
347,190,142032,1,0,0:0:0:0:
363,195,142100,1,0,0:0:0:0:
381,197,142169,1,0,0:0:0:0:
398,196,142237,1,10,0:0:0:0:
415,191,142305,1,0,0:0:0:0:
431,184,142373,1,0,0:0:0:0:
444,173,142441,1,0,0:0:0:0:
456,160,142510,1,2,0:0:0:0:
465,144,142578,1,0,0:0:0:0:
470,128,142646,1,0,0:0:0:0:
472,111,142714,1,0,0:0:0:0:
471,93,142782,1,10,0:0:0:0:
467,76,142850,1,0,0:0:0:0:
459,61,142919,1,0,0:0:0:0:
449,47,142987,1,0,0:0:0:0:
435,35,143055,5,2,0:0:0:0:
424,48,143123,1,0,0:0:0:0:
411,59,143191,1,0,0:0:0:0:
396,69,143259,1,0,0:0:0:0:
380,75,143328,1,10,0:0:0:0:
363,79,143396,1,0,0:0:0:0:
346,80,143464,1,0,0:0:0:0:
328,78,143532,1,0,0:0:0:0:
311,73,143600,1,2,0:0:0:0:
294,68,143669,1,0,0:0:0:0:
276,66,143737,1,0,0:0:0:0:
259,67,143805,1,0,0:0:0:0:
242,70,143873,1,10,0:0:0:0:
226,77,143941,1,0,0:0:0:0:
211,86,144009,1,0,0:0:0:0:
198,98,144078,1,0,0:0:0:0:
185,111,144146,5,2,0:0:0:0:
177,107,144214,1,0,0:0:0:0:
169,104,144282,1,0,0:0:0:0:
162,99,144350,1,0,0:0:0:0:
155,94,144418,1,10,0:0:0:0:
148,89,144487,1,0,0:0:0:0:
141,83,144555,1,0,0:0:0:0:
135,77,144623,1,0,0:0:0:0:
129,71,144691,1,2,0:0:0:0:
124,64,144759,1,0,0:0:0:0:
119,56,144828,1,0,0:0:0:0:
115,49,144896,1,0,0:0:0:0:
111,41,144964,1,10,0:0:0:0:
108,32,145032,1,0,0:0:0:0:
106,24,145100,1,0,0:0:0:0:
104,15,145168,1,0,0:0:0:0:
103,7,145237,5,2,0:0:0:0:
85,7,145305,1,0,0:0:0:0:
68,11,145373,1,0,0:0:0:0:
53,20,145441,1,0,0:0:0:0:
40,32,145509,1,10,0:0:0:0:
31,47,145578,1,0,0:0:0:0:
26,63,145646,1,0,0:0:0:0:
26,81,145714,1,0,0:0:0:0:
30,98,145782,1,2,0:0:0:0:
38,113,145850,1,0,0:0:0:0:
49,126,145918,1,0,0:0:0:0:
64,136,145987,1,0,0:0:0:0:
80,142,146055,1,10,0:0:0:0:
96,147,146123,1,0,0:0:0:0:
111,157,146191,1,0,0:0:0:0:
122,170,146259,1,0,0:0:0:0:
129,186,146327,5,2,0:0:0:0:
133,169,146396,1,0,0:0:0:0:
140,153,146464,1,0,0:0:0:0:
151,139,146532,1,0,0:0:0:0:
164,127,146600,1,10,0:0:0:0:
179,118,146668,1,0,0:0:0:0:
195,112,146737,1,0,0:0:0:0:
212,110,146805,1,0,0:0:0:0:
230,110,146873,1,2,0:0:0:0:
247,110,146941,1,0,0:0:0:0:
264,108,147009,1,0,0:0:0:0:
281,102,147077,1,0,0:0:0:0:
296,93,147146,1,10,0:0:0:0:
309,81,147214,1,0,0:0:0:0:
319,67,147282,1,0,0:0:0:0:
327,51,147350,1,0,0:0:0:0:
330,34,147418,5,2,0:0:0:0:
327,41,147486,1,0,0:0:0:0:
323,49,147555,1,0,0:0:0:0:
320,58,147623,1,0,0:0:0:0:
317,66,147691,1,10,0:0:0:0:
314,74,147759,1,0,0:0:0:0:
312,82,147827,1,0,0:0:0:0:
310,91,147896,1,0,0:0:0:0:
308,99,147964,1,2,0:0:0:0:
306,108,148032,1,0,0:0:0:0:
305,117,148100,1,0,0:0:0:0:
303,125,148168,1,0,0:0:0:0:
303,134,148236,1,10,0:0:0:0:
302,143,148305,1,0,0:0:0:0:
302,152,148373,1,0,0:0:0:0:
302,160,148441,1,0,0:0:0:0:
302,169,148509,5,2,0:0:0:0:
285,148,148577,1,0,0:0:0:0:
263,134,148645,1,0,0:0:0:0:
239,125,148714,1,0,0:0:0:0:
212,123,148782,1,10,0:0:0:0:
187,129,148850,1,0,0:0:0:0:
164,141,148918,1,0,0:0:0:0:
145,159,148986,1,0,0:0:0:0:
131,182,149055,1,2,0:0:0:0:
125,207,149123,1,0,0:0:0:0:
125,233,149191,1,0,0:0:0:0:
132,258,149259,1,0,0:0:0:0:
146,280,149327,1,10,0:0:0:0:
165,298,149395,1,0,0:0:0:0:
188,310,149464,1,0,0:0:0:0:
214,315,149532,1,0,0:0:0:0:
240,313,149600,5,0,0:0:0:0:
