osu file format v14

[General]
AudioFilename: audio.mp3
AudioLeadIn: 0
PreviewTime: 79250
Countdown: 1
SampleSet: Normal
StackLeniency: 0.7
Mode: 0
LetterboxInBreaks: 0
WidescreenStoryboard: 0

[Editor]
Bookmarks: 43151,55458,61612,67766,73920,80068,92318,104522,116918,129218
DistanceSpacing: 1.2
BeatDivisor: 4
GridSize: 4
TimelineZoom: 2.4

[Metadata]
Title:Kusuha
TitleUnicode:樟葉
Artist:-45
ArtistUnicode:-45
Creator:Urushi38
Version:Another
Source:
Tags:
BeatmapID:1378836
BeatmapSetID:650717

[Difficulty]
HPDrainRate:5
CircleSize:4.5
OverallDifficulty:7
ApproachRate:9.2
SliderMultiplier:1.7
SliderTickRate:1

[Events]
//Background and Video events
0,0,"54918160_p0_master1200.jpg",0,0
//Break Periods
//Storyboard Layer 0 (Background)
//Storyboard Layer 1 (Fail)
//Storyboard Layer 2 (Pass)
//Storyboard Layer 3 (Foreground)
//Storyboard Sound Samples

[TimingPoints]
3145,384.368994234465,4,1,1,70,1,0
3145,-133.333333333333,4,1,1,70,0,0
33884,-100,4,1,1,70,0,0
41569,-83.3333333333333,4,1,1,70,0,0
43119,-83.3333333333333,4,1,1,70,0,1
43215,-83.3333333333333,4,1,1,70,0,0
55419,-83.3333333333333,4,1,1,70,0,1
55515,-83.3333333333333,4,1,1,70,0,0
67718,-83.3333333333333,4,1,1,50,0,0
79250,-83.3333333333333,4,1,1,50,0,1
79346,-83.3333333333333,4,1,1,50,0,0
79634,-83.3333333333333,4,1,1,50,0,1
79730,-83.3333333333333,4,1,1,50,0,0
80018,-66.6666666666667,4,1,1,90,0,1
80114,-66.6666666666667,4,1,1,90,0,0
104618,-100,4,1,1,90,0,0

[HitObjects]
152,96,3145,6,0,P|124:108|96:136,2,63.7500024318696
228,104,3721,1,0,0:0:0:0:
292,144,3913,1,0,0:0:0:0:
368,144,4105,1,0,0:0:0:0:
424,92,4298,6,0,P|448:80|488:76,2,63.7500024318696
332,212,4874,1,0,0:0:0:0:
256,232,5066,1,0,0:0:0:0:
180,212,5259,1,0,0:0:0:0:
124,152,5451,6,0,L|128:80,1,63.7500024318696
100,236,5835,2,0,L|96:299,1,63.7500024318696
144,136,6219,6,0,L|140:64,2,63.7500024318696
192,196,6796,1,0,0:0:0:0:
128,236,6988,1,0,0:0:0:0:
92,304,7180,1,0,0:0:0:0:
52,240,7373,6,0,L|52:164,2,63.7500024318696
148,356,7949,1,0,0:0:0:0:
208,308,8141,1,0,0:0:0:0:
284,304,8333,1,0,0:0:0:0:
316,232,8526,6,0,L|248:204,1,63.7500024318696
400,168,8910,2,0,L|458:192,1,63.7500024318696
488,272,9294,6,0,P|480:308|452:344,2,63.7500024318696
424,96,9871,1,0,0:0:0:0:
352,76,10063,1,0,0:0:0:0:
280,108,10255,1,0,0:0:0:0:
240,172,10448,6,0,P|232:200|240:236,2,63.7500024318696
268,32,11024,1,0,0:0:0:0:
196,60,11216,1,0,0:0:0:0:
120,56,11408,1,0,0:0:0:0:
52,20,11601,6,0,P|40:56|48:88,1,63.7500024318696
96,188,11985,2,0,P|108:152|100:120,1,63.7500024318696
32,236,12369,5,4,0:0:0:0:
176,204,12562,1,0,0:0:0:0:
208,348,12754,1,0,0:0:0:0:
64,380,12946,1,0,0:0:0:0:
116,288,13138,5,4,0:0:0:0:
272,256,13330,1,0,0:0:0:0:
176,204,13522,1,4,0:0:0:0:
208,348,13715,1,0,0:0:0:0:
276,160,13907,5,4,0:0:0:0:
332,352,14099,1,0,0:0:0:0:
336,120,14291,1,0,0:0:0:0:
268,312,14483,1,0,0:0:0:0:
404,244,14676,1,4,0:0:0:0:
404,244,14772,1,0,0:0:0:0:
404,244,14868,1,0,0:0:0:0:
204,160,15060,1,0,0:0:0:0:
388,124,15252,1,0,0:0:0:0:
124,180,15444,5,6,0:0:0:0:
232,84,15636,1,0,0:0:0:0:
252,228,15829,1,0,0:0:0:0:
72,116,16021,5,0,0:0:0:0:
96,252,16213,1,8,0:0:0:0:
200,172,16405,1,0,0:0:0:0:
24,216,16597,5,0,0:0:0:0:
180,252,16790,1,0,0:0:0:0:
80,328,16982,1,2,0:0:0:0:
200,172,17174,5,0,0:0:0:0:
100,244,17366,1,0,0:0:0:0:
232,312,17558,1,0,0:0:0:0:
280,156,17751,5,2,0:0:0:0:
120,156,17943,1,0,0:0:0:0:
332,88,18135,1,8,0:0:0:0:
200,168,18327,1,0,0:0:0:0:
304,20,18519,5,2,0:0:0:0:
368,156,18711,1,0,0:0:0:0:
460,40,18904,1,0,0:0:0:0:
292,148,19096,5,0,0:0:0:0:
432,112,19288,1,8,0:0:0:0:
384,232,19480,1,0,0:0:0:0:
456,188,19672,5,0,0:0:0:0:
312,272,19865,1,0,0:0:0:0:
460,344,20057,1,2,0:0:0:0:
280,192,20249,5,0,0:0:0:0:
252,344,20441,1,0,0:0:0:0:
212,216,20633,1,0,0:0:0:0:
72,288,20825,5,2,0:0:0:0:
272,264,21018,1,0,0:0:0:0:
112,208,21210,1,8,0:0:0:0:
76,376,21402,1,0,0:0:0:0:
24,208,21594,5,2,0:0:0:0:
152,116,21786,1,0,0:0:0:0:
96,56,21979,1,0,0:0:0:0:
72,136,22171,5,0,0:0:0:0:
232,88,22363,1,8,0:0:0:0:
216,176,22555,1,0,0:0:0:0:
168,32,22747,5,0,0:0:0:0:
304,144,22940,1,0,0:0:0:0:
320,56,23132,1,2,0:0:0:0:
216,176,23324,5,0,0:0:0:0:
376,200,23516,1,0,0:0:0:0:
272,320,23708,1,0,0:0:0:0:
184,272,23900,5,2,0:0:0:0:
376,200,24093,1,0,0:0:0:0:
192,160,24285,1,8,0:0:0:0:
96,316,24477,1,0,0:0:0:0:
272,228,24669,5,4,0:0:0:0:
40,156,24861,1,0,0:0:0:0:
12,240,25054,1,0,0:0:0:0:
96,216,25246,1,0,0:0:0:0:
304,40,25438,5,4,0:0:0:0:
284,120,25630,1,0,0:0:0:0:
456,316,25822,5,4,0:0:0:0:
476,236,26014,1,0,0:0:0:0:
220,228,26207,5,4,0:0:0:0:
392,192,26399,1,0,0:0:0:0:
328,312,26591,1,0,0:0:0:0:
284,120,26783,1,0,0:0:0:0:
148,280,26975,1,4,0:0:0:0:
148,280,27071,1,0,0:0:0:0:
148,280,27168,1,0,0:0:0:0:
48,232,27360,1,0,0:0:0:0:
248,252,27552,1,0,0:0:0:0:
39,294,27744,6,0,P|40:262|47:231,1,63.7500024318696,4|0,0:0|0:0,0:0:0:0:
104,172,28128,2,0,P|102:140|95:109,1,63.7500024318696
32,64,28513,2,0,P|33:32|40:1,1,63.7500024318696
40,1,28897,1,0,0:0:0:0:
104,172,29089,1,4,0:0:0:0:
180,104,29282,6,0,P|216:96|248:100,1,63.7500024318696,4|0,0:0|0:0,0:0:0:0:
292,156,29666,2,0,P|328:164|360:160,1,63.7500024318696
408,104,30050,2,0,P|444:96|476:100,1,63.7500024318696
470,98,30435,1,0,0:0:0:0:
292,156,30627,1,4,0:0:0:0:
256,285,30819,6,0,P|246:255|248:224,1,63.7500024318696,4|0,0:0|0:0,0:0:0:0:
292,156,31203,2,0,P|302:126|300:94,1,63.7500024318696
224,64,31588,2,0,P|213:34|215:2,1,63.7500024318696
300,96,31972,1,0,0:0:0:0:
256,288,32164,1,4,0:0:0:0:
188,232,32357,5,4,0:0:0:0:
368,308,32549,2,0,L|324:316,1,31.8750012159348
196,336,32741,1,0,0:0:0:0:
448,232,32933,2,0,P|448:304|432:368,1,127.500004863739
64,232,33510,1,0,0:0:0:0:
76,360,33702,1,0,0:0:0:0:
184,140,33894,5,4,0:0:0:0:
72,108,34086,2,0,P|68:132|68:160,2,42.5
300,180,34471,2,0,P|304:156|304:128,2,42.5
160,48,34855,1,0,0:0:0:0:
160,48,34951,1,0,0:0:0:0:
160,48,35047,1,0,0:0:0:0:
208,232,35239,2,0,L|268:228,1,42.5,4|0,0:0|0:0,0:0:0:0:
452,216,35431,5,4,0:0:0:0:
384,280,35624,2,0,P|380:304|380:344,2,42.5
508,148,36008,2,0,P|512:124|512:84,2,42.5
472,312,36392,1,0,0:0:0:0:
472,312,36489,1,0,0:0:0:0:
472,312,36585,1,0,0:0:0:0:
372,192,36777,2,0,L|380:140,1,42.5,4|0,0:0|0:0,0:0:0:0:
336,360,36969,5,4,0:0:0:0:
296,196,37161,2,0,L|304:144,2,42.5
192,288,37546,2,0,L|185:330,2,42.5
76,220,37930,1,0,0:0:0:0:
76,220,38026,1,0,0:0:0:0:
76,220,38122,1,0,0:0:0:0:
224,160,38314,2,0,L|176:152,1,42.5,4|0,0:0|0:0,0:0:0:0:
0,132,38506,5,4,0:0:0:0:
288,92,38699,1,0,0:0:0:0:
288,92,38795,1,0,0:0:0:0:
288,92,38891,1,0,0:0:0:0:
60,84,39083,2,0,L|160:100,1,85
368,236,39467,1,0,0:0:0:0:
288,92,39660,1,0,0:0:0:0:
148,188,39852,1,0,0:0:0:0:
240,328,40044,5,0,0:0:0:0:
305,288,40236,1,0,0:0:0:0:
381,288,40428,1,0,0:0:0:0:
450,321,40620,1,0,0:0:0:0:
493,381,40813,6,0,P|479:324|496:232,1,127.5,0|0,0:0|3:0,0:0:0:0:
441,202,41197,2,0,P|441:151|386:76,1,127.5,0|0,0:0|3:0,0:0:0:0:
432,21,41581,2,0,B|348:80|272:20|272:20|264:112|184:160|96:136,2,407.999987548829,0|0|6,0:0|0:0|0:0,0:0:0:0:
456,120,43311,5,2,0:0:0:0:
456,120,43407,1,2,0:0:0:0:
456,120,43503,1,8,0:0:0:0:
408,200,43695,1,0,0:0:0:0:
476,276,43888,5,2,0:0:0:0:
431,300,43984,1,2,0:0:0:0:
380,299,44080,1,0,0:0:0:0:
334,275,44176,1,2,0:0:0:0:
263,281,44272,5,8,0:0:0:0:
213,268,44368,1,0,0:0:0:0:
163,281,44464,1,2,0:0:0:0:
125,315,44560,1,8,0:0:0:0:
62,276,44656,5,6,0:0:0:0:
72,183,44849,1,8,0:0:0:0:
72,183,44945,1,2,0:0:0:0:
72,183,45041,1,8,0:0:0:0:
18,362,45233,1,10,0:0:0:0:
30,114,45425,5,2,0:0:0:0:
79,101,45521,1,2,0:0:0:0:
125,122,45617,1,2,0:0:0:0:
150,165,45713,1,0,0:0:0:0:
214,195,45809,5,8,0:0:0:0:
253,163,45906,1,0,0:0:0:0:
263,113,46002,1,2,0:0:0:0:
251,63,46098,1,2,0:0:0:0:
181,69,46194,5,12,0:0:0:0:
277,229,46386,1,0,0:0:0:0:
277,229,46482,1,0,0:0:0:0:
277,229,46578,1,8,0:0:0:0:
446,164,46770,1,8,0:0:0:0:
367,42,46963,5,2,0:0:0:0:
360,92,47059,1,2,0:0:0:0:
354,142,47155,1,8,0:0:0:0:
347,192,47251,1,0,0:0:0:0:
419,180,47347,5,2,0:0:0:0:
426,230,47443,1,2,0:0:0:0:
432,280,47539,1,8,0:0:0:0:
439,330,47635,1,8,0:0:0:0:
364,310,47731,5,6,0:0:0:0:
263,296,47923,1,8,0:0:0:0:
161,279,48116,1,8,0:0:0:0:
60,263,48308,1,8,0:0:0:0:
204,342,48500,5,2,0:0:0:0:
232,299,48596,1,2,0:0:0:0:
248,250,48692,1,8,0:0:0:0:
248,200,48788,1,8,0:0:0:0:
193,125,48884,5,2,0:0:0:0:
232,157,48981,1,2,0:0:0:0:
281,169,49077,1,0,0:0:0:0:
331,166,49173,1,8,0:0:0:0:
424,123,49269,5,8,0:0:0:0:
256,40,49653,1,0,0:0:0:0:
126,174,50038,1,0,0:0:0:0:
213,339,50422,1,0,0:0:0:0:
397,307,50806,1,0,0:0:0:0:
397,307,51383,5,0,0:0:0:0:
397,307,51479,1,0,0:0:0:0:
397,307,51575,1,0,0:0:0:0:
336,192,51767,1,0,0:0:0:0:
316,352,51959,1,0,0:0:0:0:
432,212,52152,1,0,0:0:0:0:
256,244,52344,6,0,L|264:136,1,101.999996887207
76,248,52728,2,0,L|83:349,1,101.999996887207
100,160,53112,1,0,0:0:0:0:
160,272,53305,2,0,L|164:212,1,50.9999984436036
44,92,53497,1,0,0:0:0:0:
46,82,53593,1,0,0:0:0:0:
48,72,53689,1,0,0:0:0:0:
50,61,53785,1,0,0:0:0:0:
52,52,53881,6,0,P|108:48|240:124,1,203.999993774414
473,144,54458,2,0,P|375:118|304:48,1,203.999993774414
237,257,55034,2,0,P|268:217|312:192,1,101.999996887207
496,228,55419,5,6,0:0:0:0:
340,292,55611,1,2,0:0:0:0:
144,236,55803,1,8,0:0:0:0:
60,352,55995,1,4,0:3:0:0:
212,284,56187,5,2,0:0:0:0:
227,240,56284,1,2,0:0:0:0:
214,195,56380,1,0,0:0:0:0:
179,164,56476,1,2,0:0:0:0:
243,125,56572,5,8,0:0:0:0:
288,127,56668,1,0,0:0:0:0:
326,101,56764,1,8,0:0:0:0:
353,63,56860,1,8,0:0:0:0:
287,40,56956,5,6,0:0:0:0:
370,206,57148,1,2,0:0:0:0:
355,364,57341,1,8,0:0:0:0:
429,262,57533,1,2,0:0:0:0:
259,300,57725,5,2,0:0:0:0:
214,292,57821,1,2,0:0:0:0:
175,269,57917,1,0,0:0:0:0:
144,236,58013,1,2,0:0:0:0:
71,212,58109,5,8,0:0:0:0:
99,176,58205,1,2,0:0:0:0:
112,132,58301,1,8,0:0:0:0:
110,86,58398,1,8,0:0:0:0:
174,42,58494,5,6,0:0:0:0:
28,153,58686,1,2,0:0:0:0:
247,103,58878,1,8,0:0:0:0:
460,202,59070,1,2,0:0:0:0:
328,36,59262,5,2,0:0:0:0:
321,81,59358,1,0,0:0:0:0:
329,126,59455,1,2,0:0:0:0:
356,162,59551,1,2,0:0:0:0:
308,220,59647,5,8,0:0:0:0:
334,257,59743,1,0,0:0:0:0:
341,302,59839,1,8,0:0:0:0:
331,346,59935,1,0,0:0:0:0:
420,322,60031,5,6,0:0:0:0:
181,271,60223,1,2,0:0:0:0:
44,337,60415,1,8,0:0:0:0:
268,304,60608,1,2,0:0:0:0:
90,225,60800,1,2,0:0:0:0:
81,179,60896,1,2,0:0:0:0:
87,133,60992,1,0,0:0:0:0:
109,92,61088,1,2,0:0:0:0:
149,156,61184,5,8,0:0:0:0:
126,196,61280,1,0,0:0:0:0:
90,225,61376,1,8,0:0:0:0:
47,240,61472,1,8,0:0:0:0:
98,297,61569,5,6,0:0:0:0:
324,208,61953,1,0,0:0:0:0:
192,344,62337,1,0,0:0:0:0:
256,120,62722,1,0,0:0:0:0:
464,280,63106,1,0,0:0:0:0:
392,320,63683,5,0,0:0:0:0:
392,320,63779,1,0,0:0:0:0:
392,320,63875,2,0,P|388:272|388:200,1,101.999996887207
260,72,64259,2,0,P|259:122|255:173,1,101.999996887207
180,224,64644,5,0,0:0:0:0:
60,204,64836,1,0,0:0:0:0:
180,224,65028,1,0,0:0:0:0:
112,268,65220,1,0,0:0:0:0:
255,174,65412,1,0,0:0:0:0:
184,304,65604,1,0,0:0:0:0:
184,304,65701,1,0,0:0:0:0:
184,304,65797,2,0,P|236:328|296:344,1,101.999996887207
465,271,66181,6,0,P|365:288|278:340,1,203.999993774414
457,107,66758,2,0,P|401:191|368:288,1,203.999993774414
234,180,67334,2,0,P|285:183|336:176,1,101.999996887207
180,104,67718,6,0,P|160:120|148:144,3,50.9999984436036,2|0|0|0,0:0|0:0|0:0|0:0,0:0:0:0:
141,213,68103,2,0,P|145:239|160:261,3,50.9999984436036,2|0|0|0,0:0|0:0|0:0|0:0,0:0:0:0:
224,296,68487,5,2,0:0:0:0:
257,285,68583,1,0,0:0:0:0:
292,283,68679,1,0,0:0:0:0:
327,289,68776,1,0,0:0:0:0:
359,303,68872,1,2,0:0:0:0:
387,324,68968,1,0,0:0:0:0:
409,351,69064,1,0,0:0:0:0:
426,382,69160,1,0,0:0:0:0:
476,334,69256,6,0,P|483:311|477:273,3,50.9999984436036,2|0|0|0,0:0|0:0|0:0|0:0,0:0:0:0:
432,227,69640,2,0,P|425:204|431:166,3,50.9999984436036,2|0|0|0,0:0|0:0|0:0|0:0,0:0:0:0:
480,98,70025,5,2,0:0:0:0:
445,105,70121,1,0,0:0:0:0:
409,101,70217,1,0,0:0:0:0:
375,87,70313,1,0,0:0:0:0:
340,78,70409,1,2,0:0:0:0:
304,79,70505,1,0,0:0:0:0:
269,88,70601,1,0,0:0:0:0:
237,104,70697,1,0,0:0:0:0:
169,78,70793,6,0,P|172:61|189:25,3,50.9999984436036,2|0|0|0,0:0|0:0|0:0|0:0,0:0:0:0:
92,117,71178,2,0,P|86:141|75:164,3,50.9999984436036,2|0|0|0,0:0|0:0|0:0|0:0,0:0:0:0:
13,213,71562,5,2,0:0:0:0:
40,236,71658,1,0,0:0:0:0:
74,243,71754,1,0,0:0:0:0:
109,238,71850,1,0,0:0:0:0:
136,215,71947,1,2,0:0:0:0:
169,201,72043,1,0,0:0:0:0:
204,198,72139,1,0,0:0:0:0:
238,207,72235,1,0,0:0:0:0:
197,279,72331,6,0,P|185:305|186:334,3,50.9999984436036,2|0|0|0,0:0|0:0|0:0|0:0,0:0:0:0:
300,251,72715,2,0,P|312:225|311:196,3,50.9999984436036,2|0|0|0,0:0|0:0|0:0|0:0,0:0:0:0:
281,128,73100,5,2,0:0:0:0:
314,139,73196,1,0,0:0:0:0:
349,140,73292,1,0,0:0:0:0:
383,133,73388,1,0,0:0:0:0:
412,113,73484,1,2,0:0:0:0:
436,87,73580,1,0,0:0:0:0:
449,53,73676,1,0,0:0:0:0:
453,17,73772,6,0,L|460:73,1,50.9999984436036,0|2,0:0|0:0,0:0:0:0:
420,234,73964,5,2,0:2:0:0:
427,164,74061,1,2,0:2:0:0:
490,211,74157,2,0,P|491:250|483:274,1,50.9999984436036,2|2,0:2|0:0,0:2:0:0:
297,223,74349,5,2,0:2:0:0:
290,153,74446,1,2,0:2:0:0:
227,200,74542,2,0,P|226:239|234:263,1,50.9999984436036,2|2,0:2|0:0,0:2:0:0:
406,249,74733,5,2,0:2:0:0:
413,179,74829,1,2,0:2:0:0:
476,226,74926,2,0,P|477:265|469:289,1,50.9999984436036,2|2,0:2|0:0,0:2:0:0:
283,238,75118,5,2,0:2:0:0:
276,168,75215,1,2,0:2:0:0:
213,215,75311,2,0,P|212:254|220:278,1,50.9999984436036,2|2,0:2|0:0,0:2:0:0:
358,302,75502,5,2,0:2:0:0:
427,322,75598,1,2,0:2:0:0:
406,249,75694,2,0,P|382:239|347:235,1,50.9999984436036,2|2,0:2|0:0,0:2:0:0:
216,265,75886,5,2,0:2:0:0:
149,288,75983,1,2,0:2:0:0:
204,337,76079,2,0,P|234:333|267:319,1,50.9999984436036,2|2,0:2|0:0,0:0:0:0:
371,279,76271,5,2,0:2:0:0:
440,299,76367,1,2,0:2:0:0:
419,226,76463,2,0,P|395:216|360:212,1,50.9999984436036,2|2,0:2|0:0,0:2:0:0:
204,245,76655,5,2,0:2:0:0:
137,268,76752,1,2,0:2:0:0:
192,317,76848,2,0,P|222:313|255:299,1,50.9999984436036,2|2,0:2|0:0,0:0:0:0:
466,281,77039,5,2,0:2:0:0:
454,209,77136,1,2,0:2:0:0:
442,138,77232,2,0,L|433:82,1,50.9999984436036,2|2,0:2|0:0,0:2:0:0:
386,269,77424,5,2,0:2:0:0:
374,197,77521,1,2,0:2:0:0:
362,126,77617,2,0,L|353:70,1,50.9999984436036,2|2,0:2|0:0,0:2:0:0:
305,261,77808,5,2,0:2:0:0:
293,189,77905,1,2,0:2:0:0:
281,118,78001,2,0,L|272:62,1,50.9999984436036,2|2,0:2|0:0,0:2:0:0:
225,251,78193,5,2,0:2:0:0:
213,179,78290,1,2,0:2:0:0:
201,108,78386,2,0,L|192:52,1,50.9999984436036,2|2,0:2|0:0,0:2:0:0:
108,40,78577,5,2,0:2:0:0:
50,82,78673,1,2,0:2:0:0:
44,153,78769,1,2,0:2:0:0:
44,153,78865,1,2,0:0:0:0:
99,197,78961,5,2,0:2:0:0:
107,267,79057,1,2,0:2:0:0:
60,321,79153,1,2,0:2:0:0:
60,321,79250,1,6,0:0:0:0:
124,352,79346,5,2,0:2:0:0:
194,338,79442,1,2,0:2:0:0:
239,283,79538,1,2,0:2:0:0:
239,283,79634,1,6,0:0:0:0:
309,269,79730,5,2,0:2:0:0:
379,256,79826,1,2,0:2:0:0:
429,200,79922,1,2,0:2:0:0:
359,187,80018,6,0,B|352:160|352:160|360:120,1,63.7500024318696,6|0,0:0|0:0,0:0:0:0:
256,36,80210,2,0,B|263:63|263:63|255:98,1,63.7500024318696
172,192,80403,2,0,L|260:200,1,63.7500024318696,2|0,0:0|0:0,0:0:0:0:
160,92,80595,2,0,L|72:100,1,63.7500024318696,8|0,0:0|0:0,0:0:0:0:
48,208,80787,6,0,B|40:240|40:240|44:284,1,63.7500024318696,2|0,0:0|0:0,0:0:0:0:
220,344,80979,2,0,B|222:313|222:313|214:281,1,63.7500024318696
60,356,81171,2,0,L|136:344,1,63.7500024318696,8|0,0:0|0:0,0:0:0:0:
328,292,81364,2,0,L|390:301,1,63.7500024318696
484,204,81556,6,0,B|448:208|448:208|404:200,1,63.7500024318696,2|0,0:0|0:0,0:0:0:0:
288,80,81748,2,0,B|324:76|324:76|368:84,1,63.7500024318696,8|0,0:0|0:0,0:0:0:0:
444,132,81940,2,0,L|436:56,1,63.7500024318696
224,144,82132,2,0,L|217:207,1,63.7500024318696,8|0,0:0|0:0,0:0:0:0:
120,316,82325,5,2,0:0:0:0:
203,284,82517,1,2,0:0:0:0:
290,300,82709,1,8,0:0:0:0:
365,348,82901,1,8,0:0:0:0:
390,240,83093,6,0,L|385:168,1,63.7500024318696,2|0,0:0|0:0,0:0:0:0:
476,44,83285,2,0,L|471:107,1,63.7500024318696,8|0,0:0|0:0,0:0:0:0:
256,96,83478,2,0,B|292:100|292:100|328:92,1,63.7500024318696
220,232,83670,2,0,B|184:228|184:228|148:236,1,63.7500024318696,2|0,0:0|0:0,0:0:0:0:
64,156,83862,2,0,L|72:84,1,63.7500024318696,8|0,0:0|0:0,0:0:0:0:
188,312,84054,2,0,L|180:375,1,63.7500024318696
14,221,84246,2,0,B|40:240|40:240|72:236,1,63.7500024318696,2|0,0:0|0:0,0:0:0:0:
256,96,84439,2,0,B|230:77|230:77|198:81,1,63.7500024318696,8|0,0:0|0:0,0:0:0:0:
272,288,84631,6,0,L|348:280,1,63.7500024318696,2|0,0:0|0:0,0:0:0:0:
504,200,84823,2,0,L|440:206,1,63.7500024318696,8|0,0:0|0:0,0:0:0:0:
332,120,85015,2,0,B|336:84|336:84|324:48,1,63.7500024318696
416,284,85207,2,0,B|412:320|412:320|424:356,1,63.7500024318696,8|0,0:0|0:0,0:0:0:0:
356,196,85399,5,2,0:0:0:0:
268,188,85592,1,2,0:0:0:0:
188,148,85784,1,8,0:0:0:0:
128,80,85976,1,0,0:0:0:0:
32,168,86168,6,0,L|116:160,1,63.7500024318696,2|0,0:0|0:0,0:0:0:0:
288,80,86360,2,0,L|204:72,1,63.7500024318696
56,36,86553,2,0,B|44:72|44:72|48:108,1,63.7500024318696,8|0,0:0|0:0,0:0:0:0:
124,288,86745,2,0,B|136:252|136:252|132:216,1,63.7500024318696
252,140,86937,6,0,B|240:176|240:176|244:212,1,63.7500024318696,2|0,0:0|0:0,0:0:0:0:
48,252,87129,2,0,L|-20:260,1,63.7500024318696,8|0,0:0|0:0,0:0:0:0:
204,344,87321,2,0,B|216:308|216:308|212:272,1,63.7500024318696
388,176,87513,2,0,L|451:168,1,63.7500024318696,8|0,0:0|0:0,0:0:0:0:
356,320,87706,6,0,L|348:256,1,63.7500024318696,2|0,0:0|0:0,0:0:0:0:
512,24,87898,2,0,L|504:87,1,63.7500024318696
388,176,88090,2,0,B|356:168|356:168|312:176,1,63.7500024318696,8|0,0:0|0:0,0:0:0:0:
128,292,88282,2,0,B|160:300|160:300|204:292,1,63.7500024318696
256,264,88474,5,2,0:0:0:0:
256,264,88667,5,2,0:0:0:0:
208,140,88859,1,8,0:0:0:0:
312,48,89051,1,8,0:0:0:0:
424,116,89243,5,2,0:0:0:0:
124,76,89435,1,0,0:0:0:0:
32,200,89628,1,8,0:0:0:0:
256,152,89820,1,0,0:0:0:0:
108,232,90012,5,2,0:0:0:0:
332,172,90204,1,0,0:0:0:0:
504,288,90396,1,8,0:0:0:0:
196,216,90588,1,0,0:0:0:0:
153,334,90781,5,2,0:0:0:0:
153,334,90877,1,2,0:0:0:0:
153,334,90973,2,0,P|183:278|196:216,1,127.500004863739,2|0,0:0|0:0,0:0:0:0:
358,49,91357,1,2,0:0:0:0:
358,49,91453,1,2,0:0:0:0:
358,49,91549,2,0,P|328:105|316:168,1,127.500004863739,0|8,0:0|0:0,0:0:0:0:
116,68,91934,1,8,0:0:0:0:
120,92,92030,1,0,0:0:0:0:
120,116,92126,1,8,0:0:0:0:
116,140,92222,1,0,0:0:0:0:
104,164,92318,6,0,L|180:160,1,63.7500024318696,2|0,0:0|0:0,0:0:0:0:
372,280,92510,2,0,L|308:283,1,63.7500024318696
215,306,92702,2,0,B|212:272|212:272|220:244,1,63.7500024318696,8|0,0:0|0:0,0:0:0:0:
300,76,92895,2,0,B|308:104|308:104|304:138,1,63.7500024318696,8|8,0:0|0:0,0:0:0:0:
140,240,93087,6,0,L|68:236,1,63.7500024318696,2|0,0:0|0:0,0:0:0:0:
280,363,93279,2,0,L|344:360,1,63.7500024318696,2|0,0:0|0:0,0:0:0:0:
480,240,93471,2,0,B|484:208|484:208|476:168,1,63.7500024318696,8|0,0:0|0:0,0:0:0:0:
236,108,93663,2,0,B|232:140|232:140|240:180,1,63.7500024318696
336,216,93856,6,0,L|420:208,1,63.7500024318696,2|0,0:0|0:0,0:0:0:0:
128,120,94048,2,0,L|64:126,1,63.7500024318696
304,40,94240,2,0,B|324:60|324:60|332:100,1,63.7500024318696,8|0,0:0|0:0,0:0:0:0:
132,292,94432,2,0,B|112:272|112:272|105:237,1,63.7500024318696,8|8,0:0|0:0,0:0:0:0:
192,176,94624,5,2,0:0:0:0:
244,264,94817,1,2,0:0:0:0:
336,308,95009,1,8,0:0:0:0:
436,292,95201,1,2,0:0:0:0:
329,160,95393,6,0,L|320:224,1,63.7500024318696,2|0,0:0|0:0,0:0:0:0:
160,340,95585,2,0,L|150:276,1,63.7500024318696
200,96,95777,2,0,B|232:88|232:88|264:96,1,63.7500024318696,8|0,0:0|0:0,0:0:0:0:
104,216,95970,2,0,B|72:224|72:224|40:216,1,63.7500024318696,8|0,0:0|0:0,0:0:0:0:
240,232,96162,6,0,L|232:144,1,63.7500024318696,2|0,0:0|0:0,0:0:0:0:
432,64,96354,2,0,L|426:127,1,63.7500024318696,8|0,0:0|0:0,0:0:0:0:
384,320,96546,2,0,L|448:304,1,63.7500024318696,8|0,0:0|0:0,0:0:0:0:
234,168,96738,2,0,L|172:183,1,63.7500024318696,2|0,0:0|0:0,0:0:0:0:
92,336,96931,6,0,B|96:300|96:300|88:264,1,63.7500024318696,8|8,0:0|0:0,0:0:0:0:
92,32,97123,2,0,B|86:58|86:58|90:94,1,63.7500024318696,2|0,0:0|0:0,0:0:0:0:
172,184,97315,2,0,L|252:192,1,63.7500024318696,10|0,0:0|0:0,0:0:0:0:
384,320,97507,2,0,L|320:313,1,63.7500024318696,8|8,0:0|0:0,0:0:0:0:
316,192,97699,5,0,0:0:0:0:
432,136,97891,1,0,0:0:0:0:
472,16,98084,1,0,0:0:0:0:
372,92,98276,1,0,0:0:0:0:
488,248,98468,6,0,L|472:328,1,63.7500024318696,2|0,0:0|0:0,0:0:0:0:
256,256,98660,2,0,L|268:193,1,63.7500024318696
452,120,98852,2,0,B|436:148|436:148|396:168,1,63.7500024318696,2|0,0:0|0:0,0:0:0:0:
300,360,99045,2,0,B|316:332|316:332|356:312,1,63.7500024318696,8|0,0:0|0:0,0:0:0:0:
188,224,99237,6,0,L|100:240,1,63.7500024318696,2|0,0:0|0:0,0:0:0:0:
304,100,99429,2,0,L|366:88,1,63.7500024318696
152,64,99621,2,0,B|144:92|144:92|148:136,1,63.7500024318696,8|0,0:0|0:0,0:0:0:0:
208,384,99813,2,0,B|216:356|216:356|212:321,1,63.7500024318696
4,304,100005,6,0,L|72:292,1,63.7500024318696,2|0,0:0|0:0,0:0:0:0:
364,296,100198,2,0,L|301:307,1,63.7500024318696,2|0,0:0|0:0,0:0:0:0:
143,190,100390,6,0,B|140:168|140:168|148:128,1,63.7500024318696
140,268,100582,2,0,B|143:290|143:290|135:330,1,63.7500024318696,8|0,0:0|0:0,0:0:0:0:
188,64,100774,1,0,0:0:0:0:
188,64,100966,5,0,0:0:0:0:
292,120,101159,1,0,0:0:0:0:
408,144,101351,1,0,0:0:0:0:
224,216,101543,6,0,P|296:220|352:196,2,127.500004863739
120,156,102120,1,0,0:0:0:0:
312,304,102312,2,0,P|372:288|420:244,1,127.500004863739
196,148,102696,1,0,0:0:0:0:
236,288,102888,1,0,0:0:0:0:
336,40,103080,2,0,B|308:64|296:96|296:96|364:72|420:84|468:152,1,255.000009727478
328,280,103657,5,0,0:0:0:0:
400,248,103753,1,0,0:0:0:0:
397,174,103849,2,0,P|313:173|328:256,1,191.250007295609
294,96,104234,6,0,P|381:88|397:174,1,191.250007295609
308,212,104618,6,0,P|283:191|268:163,3,42.5
207,150,105002,2,0,P|178:164|156:187,3,42.5
136,240,105387,1,0,0:0:0:0:
137,282,105483,1,0,0:0:0:0:
158,318,105579,1,0,0:0:0:0:
190,344,105675,1,0,0:0:0:0:
231,351,105771,1,0,0:0:0:0:
272,341,105867,1,0,0:0:0:0:
302,311,105963,1,0,0:0:0:0:
318,271,106059,1,0,0:0:0:0:
376,240,106155,6,0,P|384:268|380:292,3,42.5
252,296,106540,2,0,P|244:268|248:244,3,42.5
272,180,106924,1,0,0:0:0:0:
284,140,107020,1,0,0:0:0:0:
266,101,107116,1,0,0:0:0:0:
233,73,107212,1,0,0:0:0:0:
190,70,107308,1,0,0:0:0:0:
150,87,107405,1,0,0:0:0:0:
130,124,107501,1,0,0:0:0:0:
133,166,107597,1,0,0:0:0:0:
164,194,107693,1,0,0:0:0:0:
