osu file format v14

[General]
AudioFilename: audio.mp3
AudioLeadIn: 0
PreviewTime: 135349
Countdown: 0
SampleSet: Soft
StackLeniency: 0.2
Mode: 0
LetterboxInBreaks: 0
WidescreenStoryboard: 0

[Editor]
DistanceSpacing: 3.5
BeatDivisor: 8
GridSize: 32
TimelineZoom: 2

[Metadata]
Title:Kuro no Gangu
TitleUnicode:黒の玩具
Artist:-45
ArtistUnicode:-45
Creator:AYE1337
Version:tono
Source:
Tags:Electronic Instrumental featured artist fa akito yoshikawa yoshikawa-45 WhiteEvil d'va;;;;;;;;5 dva
BeatmapID:3779493
BeatmapSetID:1840181

[Difficulty]
HPDrainRate:8
CircleSize:4
OverallDifficulty:8
ApproachRate:8
SliderMultiplier:1.4
SliderTickRate:0.5

[Events]
//Background and Video events
0,0,"HAHAHAHAHAHA.jpg",0,0
//Break Periods
2,45347,56075
//Storyboard Layer 0 (Background)
//Storyboard Layer 1 (Fail)
//Storyboard Layer 2 (Pass)
//Storyboard Layer 3 (Foreground)
//Storyboard Layer 4 (Overlay)
//Storyboard Sound Samples

[TimingPoints]
6490,402.684563758389,4,2,1,80,1,0
6490,-100,4,2,1,50,0,0
32261,-666.666666666658,4,2,1,55,0,0
33872,-222.222222222221,4,2,1,55,0,0
40315,-666.666666666658,4,2,1,55,0,0
56825,-100,4,2,1,60,0,0
58033,-25,4,2,1,80,0,0
58436,-100,4,2,1,80,0,0
58838,-50,4,2,1,80,0,0
60047,-100,4,2,1,80,0,0
62060,-50,4,2,1,80,0,0
68100,-66.6666666666667,4,2,1,80,0,0
69308,-58.8235294117647,4,2,1,80,0,0
71120,-52.6315789473684,4,2,1,80,0,0
79174,-45.4545454545455,4,2,1,80,0,0
80583,-133.333333333333,4,2,1,80,0,0
80785,-45.4545454545455,4,2,1,80,0,0
85214,-100,4,2,1,80,0,0
85416,-50,4,2,1,80,0,0
87026,-40,4,2,1,80,0,0
89040,-45.4545454545455,4,2,1,80,0,0
90449,-33.3333333333333,4,2,1,80,0,0
91657,-55.5555555555556,4,2,1,80,0,0
93067,-50,4,2,1,80,0,0
96489,-33.3333333333333,4,2,1,80,0,0
96691,-37.037037037037,4,2,1,80,0,0
99912,-40,4,2,1,80,0,0
103335,-33.3333333333333,4,2,1,80,0,0
104745,-50,4,2,1,80,0,0
106758,-40,4,2,1,80,0,0
108369,-35.7142857142857,4,2,1,80,0,0
109577,-35.7142857142857,4,2,1,75,0,0
109778,-35.7142857142857,4,2,1,70,0,0
110080,-35.7142857142857,4,2,1,65,0,0
110382,-35.7142857142857,4,2,1,60,0,0
110785,-100,4,2,1,55,0,0
117630,-222.222222222221,4,2,1,60,0,0
119241,-100,4,2,1,65,0,0
135349,-1000,4,2,1,80,0,0
136859,-1000,4,2,1,5,0,0
136959,-1000,4,2,1,70,0,0
138268,-1000,4,2,1,5,0,0
138369,-1000,4,2,1,70,0,0
143302,-1000,4,2,1,5,0,0
143402,-1000,4,2,1,70,0,0
144208,-333.333333333333,4,2,1,70,0,0
144912,-333.333333333333,4,2,1,5,0,0
145013,-1000,4,2,1,70,0,0
146322,-1000,4,2,1,5,0,0
146422,-1000,4,2,1,70,0,0
148134,-1000,4,2,1,5,0,0
148234,-100,4,2,1,80,0,0
149644,-100,4,2,1,5,0,0
149845,-100,4,2,1,80,0,0
151255,-100,4,2,1,5,0,0
151456,-100,4,2,1,80,0,0
152966,-100,4,2,1,5,0,0
153067,-399.999999999997,4,2,1,60,0,0
153771,-399.999999999997,4,2,1,5,0,0
153872,-66.6666666666667,4,2,1,80,0,0
154577,-50,4,2,1,5,0,0
154677,-25,4,2,1,90,0,1
156187,-25,4,2,1,5,0,1
156288,-50,4,2,1,80,0,0
157798,-50,4,2,1,5,0,0
157899,-222.222222222221,4,2,1,80,0,0
159510,-50,4,2,1,80,0,0
161020,-50,4,2,1,5,0,0
161120,-100,4,2,1,80,0,0
161926,-33.3333333333333,4,2,1,80,0,0
162530,-50,4,2,1,80,0,0
164342,-100,4,2,1,80,0,0
165147,-50,4,2,1,80,0,0
165953,-66.6666666666667,4,2,1,80,0,0
166758,-50,4,2,1,80,0,0
169275,-66.6666666666667,4,2,1,80,0,0
169979,-50,4,2,1,80,0,0
185281,-40,4,2,1,80,0,0
186892,-37.037037037037,4,2,1,80,0,0
187698,-45.4545454545455,4,2,1,80,0,0
193335,-50,4,2,1,80,0,0
198771,-66.6666666666667,4,2,1,80,0,0
199174,-50,4,2,1,80,0,0
200583,-43.4782608695652,4,2,1,80,0,0
212865,-40,4,2,1,80,0,0
219157,-40,4,2,2,70,0,0
219208,-40,4,2,1,60,0,0
219258,-40,4,2,1,50,0,0
219308,-40,4,2,1,40,0,0
219359,-40,4,2,2,30,0,0
219409,-40,4,2,1,20,0,0
219459,-40,4,2,2,10,0,0
219510,-40,4,2,1,80,0,0
225550,-37.037037037037,4,2,1,80,0,0
237026,-33.3333333333333,4,2,1,80,0,0
238436,-66.6666666666667,4,2,1,80,0,0
245684,-40,4,2,1,80,0,0
248100,-58.8235294117647,4,2,1,80,0,0
249711,-50,4,2,1,80,0,0
264208,-100,4,2,1,80,0,0
269845,-66.6666666666667,4,2,1,80,0,0

[Colours]
Combo1 : 131,131,131
Combo2 : 156,156,235
Combo3 : 179,209,143
Combo4 : 235,171,133
Combo5 : 220,152,209

[HitObjects]
111,150,6489,5,2,2:2:0:0:
182,191,6691,1,0,0:0:0:0:
234,120,6892,2,0,L|330:100,1,70,2|0,2:2|0:0,0:0:0:0:
335,117,7194,2,0,L|420:100,1,70,2|2,2:2|2:2,0:0:0:0:
512,147,7597,1,0,0:0:0:0:
512,147,7698,1,2,2:2:0:0:
434,190,7899,1,0,0:0:0:0:
478,324,8100,5,2,2:2:0:0:
412,367,8302,1,0,0:0:0:0:
363,302,8503,2,0,L|267:282,1,70,2|0,2:2|0:0,0:0:0:0:
262,299,8805,2,0,L|177:282,1,70,2|2,2:2|2:2,0:0:0:0:
85,329,9208,1,0,0:0:0:0:
85,329,9309,1,2,2:2:0:0:
163,372,9510,1,0,0:0:0:0:
88,210,9711,6,0,L|109:128,1,70,2|0,2:2|0:0,0:0:0:0:
196,116,10114,2,0,L|217:34,1,70,2|0,2:2|0:0,0:0:0:0:
190,4,10416,2,0,L|111:-15,1,70,2|2,2:2|2:2,0:0:0:0:
52,44,10818,1,0,0:0:0:0:
52,44,10919,1,2,2:2:0:0:
52,44,11120,1,0,0:0:0:0:
52,44,11322,1,2,2:2:0:0:
52,44,11523,1,0,0:0:0:0:
52,44,11724,1,2,2:2:0:0:
52,44,11926,1,0,0:0:0:0:
52,44,12026,1,2,2:2:0:0:
52,44,12228,1,2,2:2:0:0:
52,44,12429,1,0,0:0:0:0:
52,44,12530,1,2,2:2:0:0:
52,44,12731,1,0,0:0:0:0:
84,175,12932,6,0,P|132:163|186:65,1,140,2|2,2:2|2:2,0:0:0:0:
22,217,13536,2,0,L|180:187,1,140
231,233,14040,1,0,0:0:0:0:
231,233,14141,1,2,2:2:0:0:
257,148,14342,1,0,0:0:0:0:
103,317,14543,6,0,L|78:406,1,70,2|0,2:2|0:0,0:0:0:0:
191,314,14946,1,2,2:2:0:0:
221,331,15047,2,0,L|307:314,1,70,0|2,0:0|2:2,0:0:0:0:
395,277,15449,1,2,2:2:0:0:
416,249,15550,2,0,L|425:198,2,35,0|0|2,0:0|0:0|2:2,0:0:0:0:
477,351,15953,1,0,0:0:0:0:
367,384,16154,6,0,P|340:338|259:271,1,140,2|2,2:2|2:2,0:0:0:0:
491,231,16758,1,0,0:0:0:0:
467,274,16859,2,0,L|361:315,1,105,2|0,2:2|0:0,0:0:0:0:
303,355,17261,1,0,0:0:0:0:
303,355,17362,1,2,2:2:0:0:
478,142,17765,6,0,L|436:289,1,140,2|2,2:2|2:2,0:0:0:0:
276,280,18369,2,0,P|336:260|387:177,1,140
512,258,18973,2,0,P|484:208|462:198,1,70,2|0,2:2|0:0,0:0:0:0:
381,78,19375,5,2,2:2:0:0:
346,69,19476,1,0,0:0:0:0:
311,60,19577,1,0,0:0:0:0:
277,52,19677,1,0,0:0:0:0:
242,44,19778,1,2,2:2:0:0:
167,95,19979,1,0,0:0:0:0:
167,95,20080,1,2,2:2:0:0:
167,95,20181,2,0,L|153:154,3,35,0|2|0|0,0:0|2:2|0:0|0:0,0:0:0:0:
167,122,20583,2,0,L|159:87,3,35,2|0|0|0,2:2|0:0|0:0|0:0,0:0:0:0:
226,185,20986,1,2,2:2:0:0:
261,176,21087,1,0,0:0:0:0:
296,167,21188,1,0,0:0:0:0:
330,159,21288,1,0,0:0:0:0:
365,151,21389,1,2,2:2:0:0:
440,202,21590,1,0,0:0:0:0:
440,202,21691,1,2,2:2:0:0:
440,202,21792,2,0,L|454:261,3,35,0|2|0|0,0:0|2:2|0:0|0:0,0:0:0:0:
434,249,22194,2,0,L|443:214,3,35,2|0|0|0,2:2|0:0|0:0|0:0,0:0:0:0:
381,78,22597,1,2,2:2:0:0:
346,69,22698,1,0,0:0:0:0:
311,60,22799,1,0,0:0:0:0:
277,52,22899,1,0,0:0:0:0:
242,44,23000,1,2,2:2:0:0:
167,95,23201,1,0,0:0:0:0:
167,95,23302,1,2,2:2:0:0:
167,95,23403,2,0,L|153:154,3,35,0|2|0|0,0:0|2:2|0:0|0:0,0:0:0:0:
151,145,23805,2,0,L|143:110,3,35,2|0|0|0,2:2|0:0|0:0|0:0,0:0:0:0:
226,185,24208,1,2,2:2:0:0:
261,176,24309,1,0,0:0:0:0:
296,167,24410,1,0,0:0:0:0:
330,159,24510,1,0,0:0:0:0:
365,151,24611,1,2,2:2:0:0:
440,202,24812,1,0,0:0:0:0:
440,202,24913,1,2,2:2:0:0:
440,202,25014,2,0,L|454:261,3,35,0|2|0|0,0:0|2:2|0:0|0:0,0:0:0:0:
443,223,25416,2,0,L|452:188,3,35,2|0|0|0,2:2|0:0|0:0|0:0,0:0:0:0:
388,317,25818,5,2,2:2:0:0:
379,316,25919,1,0,0:0:0:0:
383,302,26020,1,0,0:0:0:0:
395,319,26120,1,0,0:0:0:0:
374,310,26221,1,2,2:2:0:0:
390,323,26322,1,0,0:0:0:0:
390,306,26422,1,0,0:0:0:0:
379,316,26523,1,2,2:2:0:0:
388,317,26624,2,0,L|434:311,3,35,0|2|0|0,0:0|2:2|0:0|0:0,0:0:0:0:
281,384,27026,1,2,2:2:0:0:
268,365,27127,1,0,0:0:0:0:
262,374,27228,1,0,0:0:0:0:
279,368,27328,1,0,0:0:0:0:
288,378,27429,5,2,2:2:0:0:
257,377,27530,1,0,0:0:0:0:
268,365,27630,1,0,0:0:0:0:
274,374,27731,1,0,0:0:0:0:
281,384,27832,2,0,L|327:378,3,35,2|0|0|2,2:2|0:0|0:0|2:2,0:0:0:0:
215,332,28234,2,0,L|209:286,3,35,0|2|0|0,0:0|2:2|0:0|0:0,0:0:0:0:
258,231,28637,1,2,2:2:0:0:
267,227,28738,1,0,0:0:0:0:
256,222,28838,1,0,0:0:0:0:
268,242,28939,1,0,0:0:0:0:
269,236,29040,6,0,L|278:183,27,35,2|0|0|0|2|0|0|2|0|2|0|0|2|0|0|0|2|0|0|0|2|0|0|2|0|2|0|0,2:2|0:0|0:0|0:0|2:2|0:0|0:0|2:2|0:0|2:2|0:0|0:0|2:2|0:0|0:0|0:0|2:2|0:0|0:0|0:0|2:2|0:0|0:0|2:2|0:0|2:2|0:0|0:0,0:0:0:0:
338,149,31859,2,0,L|347:96,3,35,2|0|0|0,2:2|0:0|0:0|0:0,0:0:0:0:
230,91,32261,6,0,L|238:88,1,5.24999983978272,6|0,2:2|0:0,0:0:0:0:
354,35,32463,2,0,L|346:32,1,5.24999983978272,2|0,2:2|0:0,0:0:0:0:
256,12,32664,2,0,L|264:9,1,5.24999983978272,2|0,2:2|0:0,0:0:0:0:
320,116,32865,2,0,L|315:117,1,5.24999983978272
294,66,33067,5,2,2:2:0:0:
295,62,33167,1,0,0:0:0:0:
291,63,33268,1,0,0:0:0:0:
297,66,33369,1,0,0:0:0:0:
295,62,33469,1,2,2:2:0:0:
293,66,33570,1,0,0:0:0:0:
295,62,33671,1,0,0:0:0:0:
292,62,33771,1,0,0:0:0:0:
304,51,33872,6,0,L|299:72,15,15.7499995193482,2|0|0|0|2|0|0|2|0|2|0|0|2|0|0|0,2:2|0:0|0:0|0:0|2:2|0:0|0:0|2:2|0:0|2:2|0:0|0:0|2:2|0:0|0:0|0:0,0:0:0:0:
180,190,35483,5,2,2:2:0:0:
491,310,37094,5,2,2:2:0:0:
49,366,38704,5,2,2:2:0:0:
57,363,38805,1,0,0:0:0:0:
65,361,38906,1,0,0:0:0:0:
73,359,39006,1,0,0:0:0:0:
81,357,39107,1,2,2:2:0:0:
89,355,39208,1,0,0:0:0:0:
97,353,39308,1,0,0:0:0:0:
105,351,39409,1,2,2:2:0:0:
113,349,39510,1,0,0:0:0:0:
121,347,39610,1,2,2:2:0:0:
129,345,39711,1,0,0:0:0:0:
137,343,39812,1,0,0:0:0:0:
145,341,39912,1,2,2:2:0:0:
153,339,40013,1,0,0:0:0:0:
161,337,40114,1,0,0:0:0:0:
169,335,40214,1,0,0:0:0:0:
214,339,40315,6,0,L|219:317,1,20.9999993591309,2|2,2:2|2:2,0:0:0:0:
214,339,41120,6,0,L|219:317,1,20.9999993591309,0|2,0:0|2:2,0:0:0:0:
256,15,41926,5,2,2:2:0:0:
243,37,42127,1,0,0:0:0:0:
276,53,42328,1,2,2:2:0:0:
254,74,42530,1,0,0:0:0:0:
324,114,42731,1,0,0:0:0:0:
249,124,42932,1,0,0:0:0:0:
284,153,43134,1,2,2:2:0:0:
258,185,43335,1,0,0:0:0:0:
342,207,43536,1,2,2:2:0:0:
231,213,43738,1,0,0:0:0:0:
276,240,43939,1,2,2:2:0:0:
249,264,44141,1,0,0:0:0:0:
167,287,44342,1,2,2:2:0:0:
252,303,44543,1,2,2:2:0:0:
271,325,44745,1,2,2:2:0:0:
237,344,44946,1,0,0:0:0:0:
310,384,45147,1,6,2:2:0:0:
101,126,56825,6,2,P|78:77|105:129,1,385,2|0,2:2|0:0,1:2:0:0:
41,184,58033,6,2,L|361:116,1,280,4|2,3:1|2:2,0:0:0:0:
419,27,58436,2,0,L|399:74,1,35,8|0,1:1|0:0,0:0:0:0:
397,154,58637,1,2,2:2:0:0:
441,191,58738,1,2,2:3:0:0:
484,150,58838,2,0,P|424:162|335:276,1,210,8|0,3:3|0:0,0:0:0:0:
382,337,59241,2,0,B|416:352|464:370,1,70,8|0,1:1|0:0,0:0:0:0:
508,243,59443,5,2,2:3:0:0:
126,384,59845,5,8,3:3:0:0:
185,313,60047,2,0,L|171:268,1,35,8|0,1:1|0:0,0:0:0:0:
63,201,60248,1,8,3:3:0:0:
101,177,60349,1,2,2:3:0:0:
128,136,60449,1,2,2:2:0:0:
174,139,60550,1,2,2:3:0:0:
221,95,60651,1,2,2:2:0:0:
140,17,60852,2,0,L|158:77,1,35,8|0,1:1|0:0,0:0:0:0:
208,210,61053,1,2,2:2:0:0:
248,234,61154,1,0,0:0:0:0:
233,285,61255,6,0,L|138:316,1,70,12|2,3:3|2:2,0:0:0:0:
26,361,61657,2,0,L|65:379,1,35,8|0,1:1|0:0,0:0:0:0:
259,375,61959,1,2,2:3:0:0:
287,344,62060,2,0,B|235:203,1,140,8|2,3:3|2:2,0:0:0:0:
384,74,62463,6,0,L|420:157,1,70,8|0,1:1|0:0,0:0:0:0:
450,14,62664,1,8,3:3:0:0:
333,146,62865,2,0,L|487:78,1,140,8|2,3:3|2:2,0:0:0:0:
226,209,63268,1,8,1:1:0:0:
270,245,63369,1,0,0:0:0:0:
311,239,63469,1,2,2:2:0:0:
358,266,63570,1,0,0:0:0:0:
403,250,63671,1,8,3:3:0:0:
296,330,63872,2,0,L|221:356,1,70,8|0,3:3|0:0,0:0:0:0:
423,312,64073,2,0,L|257:374,1,140,8|8,1:1|3:3,0:0:0:0:
166,311,64375,1,8,1:1:0:0:
202,282,64476,6,0,L|231:194,1,70,4|0,3:1|0:0,0:0:0:0:
126,206,64677,2,0,L|80:125,1,70,8|0,1:1|0:0,0:0:0:0:
144,384,64879,2,0,L|201:153,1,210,8|2,1:1|2:3,0:0:0:0:
164,95,65281,1,8,3:3:0:0:
205,75,65382,1,2,2:3:0:0:
216,20,65483,1,8,3:3:0:0:
167,10,65583,1,0,0:0:0:0:
115,27,65684,1,8,1:1:0:0:
103,246,65885,2,0,L|189:211,1,70,0|2,0:0|2:2,0:0:0:0:
340,304,66087,5,0,0:0:0:0:
409,223,66288,2,0,L|317:198,1,70,8|0,3:3|0:0,0:0:0:0:
248,341,66489,1,8,1:1:0:0:
288,361,66590,2,0,P|354:306|462:314,1,140,0|2,0:0|2:3,0:0:0:0:
484,376,66892,1,2,2:2:0:0:
512,326,66993,1,2,2:3:0:0:
484,293,67094,1,2,2:2:0:0:
488,247,67194,1,0,0:0:0:0:
451,193,67295,1,8,1:1:0:0:
316,277,67496,1,2,2:2:0:0:
159,0,67899,5,2,2:2:0:0:
77,109,68100,2,0,L|51:216,1,105.000004005432,8|8,1:1|3:3,0:0:0:0:
85,264,68402,1,2,2:3:0:0:
145,239,68503,1,8,3:3:0:0:
178,260,68604,1,2,2:3:0:0:
204,243,68704,1,2,2:2:0:0:
214,207,68805,1,0,0:0:0:0:
251,176,68906,1,8,1:1:0:0:
60,101,69107,2,0,L|38:162,1,52.5000020027161,8|0,3:3|0:0,0:0:0:0:
360,86,69308,6,0,P|268:32|111:14,1,238.00000453949,8|8,3:3|1:1,0:0:0:0:
276,0,69912,1,2,2:2:0:0:
303,41,70013,1,0,0:0:0:0:
268,56,70114,1,8,3:3:0:0:
379,116,70315,1,8,3:3:0:0:
425,139,70416,1,0,0:0:0:0:
451,109,70516,2,0,L|474:225,1,119.000002269745,8|2,1:1|2:2,0:0:0:0:
471,24,70818,1,8,1:1:0:0:
426,0,70919,5,12,3:3:0:0:
362,106,71120,2,0,L|421:174,1,66.4999982242585,8|0,1:1|0:0,0:0:0:0:
348,14,71322,2,0,L|295:236,1,199.499994672775,8|2,1:1|2:3,0:0:0:0:
339,271,71724,1,8,3:3:0:0:
380,257,71825,1,2,2:3:0:0:
420,295,71926,1,8,3:3:0:0:
451,313,72026,1,0,0:0:0:0:
494,260,72127,1,8,1:1:0:0:
362,350,72328,2,0,L|200:198,1,199.499994672775
317,233,72731,2,0,L|222:219,1,66.4999982242585,8|0,3:3|0:0,0:0:0:0:
32,325,72932,6,0,P|105:363|173:379,1,132.999996448517,8|8,1:1|3:3,0:0:0:0:
245,323,73234,1,2,2:3:0:0:
202,312,73335,1,2,2:2:0:0:
218,264,73436,1,2,2:3:0:0:
193,226,73536,1,2,2:2:0:0:
205,189,73637,1,0,0:0:0:0:
141,166,73738,1,8,1:1:0:0:
50,384,73939,2,0,L|273:198,1,265.999992897034,2|2,2:2|2:2,0:0:0:0:
186,20,74543,5,8,1:1:0:0:
245,31,74644,1,0,0:0:0:0:
260,71,74745,1,8,3:3:0:0:
292,101,74845,1,2,2:3:0:0:
333,88,74946,1,8,3:3:0:0:
187,292,75147,2,0,L|188:390,1,66.4999982242585,2|0,2:2|0:0,0:0:0:0:
151,247,75349,2,0,L|218:307,1,66.4999982242585,8|0,1:1|0:0,0:0:0:0:
326,323,75550,2,0,L|22:283,1,265.999992897034,8|2,3:3|2:2,0:0:0:0:
352,220,76154,5,8,1:1:0:0:
377,181,76255,1,0,0:0:0:0:
434,183,76355,1,2,2:2:0:0:
404,140,76456,1,0,0:0:0:0:
424,102,76557,1,8,3:3:0:0:
405,65,76657,1,0,0:0:0:0:
431,30,76758,1,8,3:3:0:0:
477,290,76959,2,0,L|399:321,1,66.4999982242585,8|0,1:1|0:0,0:0:0:0:
396,353,77161,2,0,L|312:307,1,66.4999982242585,8|8,3:3|1:1,0:0:0:0:
242,24,77362,6,0,P|294:103|362:116,1,132.999996448517,8|8,3:3|1:1,0:0:0:0:
474,80,77765,2,0,L|239:181,1,199.499994672775,8|2,1:1|2:3,0:0:0:0:
240,233,78167,2,0,L|270:324,1,66.4999982242585,8|2,3:3|2:3,0:0:0:0:
384,148,78369,2,0,L|356:253,1,66.4999982242585,8|0,3:3|0:0,0:0:0:0:
216,9,78570,2,0,L|258:111,1,66.4999982242585,8|0,1:1|0:0,0:0:0:0:
291,144,78771,1,0,0:0:0:0:
99,384,79174,6,2,L|24:327,1,77.0000023498536,8|0,3:3|0:0,0:1:0:0:
45,189,79375,2,0,B|59:309|59:309|224:278,1,231.000007049561,10|2,1:1|2:1,0:0:0:0:
140,214,79778,1,2,2:2:0:0:
190,184,79879,1,0,0:0:0:0:
185,148,79979,1,2,2:1:0:0:
230,127,80080,1,0,0:0:0:0:
210,76,80181,1,10,1:1:0:0:
117,28,80382,1,2,2:1:0:0:
327,89,80583,6,0,L|318:122,1,26.2500010013581,8|0,3:3|0:0,0:0:0:0:
104,143,80785,6,0,L|190:116,1,77.0000023498536,2|0,2:1|0:0,0:0:0:0:
33,173,80986,2,0,P|143:191|268:282,1,231.000007049561,10|2,1:1|2:1,0:0:0:0:
423,352,81489,1,0,0:0:0:0:
459,342,81589,2,0,L|534:263,1,77.0000023498536,2|0,2:1|0:0,0:0:0:0:
432,208,81792,2,2,L|469:295,1,77.0000023498536,8|0,1:1|0:0,0:1:0:0:
512,384,81993,2,2,L|430:71,1,308.000009399414,8|2,3:3|2:1,1:1:0:0:
0,261,82597,5,10,1:1:0:0:
449,217,82899,5,2,2:1:0:0:
449,217,83000,1,8,3:3:0:0:
292,41,83201,1,8,3:3:0:0:
255,73,83302,1,0,0:0:0:0:
205,67,83402,1,10,1:1:0:0:
163,67,83503,1,0,0:0:0:0:
136,24,83604,1,2,2:1:0:0:
243,384,83805,6,0,B|345:334|345:334|283:242|283:242|181:303|181:303|196:299,1,308.000009399414,4|8,3:1|1:1,1:0:0:0:
402,167,84409,1,2,2:2:0:0:
391,207,84510,1,2,2:3:0:0:
359,216,84611,1,8,3:3:0:0:
326,247,84711,1,2,2:3:0:0:
286,245,84812,1,8,3:3:0:0:
262,284,84913,1,0,0:0:0:0:
286,325,85013,1,8,1:1:0:0:
259,344,85114,1,0,0:0:0:0:
220,366,85214,2,0,L|163:351,1,35,2|0,2:2|0:0,0:0:0:0:
0,191,85416,6,0,B|67:217|67:217|84:111,1,140,8|8,2:2|3:3,1:0:0:0:
0,59,85818,1,8,1:1:0:0:
40,52,85919,1,0,0:0:0:0:
38,91,86020,1,8,3:3:0:0:
44,120,86120,1,2,2:3:0:0:
71,150,86221,1,0,0:0:0:0:
70,174,86322,1,2,2:2:0:0:
99,206,86422,1,0,0:0:0:0:
114,251,86523,1,0,0:0:0:0:
160,251,86624,2,0,L|250:230,1,70,8|0,1:1|0:0,0:0:0:0:
87,280,86825,2,0,L|126:380,1,70,2|0,2:2|0:0,0:0:0:0:
0,384,87026,6,0,L|264:128,1,350,8|8,3:3|1:1,3:0:0:0:
257,154,87832,1,8,3:3:0:0:
255,110,87932,1,2,2:3:0:0:
301,88,88033,1,2,2:2:0:0:
351,107,88134,1,0,0:0:0:0:
392,87,88234,2,0,L|469:4,1,87.5,8|0,1:1|0:0,0:0:0:0:
396,118,88436,2,0,L|368:234,1,87.5,8|0,3:3|0:0,0:0:0:0:
221,14,88637,5,8,3:3:0:0:
202,50,88738,1,0,0:0:0:0:
163,38,88838,2,0,L|73:15,1,87.5,2|0,2:2|0:0,0:0:0:0:
311,70,89040,2,0,L|375:333,1,231.000007049561,8|0,1:1|0:0,0:0:0:0:
424,321,89443,2,0,L|325:280,1,77.0000023498536,8|0,3:3|0:0,0:0:0:0:
439,261,89644,2,0,L|378:352,1,77.0000023498536,8|0,3:3|0:0,0:0:0:0:
235,183,89845,2,0,L|352:238,1,77.0000023498536,8|0,1:1|0:0,0:0:0:0:
512,136,90047,2,0,L|400:184,1,77.0000023498536,8|0,3:3|0:0,0:0:0:0:
262,381,90248,5,4,3:1:0:0:
334,173,90449,2,0,L|259:315,1,105.000004005432,8|0,1:1|0:0,0:0:0:0:
512,384,90651,2,0,P|388:281|242:228,1,315.000012016297,8|2,1:1|2:2,3:0:0:0:
370,17,91154,1,2,2:3:0:0:
400,50,91255,2,0,L|496:-2,1,105.000004005432,8|0,3:3|0:0,0:0:0:0:
477,95,91456,1,8,1:1:0:0:
376,277,91657,2,0,P|478:262|481:96,1,251.999992309571,2|8,2:2|3:3,0:0:0:0:
319,42,92161,1,0,0:0:0:0:
278,15,92261,5,8,1:1:0:0:
98,303,92563,1,2,2:3:0:0:
115,332,92664,1,0,0:0:0:0:
149,323,92765,1,2,2:2:0:0:
158,358,92865,1,0,0:0:0:0:
308,203,93067,2,0,L|218:207,1,70,8|0,1:1|0:0,0:0:0:0:
112,337,93268,1,2,2:2:0:0:
112,337,93469,1,8,3:3:0:0:
112,337,93671,5,2,2:2:0:0:
125,165,93872,1,8,1:1:0:0:
148,132,93973,1,0,0:0:0:0:
117,99,94073,1,8,3:3:0:0:
118,60,94174,1,2,2:3:0:0:
78,61,94275,1,8,3:3:0:0:
78,30,94375,1,2,2:3:0:0:
45,3,94476,1,2,2:2:0:0:
162,62,94677,2,0,L|88:78,1,70,8|0,1:1|0:0,0:0:0:0:
28,43,94879,2,0,L|276:159,1,210,8|0,3:3|0:0,0:0:0:0:
280,83,95281,2,0,L|280:-5,1,70,2|0,2:2|0:0,0:0:0:0:
175,209,95483,2,0,L|172:118,1,70,8|0,1:1|0:0,0:0:0:0:
341,135,95684,2,0,L|332:53,1,70,0|2,0:0|2:2,0:0:0:0:
250,241,95885,1,8,3:3:0:0:
222,204,95986,1,0,0:0:0:0:
180,227,96087,2,0,L|88:235,1,70,8|0,3:3|0:0,0:0:0:0:
350,180,96288,2,0,L|268:103,1,70,8|0,1:1|0:0,0:0:0:0:
182,384,96489,6,0,L|287:303,1,105.000004005432,0|8,0:0|1:1,0:0:0:0:
113,153,96691,6,0,P|83:266|324:345,1,378.000001441956,4|8,3:1|1:1,1:0:0:0:
200,118,97295,1,2,2:2:0:0:
178,86,97396,1,2,2:3:0:0:
148,82,97496,2,0,P|53:112|40:55,1,94.5000003604889,8|2,3:3|2:3,0:0:0:0:
290,4,97698,1,8,3:3:0:0:
287,49,97798,1,0,0:0:0:0:
331,63,97899,1,8,1:1:0:0:
371,57,98000,1,0,0:0:0:0:
396,80,98100,1,2,2:2:0:0:
409,123,98201,1,0,0:0:0:0:
455,136,98302,6,0,L|486:252,3,94.5000003604889,2|0|8|0,2:2|0:0|3:3|0:0,0:0:0:0:
490,55,98704,2,0,P|432:133|243:249,1,283.500001081467,8|2,1:1|2:3,3:0:0:0:
224,205,99107,2,0,P|255:282|262:356,1,94.5000003604889,0|2,0:0|2:2,0:0:0:0:
382,122,99308,2,0,P|370:190|332:271,1,94.5000003604889
158,287,99510,1,8,1:1:0:0:
299,117,99711,1,2,2:2:0:0:
327,156,99812,1,2,2:3:0:0:
364,177,99912,6,0,L|464:13,1,175,8|2,3:3|2:2,0:0:0:0:
332,384,100315,2,0,L|501:118,1,262.5,8|2,1:1|2:3,1:0:0:0:
428,33,100818,1,2,2:3:0:0:
386,19,100919,2,0,L|301:113,1,87.5,2|0,2:2|0:0,0:0:0:0:
484,344,101120,2,0,L|441:231,1,87.5,8|0,1:1|0:0,0:0:0:0:
510,0,101322,6,0,P|436:110|328:-6,1,262.5,8|0,3:3|0:0,3:0:0:0:
273,36,101724,2,0,L|363:169,1,87.5,2|0,2:2|0:0,0:0:0:0:
512,142,101926,1,8,1:1:0:0:
490,174,102026,1,0,0:0:0:0:
459,159,102127,1,0,0:0:0:0:
413,127,102228,1,2,2:2:0:0:
424,71,102328,1,8,3:3:0:0:
390,37,102429,1,2,2:3:0:0:
351,0,102530,1,8,3:3:0:0:
66,133,102731,6,0,L|182:168,1,87.5,8|0,1:1|0:0,0:0:0:0:
125,69,102932,1,8,3:3:0:0:
318,384,103134,5,4,3:1:0:0:
386,307,103335,6,0,L|218:235,1,105.000004005432,10|0,1:1|0:0,0:0:0:0:
448,228,103536,2,0,L|145:396,1,315.000012016297,10|2,1:1|2:3,1:0:0:0:
85,344,103939,2,2,B|203:103|203:103|87:-4,1,420.000016021729,8|8,3:3|1:1,1:1:0:0:
38,90,104543,1,2,2:1:0:0:
64,115,104644,1,0,0:0:0:0:
97,107,104745,6,0,L|155:223,1,70,4|0,2:2|0:0,0:0:0:0:
313,99,104946,2,2,L|201:84,1,70,8|0,3:3|0:0,0:1:0:0:
169,188,105147,2,0,L|333:57,1,210,10|2,1:1|2:1,0:0:0:0:
33,253,105550,1,0,0:0:0:0:
84,237,105651,1,2,2:1:0:0:
117,281,105751,1,0,0:0:0:0:
123,322,105852,1,0,0:0:0:0:
172,346,105953,1,10,1:1:0:0:
6,384,106154,5,2,2:1:0:0:
206,50,106355,5,4,3:1:0:0:
476,138,106557,6,0,L|388:158,1,70,2|0,2:1|0:0,0:0:0:0:
398,30,106758,2,0,B|463:190|463:190|531:275,1,262.5,10|2,1:1|2:1,1:0:0:0:
292,307,107161,1,8,3:3:0:0:
324,322,107261,1,2,2:1:0:0:
362,287,107362,2,0,L|332:400,1,87.5,2|0,2:2|0:0,0:0:0:0:
496,181,107563,2,0,L|415:138,1,87.5,10|0,1:1|0:0,0:0:0:0:
312,273,107765,2,2,L|502:92,1,262.5,8|0,3:3|0:0,1:1:0:0:
479,379,108167,6,0,P|486:337|466:299,1,87.5,2|0,2:1|0:0,0:0:0:0:
510,384,108369,2,0,P|400:315|350:119,1,293.999991027832,10|2,1:1|2:1,1:0:0:0:
404,53,108771,1,8,3:3:0:0:
352,79,108872,1,2,2:1:0:0:
296,68,108973,1,8,3:3:0:0:
267,116,109073,1,0,0:0:0:0:
216,140,109174,1,10,1:1:0:0:
39,40,109375,1,2,2:1:0:0:
99,48,109476,1,8,1:1:0:0:
113,108,109577,5,12,1:1:0:0:
203,44,109778,1,8,1:1:0:0:
203,44,109879,1,0,0:0:0:0:
286,77,110080,1,8,1:1:0:0:
286,77,110181,1,0,0:0:0:0:
353,48,110382,1,8,1:1:0:0:
353,48,110483,1,0,0:0:0:0:
353,48,110583,1,2,2:3:0:0:
435,85,110785,2,0,L|424:128,1,35
476,113,110986,2,0,L|465:156,1,35,2|0,2:3|0:0,0:0:0:0:
500,129,111187,6,2,L|204:220,1,280,2|0,2:3|0:0,0:0:0:0:
322,136,112396,1,2,0:0:0:0:
322,136,112496,1,0,0:0:0:0:
322,136,112597,1,2,0:0:0:0:
322,136,112698,1,0,0:0:0:0:
322,136,112798,6,0,L|108:359,2,280,0|2|0,0:0|0:0|0:0,3:0:0:0:
87,2,114812,1,2,0:0:0:0:
87,2,114912,1,0,0:0:0:0:
87,2,115013,1,0,0:0:0:0:
87,2,115114,1,0,0:0:0:0:
109,28,115214,1,2,0:0:0:0:
109,28,115315,1,0,0:0:0:0:
109,28,115416,1,0,0:0:0:0:
109,28,115516,1,0,0:0:0:0:
150,20,115617,1,2,0:0:0:0:
150,20,115718,1,0,0:0:0:0:
150,20,115818,1,0,0:0:0:0:
150,20,115919,1,0,0:0:0:0:
162,50,116020,6,0,P|189:112|1:75,1,420,2|8,0:0|2:2,3:0:0:0:
12,69,117630,6,0,P|64:105|68:227,1,188.999994232178,0|8,0:0|2:2,3:0:0:0:
0,306,119241,6,0,P|68:236|489:45,1,560,0|0,0:0|0:0,3:0:0:0:
336,90,121255,1,8,2:2:0:0:
336,90,121355,1,0,0:0:0:0:
336,90,121456,1,0,0:0:0:0:
336,90,121557,1,0,0:0:0:0:
292,109,121657,1,0,0:0:0:0:
292,109,121758,1,0,0:0:0:0:
292,109,121859,1,0,0:0:0:0:
292,109,121959,1,0,0:0:0:0:
284,159,122060,1,8,2:2:0:0:
284,159,122161,1,0,0:0:0:0:
284,159,122261,1,0,0:0:0:0:
284,159,122362,1,0,0:0:0:0:
321,186,122463,5,0,0:0:0:0:
432,258,122865,5,8,2:2:0:0:
432,258,122966,1,0,0:0:0:0:
432,258,123067,1,0,0:0:0:0:
432,258,123167,1,0,0:0:0:0:
432,258,123268,1,0,0:0:0:0:
432,258,123369,1,0,0:0:0:0:
432,258,123469,1,0,0:0:0:0:
451,348,123671,1,8,2:2:0:0:
363,378,124073,1,0,0:0:0:0:
228,262,124476,5,8,2:2:0:0:
228,262,124577,1,0,0:0:0:0:
228,262,124677,1,0,0:0:0:0:
228,262,124778,1,0,0:0:0:0:
228,262,124879,1,0,0:0:0:0:
228,262,124979,1,0,0:0:0:0:
228,262,125080,1,0,0:0:0:0:
288,192,125281,1,8,2:2:0:0:
223,126,125684,1,0,0:0:0:0:
76,334,126087,6,0,L|64:378,6,35,8|0|0|0|0|0|0,2:2|0:0|0:0|0:0|0:0|0:0|0:0,0:0:0:0:
175,328,126892,2,0,L|248:313,1,70,8|0,2:2|0:0,0:0:0:0:
60,228,127295,1,0,0:0:0:0:
167,23,127698,2,0,L|181:75,6,35,8|0|0|0|0|0|0,2:2|0:0|0:0|0:0|0:0|0:0|0:0,0:0:0:0:
87,59,128503,2,0,L|18:43,1,70,8|0,2:2|0:0,0:0:0:0:
63,165,128906,6,2,P|91:74|279:13,1,280,0|0,0:0|0:0,3:2:0:0:
250,5,130114,1,8,2:2:0:0:
32,0,130516,6,0,P|60:91|248:152,1,280,0|0,0:0|0:0,3:0:0:0:
219,159,131724,1,8,2:2:0:0:
63,165,132127,6,2,P|91:74|279:13,1,280,0|0,0:0|0:0,3:2:0:0:
250,5,133335,1,8,2:2:0:0:
340,59,133536,1,2,0:0:0:0:
340,59,133637,1,0,0:0:0:0:
340,59,133738,6,0,L|282:353,1,280,0|0,0:0|0:0,3:0:0:0:
443,254,134946,1,10,2:2:0:0:
475,183,135047,1,0,0:0:0:0:
450,111,135147,1,2,0:0:0:0:
384,75,135248,1,0,0:0:0:0:
311,104,135349,6,0,B|298:116|289:145|310:120|317:107,1,52.5,4|0,0:1|0:0,0:0:0:0:
127,0,136959,6,0,P|137:7|146:39,1,45.5
35,231,138369,1,0,0:0:0:0:
35,231,138469,1,0,0:0:0:0:
35,231,138570,6,0,L|118:254,1,84,0|2,0:0|0:0,0:0:0:0:
341,352,141792,6,0,B|363:377|349:391|335:362,1,52.5,4|0,0:1|0:0,0:0:0:0:
336,146,143402,5,0,0:0:0:0:
337,103,144208,2,2,L|358:176,1,73.4999977569581,2|0,0:0|0:0,0:1:0:0:
203,271,145013,6,2,P|194:280|190:311,1,45.5,0|0,0:0|0:0,0:0:0:0:
417,248,146422,1,0,0:0:0:0:
417,248,146523,1,0,0:0:0:0:
417,248,146624,2,0,L|435:197,1,52.5,0|0,0:0|0:0,3:0:0:0:
489,82,148234,6,0,B|407:-12|221:-87|163:178|389:124|372:291|292:240,1,490,2|0,0:0|0:0,1:0:0:0:
37,375,149845,2,0,P|138:336|540:262,1,490,2|0,0:0|0:0,1:0:0:0:
405,293,151456,6,0,B|362:311|406:359|455:328|261:531|6:460|18:115|289:281|274:202|146:208,1,525,2|0,0:0|0:0,3:0:0:0:
49,151,153067,6,0,L|66:216,1,61.25
33,289,153872,6,0,B|0:278|15:231|91:171|92:272|186:281|193:172|46:133|45:201|95:59|191:105|105:17,1,367.500014019013,2|0,0:0|0:0,0:0:0:0:
20,35,154677,6,2,B|20:192|47:12|383:-82|386:37|509:37|554:6|706:328|517:353|506:399|486:423|163:411|113:401|-291:406|-47:294|-3:140|-10:-2|515:-62|687:22|573:406|128:373|21:280,1,2100,4|0,1:0|0:0,1:0:0:0:
9,378,156288,6,2,B|283:205|565:131|620:270|568:386|456:368|270:396|297:248|297:248|432:149,1,1050,0|0,0:0|0:0,1:2:0:0:
512,169,157899,6,0,L|323:107,1,188.999994232178,0|0,0:0|0:0,3:3:0:0:
273,37,159208,1,0,0:0:0:0:
273,37,159308,1,0,0:0:0:0:
273,37,159409,1,0,0:0:0:0:
232,27,159510,6,0,B|301:388|301:388|355:16|355:16|469:-20|469:-20|310:115,1,1050,2|0,0:0|0:0,0:0:0:0:
260,142,161120,6,0,L|204:129,1,35,4|0,3:1|0:0,0:0:0:0:
166,63,161322,1,0,3:3:0:0:
149,81,161422,1,8,3:3:0:0:
120,65,161523,2,0,L|69:60,1,35,8|0,3:3|0:0,0:0:0:0:
121,174,161724,1,8,2:2:0:0:
92,152,161825,1,0,0:0:0:0:
72,180,161926,2,0,L|286:226,1,210.000008010865,8|8,1:1|3:3,1:0:0:0:
207,176,162228,1,8,2:1:0:0:
207,176,162328,1,0,0:0:0:0:
0,236,162530,6,0,L|237:144,1,210,8|8,1:1|2:2,1:0:0:0:
251,105,162932,2,0,L|329:74,1,70
350,87,163134,1,8,2:2:0:0:
402,30,163335,1,8,2:3:0:0:
416,45,163436,1,8,2:1:0:0:
408,74,163536,2,0,L|375:213,1,140,8|8,1:1|2:2,0:0:0:0:
474,30,163838,2,0,L|419:200,1,140,8|0,1:1|0:0,0:0:0:0:
400,276,164141,1,8,1:1:0:0:
437,315,164241,1,0,0:0:0:0:
483,295,164342,6,0,L|396:339,1,70,4|0,3:1|0:0,0:0:0:0:
346,327,164644,1,8,2:3:0:0:
333,350,164745,2,0,L|294:366,1,35,8|0,3:3|0:0,0:0:0:0:
456,286,164946,1,8,2:2:0:0:
476,321,165047,1,8,2:1:0:0:
495,359,165147,2,0,L|315:300,1,140,8|0,1:1|3:3,1:0:0:0:
323,247,165449,1,8,1:1:0:0:
281,268,165550,2,0,L|200:239,1,70,0|0,0:0|3:3,0:0:0:0:
162,180,165751,2,0,L|82:146,1,70,8|0,3:3|0:0,0:0:0:0:
30,93,165953,5,8,3:3:0:0:
23,138,166053,2,0,P|90:160|124:76,1,157.500006008148,0|8,3:3|3:3,0:0:0:0:
84,14,166557,1,8,3:3:0:0:
116,0,166657,1,0,3:3:0:0:
150,25,166758,2,0,L|185:196,1,140,8|8,1:1|2:2,1:0:0:0:
177,247,167060,2,0,L|212:418,1,140,8|8,1:1|2:2,1:0:0:0:
220,335,167362,2,0,L|200:220,1,70,8|0,1:1|0:0,0:0:0:0:
179,107,167563,5,4,3:1:0:0:
169,120,167664,1,8,2:2:0:0:
186,122,167765,1,0,0:0:0:0:
171,107,167865,1,8,2:2:0:0:
185,107,167966,1,0,3:3:0:0:
215,26,168167,1,8,2:2:0:0:
291,83,168369,2,0,L|242:244,1,140,8|8,1:1|1:1,1:0:0:0:
175,263,168671,1,8,2:2:0:0:
219,304,168771,2,0,L|192:376,1,70,0|0,0:0|3:3,0:0:0:0:
318,273,168973,2,0,L|285:359,1,70,8|0,1:1|0:0,0:0:0:0:
7,273,169174,5,0,0:0:0:0:
0,318,169275,2,0,P|39:361|120:314,1,157.500006008148,8|8,1:1|2:2,0:0:0:0:
82,221,169778,1,8,3:3:0:0:
111,234,169879,1,0,3:3:0:0:
137,217,169979,2,0,L|97:57,1,140,8|8,1:1|2:1,1:0:0:0:
115,0,170281,2,0,L|216:133,1,140,8|8,1:1|2:2,1:0:0:0:
278,74,170583,1,8,2:2:0:0:
276,35,170684,1,0,0:0:0:0:
316,46,170785,6,2,P|394:4|494:158,1,280,8|8,3:3|3:3,1:0:0:0:
467,141,171389,1,8,2:2:0:0:
490,166,171489,1,8,2:1:0:0:
499,126,171590,2,0,P|474:47|387:66,1,140,8|0,1:1|3:3,1:0:0:0:
380,102,171892,2,0,P|381:189|434:213,1,140,8|0,1:1|3:3,1:0:0:0:
512,166,172194,2,0,L|429:137,1,70,8|0,3:3|0:0,0:0:0:0:
258,188,172396,5,8,3:3:0:0:
238,237,172496,1,0,3:3:0:0:
150,56,172698,5,0,3:3:0:0:
130,105,172798,1,8,3:3:0:0:
30,197,173000,5,8,3:3:0:0:
22,240,173100,1,0,3:3:0:0:
51,255,173201,2,0,L|192:179,1,140,8|8,1:1|2:2,1:0:0:0:
221,119,173503,1,8,1:1:0:0:
234,68,173604,2,0,L|183:13,1,70,0|8,0:0|2:2,0:0:0:0:
108,115,173805,2,0,L|86:202,1,70,8|0,1:1|0:0,0:0:0:0:
144,378,174006,5,4,3:1:0:0:
168,329,174107,1,0,0:0:0:0:
210,325,174208,1,8,2:2:0:0:
255,335,174308,1,8,3:3:0:0:
255,301,174409,1,8,3:3:0:0:
277,284,174510,1,0,0:0:0:0:
296,253,174610,2,0,L|275:164,1,70,8|2,2:2|2:2,0:0:0:0:
484,365,174812,2,0,L|331:310,1,140,8|8,1:1|3:3,1:0:0:0:
264,328,175114,1,8,2:2:0:0:
228,296,175214,2,0,L|148:331,1,70,2|8,2:2|2:2,0:0:0:0:
483,300,175416,6,0,L|266:396,1,210,8|8,1:1|2:2,1:0:0:0:
162,286,175818,2,0,L|248:330,1,70,2|0,2:2|0:0,0:0:0:0:
436,355,176020,1,8,2:2:0:0:
413,309,176120,1,0,0:0:0:0:
367,329,176221,1,8,2:3:0:0:
345,300,176322,1,8,2:1:0:0:
298,285,176422,2,0,L|197:216,1,70,8|2,1:1|2:2,0:0:0:0:
286,188,176624,1,8,2:2:0:0:
262,212,176724,1,8,1:1:0:0:
234,204,176825,2,0,L|144:179,1,70,2|0,2:2|0:0,0:0:0:0:
41,302,177026,1,8,1:1:0:0:
31,342,177127,1,2,2:3:0:0:
52,372,177228,6,0,L|238:166,1,210,8|8,3:3|2:3,0:0:0:0:
108,78,177630,1,8,3:3:0:0:
126,126,177731,1,0,0:0:0:0:
160,115,177832,1,8,2:2:0:0:
187,132,177932,1,8,2:1:0:0:
227,158,178033,1,8,1:1:0:0:
234,122,178134,1,0,0:0:0:0:
287,102,178234,1,0,3:3:0:0:
323,106,178335,1,8,1:1:0:0:
337,76,178436,1,2,2:2:0:0:
234,384,178637,6,0,L|151:84,1,280,8|2,3:3|2:3,3:0:0:0:
287,11,179241,1,8,3:3:0:0:
314,52,179342,1,0,0:0:0:0:
360,57,179443,1,8,3:3:0:0:
372,99,179543,1,0,3:3:0:0:
418,114,179644,2,0,L|525:-1,1,140,8|8,1:1|2:2,1:0:0:0:
325,177,179946,2,0,L|255:349,1,140,8|8,1:1|2:2,1:0:0:0:
400,229,180248,2,0,P|438:216|405:174,1,70,8|0,1:1|0:0,0:0:0:0:
194,63,180449,5,4,3:1:0:0:
181,100,180550,2,0,L|99:159,1,70,8|2,2:2|2:2,0:0:0:0:
45,46,180751,1,8,2:2:0:0:
70,22,180852,2,0,L|318:93,1,210,0|2,3:3|2:3,0:0:0:0:
110,229,181255,6,0,P|28:180|56:117,1,140,8|8,1:1|1:1,1:0:0:0:
144,119,181557,1,8,2:2:0:0:
177,153,181657,1,2,2:3:0:0:
203,128,181758,1,2,2:2:0:0:
236,104,181859,1,8,1:1:0:0:
262,121,181959,1,0,0:0:0:0:
314,112,182060,6,0,L|347:193,3,70,2|8|2|2,2:3|1:1|2:2|2:3,0:0:0:0:
331,85,182463,2,0,L|360:0,3,70,8|0|8|2,2:2|0:0|3:3|2:2,0:0:0:0:
492,150,182865,2,0,P|479:240|402:262,1,140,8|8,1:1|2:2,1:0:0:0:
329,314,183167,2,0,P|261:253|290:184,1,140,8|8,1:1|2:2,1:0:0:0:
311,129,183469,1,8,2:2:0:0:
361,132,183570,1,0,0:0:0:0:
384,172,183671,6,0,L|338:403,1,210,8|8,3:3|2:3,3:0:0:0:
461,292,184073,2,0,L|274:317,1,140,8|8,3:3|2:2,0:0:0:0:
47,275,184476,5,8,1:1:0:0:
68,235,184577,1,0,0:0:0:0:
105,254,184677,1,0,3:3:0:0:
129,227,184778,1,8,1:1:0:0:
168,220,184879,1,2,2:2:0:0:
69,145,185080,1,8,3:3:0:0:
38,384,185281,6,0,L|112:188,1,175,8|2,3:3|2:3,0:0:0:0:
149,121,185583,1,0,3:3:0:0:
167,88,185684,2,0,P|115:23|59:151,1,262.5,8|0,3:3|3:3,0:0:0:0:
50,133,186087,6,0,L|136:243,1,87.5,8|0,1:1|0:0,0:0:0:0:
131,0,186288,2,0,L|119:106,1,87.5,8|8,2:2|1:1,0:0:0:0:
2,230,186489,2,0,L|277:26,1,262.5,2|2,3:3|2:3,1:0:0:0:
386,49,186892,6,2,L|439:154,1,94.5000003604889,4|0,3:1|0:0,0:0:0:0:
471,149,187094,1,2,2:2:0:0:
512,0,187295,2,2,L|432:96,1,94.5000003604889,8|0,1:1|0:0,0:0:0:0:
343,145,187496,1,2,2:2:0:0:
303,119,187597,1,0,0:0:0:0:
288,81,187698,2,2,L|257:246,1,154.000004699707,8|8,3:3|3:3,0:0:0:0:
477,323,188100,1,8,1:1:0:0:
450,347,188201,1,0,0:0:0:0:
413,335,188302,1,2,2:3:0:0:
400,361,188402,1,0,0:0:0:0:
369,374,188503,6,0,L|127:243,1,231.000007049561,2|0,2:2|0:0,3:0:0:0:
168,154,188906,2,0,L|203:274,1,77.0000023498536,8|0,1:1|0:0,0:0:0:0:
161,384,189107,2,0,L|348:194,1,231.000007049561,8|0,3:3|0:0,3:0:0:0:
259,167,189510,2,0,L|146:126,1,77.0000023498536,2|0,2:2|0:0,0:0:0:0:
412,295,189711,1,8,1:1:0:0:
466,256,189812,1,0,0:0:0:0:
435,210,189912,1,2,2:3:0:0:
411,166,190013,1,0,0:0:0:0:
420,118,190114,5,8,3:3:0:0:
377,80,190315,2,0,L|462:58,1,77.0000023498536,2|0,2:3|0:0,0:0:0:0:
512,342,190516,2,0,L|314:287,1,154.000004699707,8|8,1:1|3:3,3:0:0:0:
97,352,190919,1,8,3:3:0:0:
124,308,191020,1,0,0:0:0:0:
74,278,191120,1,2,2:2:0:0:
64,242,191221,1,0,0:0:0:0:
31,203,191322,1,8,1:1:0:0:
67,305,191523,2,0,L|18:376,1,77.0000023498536,8|0,3:3|0:0,0:0:0:0:
30,384,191724,6,0,L|274:287,1,231.000007049561,8|0,3:3|0:0,3:0:0:0:
292,267,192127,2,0,L|203:246,1,77.0000023498536,8|0,1:1|0:0,0:0:0:0:
91,162,192328,2,0,L|164:392,1,231.000007049561,2|0,2:3|0:0,3:0:0:0:
241,343,192731,1,8,3:3:0:0:
366,156,192932,1,8,1:1:0:0:
424,168,193033,1,0,0:0:0:0:
468,206,193134,1,8,3:3:0:0:
502,171,193234,1,8,1:1:0:0:
494,122,193335,6,0,P|439:50|431:-3,1,140,4|8,3:1|1:1,1:0:0:0:
338,161,193738,2,0,P|440:209|488:350,1,210,8|0,1:1|0:0,1:0:0:0:
500,315,194141,2,0,P|451:283|470:241,1,70,8|0,3:3|0:0,0:0:0:0:
512,142,194342,2,0,P|422:186|184:226,1,280,8|2,3:3|2:3,3:0:0:0:
26,90,194946,5,8,3:3:0:0:
62,55,195047,1,0,0:0:0:0:
106,78,195147,1,8,3:3:0:0:
109,33,195248,1,0,0:0:0:0:
152,0,195349,1,8,1:1:0:0:
34,200,195550,6,0,P|136:181|188:37,1,210,8|0,3:3|0:0,3:0:0:0:
141,34,195953,2,0,P|116:49|123:99,1,70,2|0,2:3|0:0,1:0:0:0:
156,0,196154,2,0,P|37:12|2:113,1,210,8|0,1:1|0:0,3:0:0:0:
139,78,196557,6,0,P|188:161|143:230,1,140,4|2,3:1|2:3,1:0:0:0:
36,289,196959,1,8,1:1:0:0:
59,332,197060,1,0,0:0:0:0:
76,362,197161,1,8,3:3:0:0:
109,361,197261,1,0,0:0:0:0:
153,383,197362,1,8,3:3:0:0:
77,182,197563,2,0,P|160:219|197:383,1,210,2|0,2:3|0:0,3:0:0:0:
216,348,197966,2,0,P|178:356|156:307,1,70,8|0,3:3|0:0,0:0:0:0:
0,384,198167,6,0,P|67:277|243:212,1,280,8|8,3:3|1:1,3:0:0:0:
12,384,198771,2,0,P|78:333|100:240,1,157.500006008148,2|0,2:2|0:0,0:0:0:0:
45,191,199174,2,0,P|85:163|91:127,1,70,8|0,3:3|0:0,0:0:0:0:
135,3,199375,1,8,1:1:0:0:
172,66,199476,1,0,0:0:0:0:
227,93,199577,1,2,2:2:0:0:
295,96,199677,1,8,1:1:0:0:
332,48,199778,6,0,L|491:7,1,140,4|8,3:1|1:1,1:0:0:0:
210,12,200181,1,8,1:1:0:0:
248,40,200281,1,0,0:0:0:0:
262,83,200382,1,2,2:2:0:0:
255,124,200483,1,0,0:0:0:0:
303,171,200583,2,0,L|337:300,1,80.5000015354157,8|0,3:3|0:0,0:0:0:0:
471,48,200785,2,0,L|257:-19,1,161.000003070831,8|8,3:3|1:1,0:0:0:0:
179,77,201187,2,0,L|221:178,1,80.5000015354157,2|0,2:2|0:0,0:0:0:0:
374,132,201389,6,0,L|544:9,1,161.000003070831,2|8,2:3|3:3,1:0:0:0:
145,138,201792,2,0,L|227:85,1,80.5000015354157,8|0,1:1|0:0,0:0:0:0:
381,0,201993,2,0,L|455:188,1,161.000003070831,8|0,3:3|0:0,1:0:0:0:
114,35,202396,1,2,2:2:0:0:
153,69,202496,1,0,0:0:0:0:
205,69,202597,2,0,L|21:152,1,161.000003070831,8|2,1:1|2:3,1:0:0:0:
49,225,202899,1,0,0:0:0:0:
106,213,203000,5,8,3:3:0:0:
266,340,203201,1,2,2:2:0:0:
302,302,203302,1,0,0:0:0:0:
349,328,203402,2,0,L|513:289,1,161.000003070831,8|8,1:1|3:3,3:0:0:0:
258,274,203805,2,0,L|223:364,1,80.5000015354157,8|0,3:3|0:0,0:0:0:0:
424,384,204006,2,0,L|491:186,1,161.000003070831,2|8,2:3|1:1,3:0:0:0:
233,9,204409,1,8,3:3:0:0:
261,49,204510,1,0,0:0:0:0:
305,53,204610,1,8,3:3:0:0:
345,80,204711,1,0,0:0:0:0:
332,130,204812,1,2,2:2:0:0:
292,165,204912,1,0,0:0:0:0:
309,210,205013,6,0,L|391:244,1,80.5000015354157,8|0,1:1|0:0,0:0:0:0:
509,5,205214,2,0,L|412:27,3,80.5000015354157,2|0|8|0,2:3|0:0|3:3|0:0,0:0:0:0:
414,103,205617,2,0,L|496:183,1,80.5000015354157,8|0,3:3|0:0,1:0:0:0:
272,299,205818,2,0,L|520:250,1,241.500004606247,8|8,1:1|1:1,1:0:0:0:
464,153,206221,6,0,P|415:141|416:208,1,80.5000015354157,4|0,3:1|0:0,0:0:0:0:
324,271,206422,2,0,P|288:259|212:287,1,80.5000015354157,8|0,1:1|0:0,0:0:0:0:
44,316,206624,1,8,1:1:0:0:
75,366,206724,1,0,0:0:0:0:
122,356,206825,1,2,2:3:0:0:
151,323,206926,1,0,0:0:0:0:
135,263,207026,2,0,L|93:171,1,80.5000015354157,8|0,3:3|0:0,0:0:0:0:
132,384,207228,2,0,L|214:105,1,241.500004606247,8|0,3:3|0:0,3:0:0:0:
102,35,207630,2,0,L|176:100,1,80.5000015354157,2|0,2:2|0:0,0:0:0:0:
27,293,207832,5,8,3:3:0:0:
58,261,207932,1,0,0:0:0:0:
117,262,208033,1,8,3:3:0:0:
175,282,208134,1,8,2:2:0:0:
227,238,208234,1,8,1:1:0:0:
227,4,208436,2,0,L|123:101,3,80.5000015354157,8|0|2|0,3:3|0:0|2:2|0:0,1:0:0:0:
352,84,208838,2,2,L|234:64,1,80.5000015354157,2|0,2:2|0:0,0:0:0:0:
141,173,209040,2,0,L|39:49,1,161.000003070831,8|2,1:1|2:3,1:0:0:0:
67,136,209443,1,8,3:3:0:0:
436,317,209644,6,0,P|478:290|463:237,1,80.5000015354157,2|0,2:2|0:0,0:0:0:0:
369,196,209845,2,0,L|446:412,1,161.000003070831,8|8,1:1|3:3,3:0:0:0:
238,191,210248,1,8,3:3:0:0:
287,200,210349,1,0,0:0:0:0:
339,184,210449,1,2,2:3:0:0:
351,175,210550,1,0,0:0:0:0:
380,120,210651,1,8,1:1:0:0:
416,101,210751,1,0,0:0:0:0:
402,46,210852,1,8,3:3:0:0:
220,384,211053,6,0,P|265:279|400:239,1,241.500004606247,8|0,3:3|0:0,1:0:0:0:
459,243,211456,2,0,P|441:287|386:316,1,80.5000015354157,8|0,1:1|0:0,1:0:0:0:
275,236,211657,2,2,P|247:190|167:176,1,80.5000015354157,8|0,3:3|0:0,0:0:0:0:
144,177,211859,2,2,P|102:158|81:114,1,80.5000015354157,8|0,3:3|0:0,0:0:0:0:
53,9,212060,2,0,L|96:96,1,80.5000015354157,8|0,3:3|0:0,1:0:0:0:
345,25,212261,1,8,1:1:0:0:
300,0,212362,1,0,0:0:0:0:
263,37,212463,1,2,2:2:0:0:
250,87,212563,1,8,1:1:0:0:
174,103,212664,5,4,3:1:0:0:
49,322,212865,2,0,L|172:232,1,87.5,2|0,2:2|0:0,0:0:0:0:
7,334,213067,2,0,L|242:317,1,175,8|2,1:1|2:2,0:0:0:0:
302,331,213369,1,2,2:3:0:0:
363,351,213469,1,8,3:3:0:0:
385,304,213570,1,2,2:3:0:0:
360,268,213671,1,8,3:3:0:0:
395,236,213771,1,0,0:0:0:0:
450,250,213872,1,8,1:1:0:0:
471,384,214073,6,0,L|368:110,1,262.5,2|0,2:3|0:0,1:0:0:0:
466,25,214476,2,0,L|343:44,1,87.5,8|0,3:3|0:0,0:0:0:0:
63,118,214677,1,8,1:1:0:0:
47,162,214778,1,0,0:0:0:0:
77,201,214879,1,8,3:3:0:0:
115,199,214979,1,2,2:3:0:0:
145,231,215080,1,2,2:2:0:0:
161,181,215181,1,2,2:3:0:0:
134,145,215281,1,2,2:2:0:0:
33,303,215483,2,0,L|151:278,1,87.5,8|0,1:1|0:0,0:0:0:0:
269,182,215684,2,0,L|194:86,1,87.5,2|0,2:2|0:0,0:0:0:0:
0,37,215885,6,0,P|16:151|163:153,1,262.5,4|0,3:1|0:0,1:0:0:0:
192,21,216288,1,8,1:1:0:0:
247,22,216389,1,0,0:0:0:0:
265,61,216489,1,8,3:3:0:0:
307,87,216590,1,2,2:3:0:0:
354,79,216691,1,8,3:3:0:0:
417,179,216892,1,2,2:2:0:0:
451,192,216993,1,0,0:0:0:0:
446,237,217094,1,8,1:1:0:0:
416,264,217194,1,0,0:0:0:0:
435,303,217295,1,8,3:3:0:0:
407,321,217396,1,0,0:0:0:0:
359,343,217496,5,8,3:3:0:0:
248,213,217698,1,2,2:2:0:0:
198,211,217798,1,0,0:0:0:0:
172,240,217899,2,0,L|277:396,1,175,10|2,1:1|2:2,1:0:0:0:
319,173,218302,2,0,L|343:281,1,87.5,10|0,3:3|0:0,0:0:0:0:
378,125,218503,2,0,L|341:228,1,87.5,10|0,3:3|0:0,0:0:0:0:
167,327,218704,2,0,L|278:288,1,87.5,10|0,1:1|0:0,0:0:0:0:
432,209,218906,2,2,L|525:250,1,87.5,10|8,3:3|1:1,0:1:0:0:
512,384,219107,6,2,P|364:329|364:123,1,350,4|8,3:1|1:1,1:1:0:0:
434,22,219711,1,2,2:2:0:0:
482,19,219812,1,2,2:3:0:0:
487,55,219912,2,2,L|444:179,1,87.5,8|2,3:3|2:3,0:0:0:0:
493,89,220114,2,2,L|391:166,1,87.5,8|0,3:3|0:0,0:0:0:0:
312,246,220315,2,0,P|270:218|264:157,1,87.5,8|0,1:1|0:0,3:0:0:0:
273,94,220516,2,0,P|248:63|169:22,1,87.5,0|2,0:0|2:2,1:0:0:0:
30,146,220718,5,0,0:0:0:0:
45,21,220919,1,8,3:3:0:0:
90,24,221020,1,0,0:0:0:0:
86,65,221120,1,8,1:1:0:0:
123,94,221221,1,0,0:0:0:0:
123,133,221322,1,8,3:3:0:0:
165,172,221422,1,2,2:3:0:0:
195,204,221523,1,2,2:2:0:0:
180,250,221624,1,2,2:3:0:0:
124,254,221724,1,2,2:2:0:0:
81,92,221926,2,0,L|182:59,1,87.5,8|0,1:1|0:0,3:0:0:0:
35,0,222127,2,0,L|-7:94,1,87.5,2|0,2:2|0:0,1:0:0:0:
222,124,222328,5,8,3:3:0:0:
28,269,222530,1,2,2:2:0:0:
72,269,222630,1,0,0:0:0:0:
99,303,222731,2,0,L|50:399,1,87.5,8|0,1:1|0:0,0:0:0:0:
334,225,222932,1,8,3:3:0:0:
314,285,223033,1,2,2:3:0:0:
286,321,223134,1,8,3:3:0:0:
244,296,223234,1,2,2:3:0:0:
201,268,223335,2,0,L|149:179,1,87.5,2|0,2:2|0:0,3:0:0:0:
106,327,223536,2,0,L|214:310,1,87.5,8|0,1:1|0:0,1:0:0:0:
216,104,223738,6,0,L|-32:273,1,262.5,8|0,3:3|0:0,1:0:0:0:
68,174,224141,2,2,L|94:40,1,87.5,2|0,2:2|0:0,0:0:0:0:
254,200,224342,1,10,1:1:0:0:
294,170,224443,1,0,0:0:0:0:
337,186,224543,1,2,2:2:0:0:
390,9,224745,2,2,L|343:97,1,87.5,10|0,3:3|0:0,0:0:0:0:
415,40,224946,2,2,L|389:182,1,87.5,10|0,3:3|0:0,0:0:0:0:
191,32,225147,2,0,L|299:-11,1,87.5,10|0,1:1|0:0,1:0:0:0:
512,163,225349,2,2,L|386:243,1,87.5,2|8,2:2|1:1,3:1:0:0:
493,0,225550,6,2,P|351:35|383:271,1,378.000001441956,4|8,3:1|1:1,1:1:0:0:
174,99,226154,1,2,2:2:0:0:
205,58,226255,1,2,2:3:0:0:
256,77,226355,1,8,3:3:0:0:
275,54,226456,1,2,2:3:0:0:
325,84,226557,1,8,3:3:0:0:
364,52,226657,1,0,0:0:0:0:
428,86,226758,1,8,1:1:0:0:
276,13,226959,2,0,L|219:141,1,94.5000003604889,0|2,0:0|2:2,0:0:0:0:
512,183,227161,6,2,P|457:353|256:331,1,378.000001441956,4|8,3:1|1:1,0:1:0:0:
42,200,227765,1,8,3:3:0:0:
70,237,227865,1,2,2:3:0:0:
106,221,227966,1,2,2:2:0:0:
131,247,228067,1,2,2:3:0:0:
146,300,228167,1,2,2:2:0:0:
119,324,228268,1,0,0:0:0:0:
40,338,228369,1,8,1:1:0:0:
171,171,228570,1,2,2:2:0:0:
211,210,228671,1,0,0:0:0:0:
257,184,228771,6,2,P|222:44|-7:64,1,378.000001441956,4|8,3:1|1:1,1:1:0:0:
30,48,229375,1,8,3:3:0:0:
72,42,229476,1,2,2:3:0:0:
119,40,229577,1,8,3:3:0:0:
137,84,229677,1,2,2:3:0:0:
117,120,229778,1,2,2:2:0:0:
71,152,229879,1,0,0:0:0:0:
81,199,229979,2,0,L|177:244,1,94.5000003604889,8|0,1:1|0:0,0:0:0:0:
91,12,230181,2,0,L|178:128,1,94.5000003604889,8|0,3:3|0:0,0:0:0:0:
47,312,230382,5,8,3:3:0:0:
120,359,230583,1,2,2:2:0:0:
232,187,230785,1,10,1:1:0:0:
231,126,230885,1,0,0:0:0:0:
271,85,230986,1,2,2:2:0:0:
313,131,231087,1,0,0:0:0:0:
359,97,231187,2,2,L|486:132,1,94.5000003604889,10|0,3:3|0:0,0:0:0:0:
310,9,231389,2,2,L|418:99,1,94.5000003604889,10|0,3:3|0:0,0:0:0:0:
512,270,231590,2,0,P|399:335|397:415,1,189.000000720978,14|10,1:1|3:3,0:0:0:0:
512,384,231993,6,2,P|426:249|450:3,1,378.000001441956,4|8,3:1|1:1,1:1:0:0:
332,179,232597,1,2,2:2:0:0:
380,211,232698,1,2,2:3:0:0:
414,181,232798,2,0,L|496:308,1,94.5000003604889,8|2,3:3|2:3,0:0:0:0:
512,24,233000,2,0,L|498:151,1,94.5000003604889,8|0,3:3|0:0,0:0:0:0:
333,90,233201,1,8,1:1:0:0:
303,136,233302,1,0,0:0:0:0:
254,126,233402,1,0,0:0:0:0:
220,161,233503,1,2,2:2:0:0:
176,125,233604,5,4,2:2:0:0:
64,278,233805,2,2,L|159:326,1,94.5000003604889,8|0,3:3|0:0,0:1:0:0:
42,48,234006,2,0,L|154:261,1,189.000000720978,10|8,1:1|3:3,0:0:0:0:
247,305,234308,2,0,L|180:408,1,94.5000003604889,2|2,2:1|2:2,0:0:0:0:
149,145,234510,2,0,L|150:302,1,94.5000003604889,0|2,0:0|2:1,0:0:0:0:
35,323,234711,1,0,0:0:0:0:
20,384,234812,2,0,L|107:311,1,94.5000003604889,10|0,1:1|0:0,0:0:0:0:
224,295,235013,1,2,2:1:0:0:
24,227,235214,5,4,3:1:0:0:
222,0,235416,2,0,L|112:32,1,94.5000003604889,2|0,2:1|0:0,0:0:0:0:
192,41,235617,2,0,L|126:270,1,189.000000720978,10|8,1:1|3:3,0:0:0:0:
261,155,235919,2,0,L|69:99,1,189.000000720978,2|0,2:1|0:0,0:0:0:0:
195,276,236322,1,0,0:0:0:0:
148,281,236422,2,2,L|90:149,1,94.5000003604889,8|0,1:1|0:0,1:1:0:0:
306,141,236624,2,2,L|193:229,1,94.5000003604889,8|0,3:3|0:0,1:1:0:0:
119,32,236825,5,4,3:2:0:0:
433,132,237026,2,0,L|392:36,1,105.000004005432,2|0,2:1|0:0,0:0:0:0:
419,19,237228,2,0,L|355:252,1,210.000008010865,10|2,1:1|2:2,0:0:0:0:
409,329,237530,1,2,2:1:0:0:
457,351,237630,2,0,L|499:236,1,105.000004005432,8|0,3:3|0:0,0:0:0:0:
191,244,237832,1,8,3:3:0:0:
223,285,237932,1,0,0:0:0:0:
245,328,238033,2,0,L|368:282,1,105.000004005432,10|0,1:1|0:0,1:0:0:0:
339,246,238234,2,0,L|479:294,1,105.000004005432,2|8,2:1|1:1,1:0:0:0:
470,13,238436,6,0,L|427:88,1,52.5000020027161,4|0,3:1|0:0,0:0:0:0:
353,61,238637,2,0,L|273:112,1,52.5000020027161,2|0,2:2|0:0,0:0:0:0:
198,65,238838,2,0,L|214:143,1,52.5000020027161,8|0,3:3|0:0,0:0:0:0:
93,52,239040,2,0,L|7:73,1,52.5000020027161,2|0,2:2|0:0,0:0:0:0:
29,258,239241,1,8,1:1:0:0:
57,237,239342,1,0,0:0:0:0:
84,247,239443,1,2,2:3:0:0:
110,216,239543,1,8,1:1:0:0:
156,233,239644,1,2,2:3:0:0:
184,201,239745,1,0,0:0:0:0:
221,198,239845,1,8,1:1:0:0:
251,171,239946,1,0,0:0:0:0:
283,200,240047,6,0,L|273:261,1,52.5000020027161,2|0,2:2|0:0,0:0:0:0:
376,178,240248,2,0,L|398:247,1,52.5000020027161,2|0,2:2|0:0,0:0:0:0:
464,183,240449,2,0,L|475:132,1,52.5000020027161,8|0,3:3|0:0,0:0:0:0:
436,25,240651,2,0,L|495:62,1,52.5000020027161,2|0,2:3|0:0,0:0:0:0:
489,370,240852,5,8,1:1:0:0:
470,338,240953,1,0,0:0:0:0:
427,340,241053,1,2,2:3:0:0:
382,333,241154,1,8,1:1:0:0:
358,303,241255,1,2,2:3:0:0:
313,305,241355,1,0,0:0:0:0:
262,321,241456,5,2,2:3:0:0:
204,276,241557,1,2,0:0:0:0:
146,319,241657,6,2,L|128:374,1,52.5000020027161,4|0,3:1|0:0,1:2:0:0:
48,238,241859,2,2,L|80:309,1,52.5000020027161,2|0,2:2|0:0,1:2:0:0:
106,155,242060,2,2,L|54:155,1,52.5000020027161,8|0,3:3|0:0,1:2:0:0:
78,12,242261,2,2,L|55:60,1,52.5000020027161,2|0,2:2|0:0,1:2:0:0:
291,15,242463,5,8,1:1:0:0:
267,43,242563,1,0,0:0:0:0:
283,81,242664,1,2,2:2:0:0:
268,118,242765,1,8,1:1:0:0:
234,140,242865,1,2,2:2:0:0:
240,172,242966,1,0,0:0:0:0:
248,209,243067,1,8,3:3:0:0:
235,239,243167,1,0,0:0:0:0:
246,276,243268,6,0,L|269:343,1,52.5000020027161,8|0,3:3|0:0,0:0:0:0:
285,316,243469,2,0,L|298:266,1,52.5000020027161,2|0,2:2|0:0,0:0:0:0:
323,251,243671,2,0,L|352:326,1,52.5000020027161,8|0,3:3|0:0,0:0:0:0:
345,279,243872,2,0,L|352:227,1,52.5000020027161,2|0,2:2|0:0,0:0:0:0:
485,124,244073,5,8,1:1:0:0:
469,105,244174,1,0,0:0:0:0:
445,117,244275,1,2,2:2:0:0:
419,99,244375,1,0,0:0:0:0:
402,112,244476,2,2,L|334:108,1,52.5000020027161,4|0,3:2|0:0,0:1:0:0:
512,5,244677,2,2,L|416:37,1,52.5000020027161,2|0,2:2|0:0,0:1:0:0:
469,339,244879,5,4,3:1:0:0:
441,291,244979,1,0,0:0:0:0:
378,301,245080,1,2,2:3:0:0:
325,309,245181,1,0,0:0:0:0:
294,271,245281,1,8,3:3:0:0:
243,244,245382,1,0,0:0:0:0:
240,199,245483,1,2,2:3:0:0:
186,170,245583,1,0,0:0:0:0:
131,191,245684,6,0,P|76:240|234:359,1,350,8|2,1:1|2:3,1:0:0:0:
280,352,246288,2,0,L|168:317,1,87.5,8|0,1:1|0:0,0:0:0:0:
99,0,246489,5,2,2:3:0:0:
92,50,246590,1,0,0:0:0:0:
84,96,246691,1,2,2:3:0:0:
118,120,246792,1,0,0:0:0:0:
162,105,246892,1,8,3:3:0:0:
191,147,246993,1,0,0:0:0:0:
206,192,247094,1,2,2:3:0:0:
259,201,247194,1,0,0:0:0:0:
289,168,247295,6,0,P|298:64|510:41,1,350,8|2,1:1|2:3,1:0:0:0:
371,111,247899,1,2,2:2:0:0:
337,65,248000,1,0,0:0:0:0:
275,69,248100,6,0,L|192:22,1,59.5000011348725,4|0,3:1|0:0,0:0:0:0:
200,109,248302,2,0,L|137:28,1,59.5000011348725,2|0,2:3|0:0,0:0:0:0:
94,38,248503,2,0,L|121:137,1,59.5000011348725,8|0,3:3|0:0,0:0:0:0:
37,135,248704,2,0,L|124:191,1,59.5000011348725,2|0,2:3|0:0,0:0:0:0:
255,354,248906,5,8,1:1:0:0:
242,307,249006,1,0,0:0:0:0:
275,273,249107,1,2,2:3:0:0:
337,276,249208,1,8,1:1:0:0:
349,214,249308,1,2,2:3:0:0:
399,198,249409,1,0,0:0:0:0:
450,220,249510,1,8,3:3:0:0:
488,179,249610,1,0,0:0:0:0:
479,121,249711,6,0,P|388:235|378:377,1,280,8|8,3:3|3:3,0:0:0:0:
466,361,250315,1,2,2:3:0:0:
378,170,250516,1,8,1:1:0:0:
328,203,250617,1,0,0:0:0:0:
290,183,250718,1,2,2:3:0:0:
249,147,250818,1,0,0:0:0:0:
268,98,250919,1,8,3:3:0:0:
253,55,251020,1,0,0:0:0:0:
206,42,251120,1,2,2:3:0:0:
169,67,251221,1,0,0:0:0:0:
114,56,251322,6,0,L|149:244,1,140,4|2,3:1|2:2,1:1:0:0:
391,10,251724,2,0,L|346:127,1,70,8|0,3:3|0:0,0:0:0:0:
428,125,251926,2,0,L|478:219,1,70,2|0,2:2|0:0,0:0:0:0:
260,360,252127,1,8,1:1:0:0:
318,371,252228,1,0,0:0:0:0:
340,331,252328,1,2,2:2:0:0:
320,294,252429,1,8,1:1:0:0:
344,249,252530,1,2,2:2:0:0:
291,211,252630,1,0,0:0:0:0:
244,231,252731,1,8,1:1:0:0:
206,267,252832,1,0,0:0:0:0:
205,309,252932,6,0,L|47:267,1,140,2|2,2:2|2:2,1:0:0:0:
444,227,253335,2,0,L|553:201,1,70,8|0,3:3|0:0,0:0:0:0:
401,162,253536,2,0,L|425:64,1,70,2|0,2:2|0:0,0:0:0:0:
106,372,253738,1,8,1:1:0:0:
161,366,253838,1,0,0:0:0:0:
146,318,253939,1,2,2:2:0:0:
150,275,254040,1,8,1:1:0:0:
102,246,254141,1,2,2:2:0:0:
60,256,254241,1,0,0:0:0:0:
40,218,254342,1,2,2:2:0:0:
57,176,254443,1,2,0:0:0:0:
34,130,254543,6,0,L|68:-19,1,140,4|2,3:1|2:2,1:0:0:0:
41,364,254946,1,8,3:3:0:0:
84,320,255047,1,0,0:0:0:0:
133,335,255147,1,2,2:2:0:0:
164,300,255248,1,0,0:0:0:0:
207,321,255349,2,0,L|433:272,1,210,8|8,1:1|1:1,0:0:0:0:
468,278,255751,2,0,L|434:386,1,70,2|0,2:2|0:0,0:0:0:0:
324,224,255953,2,0,L|395:288,1,70,8|0,3:3|0:0,0:0:0:0:
479,368,256154,6,2,L|383:352,1,70,8|0,3:3|0:0,0:0:0:0:
383,219,256355,2,2,L|310:289,1,70,2|0,2:2|0:0,0:0:0:0:
339,384,256557,2,0,L|501:281,1,140,8|2,3:3|2:2,0:0:0:0:
490,32,256959,1,8,1:1:0:0:
430,21,257060,1,0,0:0:0:0:
409,72,257161,1,2,2:2:0:0:
405,121,257261,1,0,0:0:0:0:
347,127,257362,1,4,3:2:0:0:
317,90,257463,1,0,0:0:0:0:
254,98,257563,1,2,2:2:0:0:
232,155,257664,1,0,0:0:0:0:
241,213,257765,6,2,P|171:229|37:58,1,280,4|8,3:1|3:3,1:0:0:0:
203,11,258369,1,2,2:3:0:0:
253,37,258469,1,0,0:0:0:0:
236,74,258570,2,0,L|173:205,1,140,8|2,1:1|2:3,1:0:0:0:
103,191,258872,2,0,L|248:290,1,140,8|0,1:1|0:0,1:0:0:0:
316,264,259174,1,8,1:1:0:0:
360,282,259275,1,0,0:0:0:0:
391,242,259375,5,2,2:2:0:0:
374,201,259476,1,0,0:0:0:0:
404,164,259577,1,2,2:3:0:0:
448,184,259677,1,0,0:0:0:0:
479,224,259778,1,8,3:3:0:0:
463,259,259879,1,0,0:0:0:0:
321,384,260080,1,0,0:0:0:0:
284,369,260181,2,0,L|258:226,1,140,8|2,1:1|2:3,1:0:0:0:
341,179,260483,2,0,L|190:110,1,140,8|0,1:1|0:0,1:0:0:0:
153,70,260785,1,2,2:2:0:0:
159,19,260885,1,2,0:0:0:0:
106,5,260986,6,0,P|30:47|26:228,1,280,4|8,3:1|3:3,1:0:0:0:
223,216,261590,1,2,2:3:0:0:
274,200,261691,1,0,0:0:0:0:
272,153,261792,1,8,1:1:0:0:
304,119,261892,1,0,0:0:0:0:
356,125,261993,1,2,2:3:0:0:
364,81,262094,1,8,1:1:0:0:
357,43,262194,2,0,L|432:4,1,70,2|0,2:3|0:0,0:0:0:0:
236,158,262396,2,0,L|340:242,1,70,8|0,3:3|0:0,0:0:0:0:
242,19,262597,6,2,L|196:107,1,70,8|0,3:3|0:0,0:0:0:0:
281,143,262798,2,2,L|275:265,1,70,2|0,2:3|0:0,0:0:0:0:
131,66,263000,2,0,L|388:2,1,210,8|0,3:3|0:0,0:0:0:0:
413,40,263402,1,8,1:1:0:0:
451,76,263503,1,0,0:0:0:0:
436,121,263604,1,2,2:3:0:0:
385,128,263704,1,0,0:0:0:0:
352,154,263805,1,8,3:3:0:0:
346,208,263906,1,0,0:0:0:0:
322,219,264006,1,8,1:1:0:0:
289,251,264107,1,0,3:3:0:0:
293,307,264208,6,0,L|303:364,2,35,4|0|0,3:1|0:0|3:3,0:0:0:0:
108,309,264610,1,8,3:3:0:0:
140,274,264711,1,0,0:0:0:0:
123,236,264812,1,8,2:2:0:0:
112,188,264912,1,0,0:0:0:0:
77,158,265013,2,0,P|31:197|21:300,1,140,8|0,1:1|0:0,0:0:0:0:
146,210,265617,2,0,L|208:205,1,35,8|0,1:1|0:0,0:0:0:0:
64,376,265818,6,2,L|5:73,1,280,0|8,0:0|1:1,0:0:0:0:
83,38,266825,1,8,2:2:0:0:
83,38,266926,1,8,1:1:0:0:
83,38,267026,1,0,0:0:0:0:
58,199,267228,1,8,1:1:0:0:
58,199,267328,1,2,0:0:0:0:
58,199,267429,6,0,P|97:248|94:319,1,105,4|8,3:1|2:3,1:0:0:0:
35,331,267832,2,0,P|50:375|81:384,1,70,8|8,3:3|2:2,0:0:0:0:
257,371,268234,1,8,1:1:0:0:
282,346,268335,1,0,0:0:0:0:
326,355,268436,1,0,3:3:0:0:
349,333,268536,1,8,1:1:0:0:
388,348,268637,2,0,L|370:401,1,35,0|0,0:0|3:3,0:0:0:0:
288,235,268838,2,0,L|303:282,1,35,8|0,3:3|0:0,0:0:0:0:
509,273,269040,5,8,3:3:0:0:
489,289,269141,2,0,L|430:279,1,35,0|0,3:3|0:0,0:0:0:0:
335,216,269342,1,0,3:3:0:0:
313,250,269443,2,0,L|269:272,1,35,8|0,3:3|0:0,0:0:0:0:
440,302,269644,2,0,L|447:351,1,35,8|0,3:3|3:3,0:0:0:0:
464,163,269845,6,0,P|445:97|378:57,1,105.000004005432,8|8,1:1|2:2,0:0:0:0:
347,110,270147,1,8,1:1:0:0:
324,68,270248,2,0,P|277:23|235:27,1,105.000004005432,0|8,0:0|1:1,0:0:0:0:
220,107,270550,1,0,0:0:0:0:
192,158,270651,6,2,L|241:363,1,210.000008010865,4|0,3:1|3:3,0:0:0:0:
30,69,271456,1,8,1:1:0:0:
68,47,271557,1,0,0:0:0:0:
99,68,271657,1,8,1:1:0:0:
86,119,271758,1,8,2:2:0:0:
95,167,271859,1,0,0:0:0:0:
142,180,271959,1,0,3:3:0:0:
189,163,272060,1,8,1:1:0:0:
205,120,272161,1,0,0:0:0:0:
256,104,272261,5,0,0:0:0:0:
276,82,272362,1,8,1:1:0:0:
281,50,272463,2,0,L|265:-5,1,52.5000020027161
146,93,272664,2,0,L|109:209,1,105.000004005432,8|8,2:2|3:3,0:0:0:0:
0,55,273067,2,0,P|59:18|223:52,1,210.000008010865,8|0,1:1|0:0,0:0:0:0:
207,42,273671,1,8,2:2:0:0:
238,78,273771,1,2,0:0:0:0:
276,67,273872,6,0,P|337:65|360:118,1,105.000004005432,8|0,3:3|0:0,0:0:0:0:
342,7,274275,2,0,L|364:86,1,52.5000020027161,8|0,3:3|0:0,0:0:0:0:
301,142,274476,2,0,L|309:197,1,52.5000020027161,8|8,2:2|2:1,0:0:0:0:
110,131,274677,2,0,L|44:111,7,52.5000020027161,8|0|0|8|0|0|8|0,1:1|0:0|3:3|1:1|0:0|3:3|3:3|0:0,0:0:0:0:
126,56,275483,6,0,P|160:63|171:97,1,52.5000020027161,8|0,3:3|3:3,0:0:0:0:
223,17,275684,2,0,P|244:48|243:92,1,52.5000020027161,0|0,0:0|3:3,0:0:0:0:
60,163,275885,2,0,P|104:114|172:69,1,105.000004005432,8|8,3:3|3:3,0:0:0:0:
321,23,276288,2,0,P|356:18|393:22,1,52.5000020027161,8|0,1:1|0:0,0:0:0:0:
407,106,276489,1,8,2:2:0:0:
448,82,276590,1,8,1:1:0:0:
476,113,276691,6,0,P|468:181|406:218,1,105.000004005432,0|8,0:0|1:1,0:0:0:0:
352,0,277094,2,0,L|326:121,1,105.000004005432,4|0,3:1|3:3,0:0:0:0:
315,351,277496,1,8,3:3:0:0:
365,330,277597,1,0,0:0:0:0:
400,349,277698,1,8,2:2:0:0:
434,333,277798,1,0,0:0:0:0:
470,341,277899,5,8,1:1:0:0:
503,321,278000,2,0,L|495:257,1,52.5000020027161,0|8,0:0|3:3,0:0:0:0:
336,68,278201,1,8,2:1:0:0:
360,104,278302,2,0,L|346:159,1,52.5000020027161
247,272,278503,2,0,L|162:286,1,52.5000020027161,8|0,1:1|0:0,0:0:0:0:
57,201,278704,5,0,0:0:0:0:
38,162,278805,2,0,P|66:109|135:90,1,105.000004005432,8|0,2:2|0:0,0:0:0:0:
126,21,279107,2,0,P|189:33|217:76,1,105.000004005432,8|8,2:2|2:3,0:0:0:0:
19,99,279510,2,0,L|236:179,1,210.000008010865,8|0,1:1|0:0,0:0:0:0:
350,99,280114,1,8,1:1:0:0:
380,43,280214,1,2,0:0:0:0:
342,0,280315,6,0,P|237:3|244:112,1,210.000008010865,4|8,3:1|3:3,1:0:0:0:
147,299,280919,1,8,2:2:0:0:
135,336,281020,1,8,2:1:0:0:
89,338,281120,2,0,L|31:194,1,105.000004005432,8|0,1:1|3:3,0:0:0:0:
120,173,281422,2,0,L|2:238,1,105.000004005432,8|0,1:1|3:3,0:0:0:0:
38,364,281724,2,0,L|99:387,1,52.5000020027161,8|0,3:3|0:0,0:0:0:0:
208,257,281926,5,8,3:3:0:0:
243,227,282026,1,0,3:3:0:0:
225,185,282127,1,0,0:0:0:0:
232,144,282228,1,0,3:3:0:0:
191,119,282328,1,8,3:3:0:0:
206,87,282429,1,0,0:0:0:0:
193,59,282530,1,8,3:3:0:0:
348,0,282731,2,0,L|299:115,1,105.000004005432,8|8,1:1|2:2,0:0:0:0:
372,125,283033,2,0,L|261:164,1,105.000004005432,8|8,1:1|2:2,0:0:0:0:
278,195,283335,2,0,L|247:273,1,52.5000020027161,8|0,1:1|0:0,0:0:0:0:
461,32,283536,5,4,3:1:0:0:
461,32,283637,1,8,2:2:0:0:
461,32,283738,1,0,0:0:0:0:
472,230,283939,1,0,3:3:0:0:
444,189,284040,1,0,0:0:0:0:
395,180,284141,1,8,2:2:0:0:
375,159,284241,1,0,0:0:0:0:
329,147,284342,2,0,P|276:96|184:88,1,157.500006008148,8|8,1:1|2:2,0:0:0:0:
74,346,284946,1,8,1:1:0:0:
30,268,285147,5,0,0:0:0:0:
53,247,285248,1,8,1:1:0:0:
87,252,285349,1,0,0:0:0:0:
179,330,285550,2,0,L|296:313,1,105.000004005432,8|8,2:2|3:3,0:0:0:0:
360,253,285852,2,0,L|311:375,1,105.000004005432,0|0,3:3|0:0,0:0:0:0:
387,381,286154,2,0,L|444:362,1,52.5000020027161,8|8,2:1|1:1,0:0:0:0:
223,247,286355,2,0,L|289:313,1,52.5000020027161,0|8,0:0|2:2,0:0:0:0:
435,236,286557,1,8,2:2:0:0:
439,192,286657,1,2,0:0:0:0:
413,160,286758,6,0,P|350:125|363:24,1,157.500006008148,8|8,3:3|2:3,0:0:0:0:
346,0,287161,2,0,P|390:34|373:71,1,105.000004005432,8|8,3:3|2:2,0:0:0:0:
190,98,287563,1,8,1:1:0:0:
164,71,287664,1,0,0:0:0:0:
138,81,287765,1,0,3:3:0:0:
101,100,287865,1,8,1:1:0:0:
78,82,287966,2,0,L|38:9,1,52.5000020027161,0|0,0:0|3:3,0:0:0:0:
83,102,288167,2,0,L|67:165,1,52.5000020027161,8|0,3:3|0:0,0:0:0:0:
204,198,288369,5,8,3:3:0:0:
231,176,288469,1,0,3:3:0:0:
259,188,288570,1,0,0:0:0:0:
279,168,288671,1,0,3:3:0:0:
307,190,288771,2,0,L|276:256,1,52.5000020027161,8|0,3:3|0:0,0:0:0:0:
330,177,288973,2,0,L|310:117,1,52.5000020027161,8|0,3:3|3:3,0:0:0:0:
137,204,289174,6,0,L|93:320,1,105.000004005432,8|8,1:1|2:2,1:0:0:0:
181,372,289476,2,0,L|309:334,1,105.000004005432,8|8,1:1|2:2,1:0:0:0:
334,264,289778,1,8,1:1:0:0:
330,259,289879,1,2,0:0:0:0:
364,272,289979,5,4,3:1:0:0:
