osu file format v14

[General]
AudioFilename: Eiji Kuinbii.mp3
AudioLeadIn: 0
PreviewTime: 152206
Countdown: 1
SampleSet: Soft
StackLeniency: 0.7
Mode: 0
LetterboxInBreaks: 0
WidescreenStoryboard: 1

[Editor]
Bookmarks: 25000
DistanceSpacing: 1
BeatDivisor: 8
GridSize: 16
TimelineZoom: 3.199999

[Metadata]
Title:Eiji Kuinbii
TitleUnicode:Eiji Kuinbii
Artist:-45
ArtistUnicode:-45
Creator:EijiKuinbii
Version:old
Source:うみねこのなく頃に散
Tags:when they cry ep6 07th expansion deathstream practice
BeatmapID:1271395
BeatmapSetID:597191

[Difficulty]
HPDrainRate:4
CircleSize:5
OverallDifficulty:7
ApproachRate:9
SliderMultiplier:1.4
SliderTickRate:1

[Events]
//Background and Video events
0,0,"123.jpg",0,0
//Break Periods
2,26965,38714
2,127945,139106
//Storyboard Layer 0 (Background)
//Storyboard Layer 1 (Fail)
//Storyboard Layer 2 (Pass)
//Storyboard Layer 3 (Foreground)
//Storyboard Sound Samples

[TimingPoints]
1667,392.156862745098,4,2,0,25,1,0
1667,-133.333333333333,4,2,0,25,0,0
2255,-100,4,2,0,25,0,0
3235,-133.333333333333,4,2,0,25,0,0
3823,-100,4,2,0,25,0,0
4804,-133.333333333333,4,2,0,25,0,0
5392,-100,4,2,0,25,0,0
6372,-133.333333333333,4,2,0,25,0,0
6961,-100,4,2,0,25,0,0
7941,-133.333333333333,4,2,0,25,0,0
8529,-100,4,2,0,25,0,0
9510,-133.333333333333,4,2,0,25,0,0
10098,-100,4,2,0,25,0,0
11078,-133.333333333333,4,2,0,25,0,0
11667,-100,4,2,0,25,0,0
12647,-133.333333333333,4,2,0,25,0,0
13235,-100,4,2,0,25,0,0
14216,-133.333333333333,4,2,0,70,0,0
14608,-200,4,2,0,70,0,0
15000,-133.333333333333,4,2,0,70,0,0
15392,-200,4,2,0,70,0,0
15784,-133.333333333333,4,2,0,70,0,0
16176,-200,4,2,0,70,0,0
16568,-133.333333333333,4,2,0,70,0,0
16961,-200,4,2,0,70,0,0
17353,-133.333333333333,4,2,0,70,0,0
17745,-200,4,2,0,70,0,0
18137,-133.333333333333,4,2,0,70,0,0
18529,-200,4,2,0,70,0,0
18921,-133.333333333333,4,2,0,70,0,0
19314,-200,4,2,0,70,0,0
19706,-133.333333333333,4,2,0,70,0,0
20098,-200,4,2,0,70,0,0
20490,-133.333333333333,4,2,0,70,0,0
20882,-200,4,2,0,70,0,0
21274,-133.333333333333,4,2,0,70,0,0
21667,-200,4,2,0,70,0,0
22059,-133.333333333333,4,2,0,70,0,0
22451,-200,4,2,0,70,0,0
22843,-133.333333333333,4,2,0,70,0,0
23235,-200,4,2,0,70,0,0
23627,-100,4,2,0,70,0,0
24019,-80,4,2,0,70,0,0
24412,-66.6666666666667,4,2,0,70,0,0
24804,-100,4,2,0,70,0,0
39314,-76.9230769230769,4,2,0,70,0,0
45588,-74.0740740740741,4,2,0,70,0,0
51470,-50,4,2,0,70,0,0
51863,-76.9230769230769,4,2,0,70,0,1
76372,-76.9230769230769,4,2,0,70,0,0
76961,-66.6666666666667,4,2,0,70,0,1
79608,-50,4,2,0,70,0,1
80098,-66.6666666666667,4,2,0,70,0,1
101274,-100,4,2,0,70,0,1
101470,-133.333333333333,4,2,0,70,0,0
102059,-76.9230769230769,4,2,0,70,0,1
127157,-200,4,2,0,70,0,0
127549,-200,4,2,0,5,0,0
139706,-66.6666666666667,4,2,0,70,0,0
141274,-200,4,2,0,5,0,0
144804,-100,4,2,0,70,0,0
145980,-200,4,2,0,5,0,0
151470,-100,4,2,0,5,0,0
152255,-50,4,2,0,70,0,1
176765,-50,4,2,0,70,0,0
177353,-66.6666666666667,4,2,0,70,0,1
201863,-50,4,2,0,70,0,0
202451,-50,4,2,0,70,0,1
227549,-50,4,2,0,70,0,0
252647,-50,4,2,0,5,0,0

[HitObjects]
271,73,1667,6,0,P|208:82|165:113,1,105.000004005432
211,191,2255,6,0,P|302:204|211:193,1,280
241,311,3235,6,0,P|304:302|347:271,1,105.000004005432
301,182,3823,6,0,P|209:196|302:193,1,280
137,177,4804,6,0,P|146:240|177:283,1,105.000004005432
255,238,5392,6,0,P|268:147|257:238,1,280
375,207,6372,6,0,P|366:144|335:101,1,105.000004005432
246,146,6961,6,0,P|260:238|257:146,1,280
160,119,7941,6,0,P|136:178|142:231,1,105.000004005432
223,223,8529,6,0,P|279:151|224:224,1,280
351,264,9510,6,0,P|375:205|369:152,1,105.000004005432
281,153,10098,6,0,P|225:226|288:159,1,280
183,287,11078,6,0,P|242:311|295:305,1,105.000004005432
288,223,11667,6,0,P|216:167|289:222,1,280
328,96,12647,6,0,P|269:72|216:78,1,105.000004005432
218,165,13235,6,0,P|291:221|224:159,1,280
183,287,14216,6,0,L|175:328,1,26.2500010013581
283,309,14412,2,0,L|287:351,1,26.2500010013581
151,188,14608,6,0,L|124:220,1,35
329,97,15000,6,0,L|336:55,1,26.2500010013581
229,75,15196,2,0,L|225:32,1,26.2500010013581
361,196,15392,6,0,L|387:163,1,35
161,265,15784,6,0,L|119:272,1,26.2500010013581
139,165,15980,2,0,L|96:161,1,26.2500010013581
260,297,16176,6,0,L|227:323,1,35
351,119,16568,6,0,L|393:112,1,26.2500010013581
373,219,16764,2,0,L|416:223,1,26.2500010013581
252,87,16961,6,0,L|285:61,1,35
183,287,17353,6,0,L|175:328,1,26.2500010013581
283,309,17549,2,0,L|287:351,1,26.2500010013581
151,188,17745,6,0,L|124:220,1,35
329,97,18137,6,0,L|336:55,1,26.2500010013581
229,75,18333,2,0,L|225:32,1,26.2500010013581
361,196,18529,6,0,L|387:163,1,35
161,265,18921,6,0,L|119:272,1,26.2500010013581
139,165,19117,2,0,L|96:161,1,26.2500010013581
260,297,19314,6,0,L|227:323,1,35
351,119,19706,6,0,L|393:112,1,26.2500010013581
373,219,19901,2,0,L|416:223,1,26.2500010013581
252,87,20098,6,0,L|285:61,1,35
183,287,20490,6,0,L|175:328,1,26.2500010013581
283,309,20686,2,0,L|287:351,1,26.2500010013581
151,188,20882,6,0,L|124:220,1,35
329,97,21274,6,0,L|336:55,1,26.2500010013581
229,75,21470,2,0,L|225:32,1,26.2500010013581
361,196,21667,6,0,L|387:163,1,35
161,265,22059,6,0,L|119:272,1,26.2500010013581
139,165,22254,2,0,L|96:161,1,26.2500010013581
260,297,22451,6,0,L|227:323,1,35
351,119,22843,6,0,L|393:112,1,26.2500010013581
373,219,23038,2,0,L|416:223,1,26.2500010013581
252,87,23235,6,0,L|285:61,1,35
256,207,23627,6,0,L|253:224,1,17.5
248,204,23725,2,0,L|237:217,1,17.5
243,199,23823,2,0,L|226:205,1,17.5
241,192,23921,2,0,L|223:189,1,17.5
243,184,24019,6,0,L|225:170,1,21.875
248,179,24117,2,0,L|240:158,1,21.875
256,177,24216,2,0,L|258:155,1,21.875
263,179,24314,2,0,L|276:161,1,21.875
268,184,24412,6,0,L|292:175,1,26.2500010013581
271,192,24510,2,0,L|297:195,1,26.2500010013581
268,199,24608,2,0,L|289:215,1,26.2500010013581
263,204,24706,2,0,L|272:228,1,26.2500010013581
256,207,24804,6,0,L|250:240,2,35
379,159,25196,6,0,L|385:192,4,17.5
165,101,25588,6,0,L|191:80,4,17.5
223,315,25980,6,0,L|191:303,4,17.5
379,159,26372,5,0,0:0:0:0:
379,163,26421,1,0,0:0:0:0:
380,167,26470,1,0,0:0:0:0:
381,172,26519,1,0,0:0:0:0:
382,176,26568,1,0,0:0:0:0:
383,180,26617,1,0,0:0:0:0:
384,185,26667,1,0,0:0:0:0:
385,189,26716,1,0,0:0:0:0:
385,193,26765,1,0,0:0:0:0:
385,193,39314,6,0,L|394:295,1,90.9999958343508
309,142,39706,1,0,0:0:0:0:
167,226,40000,1,0,0:0:0:0:
167,226,40098,2,0,L|174:135,1,90.9999958343508
244,261,40490,2,0,P|190:308|133:300,1,90.9999958343508
84,127,40882,6,0,L|174:134,1,90.9999958343508
45,44,41274,1,0,0:0:0:0:
147,254,41568,1,0,0:0:0:0:
147,254,41667,2,0,L|56:261,1,90.9999958343508
171,177,42059,2,0,P|217:215|223:275,1,90.9999958343508
64,352,42451,6,0,L|56:261,1,90.9999958343508
87,98,42843,2,0,L|79:188,1,90.9999958343508
147,254,43137,1,0,0:0:0:0:
146,253,43235,2,0,L|154:163,1,90.9999958343508
78,295,43627,2,0,P|121:330|187:321,1,90.9999958343508
244,170,44019,6,0,L|153:162,1,90.9999958343508
0,104,44412,2,0,L|90:96,1,90.9999958343508
171,80,44706,1,0,0:0:0:0:
170,79,44804,2,0,L|261:87,1,90.9999958343508
161,252,45196,2,0,L|153:161,1,90.9999958343508
238,260,45588,6,0,P|190:325|155:330,1,94.5000003604889
62,169,45980,2,0,L|163:160,1,94.5000003604889
245,169,46274,1,0,0:0:0:0:
245,169,46372,2,0,L|347:178,1,94.5000003604889
226,86,46765,2,0,P|172:126|161:162,1,94.5000003604889
330,271,47157,6,0,L|339:168,1,94.5000003604889
400,34,47549,2,0,L|408:128,1,94.5000003604889
416,204,47843,1,0,0:0:0:0:
415,203,47941,2,0,L|407:298,1,94.5000003604889
343,161,48333,2,0,P|395:123|454:134,1,94.5000003604889
501,289,48725,6,0,L|406:297,1,94.5000003604889
233,238,49117,2,0,L|327:246,1,94.5000003604889
415,203,49412,1,0,0:0:0:0:
414,202,49510,2,0,L|508:193,1,94.5000003604889
374,126,49902,2,0,P|330:180|331:222,1,94.5000003604889
313,377,50294,6,0,L|304:282,1,94.5000003604889
241,143,50686,2,0,L|232:237,1,94.5000003604889
152,284,50980,1,0,0:0:0:0:
151,283,51078,2,0,L|160:189,1,94.5000003604889
68,294,51470,6,0,P|137:363|224:317,1,210
265,209,51863,5,0,0:0:0:0:
298,178,51961,1,0,0:0:0:0:
342,170,52059,1,0,0:0:0:0:
386,178,52157,1,0,0:0:0:0:
423,203,52255,1,0,0:0:0:0:
468,206,52353,1,0,0:0:0:0:
504,178,52451,1,0,0:0:0:0:
511,133,52549,1,0,0:0:0:0:
483,97,52647,5,0,0:0:0:0:
440,82,52745,1,0,0:0:0:0:
397,98,52843,1,0,0:0:0:0:
351,100,52941,1,0,0:0:0:0:
308,86,53039,1,0,0:0:0:0:
279,53,53137,1,0,0:0:0:0:
235,44,53235,1,0,0:0:0:0:
195,64,53333,1,0,0:0:0:0:
175,103,53431,5,0,0:0:0:0:
147,68,53529,1,0,0:0:0:0:
104,55,53627,1,0,0:0:0:0:
61,69,53725,1,0,0:0:0:0:
34,104,53823,1,0,0:0:0:0:
31,149,53921,1,0,0:0:0:0:
54,187,54019,1,0,0:0:0:0:
95,205,54117,1,0,0:0:0:0:
137,221,54215,5,0,0:0:0:0:
164,257,54313,1,0,0:0:0:0:
169,302,54411,1,0,0:0:0:0:
149,342,54509,1,0,0:0:0:0:
111,367,54608,5,0,0:0:0:0:
149,342,54706,1,0,0:0:0:0:
193,332,54804,1,0,0:0:0:0:
238,337,54902,1,0,0:0:0:0:
278,359,55000,5,0,0:0:0:0:
321,368,55098,1,0,0:0:0:0:
361,348,55196,1,0,0:0:0:0:
380,308,55294,1,0,0:0:0:0:
366,264,55392,1,0,0:0:0:0:
396,230,55490,1,0,0:0:0:0:
405,185,55588,1,0,0:0:0:0:
391,141,55686,1,0,0:0:0:0:
356,110,55784,5,0,0:0:0:0:
310,110,55882,1,0,0:0:0:0:
266,105,55980,1,0,0:0:0:0:
242,69,56078,1,0,0:0:0:0:
254,26,56176,1,0,0:0:0:0:
295,10,56274,1,0,0:0:0:0:
334,29,56372,1,0,0:0:0:0:
358,67,56470,1,0,0:0:0:0:
367,111,56568,5,0,0:0:0:0:
359,155,56666,1,0,0:0:0:0:
334,192,56764,1,0,0:0:0:0:
296,217,56862,1,0,0:0:0:0:
251,224,56960,1,0,0:0:0:0:
207,210,57059,1,0,0:0:0:0:
165,194,57157,1,0,0:0:0:0:
123,209,57255,1,0,0:0:0:0:
101,248,57353,5,0,0:0:0:0:
110,292,57451,1,0,0:0:0:0:
145,319,57549,1,0,0:0:0:0:
189,317,57647,1,0,0:0:0:0:
228,294,57745,1,0,0:0:0:0:
265,268,57843,1,0,0:0:0:0:
310,262,57941,1,0,0:0:0:0:
353,275,58039,1,0,0:0:0:0:
380,312,58137,5,0,0:0:0:0:
353,276,58235,1,0,0:0:0:0:
360,231,58333,1,0,0:0:0:0:
389,196,58431,1,0,0:0:0:0:
389,150,58529,1,0,0:0:0:0:
361,114,58627,1,0,0:0:0:0:
320,93,58725,1,0,0:0:0:0:
275,93,58823,1,0,0:0:0:0:
235,114,58921,5,0,0:0:0:0:
209,150,59019,1,0,0:0:0:0:
207,196,59117,1,0,0:0:0:0:
204,241,59215,1,0,0:0:0:0:
175,276,59313,1,0,0:0:0:0:
132,288,59411,1,0,0:0:0:0:
90,272,59509,1,0,0:0:0:0:
61,235,59608,1,0,0:0:0:0:
54,191,59706,5,0,0:0:0:0:
75,152,59804,1,0,0:0:0:0:
116,134,59902,1,0,0:0:0:0:
160,141,60000,1,0,0:0:0:0:
203,154,60098,1,0,0:0:0:0:
248,148,60196,1,0,0:0:0:0:
272,109,60294,1,0,0:0:0:0:
301,75,60392,1,0,0:0:0:0:
345,66,60490,5,0,0:0:0:0:
386,84,60588,1,0,0:0:0:0:
408,123,60686,1,0,0:0:0:0:
403,167,60784,1,0,0:0:0:0:
373,200,60882,1,0,0:0:0:0:
329,209,60980,1,0,0:0:0:0:
292,235,61078,1,0,0:0:0:0:
272,276,61176,1,0,0:0:0:0:
274,321,61274,5,0,0:0:0:0:
299,358,61372,1,0,0:0:0:0:
340,377,61470,1,0,0:0:0:0:
385,374,61568,1,0,0:0:0:0:
422,348,61666,1,0,0:0:0:0:
441,308,61764,1,0,0:0:0:0:
437,263,61862,1,0,0:0:0:0:
412,224,61961,1,0,0:0:0:0:
415,178,62059,5,0,0:0:0:0:
374,198,62157,1,0,0:0:0:0:
328,193,62255,1,0,0:0:0:0:
297,160,62353,1,0,0:0:0:0:
293,114,62451,1,0,0:0:0:0:
319,76,62549,1,0,0:0:0:0:
362,64,62647,1,0,0:0:0:0:
405,75,62745,1,0,0:0:0:0:
450,76,62843,5,0,0:0:0:0:
428,116,62941,1,0,0:0:0:0:
404,154,63039,1,0,0:0:0:0:
398,199,63137,1,0,0:0:0:0:
412,242,63235,1,0,0:0:0:0:
443,275,63333,1,0,0:0:0:0:
448,320,63431,1,0,0:0:0:0:
431,361,63529,1,0,0:0:0:0:
392,384,63627,5,0,0:0:0:0:
348,379,63725,1,0,0:0:0:0:
315,348,63823,1,0,0:0:0:0:
308,304,63921,1,0,0:0:0:0:
326,263,64019,1,0,0:0:0:0:
332,218,64117,1,0,0:0:0:0:
319,174,64215,1,0,0:0:0:0:
291,139,64313,1,0,0:0:0:0:
251,118,64411,5,0,0:0:0:0:
291,139,64510,1,0,0:0:0:0:
336,144,64608,1,0,0:0:0:0:
378,129,64706,1,0,0:0:0:0:
410,97,64804,1,0,0:0:0:0:
455,90,64902,1,0,0:0:0:0:
490,117,65000,1,0,0:0:0:0:
499,160,65098,1,0,0:0:0:0:
477,199,65196,5,0,0:0:0:0:
435,213,65294,1,0,0:0:0:0:
389,211,65392,1,0,0:0:0:0:
347,229,65490,1,0,0:0:0:0:
329,271,65588,1,0,0:0:0:0:
301,306,65686,1,0,0:0:0:0:
259,321,65784,1,0,0:0:0:0:
216,310,65882,1,0,0:0:0:0:
186,276,65980,5,0,0:0:0:0:
180,232,66078,1,0,0:0:0:0:
199,192,66176,1,0,0:0:0:0:
238,169,66274,1,0,0:0:0:0:
281,184,66372,1,0,0:0:0:0:
325,187,66470,1,0,0:0:0:0:
363,163,66568,1,0,0:0:0:0:
381,122,66666,1,0,0:0:0:0:
370,79,66764,5,0,0:0:0:0:
337,49,66862,1,0,0:0:0:0:
292,45,66960,1,0,0:0:0:0:
251,64,67058,1,0,0:0:0:0:
224,101,67157,1,0,0:0:0:0:
180,113,67255,1,0,0:0:0:0:
134,108,67353,1,0,0:0:0:0:
93,86,67451,1,0,0:0:0:0:
76,43,67549,5,0,0:0:0:0:
91,86,67647,1,0,0:0:0:0:
72,127,67745,1,0,0:0:0:0:
34,152,67843,1,0,0:0:0:0:
18,194,67941,1,0,0:0:0:0:
20,238,68039,1,0,0:0:0:0:
44,276,68137,1,0,0:0:0:0:
84,297,68235,1,0,0:0:0:0:
129,294,68333,5,0,0:0:0:0:
166,269,68431,1,0,0:0:0:0:
210,258,68529,1,0,0:0:0:0:
253,273,68627,1,0,0:0:0:0:
286,304,68725,1,0,0:0:0:0:
328,319,68823,1,0,0:0:0:0:
372,314,68921,1,0,0:0:0:0:
411,290,69019,1,0,0:0:0:0:
435,252,69117,5,0,0:0:0:0:
438,206,69215,1,0,0:0:0:0:
399,180,69314,1,0,0:0:0:0:
371,143,69412,1,0,0:0:0:0:
373,97,69510,1,0,0:0:0:0:
396,58,69608,1,0,0:0:0:0:
437,41,69706,1,0,0:0:0:0:
480,54,69804,1,0,0:0:0:0:
512,87,69902,5,0,0:0:0:0:
512,131,70000,1,0,0:0:0:0:
497,173,70098,1,0,0:0:0:0:
461,201,70196,1,0,0:0:0:0:
416,210,70294,1,0,0:0:0:0:
371,199,70392,1,0,0:0:0:0:
334,171,70490,1,0,0:0:0:0:
293,150,70588,1,0,0:0:0:0:
248,151,70686,5,0,0:0:0:0:
209,173,70784,1,0,0:0:0:0:
185,211,70882,1,0,0:0:0:0:
176,255,70980,1,0,0:0:0:0:
184,299,71078,1,0,0:0:0:0:
170,342,71176,1,0,0:0:0:0:
138,373,71274,1,0,0:0:0:0:
94,384,71372,1,0,0:0:0:0:
50,374,71470,5,0,0:0:0:0:
17,344,71568,1,0,0:0:0:0:
4,301,71666,1,0,0:0:0:0:
9,257,71764,1,0,0:0:0:0:
36,221,71862,1,0,0:0:0:0:
81,214,71961,1,0,0:0:0:0:
116,186,72059,1,0,0:0:0:0:
140,147,72157,1,0,0:0:0:0:
135,101,72255,5,0,0:0:0:0:
157,140,72353,1,0,0:0:0:0:
196,162,72451,1,0,0:0:0:0:
241,171,72549,1,0,0:0:0:0:
286,167,72647,1,0,0:0:0:0:
328,149,72745,1,0,0:0:0:0:
352,110,72843,1,0,0:0:0:0:
391,89,72941,1,0,0:0:0:0:
436,94,73039,5,0,0:0:0:0:
470,122,73137,1,0,0:0:0:0:
482,166,73235,1,0,0:0:0:0:
468,208,73333,1,0,0:0:0:0:
433,236,73431,1,0,0:0:0:0:
388,239,73529,1,0,0:0:0:0:
349,261,73627,1,0,0:0:0:0:
329,301,73725,1,0,0:0:0:0:
340,345,73823,5,0,0:0:0:0:
316,306,73921,1,0,0:0:0:0:
273,288,74019,1,0,0:0:0:0:
227,291,74117,1,0,0:0:0:0:
189,265,74215,1,0,0:0:0:0:
183,219,74313,1,0,0:0:0:0:
202,177,74412,1,0,0:0:0:0:
235,147,74510,1,0,0:0:0:0:
246,104,74608,5,0,0:0:0:0:
231,61,74706,1,0,0:0:0:0:
195,35,74804,1,0,0:0:0:0:
151,23,74902,1,0,0:0:0:0:
107,27,75000,1,0,0:0:0:0:
71,55,75098,1,0,0:0:0:0:
58,97,75196,1,0,0:0:0:0:
70,140,75294,1,0,0:0:0:0:
105,169,75392,5,0,0:0:0:0:
101,214,75490,1,0,0:0:0:0:
73,250,75588,1,0,0:0:0:0:
70,295,75686,1,0,0:0:0:0:
91,334,75784,1,0,0:0:0:0:
130,356,75882,1,0,0:0:0:0:
175,357,75980,1,0,0:0:0:0:
216,337,76078,1,0,0:0:0:0:
241,300,76176,5,0,0:0:0:0:
248,255,76274,1,0,0:0:0:0:
231,212,76372,5,0,0:0:0:0:
198,186,76470,1,0,0:0:0:0:
157,185,76568,5,0,0:0:0:0:
131,158,76666,1,0,0:0:0:0:
129,121,76765,5,0,0:0:0:0:
148,95,76863,1,0,0:0:0:0:
218,115,76961,6,0,P|302:117|385:81,1,157.500006008148
261,5,77353,2,0,P|247:41|249:80,1,52.5000020027161
369,91,77549,2,0,P|382:54|380:15,1,52.5000020027161
287,141,77745,2,0,P|304:217|289:278,1,105.000004005432
168,284,78137,2,0,P|152:242|157:192,1,52.5000020027161
223,157,78333,2,0,P|239:199|234:249,1,52.5000020027161
104,300,78529,2,0,P|87:224|102:163,1,105.000004005432
50,29,78921,2,0,P|33:105|48:166,1,105.000004005432
161,277,79314,2,0,P|146:344|113:361,1,105.000004005432
168,270,79608,6,0,P|165:336|67:240,1,280
231,232,80098,5,0,0:0:0:0:
240,228,80196,1,0,0:0:0:0:
314,222,80294,2,0,P|352:223|372:227,1,52.5000020027161
512,285,80490,2,0,P|436:288|394:281,1,105.000004005432
402,128,80882,2,0,P|424:179|423:199,1,52.5000020027161
314,222,81078,2,0,P|292:171|293:151,1,52.5000020027161
259,20,81274,2,0,P|241:106|241:150,1,105.000004005432
246,280,81666,2,0,P|214:332|161:337,1,105.000004005432
22,251,81961,2,0,B|95:289|106:242|174:271,1,157.500006008148
96,143,82451,2,0,P|77:210|77:220,1,52.5000020027161
174,143,82647,2,0,P|171:64|157:17,2,105.000004005432
228,295,83235,6,0,P|237:243|237:191,1,105.000004005432
54,207,83627,2,0,P|53:259|63:310,1,105.000004005432
115,170,84019,2,0,P|64:135|40:135,1,52.5000020027161
120,239,84216,2,0,P|172:239|223:229,1,105.000004005432
352,152,84608,2,0,P|388:143|445:158,1,52.5000020027161
418,256,84804,2,0,P|382:265|325:250,1,52.5000020027161
336,146,85000,2,0,P|404:130|456:140,1,105.000004005432
303,216,85392,2,0,B|234:256|211:177|119:236,2,157.500006008148
187,288,86176,1,0,0:0:0:0:
97,170,86372,5,0,0:0:0:0:
95,156,86470,1,0,0:0:0:0:
144,99,86568,2,0,P|150:60|149:42,1,52.5000020027161
38,68,86765,2,0,P|32:107|33:125,1,52.5000020027161
154,115,86961,2,0,P|160:76|159:58,1,52.5000020027161
27,52,87157,2,0,P|21:103|27:156,1,105.000004005432
83,265,87549,2,0,P|75:317|37:369,1,105.000004005432
109,188,87941,2,0,P|158:168|222:175,1,105.000004005432
299,220,88235,1,0,0:0:0:0:
299,220,88333,2,0,P|351:222|399:203,1,105.000004005432
312,79,88627,1,0,0:0:0:0:
312,79,88725,2,0,P|289:138|289:156,1,52.5000020027161
223,327,89019,2,0,P|165:276|242:173,1,210.000008010865
241,254,89510,5,0,0:0:0:0:
274,251,89608,1,0,0:0:0:0:
241,254,89706,1,0,0:0:0:0:
382,205,89902,5,0,0:0:0:0:
349,202,90000,1,0,0:0:0:0:
382,205,90098,1,0,0:0:0:0:
433,40,90294,2,0,P|438:105|434:153,1,105.000004005432
285,33,90686,2,0,P|324:14|357:13,1,52.5000020027161
370,109,90882,2,0,P|347:122|322:129,1,52.5000020027161
188,62,91078,2,0,P|125:55|81:68,1,105.000004005432
88,209,91470,1,0,0:0:0:0:
190,205,91666,1,0,0:0:0:0:
32,163,91863,2,0,B|-10:241|61:248|12:336,2,157.500006008148
134,268,92647,5,0,0:0:0:0:
146,268,92745,1,0,0:0:0:0:
206,308,92843,2,0,P|255:323|318:311,1,105.000004005432
256,173,93235,2,0,P|240:250|303:213,1,157.500006008148
295,87,93725,1,0,0:0:0:0:
78,129,94019,1,0,0:0:0:0:
261,215,94216,2,0,P|323:232|403:214,1,105.000004005432
402,67,94608,2,0,P|419:129|401:209,1,105.000004005432
243,233,95000,2,0,P|305:253|370:250,1,105.000004005432
419,48,95392,2,0,P|439:110|436:175,1,105.000004005432
217,160,95784,6,0,P|226:95|252:55,1,105.000004005432
295,173,96078,2,0,P|248:233|161:215,1,157.500006008148
104,140,96470,1,0,0:0:0:0:
104,140,96568,2,0,P|61:128|43:130,1,52.5000020027161
38,303,96863,2,0,P|65:233|65:191,1,105.000004005432
39,91,97157,2,0,P|27:134|29:152,1,52.5000020027161
77,217,97353,6,0,P|147:244|189:244,1,105.000004005432
323,120,97745,2,0,P|264:167|243:203,1,105.000004005432
284,381,98137,2,0,P|272:306|251:270,1,105.000004005432
166,155,98529,2,0,P|145:107|141:55,1,105.000004005432
371,55,98921,6,0,P|366:107|345:155,1,105.000004005432
257,196,99314,1,0,0:0:0:0:
235,200,99412,1,0,0:0:0:0:
257,196,99510,1,0,0:0:0:0:
338,255,99706,1,0,0:0:0:0:
360,259,99804,1,0,0:0:0:0:
338,255,99902,1,0,0:0:0:0:
174,253,100098,5,0,0:0:0:0:
159,219,100196,1,0,0:0:0:0:
161,182,100294,1,0,0:0:0:0:
180,150,100392,1,0,0:0:0:0:
193,115,100490,1,0,0:0:0:0:
188,78,100588,1,0,0:0:0:0:
172,44,100686,1,0,0:0:0:0:
13,59,100882,6,0,P|70:103|123:103,1,105.000004005432
232,14,101274,6,0,P|177:36|156:73,1,70
161,226,101666,6,0,P|168:167|147:130,1,78.7500030040742
76,188,102059,5,0,0:0:0:0:
68,232,102157,1,0,0:0:0:0:
81,275,102255,1,0,0:0:0:0:
113,306,102353,1,0,0:0:0:0:
156,319,102451,1,0,0:0:0:0:
200,311,102549,1,0,0:0:0:0:
236,282,102647,1,0,0:0:0:0:
279,269,102745,1,0,0:0:0:0:
315,295,102843,5,0,0:0:0:0:
359,304,102941,1,0,0:0:0:0:
402,291,103039,1,0,0:0:0:0:
433,259,103137,1,0,0:0:0:0:
446,215,103235,1,0,0:0:0:0:
437,171,103333,1,0,0:0:0:0:
408,137,103431,1,0,0:0:0:0:
367,120,103529,1,0,0:0:0:0:
321,122,103627,5,0,0:0:0:0:
360,101,103725,1,0,0:0:0:0:
372,59,103823,1,0,0:0:0:0:
350,21,103921,1,0,0:0:0:0:
307,10,104019,1,0,0:0:0:0:
270,35,104117,1,0,0:0:0:0:
247,74,104216,1,0,0:0:0:0:
214,105,104314,1,0,0:0:0:0:
171,119,104412,5,0,0:0:0:0:
126,114,104510,1,0,0:0:0:0:
90,85,104608,1,0,0:0:0:0:
82,40,104706,1,0,0:0:0:0:
109,3,104804,1,0,0:0:0:0:
154,0,104902,1,0,0:0:0:0:
196,15,105000,1,0,0:0:0:0:
217,55,105098,1,0,0:0:0:0:
208,99,105196,5,0,0:0:0:0:
181,136,105294,1,0,0:0:0:0:
149,167,105392,1,0,0:0:0:0:
138,211,105490,1,0,0:0:0:0:
151,254,105588,1,0,0:0:0:0:
184,285,105686,1,0,0:0:0:0:
228,294,105784,1,0,0:0:0:0:
270,280,105882,1,0,0:0:0:0:
300,246,105980,5,0,0:0:0:0:
306,201,106078,1,0,0:0:0:0:
298,156,106176,1,0,0:0:0:0:
313,114,106274,1,0,0:0:0:0:
349,86,106372,1,0,0:0:0:0:
393,80,106470,1,0,0:0:0:0:
434,98,106568,1,0,0:0:0:0:
461,134,106666,1,0,0:0:0:0:
465,179,106765,5,0,0:0:0:0:
445,220,106863,1,0,0:0:0:0:
408,244,106961,1,0,0:0:0:0:
363,234,107060,1,0,0:0:0:0:
321,215,107158,1,0,0:0:0:0:
276,209,107256,1,0,0:0:0:0:
231,216,107354,1,0,0:0:0:0:
189,232,107451,1,0,0:0:0:0:
163,269,107549,5,0,0:0:0:0:
133,302,107647,1,0,0:0:0:0:
89,312,107745,1,0,0:0:0:0:
48,296,107843,1,0,0:0:0:0:
24,258,107941,1,0,0:0:0:0:
27,213,108039,1,0,0:0:0:0:
55,178,108137,1,0,0:0:0:0:
98,166,108235,1,0,0:0:0:0:
142,175,108333,5,0,0:0:0:0:
184,188,108431,1,0,0:0:0:0:
228,176,108529,1,0,0:0:0:0:
259,144,108627,1,0,0:0:0:0:
268,100,108725,1,0,0:0:0:0:
253,58,108823,1,0,0:0:0:0:
218,30,108921,1,0,0:0:0:0:
173,24,109019,1,0,0:0:0:0:
128,35,109117,5,0,0:0:0:0:
96,68,109215,1,0,0:0:0:0:
81,111,109313,1,0,0:0:0:0:
86,155,109411,1,0,0:0:0:0:
109,194,109509,1,0,0:0:0:0:
146,220,109607,1,0,0:0:0:0:
190,228,109705,1,0,0:0:0:0:
234,216,109803,1,0,0:0:0:0:
257,176,109901,5,0,0:0:0:0:
293,147,110000,1,0,0:0:0:0:
337,141,110098,1,0,0:0:0:0:
371,169,110196,1,0,0:0:0:0:
372,213,110294,1,0,0:0:0:0:
340,244,110392,1,0,0:0:0:0:
335,289,110490,1,0,0:0:0:0:
355,328,110588,1,0,0:0:0:0:
396,347,110686,5,0,0:0:0:0:
440,343,110784,1,0,0:0:0:0:
474,313,110882,1,0,0:0:0:0:
485,270,110980,1,0,0:0:0:0:
470,228,111078,1,0,0:0:0:0:
435,198,111176,1,0,0:0:0:0:
418,155,111274,1,0,0:0:0:0:
432,111,111372,1,0,0:0:0:0:
469,85,111470,1,0,0:0:0:0:
426,98,111568,1,0,0:0:0:0:
380,98,111666,1,0,0:0:0:0:
336,84,111764,1,0,0:0:0:0:
297,59,111862,1,0,0:0:0:0:
254,42,111961,1,0,0:0:0:0:
208,36,112059,1,0,0:0:0:0:
164,58,112157,1,0,0:0:0:0:
141,97,112255,5,0,0:0:0:0:
141,142,112353,1,0,0:0:0:0:
166,179,112451,1,0,0:0:0:0:
208,195,112549,1,0,0:0:0:0:
249,175,112647,1,0,0:0:0:0:
294,176,112745,1,0,0:0:0:0:
330,202,112843,1,0,0:0:0:0:
344,244,112941,1,0,0:0:0:0:
329,286,113039,5,0,0:0:0:0:
288,306,113137,1,0,0:0:0:0:
243,296,113235,1,0,0:0:0:0:
207,266,113333,1,0,0:0:0:0:
171,237,113431,1,0,0:0:0:0:
126,226,113529,1,0,0:0:0:0:
82,237,113627,1,0,0:0:0:0:
57,274,113725,1,0,0:0:0:0:
62,318,113823,5,0,0:0:0:0:
95,348,113921,1,0,0:0:0:0:
139,350,114019,1,0,0:0:0:0:
174,322,114117,1,0,0:0:0:0:
184,277,114216,1,0,0:0:0:0:
178,232,114314,1,0,0:0:0:0:
159,190,114412,1,0,0:0:0:0:
125,160,114510,1,0,0:0:0:0:
100,122,114608,5,0,0:0:0:0:
100,77,114706,1,0,0:0:0:0:
123,39,114804,1,0,0:0:0:0:
164,19,114902,1,0,0:0:0:0:
208,23,115000,1,0,0:0:0:0:
244,49,115098,1,0,0:0:0:0:
262,90,115196,1,0,0:0:0:0:
259,135,115294,1,0,0:0:0:0:
239,175,115392,5,0,0:0:0:0:
237,220,115490,1,0,0:0:0:0:
255,262,115588,1,0,0:0:0:0:
289,292,115686,1,0,0:0:0:0:
334,297,115784,1,0,0:0:0:0:
377,285,115882,1,0,0:0:0:0:
409,253,115980,1,0,0:0:0:0:
426,212,116078,1,0,0:0:0:0:
418,168,116176,5,0,0:0:0:0:
388,134,116274,1,0,0:0:0:0:
345,122,116372,1,0,0:0:0:0:
301,135,116470,1,0,0:0:0:0:
268,165,116568,1,0,0:0:0:0:
224,174,116666,1,0,0:0:0:0:
181,159,116764,1,0,0:0:0:0:
153,124,116862,1,0,0:0:0:0:
146,80,116960,5,0,0:0:0:0:
153,124,117059,1,0,0:0:0:0:
117,151,117157,1,0,0:0:0:0:
83,181,117255,1,0,0:0:0:0:
70,224,117353,1,0,0:0:0:0:
77,268,117451,1,0,0:0:0:0:
97,308,117549,1,0,0:0:0:0:
134,334,117647,1,0,0:0:0:0:
178,340,117745,5,0,0:0:0:0:
221,324,117843,1,0,0:0:0:0:
251,291,117941,1,0,0:0:0:0:
257,246,118039,1,0,0:0:0:0:
281,209,118137,1,0,0:0:0:0:
322,191,118235,1,0,0:0:0:0:
366,198,118333,1,0,0:0:0:0:
399,229,118431,1,0,0:0:0:0:
410,272,118529,5,0,0:0:0:0:
400,316,118627,1,0,0:0:0:0:
371,350,118725,1,0,0:0:0:0:
328,362,118823,1,0,0:0:0:0:
286,347,118921,1,0,0:0:0:0:
260,311,119019,1,0,0:0:0:0:
250,266,119117,1,0,0:0:0:0:
219,232,119215,1,0,0:0:0:0:
176,215,119314,5,0,0:0:0:0:
131,221,119412,1,0,0:0:0:0:
90,240,119510,1,0,0:0:0:0:
60,274,119608,5,0,0:0:0:0:
78,232,119706,1,0,0:0:0:0:
83,187,119804,1,0,0:0:0:0:
75,143,119902,1,0,0:0:0:0:
53,103,120000,5,0,0:0:0:0:
87,133,120098,1,0,0:0:0:0:
132,136,120196,1,0,0:0:0:0:
173,118,120294,1,0,0:0:0:0:
207,88,120392,5,0,0:0:0:0:
241,118,120490,1,0,0:0:0:0:
282,136,120588,1,0,0:0:0:0:
327,133,120686,1,0,0:0:0:0:
361,103,120784,5,0,0:0:0:0:
339,143,120882,1,0,0:0:0:0:
331,187,120980,1,0,0:0:0:0:
336,232,121078,1,0,0:0:0:0:
354,274,121176,1,0,0:0:0:0:
392,298,121274,5,0,0:0:0:0:
436,299,121372,1,0,0:0:0:0:
473,273,121470,1,0,0:0:0:0:
487,231,121568,1,0,0:0:0:0:
473,188,121666,1,0,0:0:0:0:
437,162,121764,1,0,0:0:0:0:
391,167,121863,1,0,0:0:0:0:
348,182,121961,1,0,0:0:0:0:
303,182,122059,5,0,0:0:0:0:
260,166,122157,1,0,0:0:0:0:
226,137,122255,1,0,0:0:0:0:
212,93,122353,1,0,0:0:0:0:
191,53,122451,1,0,0:0:0:0:
151,32,122549,1,0,0:0:0:0:
107,37,122647,1,0,0:0:0:0:
73,66,122745,1,0,0:0:0:0:
61,109,122843,5,0,0:0:0:0:
76,152,122941,1,0,0:0:0:0:
111,181,123039,1,0,0:0:0:0:
135,219,123137,1,0,0:0:0:0:
128,263,123235,5,0,0:0:0:0:
151,223,123333,1,0,0:0:0:0:
187,196,123431,1,0,0:0:0:0:
228,176,123529,1,0,0:0:0:0:
271,191,123627,5,0,0:0:0:0:
313,176,123725,1,0,0:0:0:0:
354,196,123823,1,0,0:0:0:0:
391,223,123921,1,0,0:0:0:0:
414,263,124019,5,0,0:0:0:0:
407,219,124118,1,0,0:0:0:0:
431,181,124216,1,0,0:0:0:0:
465,152,124314,1,0,0:0:0:0:
480,109,124412,5,0,0:0:0:0:
469,66,124510,1,0,0:0:0:0:
435,37,124608,1,0,0:0:0:0:
390,32,124706,1,0,0:0:0:0:
351,55,124804,1,0,0:0:0:0:
319,87,124902,1,0,0:0:0:0:
278,106,125000,1,0,0:0:0:0:
233,109,125098,1,0,0:0:0:0:
190,95,125196,5,0,0:0:0:0:
164,58,125294,1,0,0:0:0:0:
127,31,125392,1,0,0:0:0:0:
82,25,125490,1,0,0:0:0:0:
41,42,125588,1,0,0:0:0:0:
12,76,125686,1,0,0:0:0:0:
4,121,125784,1,0,0:0:0:0:
17,163,125882,1,0,0:0:0:0:
50,194,125980,5,0,0:0:0:0:
94,205,126078,1,0,0:0:0:0:
137,191,126176,1,0,0:0:0:0:
174,165,126274,1,0,0:0:0:0:
218,159,126372,1,0,0:0:0:0:
261,175,126470,1,0,0:0:0:0:
291,208,126568,1,0,0:0:0:0:
303,252,126666,1,0,0:0:0:0:
293,296,126764,5,0,0:0:0:0:
264,330,126862,1,0,0:0:0:0:
222,347,126960,1,0,0:0:0:0:
177,344,127058,1,0,0:0:0:0:
142,319,127157,6,0,B|112:294|72:293|72:293|76:306|99:318,1,105
91,313,139706,6,0,B|76:306|72:293|72:293|112:294|142:319,1,105
143,225,140098,6,0,B|133:210|136:197|136:197|170:218|184:254,1,105
232,174,140490,6,0,B|230:156|240:146|240:146|259:182|252:220,1,105
334,174,140882,6,0,B|341:158|354:154|354:154|353:194|328:224,1,105
282,81,141274,6,0,L|283:76,32,4.375
36,223,142843,6,0,L|32:219,32,4.375
282,366,144804,6,0,P|306:318|315:255,1,70
211,317,145196,6,0,P|221:264|214:201,1,70
129,288,145588,6,0,P|125:234|102:175,1,70
43,281,145980,6,0,L|39:277,88,4.375
188,178,148333,6,0,L|184:174,8,4.375
21,105,148725,6,0,L|26:104,8,4.375
229,84,149117,6,0,L|233:82,24,4.375
188,178,149902,6,0,L|184:174,8,4.375
249,261,150196,6,0,L|248:266,16,4.375
352,250,150686,6,0,L|356:248,28,4.375
394,156,151470,6,0,L|390:152,56,4.375
330,70,152255,6,0,P|262:50|45:100,1,280
405,76,152843,1,0,0:0:0:0:
128,214,153039,6,0,P|196:194|413:244,1,280
53,220,153627,1,0,0:0:0:0:
366,339,153823,6,0,P|298:319|81:369,1,280
441,345,154411,1,0,0:0:0:0:
39,298,154608,6,0,L|18:10,1,280
19,365,155196,1,0,0:0:0:0:
175,288,155392,6,0,L|164:0,1,280
153,354,155980,1,0,0:0:0:0:
337,288,156176,6,0,L|347:0,1,280
359,354,156764,1,0,0:0:0:0:
473,298,156960,6,0,L|492:18,1,280
492,365,157548,1,0,0:0:0:0:
319,75,157745,6,0,P|256:50|190:78,1,140
256,352,158039,2,0,B|271:274|232:220|258:142,1,210
39,86,158529,6,0,L|18:374,1,280
19,19,159117,1,0,0:0:0:0:
175,96,159313,6,0,L|164:384,1,280
153,30,159901,1,0,0:0:0:0:
337,96,160097,6,0,L|347:384,1,280
359,30,160685,1,0,0:0:0:0:
473,86,160881,6,0,L|492:366,1,280
492,19,161469,1,0,0:0:0:0:
207,27,161667,6,0,P|106:74|108:239,1,280
288,48,162255,1,0,0:0:0:0:
407,241,162451,6,0,P|416:130|272:49,1,280
348,300,163039,1,0,0:0:0:0:
120,306,163235,6,0,P|211:369|353:285,1,280
97,225,163823,1,0,0:0:0:0:
392,78,164019,6,0,P|300:14|158:98,1,280
415,159,164607,1,0,0:0:0:0:
0,156,164804,6,0,B|109:113|157:227|286:161,1,280
54,248,165392,1,0,0:0:0:0:
512,240,165588,6,0,B|403:197|355:311|226:245,1,280
458,332,166176,1,0,0:0:0:0:
184,47,166372,6,0,B|227:156|113:204|179:333,1,280
92,101,166960,1,0,0:0:0:0:
328,337,167157,6,0,B|285:228|399:180|333:51,1,280
420,283,167745,1,0,0:0:0:0:
121,305,167941,6,0,P|43:253|142:88,1,280
22,354,168529,1,0,0:0:0:0:
174,82,168725,6,0,P|252:134|153:299,1,280
273,33,169313,1,0,0:0:0:0:
121,305,169510,6,0,P|43:253|142:88,1,280
22,354,170098,1,0,0:0:0:0:
188,52,170294,6,0,P|256:34|327:53,1,140
257,368,170588,2,0,B|242:290|281:236|256:160,1,210
410,98,171078,6,0,B|452:204|353:299|399:402,1,280
256,160,171667,1,0,0:0:0:0:
410,98,171863,6,0,B|441:206|366:292|399:402,1,280
256,160,172451,1,0,0:0:0:0:
410,98,172647,6,0,B|425:201|377:289|399:402,1,280
256,160,173235,1,0,0:0:0:0:
410,98,173431,6,0,L|396:402,1,280
256,160,174019,1,0,0:0:0:0:
114,377,174216,6,0,L|102:98,1,280
256,160,174805,1,0,0:0:0:0:
116,376,175000,6,0,B|135:289|87:201|102:98,1,280
256,160,175589,1,0,0:0:0:0:
119,374,175784,6,0,B|146:292|71:206|102:98,1,280
256,160,176373,1,0,0:0:0:0:
122,372,176569,6,0,B|159:299|60:204|101:100,1,280
256,160,177157,1,0,0:0:0:0:
426,218,177353,6,0,B|468:211|480:195|480:195|423:202|364:172,1,157.500006008148
309,72,177745,2,0,P|348:75|382:91,1,52.5000020027161
465,131,177941,2,0,P|426:128|392:112,1,52.5000020027161
241,89,178137,2,0,P|194:83|128:102,1,105.000004005432
154,298,178529,2,0,P|201:304|267:285,1,105.000004005432
93,150,178921,2,0,P|87:197|106:263,1,105.000004005432
302,237,179314,2,0,P|308:190|289:124,1,105.000004005432
173,8,179706,2,0,P|148:82|152:115,1,105.000004005432
184,194,180000,2,0,P|183:246|161:293,2,105.000004005432
299,88,180490,6,0,B|368:67|389:124|472:89,2,157.500006008148
184,194,181274,2,0,B|115:173|94:230|11:195,2,157.500006008148
341,283,182059,2,0,B|410:262|431:319|514:284,2,157.500006008148
154,355,182843,2,0,B|85:334|64:391|-19:356,2,157.500006008148
297,229,183627,6,0,P|325:168|294:69,1,157.500006008148
213,50,184019,1,0,0:0:0:0:
213,50,184117,2,0,L|74:55,1,105.000004005432
0,121,184412,2,0,L|138:126,1,105.000004005432
303,171,184706,2,0,P|177:173|118:202,1,157.500006008148
2,257,185196,2,0,P|128:259|187:288,1,157.500006008148
246,325,185588,2,0,P|289:291|214:269,1,157.500006008148
222,256,185980,6,0,P|143:240|269:148,1,367.500014019013
268,146,186765,2,0,B|276:189|276:189|195:180|195:180|142:189|142:189|30:178,1,262.500010013581
17,120,187353,2,0,P|12:84|17:60,1,52.5000020027161
145,63,187549,2,0,P|150:99|145:123,1,52.5000020027161
77,256,187843,2,0,P|91:317|155:354,1,105.000004005432
193,357,188137,2,0,L|280:356,1,52.5000020027161
387,290,188333,2,0,L|247:291,1,105.000004005432
266,278,188627,2,0,L|370:276,1,105.000004005432
409,217,188921,2,0,P|380:150|330:120,2,105.000004005432
223,219,189412,2,0,P|252:152|302:122,2,105.000004005432
236,384,189902,6,0,L|-6:360,1,210.000008010865
300,336,190490,1,0,0:0:0:0:
87,280,190686,6,0,L|329:256,1,210.000008010865
23,232,191274,1,0,0:0:0:0:
236,176,191470,6,0,L|-6:152,1,210.000008010865
300,128,192059,1,0,0:0:0:0:
87,72,192255,6,0,L|329:48,1,210.000008010865
23,24,192843,1,0,0:0:0:0:
369,83,193039,6,0,P|438:164|396:287,1,210.000008010865
286,68,193627,1,0,0:0:0:0:
159,201,193823,6,0,P|194:100|322:75,1,210.000008010865
188,281,194412,1,0,0:0:0:0:
367,324,194608,6,0,P|262:343|176:245,1,210.000008010865
421,259,195196,1,0,0:0:0:0:
306,93,195392,6,0,P|257:77|205:92,1,105.000004005432
251,319,195686,2,0,B|233:251|272:232|256:163,1,157.500006008148
61,70,196176,6,0,B|46:146|46:146|56:200|56:200|38:300,1,210.000008010865
15,7,196765,1,0,0:0:0:0:
196,98,196961,6,0,B|187:175|187:175|202:227|202:227|193:329,1,210.000008010865
144,39,197550,1,0,0:0:0:0:
316,98,197745,6,0,B|324:175|324:175|309:227|309:227|316:305,1,210.000008010865
368,39,198334,1,0,0:0:0:0:
451,70,198530,6,0,B|466:146|466:146|456:200|456:200|469:276,1,210.000008010865
497,7,199119,1,0,0:0:0:0:
393,248,199314,6,0,P|305:280|153:261,1,210.000008010865
469,276,199902,1,0,0:0:0:0:
124,178,200098,6,0,P|212:210|364:191,1,210.000008010865
48,206,200686,1,0,0:0:0:0:
393,108,200882,6,0,P|305:140|153:121,1,210.000008010865
469,136,201470,1,0,0:0:0:0:
124,38,201667,6,0,P|212:70|364:51,1,210.000008010865
48,66,202255,1,0,0:0:0:0:
188,305,202451,5,0,0:0:0:0:
254,321,202549,1,0,0:0:0:0:
317,292,202647,1,0,0:0:0:0:
347,231,202745,1,0,0:0:0:0:
333,164,202843,1,0,0:0:0:0:
294,108,202941,1,0,0:0:0:0:
305,41,203039,1,0,0:0:0:0:
361,2,203137,1,0,0:0:0:0:
428,13,203235,5,0,0:0:0:0:
467,69,203333,1,0,0:0:0:0:
455,136,203431,1,0,0:0:0:0:
399,175,203529,1,0,0:0:0:0:
333,164,203627,1,0,0:0:0:0:
263,164,203725,1,0,0:0:0:0:
204,201,203823,1,0,0:0:0:0:
172,262,203921,1,0,0:0:0:0:
161,329,204019,5,0,0:0:0:0:
105,367,204117,1,0,0:0:0:0:
38,353,204215,1,0,0:0:0:0:
2,295,204313,1,0,0:0:0:0:
20,229,204411,1,0,0:0:0:0:
81,193,204510,1,0,0:0:0:0:
144,170,204608,1,0,0:0:0:0:
166,106,204706,1,0,0:0:0:0:
129,49,204804,5,0,0:0:0:0:
62,42,204902,1,0,0:0:0:0:
15,91,205000,1,0,0:0:0:0:
24,158,205098,1,0,0:0:0:0:
81,193,205196,1,0,0:0:0:0:
150,188,205294,1,0,0:0:0:0:
219,189,205392,1,0,0:0:0:0:
287,201,205490,1,0,0:0:0:0:
339,246,205588,5,0,0:0:0:0:
408,234,205686,1,0,0:0:0:0:
462,192,205784,1,0,0:0:0:0:
478,125,205882,1,0,0:0:0:0:
448,64,205980,1,0,0:0:0:0:
386,35,206078,1,0,0:0:0:0:
319,53,206176,1,0,0:0:0:0:
271,104,206274,1,0,0:0:0:0:
263,173,206372,5,0,0:0:0:0:
276,240,206470,1,0,0:0:0:0:
242,300,206568,1,0,0:0:0:0:
178,324,206666,1,0,0:0:0:0:
114,300,206764,1,0,0:0:0:0:
80,241,206862,1,0,0:0:0:0:
92,174,206960,1,0,0:0:0:0:
148,130,207059,1,0,0:0:0:0:
203,93,207157,5,0,0:0:0:0:
195,27,207255,1,0,0:0:0:0:
133,4,207353,1,0,0:0:0:0:
84,50,207451,1,0,0:0:0:0:
94,119,207549,1,0,0:0:0:0:
139,171,207647,1,0,0:0:0:0:
202,200,207745,1,0,0:0:0:0:
271,201,207843,1,0,0:0:0:0:
320,151,207941,5,0,0:0:0:0:
388,144,208039,1,0,0:0:0:0:
446,180,208137,1,0,0:0:0:0:
469,245,208235,1,0,0:0:0:0:
448,310,208333,1,0,0:0:0:0:
390,349,208431,1,0,0:0:0:0:
322,343,208529,1,0,0:0:0:0:
262,307,208627,1,0,0:0:0:0:
228,246,208725,5,0,0:0:0:0:
232,177,208823,1,0,0:0:0:0:
272,120,208921,1,0,0:0:0:0:
259,52,209019,1,0,0:0:0:0:
199,17,209117,1,0,0:0:0:0:
131,25,209215,1,0,0:0:0:0:
81,72,209313,1,0,0:0:0:0:
70,140,209411,1,0,0:0:0:0:
102,201,209509,5,0,0:0:0:0:
170,221,209608,1,0,0:0:0:0:
199,282,209706,1,0,0:0:0:0:
176,347,209804,1,0,0:0:0:0:
115,377,209902,1,0,0:0:0:0:
50,355,210000,1,0,0:0:0:0:
19,295,210098,1,0,0:0:0:0:
39,230,210196,1,0,0:0:0:0:
102,201,210294,5,0,0:0:0:0:
170,192,210392,1,0,0:0:0:0:
221,146,210490,1,0,0:0:0:0:
234,77,210588,1,0,0:0:0:0:
289,34,210686,1,0,0:0:0:0:
358,41,210784,1,0,0:0:0:0:
406,91,210882,1,0,0:0:0:0:
428,157,210980,1,0,0:0:0:0:
407,223,211078,5,0,0:0:0:0:
348,262,211176,1,0,0:0:0:0:
278,268,211274,1,0,0:0:0:0:
210,250,211372,1,0,0:0:0:0:
170,192,211470,1,0,0:0:0:0:
112,155,211568,1,0,0:0:0:0:
45,169,211666,1,0,0:0:0:0:
9,227,211764,1,0,0:0:0:0:
23,294,211862,5,0,0:0:0:0:
80,331,211960,1,0,0:0:0:0:
151,325,212059,1,0,0:0:0:0:
208,285,212157,1,0,0:0:0:0:
241,224,212255,1,0,0:0:0:0:
246,155,212353,1,0,0:0:0:0:
220,91,212451,1,0,0:0:0:0:
156,61,212549,1,0,0:0:0:0:
88,63,212647,5,0,0:0:0:0:
38,110,212745,1,0,0:0:0:0:
34,178,212843,1,0,0:0:0:0:
77,231,212941,1,0,0:0:0:0:
145,241,213039,1,0,0:0:0:0:
201,199,213137,1,0,0:0:0:0:
264,171,213235,1,0,0:0:0:0:
333,186,213333,1,0,0:0:0:0:
379,238,213431,5,0,0:0:0:0:
447,250,213529,1,0,0:0:0:0:
498,204,213627,1,0,0:0:0:0:
508,136,213725,1,0,0:0:0:0:
472,77,213823,1,0,0:0:0:0:
407,55,213921,1,0,0:0:0:0:
343,80,214019,1,0,0:0:0:0:
297,133,214117,1,0,0:0:0:0:
279,200,214215,5,0,0:0:0:0:
217,229,214313,1,0,0:0:0:0:
152,208,214411,1,0,0:0:0:0:
119,149,214510,1,0,0:0:0:0:
121,82,214608,1,0,0:0:0:0:
64,47,214706,1,0,0:0:0:0:
6,79,214804,1,0,0:0:0:0:
4,146,214902,1,0,0:0:0:0:
61,180,215000,5,0,0:0:0:0:
119,149,215098,1,0,0:0:0:0:
184,122,215196,1,0,0:0:0:0:
253,121,215294,1,0,0:0:0:0:
318,147,215392,1,0,0:0:0:0:
368,195,215490,1,0,0:0:0:0:
368,264,215588,1,0,0:0:0:0:
345,328,215686,1,0,0:0:0:0:
285,361,215784,5,0,0:0:0:0:
218,346,215882,1,0,0:0:0:0:
179,290,215980,1,0,0:0:0:0:
186,222,216078,1,0,0:0:0:0:
226,164,216176,1,0,0:0:0:0:
252,100,216274,1,0,0:0:0:0:
228,36,216372,1,0,0:0:0:0:
167,5,216470,1,0,0:0:0:0:
102,23,216568,5,0,0:0:0:0:
66,81,216666,1,0,0:0:0:0:
79,149,216764,1,0,0:0:0:0:
140,183,216863,1,0,0:0:0:0:
134,252,216961,1,0,0:0:0:0:
159,316,217059,1,0,0:0:0:0:
225,334,217157,1,0,0:0:0:0:
293,321,217255,1,0,0:0:0:0:
348,279,217353,5,0,0:0:0:0:
356,209,217451,1,0,0:0:0:0:
327,147,217549,1,0,0:0:0:0:
349,83,217647,1,0,0:0:0:0:
410,53,217745,1,0,0:0:0:0:
475,74,217843,1,0,0:0:0:0:
506,134,217941,1,0,0:0:0:0:
486,200,218039,1,0,0:0:0:0:
422,230,218137,5,0,0:0:0:0:
356,209,218235,1,0,0:0:0:0:
286,206,218333,1,0,0:0:0:0:
218,223,218431,1,0,0:0:0:0:
159,261,218529,1,0,0:0:0:0:
138,327,218627,1,0,0:0:0:0:
84,372,218725,1,0,0:0:0:0:
17,350,218823,1,0,0:0:0:0:
1,281,218921,5,0,0:0:0:0:
43,225,219019,1,0,0:0:0:0:
113,209,219117,1,0,0:0:0:0:
159,261,219215,1,0,0:0:0:0:
221,294,219313,1,0,0:0:0:0:
290,303,219411,1,0,0:0:0:0:
353,271,219510,1,0,0:0:0:0:
396,219,219608,1,0,0:0:0:0:
378,154,219706,5,0,0:0:0:0:
314,133,219804,1,0,0:0:0:0:
277,74,219902,1,0,0:0:0:0:
304,11,220000,1,0,0:0:0:0:
373,6,220098,1,0,0:0:0:0:
425,52,220196,1,0,0:0:0:0:
397,116,220294,1,0,0:0:0:0:
336,150,220392,1,0,0:0:0:0:
296,207,220490,5,0,0:0:0:0:
306,276,220588,1,0,0:0:0:0:
290,343,220686,1,0,0:0:0:0:
233,381,220784,1,0,0:0:0:0:
165,372,220882,1,0,0:0:0:0:
121,320,220980,1,0,0:0:0:0:
123,252,221078,1,0,0:0:0:0:
182,214,221176,1,0,0:0:0:0:
235,172,221274,5,0,0:0:0:0:
243,104,221372,1,0,0:0:0:0:
200,51,221470,1,0,0:0:0:0:
132,45,221568,1,0,0:0:0:0:
81,90,221666,1,0,0:0:0:0:
58,157,221765,1,0,0:0:0:0:
89,219,221863,1,0,0:0:0:0:
147,257,221961,1,0,0:0:0:0:
216,259,222059,5,0,0:0:0:0:
277,225,222157,1,0,0:0:0:0:
312,166,222255,1,0,0:0:0:0:
378,143,222353,1,0,0:0:0:0:
443,163,222451,1,0,0:0:0:0:
484,218,222549,1,0,0:0:0:0:
482,287,222647,1,0,0:0:0:0:
439,341,222745,1,0,0:0:0:0:
372,357,222843,5,0,0:0:0:0:
309,324,222941,1,0,0:0:0:0:
275,262,223039,1,0,0:0:0:0:
215,224,223137,1,0,0:0:0:0:
145,218,223235,1,0,0:0:0:0:
84,253,223333,1,0,0:0:0:0:
73,322,223431,1,0,0:0:0:0:
120,373,223529,1,0,0:0:0:0:
189,369,223627,5,0,0:0:0:0:
222,307,223725,1,0,0:0:0:0:
275,262,223823,1,0,0:0:0:0:
343,249,223921,1,0,0:0:0:0:
409,272,224019,1,0,0:0:0:0:
475,251,224117,1,0,0:0:0:0:
507,189,224215,1,0,0:0:0:0:
510,119,224313,1,0,0:0:0:0:
478,55,224412,5,0,0:0:0:0:
469,123,224510,1,0,0:0:0:0:
419,170,224608,1,0,0:0:0:0:
350,173,224706,1,0,0:0:0:0:
295,132,224804,1,0,0:0:0:0:
280,65,224902,1,0,0:0:0:0:
324,11,225000,1,0,0:0:0:0:
367,64,225098,1,0,0:0:0:0:
371,132,225196,5,0,0:0:0:0:
333,190,225294,1,0,0:0:0:0:
269,214,225392,1,0,0:0:0:0:
202,195,225490,1,0,0:0:0:0:
160,141,225588,1,0,0:0:0:0:
92,127,225686,1,0,0:0:0:0:
28,152,225784,1,0,0:0:0:0:
5,216,225882,1,0,0:0:0:0:
37,275,225980,5,0,0:0:0:0:
104,291,226078,1,0,0:0:0:0:
159,252,226176,1,0,0:0:0:0:
202,195,226274,1,0,0:0:0:0:
175,258,226372,1,0,0:0:0:0:
197,323,226470,1,0,0:0:0:0:
256,357,226568,1,0,0:0:0:0:
323,342,226666,1,0,0:0:0:0:
363,286,226764,5,0,0:0:0:0:
332,222,226863,1,0,0:0:0:0:
294,163,226961,1,0,0:0:0:0:
292,94,227059,1,0,0:0:0:0:
320,29,227157,5,0,0:0:0:0:
371,123,227255,1,0,0:0:0:0:
332,222,227353,1,0,0:0:0:0:
230,254,227451,1,0,0:0:0:0:
139,197,227549,1,4,0:0:0:0:
