osu file format v14

[General]
AudioFilename: Eiji Kuinbii200BPM.mp3
AudioLeadIn: 0
PreviewTime: 116437
Countdown: 1
SampleSet: Soft
StackLeniency: 0.7
Mode: 0
LetterboxInBreaks: 0
WidescreenStoryboard: 1

[Editor]
DistanceSpacing: 1
BeatDivisor: 8
GridSize: 16
TimelineZoom: 3.199999

[Metadata]
Title:Eiji Kuinbii
TitleUnicode:Eiji Kuinbii
Artist:-45
ArtistUnicode:-45
Creator:EijiKuinbii
Version:old 200
Source:うみねこのなく頃に散
Tags:when they cry ep6 07th expansion deathstream practice
BeatmapID:1271394
BeatmapSetID:597191

[Difficulty]
HPDrainRate:4
CircleSize:5
OverallDifficulty:7
ApproachRate:9.6
SliderMultiplier:1.4
SliderTickRate:1

[Events]
//Background and Video events
0,0,"123.jpg",0,0
//Break Periods
2,20675,29475
2,97924,106275
//Storyboard Layer 0 (Background)
//Storyboard Layer 1 (Fail)
//Storyboard Layer 2 (Pass)
//Storyboard Layer 3 (Foreground)
//Storyboard Sound Samples

[TimingPoints]
1275,300,4,2,0,25,1,0
1275,-133.3333,4,2,0,25,0,0
1725,-100,4,2,0,25,0,0
2474,-133.3333,4,2,0,25,0,0
2924,-100,4,2,0,25,0,0
3675,-133.3333,4,2,0,25,0,0
4124,-100,4,2,0,25,0,0
4874,-133.3333,4,2,0,25,0,0
5325,-100,4,2,0,25,0,0
6074,-133.3333,4,2,0,25,0,0
6524,-100,4,2,0,25,0,0
7275,-133.3333,4,2,0,25,0,0
7724,-100,4,2,0,25,0,0
8474,-133.3333,4,2,0,25,0,0
8925,-100,4,2,0,25,0,0
9674,-133.3333,4,2,0,25,0,0
10124,-100,4,2,0,25,0,0
10875,-133.3333,4,2,0,70,0,0
11175,-200,4,2,0,70,0,0
11475,-133.3333,4,2,0,70,0,0
11774,-200,4,2,0,70,0,0
12074,-133.3333,4,2,0,70,0,0
12374,-200,4,2,0,70,0,0
12674,-133.3333,4,2,0,70,0,0
12975,-200,4,2,0,70,0,0
13275,-133.3333,4,2,0,70,0,0
13574,-200,4,2,0,70,0,0
13874,-133.3333,4,2,0,70,0,0
14174,-200,4,2,0,70,0,0
14474,-133.3333,4,2,0,70,0,0
14775,-200,4,2,0,70,0,0
15075,-133.3333,4,2,0,70,0,0
15374,-200,4,2,0,70,0,0
15674,-133.3333,4,2,0,70,0,0
15974,-200,4,2,0,70,0,0
16274,-133.3333,4,2,0,70,0,0
16575,-200,4,2,0,70,0,0
16875,-133.3333,4,2,0,70,0,0
17175,-200,4,2,0,70,0,0
17474,-133.3333,4,2,0,70,0,0
17774,-200,4,2,0,70,0,0
18074,-100,4,2,0,70,0,0
18374,-80,4,2,0,70,0,0
18675,-66.66666,4,2,0,70,0,0
18975,-100,4,2,0,70,0,0
30075,-76.92308,4,2,0,70,0,0
34874,-74.07407,4,2,0,70,0,0
39374,-50,4,2,0,70,0,0
39675,-76.92308,4,2,0,70,0,1
58424,-76.92308,4,2,0,70,0,0
58875,-66.66666,4,2,0,70,0,1
60900,-50,4,2,0,70,0,1
61274,-66.66666,4,2,0,70,0,1
77474,-100,4,2,0,70,0,1
77624,-133.3333,4,2,0,70,0,0
78075,-76.92308,4,2,0,70,0,1
97275,-200,4,2,0,70,0,0
97574,-200,4,2,0,5,0,0
106875,-66.66666,4,2,0,70,0,0
108074,-200,4,2,0,5,0,0
110775,-100,4,2,0,70,0,0
111674,-200,4,2,0,5,0,0
115874,-100,4,2,0,5,0,0
116475,-50,4,2,0,70,0,1
135225,-50,4,2,0,70,0,0
135675,-66.66666,4,2,0,70,0,1
154425,-50,4,2,0,70,0,0
154875,-50,4,2,0,70,0,1
174074,-50,4,2,0,70,0,0
193274,-50,4,2,0,5,0,0

[HitObjects]
271,73,1275,6,0,P|208:82|165:113,1,105
211,191,1725,6,0,P|302:204|211:193,1,280
241,311,2474,6,0,P|304:302|347:271,1,105
301,182,2924,6,0,P|209:196|302:193,1,280
137,177,3675,6,0,P|146:240|177:283,1,105
255,238,4124,6,0,P|268:147|257:238,1,280
375,207,4874,6,0,P|366:144|335:101,1,105
246,146,5325,6,0,P|260:238|257:146,1,280
160,119,6074,6,0,P|136:178|142:231,1,105
223,223,6524,6,0,P|279:151|224:224,1,280
351,264,7275,6,0,P|375:205|369:152,1,105
281,153,7724,6,0,P|225:226|288:159,1,280
183,287,8474,6,0,P|242:311|295:305,1,105
288,223,8925,6,0,P|216:167|289:222,1,280
328,96,9674,6,0,P|269:72|216:78,1,105
218,165,10124,6,0,P|291:221|224:159,1,280
183,287,10875,6,0,L|175:328,1,26.25
283,309,11025,2,0,L|287:351,1,26.25
151,188,11175,6,0,L|124:220,1,35
329,97,11475,6,0,L|336:55,1,26.25
229,75,11624,2,0,L|225:32,1,26.25
361,196,11774,6,0,L|387:163,1,35
161,265,12074,6,0,L|119:272,1,26.25
139,165,12224,2,0,L|96:161,1,26.25
260,297,12374,6,0,L|227:323,1,35
351,119,12674,6,0,L|393:112,1,26.25
373,219,12824,2,0,L|416:223,1,26.25
252,87,12975,6,0,L|285:61,1,35
183,287,13275,6,0,L|175:328,1,26.25
283,309,13424,2,0,L|287:351,1,26.25
151,188,13574,6,0,L|124:220,1,35
329,97,13874,6,0,L|336:55,1,26.25
229,75,14024,2,0,L|225:32,1,26.25
361,196,14174,6,0,L|387:163,1,35
161,265,14474,6,0,L|119:272,1,26.25
139,165,14624,2,0,L|96:161,1,26.25
260,297,14775,6,0,L|227:323,1,35
351,119,15075,6,0,L|393:112,1,26.25
373,219,15224,2,0,L|416:223,1,26.25
252,87,15374,6,0,L|285:61,1,35
183,287,15674,6,0,L|175:328,1,26.25
283,309,15824,2,0,L|287:351,1,26.25
151,188,15974,6,0,L|124:220,1,35
329,97,16274,6,0,L|336:55,1,26.25
229,75,16424,2,0,L|225:32,1,26.25
361,196,16575,6,0,L|387:163,1,35
161,265,16875,6,0,L|119:272,1,26.25
139,165,17024,2,0,L|96:161,1,26.25
260,297,17175,6,0,L|227:323,1,35
351,119,17474,6,0,L|393:112,1,26.25
373,219,17624,2,0,L|416:223,1,26.25
252,87,17774,6,0,L|285:61,1,35
256,207,18074,6,0,L|253:224,1,17.5
248,204,18149,2,0,L|237:217,1,17.5
243,199,18224,2,0,L|226:205,1,17.5
241,192,18299,2,0,L|223:189,1,17.5
243,184,18374,6,0,L|225:170,1,21.875
248,179,18449,2,0,L|240:158,1,21.875
256,177,18525,2,0,L|258:155,1,21.875
263,179,18600,2,0,L|276:161,1,21.875
268,184,18675,6,0,L|292:175,1,26.25
271,192,18750,2,0,L|297:195,1,26.25
268,199,18825,2,0,L|289:215,1,26.25
263,204,18900,2,0,L|272:228,1,26.25
256,207,18975,6,0,L|250:240,2,35
379,159,19274,6,0,L|385:192,4,17.5
165,101,19574,6,0,L|191:80,4,17.5
223,315,19874,6,0,L|191:303,4,17.5
379,159,20174,5,0,0:0:0:0:
379,163,20212,1,0,0:0:0:0:
380,167,20249,1,0,0:0:0:0:
381,172,20287,1,0,0:0:0:0:
382,176,20324,1,0,0:0:0:0:
383,180,20362,1,0,0:0:0:0:
384,185,20400,1,0,0:0:0:0:
385,189,20437,1,0,0:0:0:0:
385,193,20475,1,0,0:0:0:0:
385,193,30075,6,0,L|394:295,1,90.99999
309,142,30375,1,0,0:0:0:0:
167,226,30600,1,0,0:0:0:0:
167,226,30674,2,0,L|174:135,1,90.99999
244,261,30974,2,0,P|190:308|133:300,1,90.99999
84,127,31274,6,0,L|174:134,1,90.99999
45,44,31574,1,0,0:0:0:0:
147,254,31799,1,0,0:0:0:0:
147,254,31875,2,0,L|56:261,1,90.99999
171,177,32175,2,0,P|217:215|223:275,1,90.99999
64,352,32475,6,0,L|56:261,1,90.99999
87,98,32774,2,0,L|79:188,1,90.99999
147,254,32999,1,0,0:0:0:0:
146,253,33074,2,0,L|154:163,1,90.99999
78,295,33374,2,0,P|121:330|187:321,1,90.99999
244,170,33674,6,0,L|153:162,1,90.99999
0,104,33975,2,0,L|90:96,1,90.99999
171,80,34200,1,0,0:0:0:0:
170,79,34275,2,0,L|261:87,1,90.99999
161,252,34574,2,0,L|153:161,1,90.99999
238,260,34874,6,0,P|190:325|155:330,1,94.5
62,169,35174,2,0,L|163:160,1,94.5
245,169,35399,1,0,0:0:0:0:
245,169,35474,2,0,L|347:178,1,94.5
226,86,35775,2,0,P|172:126|161:162,1,94.5
330,271,36075,6,0,L|339:168,1,94.5
400,34,36374,2,0,L|408:128,1,94.5
416,204,36599,1,0,0:0:0:0:
415,203,36674,2,0,L|407:298,1,94.5
343,161,36974,2,0,P|395:123|454:134,1,94.5
501,289,37274,6,0,L|406:297,1,94.5
233,238,37574,2,0,L|327:246,1,94.5
415,203,37800,1,0,0:0:0:0:
414,202,37875,2,0,L|508:193,1,94.5
374,126,38175,2,0,P|330:180|331:222,1,94.5
313,377,38474,6,0,L|304:282,1,94.5
241,143,38774,2,0,L|232:237,1,94.5
152,284,38999,1,0,0:0:0:0:
151,283,39074,2,0,L|160:189,1,94.5
68,294,39374,6,0,P|137:363|224:317,1,210
265,209,39675,5,0,0:0:0:0:
298,178,39750,1,0,0:0:0:0:
342,170,39825,1,0,0:0:0:0:
386,178,39900,1,0,0:0:0:0:
423,203,39975,1,0,0:0:0:0:
468,206,40050,1,0,0:0:0:0:
504,178,40125,1,0,0:0:0:0:
511,133,40199,1,0,0:0:0:0:
483,97,40274,5,0,0:0:0:0:
440,82,40349,1,0,0:0:0:0:
397,98,40424,1,0,0:0:0:0:
351,100,40499,1,0,0:0:0:0:
308,86,40574,1,0,0:0:0:0:
279,53,40649,1,0,0:0:0:0:
235,44,40724,1,0,0:0:0:0:
195,64,40799,1,0,0:0:0:0:
175,103,40874,5,0,0:0:0:0:
147,68,40949,1,0,0:0:0:0:
104,55,41024,1,0,0:0:0:0:
61,69,41099,1,0,0:0:0:0:
34,104,41174,1,0,0:0:0:0:
31,149,41249,1,0,0:0:0:0:
54,187,41324,1,0,0:0:0:0:
95,205,41399,1,0,0:0:0:0:
137,221,41474,5,0,0:0:0:0:
164,257,41549,1,0,0:0:0:0:
169,302,41624,1,0,0:0:0:0:
149,342,41699,1,0,0:0:0:0:
111,367,41775,5,0,0:0:0:0:
149,342,41850,1,0,0:0:0:0:
193,332,41925,1,0,0:0:0:0:
238,337,42000,1,0,0:0:0:0:
278,359,42075,5,0,0:0:0:0:
321,368,42149,1,0,0:0:0:0:
361,348,42224,1,0,0:0:0:0:
380,308,42299,1,0,0:0:0:0:
366,264,42374,1,0,0:0:0:0:
396,230,42449,1,0,0:0:0:0:
405,185,42524,1,0,0:0:0:0:
391,141,42599,1,0,0:0:0:0:
356,110,42674,5,0,0:0:0:0:
310,110,42749,1,0,0:0:0:0:
266,105,42824,1,0,0:0:0:0:
242,69,42899,1,0,0:0:0:0:
254,26,42974,1,0,0:0:0:0:
295,10,43049,1,0,0:0:0:0:
334,29,43124,1,0,0:0:0:0:
358,67,43199,1,0,0:0:0:0:
367,111,43274,5,0,0:0:0:0:
359,155,43349,1,0,0:0:0:0:
334,192,43424,1,0,0:0:0:0:
296,217,43499,1,0,0:0:0:0:
251,224,43574,1,0,0:0:0:0:
207,210,43650,1,0,0:0:0:0:
165,194,43725,1,0,0:0:0:0:
123,209,43800,1,0,0:0:0:0:
101,248,43875,5,0,0:0:0:0:
110,292,43950,1,0,0:0:0:0:
145,319,44024,1,0,0:0:0:0:
189,317,44099,1,0,0:0:0:0:
228,294,44174,1,0,0:0:0:0:
265,268,44249,1,0,0:0:0:0:
310,262,44324,1,0,0:0:0:0:
353,275,44399,1,0,0:0:0:0:
380,312,44474,5,0,0:0:0:0:
353,276,44549,1,0,0:0:0:0:
360,231,44624,1,0,0:0:0:0:
389,196,44699,1,0,0:0:0:0:
389,150,44774,1,0,0:0:0:0:
361,114,44849,1,0,0:0:0:0:
320,93,44924,1,0,0:0:0:0:
275,93,44999,1,0,0:0:0:0:
235,114,45074,5,0,0:0:0:0:
209,150,45149,1,0,0:0:0:0:
207,196,45224,1,0,0:0:0:0:
204,241,45299,1,0,0:0:0:0:
175,276,45374,1,0,0:0:0:0:
132,288,45449,1,0,0:0:0:0:
90,272,45524,1,0,0:0:0:0:
61,235,45600,1,0,0:0:0:0:
54,191,45675,5,0,0:0:0:0:
75,152,45750,1,0,0:0:0:0:
116,134,45825,1,0,0:0:0:0:
160,141,45900,1,0,0:0:0:0:
203,154,45974,1,0,0:0:0:0:
248,148,46049,1,0,0:0:0:0:
272,109,46124,1,0,0:0:0:0:
301,75,46199,1,0,0:0:0:0:
345,66,46274,5,0,0:0:0:0:
386,84,46349,1,0,0:0:0:0:
408,123,46424,1,0,0:0:0:0:
403,167,46499,1,0,0:0:0:0:
373,200,46574,1,0,0:0:0:0:
329,209,46649,1,0,0:0:0:0:
292,235,46724,1,0,0:0:0:0:
272,276,46799,1,0,0:0:0:0:
274,321,46874,5,0,0:0:0:0:
299,358,46949,1,0,0:0:0:0:
340,377,47024,1,0,0:0:0:0:
385,374,47099,1,0,0:0:0:0:
422,348,47174,1,0,0:0:0:0:
441,308,47249,1,0,0:0:0:0:
437,263,47324,1,0,0:0:0:0:
412,224,47400,1,0,0:0:0:0:
415,178,47475,5,0,0:0:0:0:
374,198,47550,1,0,0:0:0:0:
328,193,47625,1,0,0:0:0:0:
297,160,47700,1,0,0:0:0:0:
293,114,47775,1,0,0:0:0:0:
319,76,47849,1,0,0:0:0:0:
362,64,47924,1,0,0:0:0:0:
405,75,47999,1,0,0:0:0:0:
450,76,48074,5,0,0:0:0:0:
428,116,48149,1,0,0:0:0:0:
404,154,48224,1,0,0:0:0:0:
398,199,48299,1,0,0:0:0:0:
412,242,48374,1,0,0:0:0:0:
443,275,48449,1,0,0:0:0:0:
448,320,48524,1,0,0:0:0:0:
431,361,48599,1,0,0:0:0:0:
392,384,48674,5,0,0:0:0:0:
348,379,48749,1,0,0:0:0:0:
315,348,48824,1,0,0:0:0:0:
308,304,48899,1,0,0:0:0:0:
326,263,48974,1,0,0:0:0:0:
332,218,49049,1,0,0:0:0:0:
319,174,49124,1,0,0:0:0:0:
291,139,49199,1,0,0:0:0:0:
251,118,49274,5,0,0:0:0:0:
291,139,49350,1,0,0:0:0:0:
336,144,49425,1,0,0:0:0:0:
378,129,49500,1,0,0:0:0:0:
410,97,49575,1,0,0:0:0:0:
455,90,49650,1,0,0:0:0:0:
490,117,49725,1,0,0:0:0:0:
499,160,49799,1,0,0:0:0:0:
477,199,49874,5,0,0:0:0:0:
435,213,49949,1,0,0:0:0:0:
389,211,50024,1,0,0:0:0:0:
347,229,50099,1,0,0:0:0:0:
329,271,50174,1,0,0:0:0:0:
301,306,50249,1,0,0:0:0:0:
259,321,50324,1,0,0:0:0:0:
216,310,50399,1,0,0:0:0:0:
186,276,50474,5,0,0:0:0:0:
180,232,50549,1,0,0:0:0:0:
199,192,50624,1,0,0:0:0:0:
238,169,50699,1,0,0:0:0:0:
281,184,50774,1,0,0:0:0:0:
325,187,50849,1,0,0:0:0:0:
363,163,50924,1,0,0:0:0:0:
381,122,50999,1,0,0:0:0:0:
370,79,51074,5,0,0:0:0:0:
337,49,51149,1,0,0:0:0:0:
292,45,51224,1,0,0:0:0:0:
251,64,51299,1,0,0:0:0:0:
224,101,51375,1,0,0:0:0:0:
180,113,51450,1,0,0:0:0:0:
134,108,51525,1,0,0:0:0:0:
93,86,51600,1,0,0:0:0:0:
76,43,51674,5,0,0:0:0:0:
91,86,51749,1,0,0:0:0:0:
72,127,51824,1,0,0:0:0:0:
34,152,51899,1,0,0:0:0:0:
18,194,51974,1,0,0:0:0:0:
20,238,52049,1,0,0:0:0:0:
44,276,52124,1,0,0:0:0:0:
84,297,52199,1,0,0:0:0:0:
129,294,52274,5,0,0:0:0:0:
166,269,52349,1,0,0:0:0:0:
210,258,52424,1,0,0:0:0:0:
253,273,52499,1,0,0:0:0:0:
286,304,52574,1,0,0:0:0:0:
328,319,52649,1,0,0:0:0:0:
372,314,52724,1,0,0:0:0:0:
411,290,52799,1,0,0:0:0:0:
435,252,52874,5,0,0:0:0:0:
438,206,52949,1,0,0:0:0:0:
399,180,53025,1,0,0:0:0:0:
371,143,53100,1,0,0:0:0:0:
373,97,53175,1,0,0:0:0:0:
396,58,53250,1,0,0:0:0:0:
437,41,53325,1,0,0:0:0:0:
480,54,53400,1,0,0:0:0:0:
512,87,53475,5,0,0:0:0:0:
512,131,53550,1,0,0:0:0:0:
497,173,53624,1,0,0:0:0:0:
461,201,53699,1,0,0:0:0:0:
416,210,53774,1,0,0:0:0:0:
371,199,53849,1,0,0:0:0:0:
334,171,53924,1,0,0:0:0:0:
293,150,53999,1,0,0:0:0:0:
248,151,54074,5,0,0:0:0:0:
209,173,54149,1,0,0:0:0:0:
185,211,54224,1,0,0:0:0:0:
176,255,54299,1,0,0:0:0:0:
184,299,54374,1,0,0:0:0:0:
170,342,54449,1,0,0:0:0:0:
138,373,54524,1,0,0:0:0:0:
94,384,54599,1,0,0:0:0:0:
50,374,54674,5,0,0:0:0:0:
17,344,54749,1,0,0:0:0:0:
4,301,54824,1,0,0:0:0:0:
9,257,54899,1,0,0:0:0:0:
36,221,54974,1,0,0:0:0:0:
81,214,55050,1,0,0:0:0:0:
116,186,55125,1,0,0:0:0:0:
140,147,55200,1,0,0:0:0:0:
135,101,55275,5,0,0:0:0:0:
157,140,55350,1,0,0:0:0:0:
196,162,55425,1,0,0:0:0:0:
241,171,55499,1,0,0:0:0:0:
286,167,55574,1,0,0:0:0:0:
328,149,55649,1,0,0:0:0:0:
352,110,55724,1,0,0:0:0:0:
391,89,55799,1,0,0:0:0:0:
436,94,55874,5,0,0:0:0:0:
470,122,55949,1,0,0:0:0:0:
482,166,56024,1,0,0:0:0:0:
468,208,56099,1,0,0:0:0:0:
433,236,56174,1,0,0:0:0:0:
388,239,56249,1,0,0:0:0:0:
349,261,56324,1,0,0:0:0:0:
329,301,56399,1,0,0:0:0:0:
340,345,56474,5,0,0:0:0:0:
316,306,56549,1,0,0:0:0:0:
273,288,56624,1,0,0:0:0:0:
227,291,56699,1,0,0:0:0:0:
189,265,56774,1,0,0:0:0:0:
183,219,56849,1,0,0:0:0:0:
202,177,56925,1,0,0:0:0:0:
235,147,57000,1,0,0:0:0:0:
246,104,57075,5,0,0:0:0:0:
231,61,57150,1,0,0:0:0:0:
195,35,57225,1,0,0:0:0:0:
151,23,57300,1,0,0:0:0:0:
107,27,57375,1,0,0:0:0:0:
71,55,57449,1,0,0:0:0:0:
58,97,57524,1,0,0:0:0:0:
70,140,57599,1,0,0:0:0:0:
105,169,57674,5,0,0:0:0:0:
101,214,57749,1,0,0:0:0:0:
73,250,57824,1,0,0:0:0:0:
70,295,57899,1,0,0:0:0:0:
91,334,57974,1,0,0:0:0:0:
130,356,58049,1,0,0:0:0:0:
175,357,58124,1,0,0:0:0:0:
216,337,58199,1,0,0:0:0:0:
241,300,58274,5,0,0:0:0:0:
248,255,58349,1,0,0:0:0:0:
231,212,58424,5,0,0:0:0:0:
198,186,58499,1,0,0:0:0:0:
157,185,58574,5,0,0:0:0:0:
131,158,58649,1,0,0:0:0:0:
129,121,58725,5,0,0:0:0:0:
148,95,58800,1,0,0:0:0:0:
218,115,58875,6,0,P|302:117|385:81,1,157.5
261,5,59175,2,0,P|247:41|249:80,1,52.5
369,91,59324,2,0,P|382:54|380:15,1,52.5
287,141,59474,2,0,P|304:217|289:278,1,105
168,284,59774,2,0,P|152:242|157:192,1,52.5
223,157,59924,2,0,P|239:199|234:249,1,52.5
104,300,60074,2,0,P|87:224|102:163,1,105
50,29,60374,2,0,P|33:105|48:166,1,105
161,277,60675,2,0,P|146:344|113:361,1,105
168,270,60900,6,0,P|165:336|67:240,1,280
231,232,61274,5,0,0:0:0:0:
240,228,61349,1,0,0:0:0:0:
314,222,61424,2,0,P|352:223|372:227,1,52.5
512,285,61574,2,0,P|436:288|394:281,1,105
402,128,61874,2,0,P|424:179|423:199,1,52.5
314,222,62024,2,0,P|292:171|293:151,1,52.5
259,20,62174,2,0,P|241:106|241:150,1,105
246,280,62474,2,0,P|214:332|161:337,1,105
22,251,62700,2,0,B|95:289|106:242|174:271,1,157.5
96,143,63075,2,0,P|77:210|77:220,1,52.5
174,143,63224,2,0,P|171:64|157:17,2,105
228,295,63674,6,0,P|237:243|237:191,1,105
54,207,63974,2,0,P|53:259|63:310,1,105
115,170,64274,2,0,P|64:135|40:135,1,52.5
120,239,64425,2,0,P|172:239|223:229,1,105
352,152,64725,2,0,P|388:143|445:158,1,52.5
418,256,64875,2,0,P|382:265|325:250,1,52.5
336,146,65025,2,0,P|404:130|456:140,1,105
303,216,65324,2,0,B|234:256|211:177|119:236,2,157.5
187,288,65924,1,0,0:0:0:0:
97,170,66074,5,0,0:0:0:0:
95,156,66149,1,0,0:0:0:0:
144,99,66224,2,0,P|150:60|149:42,1,52.5
38,68,66375,2,0,P|32:107|33:125,1,52.5
154,115,66525,2,0,P|160:76|159:58,1,52.5
27,52,66675,2,0,P|21:103|27:156,1,105
83,265,66974,2,0,P|75:317|37:369,1,105
109,188,67274,2,0,P|158:168|222:175,1,105
299,220,67499,1,0,0:0:0:0:
299,220,67574,2,0,P|351:222|399:203,1,105
312,79,67799,1,0,0:0:0:0:
312,79,67874,2,0,P|289:138|289:156,1,52.5
223,327,68099,2,0,P|165:276|242:173,1,210
241,254,68475,5,0,0:0:0:0:
274,251,68550,1,0,0:0:0:0:
241,254,68625,1,0,0:0:0:0:
382,205,68775,5,0,0:0:0:0:
349,202,68850,1,0,0:0:0:0:
382,205,68924,1,0,0:0:0:0:
433,40,69074,2,0,P|438:105|434:153,1,105
285,33,69374,2,0,P|324:14|357:13,1,52.5
370,109,69524,2,0,P|347:122|322:129,1,52.5
188,62,69674,2,0,P|125:55|81:68,1,105
88,209,69974,1,0,0:0:0:0:
190,205,70124,1,0,0:0:0:0:
32,163,70275,2,0,B|-10:241|61:248|12:336,2,157.5
134,268,70874,5,0,0:0:0:0:
146,268,70949,1,0,0:0:0:0:
206,308,71024,2,0,P|255:323|318:311,1,105
256,173,71324,2,0,P|240:250|303:213,1,157.5
295,87,71699,1,0,0:0:0:0:
78,129,71924,1,0,0:0:0:0:
261,215,72075,2,0,P|323:232|403:214,1,105
402,67,72375,2,0,P|419:129|401:209,1,105
243,233,72675,2,0,P|305:253|370:250,1,105
419,48,72974,2,0,P|439:110|436:175,1,105
217,160,73274,6,0,P|226:95|252:55,1,105
295,173,73499,2,0,P|248:233|161:215,1,157.5
104,140,73799,1,0,0:0:0:0:
104,140,73874,2,0,P|61:128|43:130,1,52.5
38,303,74100,2,0,P|65:233|65:191,1,105
39,91,74325,2,0,P|27:134|29:152,1,52.5
77,217,74475,6,0,P|147:244|189:244,1,105
323,120,74774,2,0,P|264:167|243:203,1,105
284,381,75074,2,0,P|272:306|251:270,1,105
166,155,75374,2,0,P|145:107|141:55,1,105
371,55,75674,6,0,P|366:107|345:155,1,105
257,196,75975,1,0,0:0:0:0:
235,200,76050,1,0,0:0:0:0:
257,196,76125,1,0,0:0:0:0:
338,255,76275,1,0,0:0:0:0:
360,259,76350,1,0,0:0:0:0:
338,255,76425,1,0,0:0:0:0:
174,253,76574,5,0,0:0:0:0:
159,219,76649,1,0,0:0:0:0:
161,182,76724,1,0,0:0:0:0:
180,150,76799,1,0,0:0:0:0:
193,115,76874,1,0,0:0:0:0:
188,78,76949,1,0,0:0:0:0:
172,44,77024,1,0,0:0:0:0:
13,59,77174,6,0,P|70:103|123:103,1,105
232,14,77474,6,0,P|177:36|156:73,1,70
161,226,77774,6,0,P|168:167|147:130,1,78.75
76,188,78075,5,0,0:0:0:0:
68,232,78150,1,0,0:0:0:0:
81,275,78225,1,0,0:0:0:0:
113,306,78300,1,0,0:0:0:0:
156,319,78375,1,0,0:0:0:0:
200,311,78449,1,0,0:0:0:0:
236,282,78524,1,0,0:0:0:0:
279,269,78599,1,0,0:0:0:0:
315,295,78674,5,0,0:0:0:0:
359,304,78749,1,0,0:0:0:0:
402,291,78824,1,0,0:0:0:0:
433,259,78899,1,0,0:0:0:0:
446,215,78974,1,0,0:0:0:0:
437,171,79049,1,0,0:0:0:0:
408,137,79124,1,0,0:0:0:0:
367,120,79199,1,0,0:0:0:0:
321,122,79274,5,0,0:0:0:0:
360,101,79349,1,0,0:0:0:0:
372,59,79424,1,0,0:0:0:0:
350,21,79499,1,0,0:0:0:0:
307,10,79574,1,0,0:0:0:0:
270,35,79649,1,0,0:0:0:0:
247,74,79725,1,0,0:0:0:0:
214,105,79800,1,0,0:0:0:0:
171,119,79875,5,0,0:0:0:0:
126,114,79950,1,0,0:0:0:0:
90,85,80025,1,0,0:0:0:0:
82,40,80100,1,0,0:0:0:0:
109,3,80175,1,0,0:0:0:0:
154,0,80250,1,0,0:0:0:0:
196,15,80325,1,0,0:0:0:0:
217,55,80399,1,0,0:0:0:0:
208,99,80474,5,0,0:0:0:0:
181,136,80549,1,0,0:0:0:0:
149,167,80624,1,0,0:0:0:0:
138,211,80699,1,0,0:0:0:0:
151,254,80774,1,0,0:0:0:0:
184,285,80849,1,0,0:0:0:0:
228,294,80924,1,0,0:0:0:0:
270,280,80999,1,0,0:0:0:0:
300,246,81074,5,0,0:0:0:0:
306,201,81149,1,0,0:0:0:0:
298,156,81224,1,0,0:0:0:0:
313,114,81299,1,0,0:0:0:0:
349,86,81374,1,0,0:0:0:0:
393,80,81449,1,0,0:0:0:0:
434,98,81524,1,0,0:0:0:0:
461,134,81599,1,0,0:0:0:0:
465,179,81675,5,0,0:0:0:0:
445,220,81750,1,0,0:0:0:0:
408,244,81825,1,0,0:0:0:0:
363,234,81900,1,0,0:0:0:0:
321,215,81975,1,0,0:0:0:0:
276,209,82050,1,0,0:0:0:0:
231,216,82125,1,0,0:0:0:0:
189,232,82200,1,0,0:0:0:0:
163,269,82274,5,0,0:0:0:0:
133,302,82349,1,0,0:0:0:0:
89,312,82424,1,0,0:0:0:0:
48,296,82499,1,0,0:0:0:0:
24,258,82574,1,0,0:0:0:0:
27,213,82649,1,0,0:0:0:0:
55,178,82724,1,0,0:0:0:0:
98,166,82799,1,0,0:0:0:0:
142,175,82874,5,0,0:0:0:0:
184,188,82949,1,0,0:0:0:0:
228,176,83024,1,0,0:0:0:0:
259,144,83099,1,0,0:0:0:0:
268,100,83174,1,0,0:0:0:0:
253,58,83249,1,0,0:0:0:0:
218,30,83324,1,0,0:0:0:0:
173,24,83399,1,0,0:0:0:0:
128,35,83474,5,0,0:0:0:0:
96,68,83549,1,0,0:0:0:0:
81,111,83624,1,0,0:0:0:0:
86,155,83699,1,0,0:0:0:0:
109,194,83774,1,0,0:0:0:0:
146,220,83849,1,0,0:0:0:0:
190,228,83924,1,0,0:0:0:0:
234,216,83999,1,0,0:0:0:0:
257,176,84074,5,0,0:0:0:0:
293,147,84150,1,0,0:0:0:0:
337,141,84224,1,0,0:0:0:0:
371,169,84299,1,0,0:0:0:0:
372,213,84374,1,0,0:0:0:0:
340,244,84449,1,0,0:0:0:0:
335,289,84524,1,0,0:0:0:0:
355,328,84599,1,0,0:0:0:0:
396,347,84674,5,0,0:0:0:0:
440,343,84749,1,0,0:0:0:0:
474,313,84824,1,0,0:0:0:0:
485,270,84899,1,0,0:0:0:0:
470,228,84974,1,0,0:0:0:0:
435,198,85049,1,0,0:0:0:0:
418,155,85124,1,0,0:0:0:0:
432,111,85199,1,0,0:0:0:0:
469,85,85274,1,0,0:0:0:0:
426,98,85349,1,0,0:0:0:0:
380,98,85424,1,0,0:0:0:0:
336,84,85499,1,0,0:0:0:0:
297,59,85574,1,0,0:0:0:0:
254,42,85650,1,0,0:0:0:0:
208,36,85725,1,0,0:0:0:0:
164,58,85800,1,0,0:0:0:0:
141,97,85875,5,0,0:0:0:0:
141,142,85950,1,0,0:0:0:0:
166,179,86025,1,0,0:0:0:0:
208,195,86099,1,0,0:0:0:0:
249,175,86174,1,0,0:0:0:0:
294,176,86249,1,0,0:0:0:0:
330,202,86324,1,0,0:0:0:0:
344,244,86399,1,0,0:0:0:0:
329,286,86474,5,0,0:0:0:0:
288,306,86549,1,0,0:0:0:0:
243,296,86624,1,0,0:0:0:0:
207,266,86699,1,0,0:0:0:0:
171,237,86774,1,0,0:0:0:0:
126,226,86849,1,0,0:0:0:0:
82,237,86924,1,0,0:0:0:0:
57,274,86999,1,0,0:0:0:0:
62,318,87074,5,0,0:0:0:0:
95,348,87149,1,0,0:0:0:0:
139,350,87224,1,0,0:0:0:0:
174,322,87299,1,0,0:0:0:0:
184,277,87375,1,0,0:0:0:0:
178,232,87450,1,0,0:0:0:0:
159,190,87525,1,0,0:0:0:0:
125,160,87600,1,0,0:0:0:0:
100,122,87675,5,0,0:0:0:0:
100,77,87750,1,0,0:0:0:0:
123,39,87825,1,0,0:0:0:0:
164,19,87900,1,0,0:0:0:0:
208,23,87975,1,0,0:0:0:0:
244,49,88049,1,0,0:0:0:0:
262,90,88124,1,0,0:0:0:0:
259,135,88199,1,0,0:0:0:0:
239,175,88274,5,0,0:0:0:0:
237,220,88349,1,0,0:0:0:0:
255,262,88424,1,0,0:0:0:0:
289,292,88499,1,0,0:0:0:0:
334,297,88574,1,0,0:0:0:0:
377,285,88649,1,0,0:0:0:0:
409,253,88724,1,0,0:0:0:0:
426,212,88799,1,0,0:0:0:0:
418,168,88874,5,0,0:0:0:0:
388,134,88949,1,0,0:0:0:0:
345,122,89024,1,0,0:0:0:0:
301,135,89099,1,0,0:0:0:0:
268,165,89174,1,0,0:0:0:0:
224,174,89249,1,0,0:0:0:0:
181,159,89324,1,0,0:0:0:0:
153,124,89399,1,0,0:0:0:0:
146,80,89474,5,0,0:0:0:0:
153,124,89550,1,0,0:0:0:0:
117,151,89625,1,0,0:0:0:0:
83,181,89700,1,0,0:0:0:0:
70,224,89775,1,0,0:0:0:0:
77,268,89850,1,0,0:0:0:0:
97,308,89924,1,0,0:0:0:0:
134,334,89999,1,0,0:0:0:0:
178,340,90074,5,0,0:0:0:0:
221,324,90149,1,0,0:0:0:0:
251,291,90224,1,0,0:0:0:0:
257,246,90299,1,0,0:0:0:0:
281,209,90374,1,0,0:0:0:0:
322,191,90449,1,0,0:0:0:0:
366,198,90524,1,0,0:0:0:0:
399,229,90599,1,0,0:0:0:0:
410,272,90674,5,0,0:0:0:0:
400,316,90749,1,0,0:0:0:0:
371,350,90824,1,0,0:0:0:0:
328,362,90899,1,0,0:0:0:0:
286,347,90974,1,0,0:0:0:0:
260,311,91049,1,0,0:0:0:0:
250,266,91124,1,0,0:0:0:0:
219,232,91199,1,0,0:0:0:0:
176,215,91275,5,0,0:0:0:0:
131,221,91350,1,0,0:0:0:0:
90,240,91425,1,0,0:0:0:0:
60,274,91500,5,0,0:0:0:0:
78,232,91575,1,0,0:0:0:0:
83,187,91650,1,0,0:0:0:0:
75,143,91725,1,0,0:0:0:0:
53,103,91800,5,0,0:0:0:0:
87,133,91874,1,0,0:0:0:0:
132,136,91949,1,0,0:0:0:0:
173,118,92024,1,0,0:0:0:0:
207,88,92099,5,0,0:0:0:0:
241,118,92174,1,0,0:0:0:0:
282,136,92249,1,0,0:0:0:0:
327,133,92324,1,0,0:0:0:0:
361,103,92399,5,0,0:0:0:0:
339,143,92474,1,0,0:0:0:0:
331,187,92549,1,0,0:0:0:0:
336,232,92624,1,0,0:0:0:0:
354,274,92699,1,0,0:0:0:0:
392,298,92774,5,0,0:0:0:0:
436,299,92849,1,0,0:0:0:0:
473,273,92924,1,0,0:0:0:0:
487,231,92999,1,0,0:0:0:0:
473,188,93074,1,0,0:0:0:0:
437,162,93149,1,0,0:0:0:0:
391,167,93225,1,0,0:0:0:0:
348,182,93300,1,0,0:0:0:0:
303,182,93375,5,0,0:0:0:0:
260,166,93450,1,0,0:0:0:0:
226,137,93525,1,0,0:0:0:0:
212,93,93600,1,0,0:0:0:0:
191,53,93675,1,0,0:0:0:0:
151,32,93749,1,0,0:0:0:0:
107,37,93824,1,0,0:0:0:0:
73,66,93899,1,0,0:0:0:0:
61,109,93974,5,0,0:0:0:0:
76,152,94049,1,0,0:0:0:0:
111,181,94124,1,0,0:0:0:0:
135,219,94199,1,0,0:0:0:0:
128,263,94274,5,0,0:0:0:0:
151,223,94349,1,0,0:0:0:0:
187,196,94424,1,0,0:0:0:0:
228,176,94499,1,0,0:0:0:0:
271,191,94574,5,0,0:0:0:0:
313,176,94649,1,0,0:0:0:0:
354,196,94724,1,0,0:0:0:0:
391,223,94799,1,0,0:0:0:0:
414,263,94874,5,0,0:0:0:0:
407,219,94950,1,0,0:0:0:0:
431,181,95025,1,0,0:0:0:0:
465,152,95100,1,0,0:0:0:0:
480,109,95175,5,0,0:0:0:0:
469,66,95250,1,0,0:0:0:0:
435,37,95325,1,0,0:0:0:0:
390,32,95400,1,0,0:0:0:0:
351,55,95475,1,0,0:0:0:0:
319,87,95550,1,0,0:0:0:0:
278,106,95625,1,0,0:0:0:0:
233,109,95699,1,0,0:0:0:0:
190,95,95774,5,0,0:0:0:0:
164,58,95849,1,0,0:0:0:0:
127,31,95924,1,0,0:0:0:0:
82,25,95999,1,0,0:0:0:0:
41,42,96074,1,0,0:0:0:0:
12,76,96149,1,0,0:0:0:0:
4,121,96224,1,0,0:0:0:0:
17,163,96299,1,0,0:0:0:0:
50,194,96374,5,0,0:0:0:0:
94,205,96449,1,0,0:0:0:0:
137,191,96524,1,0,0:0:0:0:
174,165,96599,1,0,0:0:0:0:
218,159,96674,1,0,0:0:0:0:
261,175,96749,1,0,0:0:0:0:
291,208,96824,1,0,0:0:0:0:
303,252,96899,1,0,0:0:0:0:
293,296,96974,5,0,0:0:0:0:
264,330,97049,1,0,0:0:0:0:
222,347,97124,1,0,0:0:0:0:
177,344,97199,1,0,0:0:0:0:
142,319,97275,6,0,B|112:294|72:293|72:293|76:306|99:318,1,105
91,313,106875,6,0,B|76:306|72:293|72:293|112:294|142:319,1,105
143,225,107174,6,0,B|133:210|136:197|136:197|170:218|184:254,1,105
232,174,107474,6,0,B|230:156|240:146|240:146|259:182|252:220,1,105
334,174,107774,6,0,B|341:158|354:154|354:154|353:194|328:224,1,105
282,81,108074,6,0,L|283:76,32,4.375
36,223,109274,6,0,L|32:219,32,4.375
282,366,110775,6,0,P|306:318|315:255,1,70
211,317,111074,6,0,P|221:264|214:201,1,70
129,288,111374,6,0,P|125:234|102:175,1,70
43,281,111674,6,0,L|39:277,88,4.375
188,178,113474,6,0,L|184:174,8,4.375
21,105,113774,6,0,L|26:104,8,4.375
229,84,114074,6,0,L|233:82,24,4.375
188,178,114675,6,0,L|184:174,8,4.375
249,261,114899,6,0,L|248:266,16,4.375
352,250,115274,6,0,L|356:248,28,4.375
394,156,115874,6,0,L|390:152,56,4.375
330,70,116475,6,0,P|262:50|45:100,1,280
405,76,116924,1,0,0:0:0:0:
128,214,117074,6,0,P|196:194|413:244,1,280
53,220,117524,1,0,0:0:0:0:
366,339,117674,6,0,P|298:319|81:369,1,280
441,345,118124,1,0,0:0:0:0:
39,298,118275,6,0,L|18:10,1,280
19,365,118724,1,0,0:0:0:0:
175,288,118874,6,0,L|164:0,1,280
153,354,119324,1,0,0:0:0:0:
337,288,119474,6,0,L|347:0,1,280
359,354,119924,1,0,0:0:0:0:
473,298,120074,6,0,L|492:18,1,280
492,365,120524,1,0,0:0:0:0:
319,75,120674,6,0,P|256:50|190:78,1,140
256,352,120899,2,0,B|271:274|232:220|258:142,1,210
39,86,121274,6,0,L|18:374,1,280
19,19,121724,1,0,0:0:0:0:
175,96,121874,6,0,L|164:384,1,280
153,30,122324,1,0,0:0:0:0:
337,96,122474,6,0,L|347:384,1,280
359,30,122924,1,0,0:0:0:0:
473,86,123073,6,0,L|492:366,1,280
492,19,123523,1,0,0:0:0:0:
207,27,123675,6,0,P|106:74|108:239,1,280
288,48,124125,1,0,0:0:0:0:
407,241,124275,6,0,P|416:130|272:49,1,280
348,300,124724,1,0,0:0:0:0:
120,306,124874,6,0,P|211:369|353:285,1,280
97,225,125324,1,0,0:0:0:0:
392,78,125474,6,0,P|300:14|158:98,1,280
415,159,125924,1,0,0:0:0:0:
0,156,126075,6,0,B|109:113|157:227|286:161,1,280
54,248,126524,1,0,0:0:0:0:
512,240,126674,6,0,B|403:197|355:311|226:245,1,280
458,332,127124,1,0,0:0:0:0:
184,47,127274,6,0,B|227:156|113:204|179:333,1,280
92,101,127724,1,0,0:0:0:0:
328,337,127875,6,0,B|285:228|399:180|333:51,1,280
420,283,128324,1,0,0:0:0:0:
121,305,128474,6,0,P|43:253|142:88,1,280
22,354,128924,1,0,0:0:0:0:
174,82,129074,6,0,P|252:134|153:299,1,280
273,33,129524,1,0,0:0:0:0:
121,305,129675,6,0,P|43:253|142:88,1,280
22,354,130124,1,0,0:0:0:0:
188,52,130274,6,0,P|256:34|327:53,1,140
257,368,130499,2,0,B|242:290|281:236|256:160,1,210
410,98,130874,6,0,B|452:204|353:299|399:402,1,280
256,160,131325,1,0,0:0:0:0:
410,98,131475,6,0,B|441:206|366:292|399:402,1,280
256,160,131925,1,0,0:0:0:0:
410,98,132074,6,0,B|425:201|377:289|399:402,1,280
256,160,132524,1,0,0:0:0:0:
410,98,132674,6,0,L|396:402,1,280
256,160,133124,1,0,0:0:0:0:
114,377,133275,6,0,L|102:98,1,280
256,160,133725,1,0,0:0:0:0:
116,376,133875,6,0,B|135:289|87:201|102:98,1,280
256,160,134325,1,0,0:0:0:0:
119,374,134474,6,0,B|146:292|71:206|102:98,1,280
256,160,134925,1,0,0:0:0:0:
122,372,135075,6,0,B|159:299|60:204|101:100,1,280
256,160,135525,1,0,0:0:0:0:
426,218,135675,6,0,B|468:211|480:195|480:195|423:202|364:172,1,157.5
309,72,135974,2,0,P|348:75|382:91,1,52.5
465,131,136124,2,0,P|426:128|392:112,1,52.5
241,89,136274,2,0,P|194:83|128:102,1,105
154,298,136574,2,0,P|201:304|267:285,1,105
93,150,136874,2,0,P|87:197|106:263,1,105
302,237,137175,2,0,P|308:190|289:124,1,105
173,8,137475,2,0,P|148:82|152:115,1,105
184,194,137700,2,0,P|183:246|161:293,2,105
299,88,138074,6,0,B|368:67|389:124|472:89,2,157.5
184,194,138674,2,0,B|115:173|94:230|11:195,2,157.5
341,283,139275,2,0,B|410:262|431:319|514:284,2,157.5
154,355,139874,2,0,B|85:334|64:391|-19:356,2,157.5
297,229,140474,6,0,P|325:168|294:69,1,157.5
213,50,140774,1,0,0:0:0:0:
213,50,140849,2,0,L|74:55,1,105
0,121,141075,2,0,L|138:126,1,105
303,171,141300,2,0,P|177:173|118:202,1,157.5
2,257,141674,2,0,P|128:259|187:288,1,157.5
246,325,141974,2,0,P|289:291|214:269,1,157.5
222,256,142274,6,0,P|143:240|269:148,1,367.5
268,146,142875,2,0,B|276:189|276:189|195:180|195:180|142:189|142:189|30:178,1,262.5
17,120,143325,2,0,P|12:84|17:60,1,52.5
145,63,143474,2,0,P|150:99|145:123,1,52.5
77,256,143699,2,0,P|91:317|155:354,1,105
193,357,143924,2,0,L|280:356,1,52.5
387,290,144074,2,0,L|247:291,1,105
266,278,144299,2,0,L|370:276,1,105
409,217,144524,2,0,P|380:150|330:120,2,105
223,219,144900,2,0,P|252:152|302:122,2,105
236,384,145275,6,0,L|-6:360,1,210
300,336,145724,1,0,0:0:0:0:
87,280,145874,6,0,L|329:256,1,210
23,232,146324,1,0,0:0:0:0:
236,176,146474,6,0,L|-6:152,1,210
300,128,146925,1,0,0:0:0:0:
87,72,147075,6,0,L|329:48,1,210
23,24,147524,1,0,0:0:0:0:
369,83,147674,6,0,P|438:164|396:287,1,210
286,68,148124,1,0,0:0:0:0:
159,201,148274,6,0,P|194:100|322:75,1,210
188,281,148725,1,0,0:0:0:0:
367,324,148875,6,0,P|262:343|176:245,1,210
421,259,149324,1,0,0:0:0:0:
306,93,149474,6,0,P|257:77|205:92,1,105
251,319,149699,2,0,B|233:251|272:232|256:163,1,157.5
61,70,150074,6,0,B|46:146|46:146|56:200|56:200|38:300,1,210
15,7,150525,1,0,0:0:0:0:
196,98,150675,6,0,B|187:175|187:175|202:227|202:227|193:329,1,210
144,39,151125,1,0,0:0:0:0:
316,98,151274,6,0,B|324:175|324:175|309:227|309:227|316:305,1,210
368,39,151725,1,0,0:0:0:0:
451,70,151875,6,0,B|466:146|466:146|456:200|456:200|469:276,1,210
497,7,152326,1,0,0:0:0:0:
393,248,152475,6,0,P|305:280|153:261,1,210
469,276,152925,1,0,0:0:0:0:
124,178,153074,6,0,P|212:210|364:191,1,210
48,206,153524,1,0,0:0:0:0:
393,108,153674,6,0,P|305:140|153:121,1,210
469,136,154124,1,0,0:0:0:0:
124,38,154275,6,0,P|212:70|364:51,1,210
48,66,154725,1,0,0:0:0:0:
188,305,154875,5,0,0:0:0:0:
254,321,154949,1,0,0:0:0:0:
317,292,155024,1,0,0:0:0:0:
347,231,155099,1,0,0:0:0:0:
333,164,155174,1,0,0:0:0:0:
294,108,155249,1,0,0:0:0:0:
305,41,155324,1,0,0:0:0:0:
361,2,155399,1,0,0:0:0:0:
428,13,155474,5,0,0:0:0:0:
467,69,155549,1,0,0:0:0:0:
455,136,155624,1,0,0:0:0:0:
399,175,155699,1,0,0:0:0:0:
333,164,155774,1,0,0:0:0:0:
263,164,155849,1,0,0:0:0:0:
204,201,155924,1,0,0:0:0:0:
172,262,155999,1,0,0:0:0:0:
161,329,156074,5,0,0:0:0:0:
105,367,156149,1,0,0:0:0:0:
38,353,156224,1,0,0:0:0:0:
2,295,156299,1,0,0:0:0:0:
20,229,156374,1,0,0:0:0:0:
81,193,156450,1,0,0:0:0:0:
144,170,156525,1,0,0:0:0:0:
166,106,156600,1,0,0:0:0:0:
129,49,156675,5,0,0:0:0:0:
62,42,156750,1,0,0:0:0:0:
15,91,156825,1,0,0:0:0:0:
24,158,156899,1,0,0:0:0:0:
81,193,156974,1,0,0:0:0:0:
150,188,157049,1,0,0:0:0:0:
219,189,157124,1,0,0:0:0:0:
287,201,157199,1,0,0:0:0:0:
339,246,157274,5,0,0:0:0:0:
408,234,157349,1,0,0:0:0:0:
462,192,157424,1,0,0:0:0:0:
478,125,157499,1,0,0:0:0:0:
448,64,157574,1,0,0:0:0:0:
386,35,157649,1,0,0:0:0:0:
319,53,157724,1,0,0:0:0:0:
271,104,157799,1,0,0:0:0:0:
263,173,157874,5,0,0:0:0:0:
276,240,157949,1,0,0:0:0:0:
242,300,158024,1,0,0:0:0:0:
178,324,158099,1,0,0:0:0:0:
114,300,158174,1,0,0:0:0:0:
80,241,158249,1,0,0:0:0:0:
92,174,158324,1,0,0:0:0:0:
148,130,158400,1,0,0:0:0:0:
203,93,158475,5,0,0:0:0:0:
195,27,158550,1,0,0:0:0:0:
133,4,158625,1,0,0:0:0:0:
84,50,158700,1,0,0:0:0:0:
94,119,158774,1,0,0:0:0:0:
139,171,158849,1,0,0:0:0:0:
202,200,158924,1,0,0:0:0:0:
271,201,158999,1,0,0:0:0:0:
320,151,159074,5,0,0:0:0:0:
388,144,159149,1,0,0:0:0:0:
446,180,159224,1,0,0:0:0:0:
469,245,159299,1,0,0:0:0:0:
448,310,159374,1,0,0:0:0:0:
390,349,159449,1,0,0:0:0:0:
322,343,159524,1,0,0:0:0:0:
262,307,159599,1,0,0:0:0:0:
228,246,159674,5,0,0:0:0:0:
232,177,159749,1,0,0:0:0:0:
272,120,159824,1,0,0:0:0:0:
259,52,159899,1,0,0:0:0:0:
199,17,159974,1,0,0:0:0:0:
131,25,160049,1,0,0:0:0:0:
81,72,160124,1,0,0:0:0:0:
70,140,160199,1,0,0:0:0:0:
102,201,160274,5,0,0:0:0:0:
170,221,160350,1,0,0:0:0:0:
199,282,160425,1,0,0:0:0:0:
176,347,160500,1,0,0:0:0:0:
115,377,160575,1,0,0:0:0:0:
50,355,160650,1,0,0:0:0:0:
19,295,160724,1,0,0:0:0:0:
39,230,160799,1,0,0:0:0:0:
102,201,160874,5,0,0:0:0:0:
170,192,160949,1,0,0:0:0:0:
221,146,161024,1,0,0:0:0:0:
234,77,161099,1,0,0:0:0:0:
289,34,161174,1,0,0:0:0:0:
358,41,161249,1,0,0:0:0:0:
406,91,161324,1,0,0:0:0:0:
428,157,161399,1,0,0:0:0:0:
407,223,161474,5,0,0:0:0:0:
348,262,161549,1,0,0:0:0:0:
278,268,161624,1,0,0:0:0:0:
210,250,161699,1,0,0:0:0:0:
170,192,161774,1,0,0:0:0:0:
112,155,161849,1,0,0:0:0:0:
45,169,161924,1,0,0:0:0:0:
9,227,161999,1,0,0:0:0:0:
23,294,162074,5,0,0:0:0:0:
80,331,162149,1,0,0:0:0:0:
151,325,162225,1,0,0:0:0:0:
208,285,162300,1,0,0:0:0:0:
241,224,162375,1,0,0:0:0:0:
246,155,162450,1,0,0:0:0:0:
220,91,162525,1,0,0:0:0:0:
156,61,162599,1,0,0:0:0:0:
88,63,162674,5,0,0:0:0:0:
38,110,162749,1,0,0:0:0:0:
34,178,162824,1,0,0:0:0:0:
77,231,162899,1,0,0:0:0:0:
145,241,162974,1,0,0:0:0:0:
201,199,163049,1,0,0:0:0:0:
264,171,163124,1,0,0:0:0:0:
333,186,163199,1,0,0:0:0:0:
379,238,163274,5,0,0:0:0:0:
447,250,163349,1,0,0:0:0:0:
498,204,163424,1,0,0:0:0:0:
508,136,163499,1,0,0:0:0:0:
472,77,163574,1,0,0:0:0:0:
407,55,163649,1,0,0:0:0:0:
343,80,163724,1,0,0:0:0:0:
297,133,163799,1,0,0:0:0:0:
279,200,163874,5,0,0:0:0:0:
217,229,163949,1,0,0:0:0:0:
152,208,164024,1,0,0:0:0:0:
119,149,164100,1,0,0:0:0:0:
121,82,164175,1,0,0:0:0:0:
64,47,164250,1,0,0:0:0:0:
6,79,164325,1,0,0:0:0:0:
4,146,164400,1,0,0:0:0:0:
61,180,164475,5,0,0:0:0:0:
119,149,164549,1,0,0:0:0:0:
184,122,164624,1,0,0:0:0:0:
253,121,164699,1,0,0:0:0:0:
318,147,164774,1,0,0:0:0:0:
368,195,164849,1,0,0:0:0:0:
368,264,164924,1,0,0:0:0:0:
345,328,164999,1,0,0:0:0:0:
285,361,165074,5,0,0:0:0:0:
218,346,165149,1,0,0:0:0:0:
179,290,165224,1,0,0:0:0:0:
186,222,165299,1,0,0:0:0:0:
226,164,165374,1,0,0:0:0:0:
252,100,165449,1,0,0:0:0:0:
228,36,165524,1,0,0:0:0:0:
167,5,165599,1,0,0:0:0:0:
102,23,165674,5,0,0:0:0:0:
66,81,165749,1,0,0:0:0:0:
79,149,165824,1,0,0:0:0:0:
140,183,165900,1,0,0:0:0:0:
134,252,165975,1,0,0:0:0:0:
159,316,166050,1,0,0:0:0:0:
225,334,166125,1,0,0:0:0:0:
293,321,166200,1,0,0:0:0:0:
348,279,166275,5,0,0:0:0:0:
356,209,166350,1,0,0:0:0:0:
327,147,166424,1,0,0:0:0:0:
349,83,166499,1,0,0:0:0:0:
410,53,166574,1,0,0:0:0:0:
475,74,166649,1,0,0:0:0:0:
506,134,166724,1,0,0:0:0:0:
486,200,166799,1,0,0:0:0:0:
422,230,166874,5,0,0:0:0:0:
356,209,166949,1,0,0:0:0:0:
286,206,167024,1,0,0:0:0:0:
218,223,167099,1,0,0:0:0:0:
159,261,167174,1,0,0:0:0:0:
138,327,167249,1,0,0:0:0:0:
84,372,167324,1,0,0:0:0:0:
17,350,167399,1,0,0:0:0:0:
1,281,167474,5,0,0:0:0:0:
43,225,167549,1,0,0:0:0:0:
113,209,167624,1,0,0:0:0:0:
159,261,167699,1,0,0:0:0:0:
221,294,167774,1,0,0:0:0:0:
290,303,167849,1,0,0:0:0:0:
353,271,167925,1,0,0:0:0:0:
396,219,168000,1,0,0:0:0:0:
378,154,168075,5,0,0:0:0:0:
314,133,168150,1,0,0:0:0:0:
277,74,168225,1,0,0:0:0:0:
304,11,168300,1,0,0:0:0:0:
373,6,168374,1,0,0:0:0:0:
425,52,168449,1,0,0:0:0:0:
397,116,168524,1,0,0:0:0:0:
336,150,168599,1,0,0:0:0:0:
296,207,168674,5,0,0:0:0:0:
306,276,168749,1,0,0:0:0:0:
290,343,168824,1,0,0:0:0:0:
233,381,168899,1,0,0:0:0:0:
165,372,168974,1,0,0:0:0:0:
121,320,169049,1,0,0:0:0:0:
123,252,169124,1,0,0:0:0:0:
182,214,169199,1,0,0:0:0:0:
235,172,169274,5,0,0:0:0:0:
243,104,169349,1,0,0:0:0:0:
200,51,169424,1,0,0:0:0:0:
132,45,169499,1,0,0:0:0:0:
81,90,169574,1,0,0:0:0:0:
58,157,169650,1,0,0:0:0:0:
89,219,169725,1,0,0:0:0:0:
147,257,169800,1,0,0:0:0:0:
216,259,169875,5,0,0:0:0:0:
277,225,169950,1,0,0:0:0:0:
312,166,170025,1,0,0:0:0:0:
378,143,170100,1,0,0:0:0:0:
443,163,170175,1,0,0:0:0:0:
484,218,170249,1,0,0:0:0:0:
482,287,170324,1,0,0:0:0:0:
439,341,170399,1,0,0:0:0:0:
372,357,170474,5,0,0:0:0:0:
309,324,170549,1,0,0:0:0:0:
275,262,170624,1,0,0:0:0:0:
215,224,170699,1,0,0:0:0:0:
145,218,170774,1,0,0:0:0:0:
84,253,170849,1,0,0:0:0:0:
73,322,170924,1,0,0:0:0:0:
120,373,170999,1,0,0:0:0:0:
189,369,171074,5,0,0:0:0:0:
222,307,171149,1,0,0:0:0:0:
275,262,171224,1,0,0:0:0:0:
343,249,171299,1,0,0:0:0:0:
409,272,171374,1,0,0:0:0:0:
475,251,171449,1,0,0:0:0:0:
507,189,171524,1,0,0:0:0:0:
510,119,171599,1,0,0:0:0:0:
478,55,171675,5,0,0:0:0:0:
469,123,171750,1,0,0:0:0:0:
419,170,171825,1,0,0:0:0:0:
350,173,171900,1,0,0:0:0:0:
295,132,171975,1,0,0:0:0:0:
280,65,172050,1,0,0:0:0:0:
324,11,172125,1,0,0:0:0:0:
367,64,172199,1,0,0:0:0:0:
371,132,172274,5,0,0:0:0:0:
333,190,172349,1,0,0:0:0:0:
269,214,172424,1,0,0:0:0:0:
202,195,172499,1,0,0:0:0:0:
160,141,172574,1,0,0:0:0:0:
92,127,172649,1,0,0:0:0:0:
28,152,172724,1,0,0:0:0:0:
5,216,172799,1,0,0:0:0:0:
37,275,172874,5,0,0:0:0:0:
104,291,172949,1,0,0:0:0:0:
159,252,173024,1,0,0:0:0:0:
202,195,173099,1,0,0:0:0:0:
175,258,173174,1,0,0:0:0:0:
197,323,173249,1,0,0:0:0:0:
256,357,173324,1,0,0:0:0:0:
323,342,173399,1,0,0:0:0:0:
363,286,173474,5,0,0:0:0:0:
332,222,173550,1,0,0:0:0:0:
294,163,173625,1,0,0:0:0:0:
292,94,173700,1,0,0:0:0:0:
320,29,173775,5,0,0:0:0:0:
371,123,173850,1,0,0:0:0:0:
332,222,173925,1,0,0:0:0:0:
230,254,174000,1,0,0:0:0:0:
139,197,174074,1,4,0:0:0:0:
