osu file format v14

[General]
AudioFilename: audio 1.447x.mp3
AudioLeadIn: 0
PreviewTime: 71934
Countdown: 0
SampleSet: None
StackLeniency: 0.7
Mode: 0
LetterboxInBreaks: 0
WidescreenStoryboard: 0

[Editor]
DistanceSpacing: 1.08
BeatDivisor: 4
GridSize: 32
TimelineZoom: 1.5

[Metadata]
Title:Crimsonic dimension
TitleUnicode:Crimsonic dimension
Artist:-45
ArtistUnicode:-45
Creator:XIAO Lingfeng
Version:Phantasm 1.45x (220bpm) AR9.6 OD10
Source:東方怪綺談 ~ Mystic Square
Tags:osutrainer
BeatmapID:4556604
BeatmapSetID:2160771

[Difficulty]
HPDrainRate:5
CircleSize:4
OverallDifficulty:10
ApproachRate:9.6
SliderMultiplier:1.4
SliderTickRate:1

[Events]
//Background and Video events
0,0,"maxresdefault.jpg",0,0
//Break Periods
//Storyboard Layer 0 (Background)
//Storyboard Layer 1 (Fail)
//Storyboard Layer 2 (Pass)
//Storyboard Layer 3 (Foreground)
//Storyboard Layer 4 (Overlay)
//Storyboard Sound Samples

[TimingPoints]
10843,272.727272727273,4,2,0,75,1,0
19570,-100,4,2,0,80,0,0
54479,-100,4,2,0,85,0,0
71934,-100,4,2,0,80,0,0
106843,-100,4,2,0,85,0,0
124434,-100,4,2,0,80,0,0
141752,-100,4,2,0,90,0,0
159343,-100,4,2,0,80,0,0
194116,-100,4,2,0,85,0,0
211570,-100,4,2,0,90,0,0
229025,-100,4,2,0,95,0,0
246479,-100,4,2,0,100,0,0
264070,-100,4,2,0,75,0,0

[Colours]
Combo1 : 177,98,191
Combo2 : 65,216,80
Combo3 : 206,66,125
Combo4 : 119,75,233
Combo5 : 242,207,142
Combo6 : 249,189,218
Combo7 : 210,210,210
Combo8 : 175,154,172

[HitObjects]
55,62,10843,85,4,2:0:0:0:
72,64,10911,1,0,2:0:0:0:
88,71,10979,1,0,2:0:0:0:
101,83,11048,1,0,2:0:0:0:
110,98,11116,1,0,2:0:0:0:
170,156,11252,1,2,2:0:0:0:
187,155,11320,1,0,2:0:0:0:
204,150,11388,1,0,2:0:0:0:
218,141,11457,1,0,2:0:0:0:
230,128,11525,1,0,2:0:0:0:
277,61,11661,1,2,2:0:0:0:
291,52,11729,1,0,2:0:0:0:
308,48,11797,1,0,2:0:0:0:
388,94,11934,5,2,2:3:0:0:
397,108,12002,1,0,2:0:0:0:
401,125,12070,1,0,2:0:0:0:
398,142,12139,1,0,2:0:0:0:
390,158,12206,1,0,2:0:0:0:
347,227,12343,1,2,2:0:0:0:
349,244,12411,1,0,2:0:0:0:
357,259,12479,1,0,2:0:0:0:
371,270,12548,1,0,2:0:0:0:
387,276,12616,1,0,2:0:0:0:
481,305,12752,1,2,2:0:0:0:
483,322,12820,1,0,2:0:0:0:
479,338,12888,1,0,2:0:0:0:
407,370,13025,101,2,2:3:0:0:
389,367,13093,1,0,2:0:0:0:
373,360,13161,1,0,2:0:0:0:
360,348,13229,1,0,2:0:0:0:
351,333,13297,1,0,2:0:0:0:
292,276,13434,1,2,2:0:0:0:
275,277,13502,1,0,2:0:0:0:
258,282,13570,1,0,2:0:0:0:
244,291,13639,1,0,2:0:0:0:
232,304,13706,1,0,2:0:0:0:
185,371,13843,1,2,2:0:0:0:
171,380,13911,1,0,2:0:0:0:
154,384,13979,1,0,2:0:0:0:
74,338,14115,5,2,2:3:0:0:
65,324,14184,1,0,2:0:0:0:
61,307,14252,1,0,2:0:0:0:
64,290,14320,1,0,2:0:0:0:
72,274,14388,1,0,2:0:0:0:
115,205,14524,1,2,2:0:0:0:
113,188,14593,1,0,2:0:0:0:
105,173,14661,1,0,2:0:0:0:
91,162,14729,1,0,2:0:0:0:
75,156,14797,1,0,2:0:0:0:
6,105,14934,1,2,2:0:0:0:
4,88,15002,1,0,2:0:0:0:
8,72,15070,1,0,2:0:0:0:
84,18,15206,101,2,2:3:0:0:
94,32,15275,1,0,2:0:0:0:
102,47,15343,1,0,2:0:0:0:
107,64,15411,1,0,2:0:0:0:
110,81,15479,1,0,2:0:0:0:
74,164,15615,1,2,2:0:0:0:
57,168,15684,1,0,2:0:0:0:
41,175,15752,1,0,2:0:0:0:
27,185,15820,1,0,2:0:0:0:
16,199,15888,1,0,2:0:0:0:
17,287,16024,1,2,2:0:0:0:
28,299,16093,1,0,2:0:0:0:
45,305,16161,1,0,2:0:0:0:
143,335,16297,5,2,2:3:0:0:
157,325,16366,1,0,2:0:0:0:
168,312,16434,1,0,2:0:0:0:
208,217,16570,1,2,2:0:0:0:
220,205,16639,1,0,2:0:0:0:
235,195,16706,1,0,2:0:0:0:
250,187,16775,1,0,2:0:0:0:
267,182,16843,1,0,2:0:0:0:
352,230,16979,1,2,2:0:0:0:
363,243,17048,1,0,2:0:0:0:
376,254,17115,1,0,2:0:0:0:
392,261,17184,1,0,2:0:0:0:
409,265,17252,1,0,2:0:0:0:
478,156,17388,101,2,2:3:0:0:
464,166,17457,1,0,2:0:0:0:
449,174,17525,1,0,2:0:0:0:
432,179,17593,1,0,2:0:0:0:
415,182,17661,1,0,2:0:0:0:
332,146,17797,1,2,2:0:0:0:
328,129,17866,1,0,2:0:0:0:
321,113,17934,1,0,2:0:0:0:
311,99,18002,1,0,2:0:0:0:
297,88,18070,1,0,2:0:0:0:
209,89,18206,1,2,2:0:0:0:
197,100,18275,1,0,2:0:0:0:
191,117,18343,1,0,2:0:0:0:
161,215,18479,5,2,2:3:0:0:
171,229,18548,1,0,2:0:0:0:
184,240,18615,1,0,2:0:0:0:
276,229,18752,1,0,2:0:0:0:
327,305,18888,1,0,2:0:0:0:
416,342,19025,1,2,2:0:0:0:
443,327,19093,1,0,2:0:0:0:
472,314,19161,1,0,2:0:0:0:
459,284,19230,1,0,2:0:0:0:
443,256,19297,1,0,2:0:0:0:
471,243,19366,1,0,2:0:0:0:
500,231,19434,1,0,2:0:0:0:
489,201,19502,1,0,2:0:0:0:
476,171,19570,101,4,2:0:0:0:
484,79,19706,1,2,2:0:0:0:
464,86,19775,1,0,2:0:0:0:
445,93,19843,1,0,2:0:0:0:
426,99,19911,1,0,2:0:0:0:
406,105,19979,1,0,2:0:0:0:
386,108,20048,1,0,2:0:0:0:
366,110,20116,1,0,2:0:0:0:
306,49,20252,1,2,2:0:0:0:
285,43,20321,1,0,2:0:0:0:
264,39,20388,1,0,2:0:0:0:
243,34,20457,1,0,2:0:0:0:
223,32,20525,1,0,2:0:0:0:
134,10,20661,85,2,2:3:0:0:
128,27,20730,1,0,2:0:0:0:
119,44,20797,1,0,2:0:0:0:
107,60,20866,1,0,2:0:0:0:
93,73,20934,1,0,2:0:0:0:
78,83,21002,1,0,2:0:0:0:
59,89,21070,1,0,2:0:0:0:
41,92,21139,1,0,2:0:0:0:
21,91,21206,1,0,2:0:0:0:
0,177,21343,1,2,2:0:0:0:
19,184,21411,1,0,2:0:0:0:
36,196,21479,1,0,2:0:0:0:
50,210,21548,1,0,2:0:0:0:
60,229,21616,1,0,2:0:0:0:
118,319,21752,21,2,2:3:0:0:
122,298,21820,1,0,2:0:0:0:
131,279,21888,1,0,2:0:0:0:
143,261,21957,1,0,2:0:0:0:
157,246,22025,1,0,2:0:0:0:
175,233,22093,1,0,2:0:0:0:
193,225,22161,1,0,2:0:0:0:
324,232,22297,1,2,2:0:0:0:
311,214,22366,1,0,2:0:0:0:
301,196,22434,1,0,2:0:0:0:
294,177,22502,1,0,2:0:0:0:
288,156,22570,1,0,2:0:0:0:
285,135,22639,1,0,2:0:0:0:
285,114,22707,1,0,2:0:0:0:
308,36,22843,85,2,2:3:0:0:
325,36,22911,1,0,2:0:0:0:
342,37,22979,1,0,2:0:0:0:
359,41,23048,1,0,2:0:0:0:
376,47,23116,1,2,2:3:0:0:
392,55,23184,1,0,2:0:0:0:
407,64,23252,1,0,2:0:0:0:
420,75,23320,1,0,2:0:0:0:
433,87,23388,1,2,2:3:0:0:
444,101,23457,1,0,2:0:0:0:
453,115,23525,1,0,2:0:0:0:
461,131,23593,1,0,2:0:0:0:
467,147,23661,1,2,2:3:0:0:
471,165,23729,1,0,2:0:0:0:
473,182,23797,1,0,2:0:0:0:
473,199,23866,1,0,2:0:0:0:
471,217,23934,21,2,2:0:0:0:
442,298,24070,1,0,2:0:0:0:
443,316,24138,1,0,2:0:0:0:
449,332,24207,1,2,2:0:0:0:
367,356,24343,1,0,2:0:0:0:
355,370,24411,1,0,2:0:0:0:
348,384,24479,1,2,2:0:0:0:
282,328,24616,1,0,2:0:0:0:
264,330,24684,1,0,2:0:0:0:
249,335,24752,1,2,2:0:0:0:
231,252,24888,1,0,2:0:0:0:
217,241,24957,1,0,2:0:0:0:
203,234,25025,1,2,2:3:0:0:
194,249,25093,1,0,2:0:0:0:
186,265,25161,1,0,2:0:0:0:
175,279,25229,1,0,2:0:0:0:
162,291,25298,1,0,2:0:0:0:
148,300,25366,1,0,2:0:0:0:
131,306,25434,1,0,2:0:0:0:
114,309,25502,1,0,2:0:0:0:
95,306,25570,85,0,2:0:0:0:
103,290,25638,1,0,2:0:0:0:
110,274,25707,1,0,2:0:0:0:
115,257,25775,1,0,2:0:0:0:
119,240,25843,1,2,2:0:0:0:
122,223,25911,1,0,2:0:0:0:
123,206,25979,1,0,2:0:0:0:
122,188,26047,1,0,2:0:0:0:
120,171,26116,21,4,2:0:0:0:
49,127,26252,1,0,2:0:0:0:
48,109,26320,1,0,2:0:0:0:
42,93,26388,1,2,2:0:0:0:
124,69,26525,1,0,2:0:0:0:
136,55,26593,1,0,2:0:0:0:
143,41,26661,1,2,2:0:0:0:
209,97,26798,1,0,2:0:0:0:
227,95,26866,1,0,2:0:0:0:
242,90,26934,1,2,2:0:0:0:
278,168,27070,1,0,2:0:0:0:
247,256,27207,85,2,2:3:0:0:
259,270,27275,1,0,2:0:0:0:
271,282,27343,1,0,2:0:0:0:
284,294,27411,1,0,2:0:0:0:
298,305,27479,1,2,2:0:0:0:
313,314,27547,1,0,2:0:0:0:
328,322,27616,1,0,2:0:0:0:
344,329,27684,1,0,2:0:0:0:
361,335,27752,1,2,2:0:0:0:
378,340,27820,1,0,2:0:0:0:
395,343,27889,1,0,2:0:0:0:
412,345,27956,1,0,2:0:0:0:
430,345,28025,1,2,2:0:0:0:
447,344,28093,1,0,2:0:0:0:
465,342,28161,1,0,2:0:0:0:
482,339,28229,1,0,2:0:0:0:
498,334,28298,21,2,2:3:0:0:
488,209,28434,1,0,2:0:0:0:
489,230,28502,1,0,2:0:0:0:
496,249,28570,1,2,2:0:0:0:
398,278,28707,1,0,2:0:0:0:
383,295,28774,1,0,2:0:0:0:
375,312,28843,1,2,2:0:0:0:
296,245,28979,1,0,2:0:0:0:
274,247,29047,1,0,2:0:0:0:
256,253,29116,1,2,2:0:0:0:
234,153,29252,1,0,2:0:0:0:
217,140,29320,1,0,2:0:0:0:
201,132,29389,1,2,2:0:0:0:
177,36,29525,1,0,2:0:0:0:
168,47,29593,1,0,2:0:0:0:
158,58,29661,1,2,2:3:0:0:
147,67,29729,1,0,2:0:0:0:
135,76,29798,1,0,2:0:0:0:
122,83,29865,1,0,2:0:0:0:
109,89,29934,1,2,2:0:0:0:
95,94,30002,1,0,2:0:0:0:
81,97,30070,1,0,2:0:0:0:
67,99,30138,1,0,2:0:0:0:
52,99,30207,1,2,2:0:0:0:
37,98,30274,1,0,2:0:0:0:
23,96,30343,1,0,2:0:0:0:
0,190,30480,85,2,2:3:0:0:
9,202,30547,1,0,2:0:0:0:
19,213,30616,1,0,2:0:0:0:
30,222,30684,1,0,2:0:0:0:
42,231,30752,1,2,2:0:0:0:
55,238,30820,1,0,2:0:0:0:
68,244,30889,1,0,2:0:0:0:
82,249,30956,1,0,2:0:0:0:
96,252,31025,1,2,2:0:0:0:
110,254,31093,1,0,2:0:0:0:
125,254,31161,1,0,2:0:0:0:
140,253,31229,1,0,2:0:0:0:
154,251,31298,1,2,2:0:0:0:
247,235,31434,1,0,2:0:0:0:
287,150,31570,21,2,2:3:0:0:
286,132,31638,1,0,2:0:0:0:
286,115,31707,1,0,2:0:0:0:
285,97,31775,1,0,2:0:0:0:
285,80,31843,1,2,2:0:0:0:
284,62,31911,1,0,2:0:0:0:
284,45,31980,1,0,2:0:0:0:
283,27,32047,1,0,2:0:0:0:
282,10,32116,1,2,2:0:0:0:
378,33,32252,1,0,2:0:0:0:
396,32,32320,1,0,2:0:0:0:
412,26,32389,1,2,2:0:0:0:
436,108,32525,1,0,2:0:0:0:
450,120,32593,1,0,2:0:0:0:
464,127,32661,1,2,2:3:0:0:
408,193,32798,1,0,2:0:0:0:
410,211,32865,1,0,2:0:0:0:
415,226,32934,1,2,2:0:0:0:
332,244,33071,1,0,2:0:0:0:
321,258,33138,1,0,2:0:0:0:
314,272,33207,1,2,2:0:0:0:
228,239,33343,1,0,2:0:0:0:
210,240,33411,1,0,2:0:0:0:
194,246,33480,1,2,2:0:0:0:
170,164,33616,1,0,2:0:0:0:
156,152,33684,1,0,2:0:0:0:
142,145,33752,1,2,2:0:0:0:
198,79,33889,1,0,2:0:0:0:
196,61,33956,1,0,2:0:0:0:
191,46,34025,1,2,2:0:0:0:
274,28,34161,1,0,2:0:0:0:
285,14,34229,1,0,2:0:0:0:
292,0,34298,1,2,2:0:0:0:
366,45,34434,1,2,2:0:0:0:
381,52,34502,1,0,2:0:0:0:
398,58,34571,1,0,2:0:0:0:
415,62,34638,1,0,2:0:0:0:
432,63,34707,1,0,2:0:0:0:
512,145,34843,85,2,2:3:0:0:
494,148,34911,1,0,2:0:0:0:
478,154,34980,1,0,2:0:0:0:
461,160,35047,1,0,2:0:0:0:
446,168,35116,1,0,2:0:0:0:
423,272,35252,1,0,2:0:0:0:
424,290,35320,1,0,2:0:0:0:
430,306,35389,1,2,2:0:0:0:
348,330,35525,1,0,2:0:0:0:
336,344,35593,1,0,2:0:0:0:
329,358,35661,1,2,2:0:0:0:
263,302,35798,1,0,2:0:0:0:
245,304,35866,1,0,2:0:0:0:
230,309,35934,1,2,2:0:0:0:
212,226,36070,1,0,2:0:0:0:
198,215,36138,1,0,2:0:0:0:
184,208,36207,1,2,2:0:0:0:
229,126,36343,1,0,2:0:0:0:
226,108,36411,1,0,2:0:0:0:
221,93,36480,2,0,L|171:81,3,35,2|0|0|0,2:0|2:0|2:0|2:0,2:0:0:0:
142,28,36752,2,0,L|103:16,3,35,0|0|0|0,2:0|2:0|2:0|2:0,2:0:0:0:
37,51,37025,37,4,0:2:0:0:
33,59,37093,1,0,2:0:0:0:
31,67,37161,1,0,2:0:0:0:
30,76,37229,1,0,2:0:0:0:
30,85,37298,1,2,2:0:0:0:
30,93,37366,1,0,2:0:0:0:
32,102,37434,1,0,2:0:0:0:
34,110,37502,1,0,2:0:0:0:
38,118,37570,1,2,2:0:0:0:
42,126,37638,1,0,2:0:0:0:
47,133,37707,1,0,2:0:0:0:
53,139,37775,1,0,2:0:0:0:
60,145,37843,1,2,2:3:0:0:
87,137,37911,1,0,2:0:0:0:
114,133,37979,1,0,2:0:0:0:
129,155,38047,1,0,2:0:0:0:
144,177,38116,5,8,3:0:0:0:
150,176,38184,1,0,2:0:0:0:
157,176,38252,1,0,2:0:0:0:
163,177,38320,1,0,2:0:0:0:
170,178,38388,1,2,2:0:0:0:
176,180,38457,1,0,2:0:0:0:
182,183,38525,1,0,2:0:0:0:
188,186,38593,1,0,2:0:0:0:
193,189,38661,1,2,2:0:0:0:
198,193,38729,1,0,2:0:0:0:
203,198,38798,1,0,2:0:0:0:
208,203,38866,1,0,2:0:0:0:
212,208,38934,1,2,2:3:0:0:
193,229,39002,1,0,2:0:0:0:
169,244,39070,1,0,2:0:0:0:
141,239,39138,1,0,2:0:0:0:
117,233,39207,101,8,3:0:0:0:
115,239,39275,1,0,2:0:0:0:
115,245,39343,1,0,2:0:0:0:
115,252,39411,1,0,2:0:0:0:
116,259,39479,1,2,2:0:0:0:
118,265,39548,1,0,2:0:0:0:
120,271,39616,1,0,2:0:0:0:
124,277,39684,1,0,2:0:0:0:
128,282,39752,1,2,2:0:0:0:
132,287,39820,1,0,2:0:0:0:
137,291,39888,1,0,2:0:0:0:
142,295,39957,1,0,2:0:0:0:
148,298,40025,1,2,2:3:0:0:
170,280,40093,1,0,2:0:0:0:
192,263,40161,1,0,2:0:0:0:
215,278,40229,1,0,2:0:0:0:
243,295,40297,5,8,3:0:0:0:
251,292,40366,1,0,2:0:0:0:
260,291,40434,1,0,2:0:0:0:
268,291,40502,1,0,2:0:0:0:
277,291,40570,1,2,2:0:0:0:
286,293,40638,1,0,2:0:0:0:
294,296,40706,1,0,2:0:0:0:
302,300,40775,1,0,2:0:0:0:
309,304,40843,1,2,2:0:0:0:
316,310,40911,1,0,2:0:0:0:
322,316,40979,1,0,2:0:0:0:
327,323,41048,1,0,2:0:0:0:
331,331,41116,1,2,2:3:0:0:
404,384,41252,1,2,2:0:0:0:
475,333,41388,101,4,0:2:0:0:
479,325,41457,1,0,2:0:0:0:
481,317,41525,1,0,2:0:0:0:
482,308,41593,1,0,2:0:0:0:
482,299,41661,1,2,2:0:0:0:
482,291,41730,1,0,2:0:0:0:
480,282,41797,1,0,2:0:0:0:
478,274,41866,1,0,2:0:0:0:
474,266,41934,1,2,2:0:0:0:
470,258,42002,1,0,2:0:0:0:
465,251,42070,1,0,2:0:0:0:
459,245,42139,1,0,2:0:0:0:
452,239,42206,1,2,2:3:0:0:
425,247,42275,1,0,2:0:0:0:
398,251,42343,1,0,2:0:0:0:
383,229,42411,1,0,2:0:0:0:
368,207,42479,5,8,3:0:0:0:
362,208,42548,1,0,2:0:0:0:
355,208,42616,1,0,2:0:0:0:
349,207,42684,1,0,2:0:0:0:
342,206,42752,1,2,2:0:0:0:
336,204,42821,1,0,2:0:0:0:
330,201,42888,1,0,2:0:0:0:
324,198,42957,1,0,2:0:0:0:
319,195,43025,1,2,2:0:0:0:
314,191,43093,1,0,2:0:0:0:
309,186,43161,1,0,2:0:0:0:
304,181,43230,1,0,2:0:0:0:
300,176,43297,1,2,2:3:0:0:
319,155,43366,1,0,2:0:0:0:
343,140,43434,1,0,2:0:0:0:
371,145,43502,1,0,2:0:0:0:
395,151,43570,101,8,3:0:0:0:
397,145,43639,1,0,2:0:0:0:
397,139,43706,1,0,2:0:0:0:
397,132,43775,1,0,2:0:0:0:
396,125,43843,1,2,2:0:0:0:
394,119,43912,1,0,2:0:0:0:
392,113,43979,1,0,2:0:0:0:
388,107,44048,1,0,2:0:0:0:
384,102,44116,1,2,2:0:0:0:
380,97,44184,1,0,2:0:0:0:
375,93,44252,1,0,2:0:0:0:
370,89,44321,1,0,2:0:0:0:
364,86,44388,1,2,2:3:0:0:
341,102,44457,1,0,2:0:0:0:
319,119,44525,1,0,2:0:0:0:
295,104,44593,1,0,2:0:0:0:
269,89,44661,5,8,3:0:0:0:
261,92,44730,1,0,2:0:0:0:
252,93,44797,1,0,2:0:0:0:
244,93,44866,1,0,2:0:0:0:
235,93,44934,1,2,2:0:0:0:
226,91,45002,1,0,2:0:0:0:
218,88,45070,1,0,2:0:0:0:
210,84,45139,1,0,2:0:0:0:
203,80,45207,1,2,2:0:0:0:
196,74,45275,1,0,2:0:0:0:
190,68,45343,1,0,2:0:0:0:
185,61,45412,1,0,2:0:0:0:
181,53,45479,1,2,2:3:0:0:
108,0,45616,1,2,2:0:0:0:
81,105,45752,101,4,0:0:0:0:
89,102,45820,1,0,2:0:0:0:
98,101,45888,1,0,2:0:0:0:
106,99,45957,1,0,2:0:0:0:
115,97,46025,1,2,2:0:0:0:
123,95,46093,1,0,2:0:0:0:
132,93,46161,1,0,2:0:0:0:
140,92,46230,1,0,2:0:0:0:
149,90,46297,1,2,2:0:0:0:
158,89,46366,1,0,2:0:0:0:
166,87,46434,1,0,2:0:0:0:
175,86,46502,1,0,2:0:0:0:
184,85,46570,1,2,2:3:0:0:
182,113,46639,1,0,2:0:0:0:
182,140,46706,1,0,2:0:0:0:
209,134,46775,1,0,2:0:0:0:
237,132,46843,5,8,3:0:0:0:
234,140,46911,1,0,2:0:0:0:
231,148,46979,1,0,2:0:0:0:
229,157,47048,1,0,2:0:0:0:
227,165,47115,1,2,2:0:0:0:
225,174,47184,1,0,2:0:0:0:
223,182,47252,1,0,2:0:0:0:
221,191,47321,1,0,2:0:0:0:
219,199,47388,1,2,2:0:0:0:
218,208,47457,1,0,2:0:0:0:
216,217,47525,1,0,2:0:0:0:
215,225,47593,1,0,2:0:0:0:
214,234,47661,1,2,2:3:0:0:
187,225,47730,1,0,2:0:0:0:
159,218,47797,1,0,2:0:0:0:
164,245,47866,1,0,2:0:0:0:
167,272,47934,101,8,3:0:0:0:
158,274,48002,1,0,2:0:0:0:
149,275,48070,1,0,2:0:0:0:
141,277,48139,1,0,2:0:0:0:
132,279,48206,1,2,2:0:0:0:
124,281,48275,1,0,2:0:0:0:
115,283,48343,1,0,2:0:0:0:
107,284,48411,1,0,2:0:0:0:
98,286,48479,1,2,2:0:0:0:
89,287,48548,1,0,2:0:0:0:
81,289,48616,1,0,2:0:0:0:
72,290,48684,1,0,2:0:0:0:
63,291,48752,1,2,2:3:0:0:
75,265,48821,1,0,2:0:0:0:
86,239,48888,1,0,2:0:0:0:
57,236,48957,1,0,2:0:0:0:
28,237,49025,5,8,3:0:0:0:
30,228,49093,1,0,2:0:0:0:
33,220,49161,1,0,2:0:0:0:
35,211,49230,1,0,2:0:0:0:
37,203,49297,1,2,2:0:0:0:
39,194,49366,1,0,2:0:0:0:
41,186,49434,1,0,2:0:0:0:
43,177,49502,1,0,2:0:0:0:
45,169,49570,1,2,2:0:0:0:
46,160,49639,1,0,2:0:0:0:
48,151,49706,1,0,2:0:0:0:
49,143,49775,1,0,2:0:0:0:
50,134,49843,1,2,2:3:0:0:
144,97,49979,1,2,2:0:0:0:
185,9,50116,101,4,0:0:0:0:
193,5,50184,1,0,2:0:0:0:
201,3,50252,1,0,2:0:0:0:
210,1,50320,1,0,2:0:0:0:
218,0,50388,1,2,2:0:0:0:
227,1,50457,1,0,2:0:0:0:
236,2,50525,1,0,2:0:0:0:
244,4,50593,1,0,2:0:0:0:
253,7,50661,1,2,2:0:0:0:
260,10,50730,1,0,2:0:0:0:
268,15,50797,1,0,2:0:0:0:
275,20,50866,1,0,2:0:0:0:
281,26,50934,1,2,2:3:0:0:
258,42,51002,1,0,2:0:0:0:
242,65,51070,1,0,2:0:0:0:
248,92,51139,1,0,2:0:0:0:
257,118,51207,5,8,3:0:0:0:
253,126,51275,1,0,2:0:0:0:
251,134,51343,1,0,2:0:0:0:
250,143,51411,1,0,2:0:0:0:
251,152,51479,1,2,2:0:0:0:
252,160,51548,1,0,2:0:0:0:
254,169,51616,1,0,2:0:0:0:
257,177,51684,1,0,2:0:0:0:
261,185,51752,1,2,2:0:0:0:
266,192,51820,1,0,2:0:0:0:
272,198,51888,1,0,2:0:0:0:
278,204,51957,1,0,2:0:0:0:
286,209,52025,1,2,2:3:0:0:
296,183,52093,1,0,2:0:0:0:
313,161,52161,1,0,2:0:0:0:
338,172,52229,1,0,2:0:0:0:
362,184,52297,101,8,3:0:0:0:
363,175,52366,1,0,2:0:0:0:
364,166,52434,1,0,2:0:0:0:
367,158,52502,1,0,2:0:0:0:
370,150,52570,1,2,2:0:0:0:
373,142,52638,1,0,2:0:0:0:
378,134,52707,1,0,2:0:0:0:
383,127,52775,1,0,2:0:0:0:
388,120,52843,1,2,2:0:0:0:
394,114,52911,1,0,2:0:0:0:
401,108,52979,1,0,2:0:0:0:
408,103,53048,1,0,2:0:0:0:
415,98,53116,1,2,2:3:0:0:
398,75,53184,1,0,2:0:0:0:
382,51,53252,1,0,2:0:0:0:
405,36,53320,1,0,2:0:0:0:
430,24,53388,5,8,3:0:0:0:
421,23,53457,1,0,2:0:0:0:
412,23,53525,1,0,2:0:0:0:
403,23,53593,1,0,2:0:0:0:
395,22,53661,1,2,2:0:0:0:
386,22,53729,1,0,2:0:0:0:
377,21,53798,1,0,2:0:0:0:
368,20,53866,1,0,2:0:0:0:
360,19,53934,2,0,L|371:59,3,35,2|0|0|0,2:0|2:0|2:0|2:0,2:0:0:0:
287,2,54207,2,0,L|262:-1,6,17.5,2|0|0|0|0|0|0,0:3|0:0|0:0|0:0|0:0|0:0|0:0,0:0:0:0:
244,79,54479,69,4,1:2:0:0:
244,96,54547,1,0,2:0:0:0:
247,113,54616,1,0,2:0:0:0:
253,130,54684,1,0,2:0:0:0:
260,146,54752,1,2,2:3:0:0:
269,161,54820,1,0,2:0:0:0:
280,174,54888,1,0,2:0:0:0:
292,187,54956,1,0,2:0:0:0:
306,197,55025,1,8,3:0:0:0:
321,206,55093,1,0,2:0:0:0:
337,213,55161,1,0,2:0:0:0:
354,218,55229,1,0,2:0:0:0:
372,220,55298,1,2,2:3:0:0:
384,191,55366,1,0,2:0:0:0:
399,163,55434,1,0,2:0:0:0:
418,187,55502,1,0,2:0:0:0:
440,209,55570,101,8,3:0:0:0:
424,211,55638,1,0,2:0:0:0:
410,216,55707,1,0,2:0:0:0:
395,221,55775,1,0,2:0:0:0:
382,228,55843,1,2,2:3:0:0:
368,235,55911,1,0,2:0:0:0:
356,244,55979,1,0,2:0:0:0:
344,254,56047,1,0,2:0:0:0:
334,265,56116,1,8,3:0:0:0:
324,277,56184,1,0,2:0:0:0:
315,290,56252,1,0,2:0:0:0:
307,303,56320,1,0,2:0:0:0:
301,317,56389,1,2,2:3:0:0:
325,336,56456,1,0,2:0:0:0:
345,359,56525,1,0,2:0:0:0:
315,369,56593,1,0,2:0:0:0:
288,376,56661,5,8,3:0:0:0:
287,358,56729,1,0,2:0:0:0:
284,341,56798,1,0,2:0:0:0:
278,324,56865,1,0,2:0:0:0:
271,308,56934,1,2,2:3:0:0:
262,293,57002,1,0,2:0:0:0:
251,280,57070,1,0,2:0:0:0:
239,267,57138,1,0,2:0:0:0:
225,257,57207,1,8,3:0:0:0:
210,248,57274,1,0,2:0:0:0:
194,241,57343,1,0,2:0:0:0:
177,236,57411,1,0,2:0:0:0:
159,234,57479,1,2,2:3:0:0:
146,263,57547,1,0,2:0:0:0:
138,293,57616,1,0,2:0:0:0:
115,270,57684,1,0,2:0:0:0:
92,246,57752,101,8,3:0:0:0:
107,243,57820,1,0,2:0:0:0:
121,238,57889,1,0,2:0:0:0:
136,233,57956,1,0,2:0:0:0:
149,226,58025,1,2,2:3:0:0:
163,219,58093,1,0,2:0:0:0:
175,210,58161,1,0,2:0:0:0:
187,200,58229,1,0,2:0:0:0:
197,189,58298,1,8,3:0:0:0:
207,177,58365,1,0,2:0:0:0:
216,164,58434,1,0,2:0:0:0:
224,151,58502,1,0,2:0:0:0:
230,137,58570,1,2,2:3:0:0:
207,114,58638,1,0,2:0:0:0:
189,87,58707,1,0,2:0:0:0:
219,79,58774,1,0,2:0:0:0:
250,73,58843,5,4,0:0:0:0:
221,52,58911,1,0,2:0:0:0:
189,39,58980,1,0,2:0:0:0:
155,33,59047,1,0,2:0:0:0:
120,34,59116,1,2,2:0:0:0:
40,81,59252,1,2,2:3:0:0:
19,109,59320,1,0,2:0:0:0:
6,141,59389,1,0,2:0:0:0:
0,175,59456,1,0,2:0:0:0:
1,210,59525,1,2,2:0:0:0:
56,271,59661,1,2,2:3:0:0:
88,284,59729,1,0,2:0:0:0:
122,289,59798,1,2,2:0:0:0:
206,260,59934,101,8,3:0:0:0:
220,228,60002,1,0,2:0:0:0:
231,195,60070,1,0,2:0:0:0:
238,160,60138,1,0,2:0:0:0:
240,125,60207,1,2,2:0:0:0:
300,65,60343,1,2,2:3:0:0:
334,58,60411,1,0,2:0:0:0:
369,54,60480,1,0,2:0:0:0:
404,51,60547,1,0,2:0:0:0:
439,50,60616,1,2,2:0:0:0:
498,114,60752,1,2,2:3:0:0:
503,148,60820,1,0,2:0:0:0:
501,183,60889,1,2,2:0:0:0:
442,245,61025,5,8,3:0:0:0:
443,279,61093,1,0,2:0:0:0:
446,314,61161,1,0,2:0:0:0:
449,349,61229,1,0,2:0:0:0:
454,384,61298,1,2,0:0:0:0:
358,374,61434,1,2,2:3:0:0:
322,375,61502,1,0,2:0:0:0:
287,374,61571,1,0,2:0:0:0:
253,370,61638,1,0,2:0:0:0:
218,363,61707,1,2,2:0:0:0:
138,327,61843,1,2,2:3:0:0:
141,292,61911,1,0,2:0:0:0:
149,258,61980,1,2,2:0:0:0:
82,201,62116,101,8,3:0:0:0:
70,167,62184,1,0,2:0:0:0:
63,133,62252,1,0,2:0:0:0:
60,98,62320,1,0,2:0:0:0:
62,63,62389,1,2,2:0:0:0:
156,24,62525,1,2,2:3:0:0:
168,58,62593,1,0,2:0:0:0:
175,92,62661,1,0,2:0:0:0:
178,127,62729,1,0,2:0:0:0:
176,162,62798,1,2,2:0:0:0:
234,232,62934,1,2,2:3:0:0:
268,238,63002,1,0,2:0:0:0:
302,244,63071,1,0,2:0:0:0:
337,248,63138,1,0,2:0:0:0:
372,252,63207,5,4,3:2:0:0:
366,235,63275,1,0,2:0:0:0:
362,218,63343,1,0,2:0:0:0:
360,201,63411,1,0,2:0:0:0:
361,183,63480,1,2,2:0:0:0:
365,166,63547,1,0,2:0:0:0:
370,149,63616,1,0,2:0:0:0:
378,134,63684,1,0,2:0:0:0:
388,119,63752,1,8,3:0:0:0:
400,106,63820,1,0,2:0:0:0:
413,95,63889,1,0,2:0:0:0:
427,85,63956,1,0,2:0:0:0:
443,78,64025,1,2,2:0:0:0:
457,50,64093,1,0,2:0:0:0:
474,23,64161,1,0,2:0:0:0:
488,42,64229,1,0,2:0:0:0:
512,71,64298,101,8,3:0:0:0:
507,87,64366,1,0,2:0:0:0:
503,104,64434,1,0,2:0:0:0:
499,121,64502,1,0,2:0:0:0:
494,138,64570,1,2,2:0:0:0:
491,155,64638,1,0,2:0:0:0:
487,173,64707,1,0,2:0:0:0:
483,190,64775,1,0,2:0:0:0:
480,207,64843,1,8,3:0:0:0:
476,224,64911,1,0,2:0:0:0:
473,241,64980,1,0,2:0:0:0:
470,258,65047,1,0,2:0:0:0:
467,276,65116,1,2,2:0:0:0:
490,296,65184,1,0,2:0:0:0:
510,319,65252,1,0,2:0:0:0:
481,333,65320,1,0,2:0:0:0:
456,345,65389,5,8,3:0:0:0:
439,349,65457,1,0,2:0:0:0:
422,353,65525,1,0,2:0:0:0:
405,357,65593,1,0,2:0:0:0:
387,361,65661,1,2,2:0:0:0:
370,364,65729,1,0,2:0:0:0:
353,367,65798,1,0,2:0:0:0:
336,369,65866,1,0,2:0:0:0:
318,371,65934,1,8,3:0:0:0:
301,373,66002,1,0,2:0:0:0:
283,375,66070,1,0,2:0:0:0:
266,376,66138,1,0,2:0:0:0:
248,377,66207,1,2,2:0:0:0:
231,349,66275,1,0,2:0:0:0:
215,321,66343,1,0,2:0:0:0:
197,347,66411,1,0,2:0:0:0:
179,376,66479,101,8,3:0:0:0:
181,358,66547,1,0,2:0:0:0:
182,341,66616,1,0,2:0:0:0:
180,323,66684,1,0,2:0:0:0:
176,306,66752,1,2,2:0:0:0:
169,290,66820,1,0,2:0:0:0:
161,275,66888,1,0,2:0:0:0:
151,261,66957,1,0,2:0:0:0:
139,248,67025,1,8,3:0:0:0:
125,237,67093,1,0,2:0:0:0:
110,228,67161,1,0,2:0:0:0:
94,221,67229,1,0,2:0:0:0:
77,216,67298,1,2,2:0:0:0:
61,243,67366,1,0,2:0:0:0:
44,269,67434,1,0,2:0:0:0:
23,244,67502,1,0,2:0:0:0:
8,219,67570,5,4,3:2:0:0:
14,184,67638,1,0,2:0:0:0:
18,149,67707,1,0,2:0:0:0:
20,114,67775,1,0,2:0:0:0:
19,79,67843,1,2,2:0:0:0:
87,29,67979,1,2,2:3:0:0:
121,24,68048,1,0,2:0:0:0:
156,23,68116,1,0,2:0:0:0:
191,25,68184,1,0,2:0:0:0:
226,30,68252,1,2,2:0:0:0:
264,106,68388,1,2,2:3:0:0:
265,140,68457,1,0,2:0:0:0:
262,175,68525,1,2,2:0:0:0:
309,252,68661,101,8,3:0:0:0:
343,245,68729,1,0,2:0:0:0:
378,240,68797,1,0,2:0:0:0:
412,239,68866,1,0,2:0:0:0:
447,239,68934,1,2,2:0:0:0:
486,167,69070,1,2,2:3:0:0:
477,133,69138,1,0,2:0:0:0:
471,98,69206,1,0,2:0:0:0:
466,63,69275,1,0,2:0:0:0:
465,28,69343,1,2,2:0:0:0:
382,10,69479,1,2,2:3:0:0:
347,16,69548,1,0,2:0:0:0:
312,18,69616,1,2,2:0:0:0:
245,78,69752,5,8,3:0:0:0:
246,95,69820,1,0,2:0:0:0:
247,112,69888,1,0,2:0:0:0:
249,130,69957,1,0,2:0:0:0:
250,147,70025,1,2,2:0:0:0:
251,165,70093,1,0,2:0:0:0:
253,182,70161,1,0,2:0:0:0:
254,200,70229,1,0,2:0:0:0:
255,217,70297,1,8,3:0:0:0:
256,235,70366,1,0,2:0:0:0:
257,252,70434,1,0,2:0:0:0:
258,270,70502,1,0,2:0:0:0:
259,287,70570,1,2,2:0:0:0:
260,304,70639,1,0,2:0:0:0:
261,322,70706,1,0,2:0:0:0:
262,339,70775,1,0,2:0:0:0:
262,357,70843,1,8,3:0:0:0:
166,336,70979,101,2,2:3:0:0:
161,294,71048,1,0,2:0:0:0:
175,254,71115,1,2,2:0:0:0:
212,234,71184,1,0,2:0:0:0:
253,237,71252,1,2,2:3:0:0:
293,227,71320,1,0,2:0:0:0:
323,197,71388,1,8,3:0:0:0:
327,155,71457,1,0,2:0:0:0:
298,124,71524,1,2,2:3:0:0:
255,122,71593,1,0,2:0:0:0:
214,108,71661,1,2,2:0:0:0:
191,72,71729,1,0,2:0:0:0:
196,30,71797,1,2,2:3:0:0:
229,4,71866,1,0,2:0:0:0:
229,4,71934,21,4,0:0:0:0:
228,21,72002,1,0,2:0:0:0:
228,38,72070,1,0,2:0:0:0:
227,56,72139,1,0,2:0:0:0:
225,73,72206,1,2,2:0:0:0:
155,113,72343,1,2,2:3:0:0:
137,111,72411,1,0,2:0:0:0:
120,110,72479,1,0,2:0:0:0:
102,109,72548,1,0,2:0:0:0:
85,109,72615,1,2,2:0:0:0:
23,163,72752,1,2,2:3:0:0:
21,180,72820,1,0,2:0:0:0:
19,197,72888,1,2,2:0:0:0:
59,269,73024,101,4,2:0:0:0:
76,271,73093,1,0,2:0:0:0:
93,273,73161,1,0,2:0:0:0:
111,275,73230,1,0,2:0:0:0:
128,277,73297,1,2,2:0:0:0:
192,327,73434,1,2,2:3:0:0:
209,327,73502,1,0,2:0:0:0:
227,327,73570,1,0,2:0:0:0:
244,327,73639,1,0,2:0:0:0:
262,327,73706,1,2,2:0:0:0:
331,283,73843,1,2,2:3:0:0:
348,282,73911,1,0,2:0:0:0:
365,281,73979,1,0,2:0:0:0:
438,235,74115,5,4,2:0:0:0:
435,217,74184,1,0,2:0:0:0:
433,200,74252,1,0,2:0:0:0:
432,182,74320,1,0,2:0:0:0:
432,165,74388,1,2,2:0:0:0:
491,106,74525,1,2,2:3:0:0:
487,88,74593,1,0,2:0:0:0:
485,71,74661,1,0,2:0:0:0:
484,54,74730,1,0,2:0:0:0:
483,36,74797,1,2,2:0:0:0:
405,2,74934,1,2,2:3:0:0:
388,1,75002,1,0,2:0:0:0:
371,0,75070,1,2,2:0:0:0:
298,50,75206,101,4,2:0:0:0:
301,68,75275,1,0,2:0:0:0:
303,85,75343,1,0,2:0:0:0:
304,103,75411,1,0,2:0:0:0:
304,120,75479,1,2,2:0:0:0:
245,179,75615,1,2,2:3:0:0:
249,197,75684,1,0,2:0:0:0:
251,214,75752,1,0,2:0:0:0:
233,217,75821,1,0,2:0:0:0:
216,221,75888,1,2,2:0:0:0:
169,287,76025,1,2,2:3:0:0:
170,304,76093,1,0,2:0:0:0:
171,321,76161,1,2,2:0:0:0:
52,254,76297,5,4,0:0:0:0:
51,245,76366,1,0,2:0:0:0:
50,236,76434,1,0,2:0:0:0:
49,227,76502,1,0,2:0:0:0:
48,219,76570,1,0,2:0:0:0:
47,210,76639,1,0,2:0:0:0:
46,201,76706,1,0,2:0:0:0:
45,193,76775,1,0,2:0:0:0:
44,184,76843,1,2,2:3:0:0:
43,175,76911,1,0,2:0:0:0:
42,167,76979,1,0,2:0:0:0:
41,158,77048,1,0,2:0:0:0:
40,149,77116,1,0,2:0:0:0:
39,140,77184,1,0,2:0:0:0:
37,132,77252,1,0,2:0:0:0:
36,123,77321,1,0,2:0:0:0:
35,114,77388,101,8,3:0:0:0:
51,119,77457,1,0,2:0:0:0:
68,123,77525,1,0,2:0:0:0:
85,127,77593,1,0,2:0:0:0:
102,131,77661,1,2,2:3:0:0:
120,133,77730,1,0,2:0:0:0:
137,135,77797,1,0,2:0:0:0:
154,136,77866,1,0,2:0:0:0:
172,137,77934,5,8,3:0:0:0:
166,120,78002,1,0,2:0:0:0:
161,103,78070,1,0,2:0:0:0:
157,86,78139,1,0,2:0:0:0:
154,69,78206,1,2,2:3:0:0:
151,52,78275,1,0,2:0:0:0:
150,34,78343,1,0,2:0:0:0:
150,17,78411,1,0,2:0:0:0:
150,0,78479,101,8,3:0:0:0:
158,2,78548,1,0,2:0:0:0:
166,5,78616,1,0,2:0:0:0:
175,7,78684,1,0,2:0:0:0:
183,9,78752,1,0,2:0:0:0:
192,11,78820,1,0,2:0:0:0:
200,13,78888,1,0,2:0:0:0:
209,15,78957,1,0,2:0:0:0:
217,17,79025,1,2,2:3:0:0:
226,19,79093,1,0,2:0:0:0:
234,20,79161,1,0,2:0:0:0:
243,22,79230,1,0,2:0:0:0:
252,23,79297,1,0,2:0:0:0:
260,24,79366,1,0,2:0:0:0:
269,25,79434,1,0,2:0:0:0:
278,26,79502,1,0,2:0:0:0:
286,27,79570,6,0,L|296:74,3,35,8|0|0|0,3:0|2:0|2:0|2:0,2:0:0:0:
361,88,79843,2,0,L|371:135,3,35,0|0|0|0,2:0|2:0|2:0|2:0,2:0:0:0:
319,179,80116,2,0,L|328:225,3,35,2|0|0|0,2:0|2:0|2:0|2:0,2:0:0:0:
267,264,80388,2,0,L|281:319,3,35,0|0|0|0,2:0|2:0|2:0|2:0,2:0:0:0:
325,356,80661,101,4,2:0:0:0:
341,357,80729,1,0,2:0:0:0:
359,359,80797,1,0,2:0:0:0:
432,319,80934,1,2,2:3:0:0:
433,302,81002,1,0,2:0:0:0:
435,284,81070,1,0,2:0:0:0:
395,207,81207,1,2,2:3:0:0:
379,206,81275,1,0,2:0:0:0:
361,204,81343,1,0,2:0:0:0:
288,244,81479,1,2,2:3:0:0:
287,261,81548,1,0,2:0:0:0:
285,278,81616,1,0,2:0:0:0:
240,350,81752,1,2,2:3:0:0:
224,351,81820,1,0,2:0:0:0:
206,353,81888,1,0,2:0:0:0:
133,313,82025,1,2,2:3:0:0:
132,296,82093,1,0,2:0:0:0:
130,278,82161,1,0,2:0:0:0:
170,201,82298,1,2,2:3:0:0:
186,200,82366,1,0,2:0:0:0:
204,198,82434,1,0,2:0:0:0:
277,238,82570,1,2,2:3:0:0:
278,255,82638,1,0,2:0:0:0:
280,272,82707,1,0,2:0:0:0:
365,317,82843,5,8,2:3:0:0:
378,316,82911,1,0,2:0:0:0:
391,314,82979,1,0,2:0:0:0:
403,311,83047,1,0,2:0:0:0:
415,306,83116,1,2,2:3:0:0:
427,300,83184,1,0,2:0:0:0:
438,292,83252,1,2,2:0:0:0:
447,283,83320,1,0,2:0:0:0:
456,273,83388,1,2,2:3:0:0:
463,262,83456,1,0,2:0:0:0:
469,251,83525,1,0,2:0:0:0:
473,238,83593,1,0,2:0:0:0:
476,225,83661,1,2,2:3:0:0:
477,212,83729,1,0,2:0:0:0:
477,199,83798,1,0,2:0:0:0:
475,186,83866,1,0,2:0:0:0:
472,174,83934,101,4,2:0:0:0:
456,175,84002,1,0,2:0:0:0:
438,177,84070,1,0,2:0:0:0:
365,137,84207,1,2,2:3:0:0:
364,120,84275,1,0,2:0:0:0:
362,102,84343,1,2,2:0:0:0:
296,51,84479,1,2,2:3:0:0:
280,50,84547,1,0,2:0:0:0:
262,48,84616,1,0,2:0:0:0:
189,88,84752,1,2,2:3:0:0:
188,105,84820,1,0,2:0:0:0:
186,122,84889,1,0,2:0:0:0:
91,242,85025,5,4,0:0:0:0:
88,226,85093,1,0,2:0:0:0:
85,211,85161,1,0,2:0:0:0:
82,196,85229,1,0,2:0:0:0:
79,181,85298,1,0,2:0:0:0:
77,166,85365,1,0,2:0:0:0:
74,151,85434,1,0,2:0:0:0:
72,136,85502,1,0,2:0:0:0:
70,121,85570,1,2,2:3:0:0:
68,106,85638,1,0,2:0:0:0:
66,90,85707,1,0,2:0:0:0:
64,75,85774,1,0,2:0:0:0:
62,60,85843,1,0,2:0:0:0:
60,45,85911,1,0,2:0:0:0:
58,30,85979,1,0,2:0:0:0:
57,14,86047,1,0,2:0:0:0:
55,0,86116,101,8,3:0:0:0:
63,19,86184,1,0,2:0:0:0:
72,40,86252,1,0,2:0:0:0:
80,60,86320,1,0,2:0:0:0:
87,81,86389,1,2,2:3:0:0:
94,101,86456,1,0,2:0:0:0:
101,122,86525,1,0,2:0:0:0:
106,143,86593,1,0,2:0:0:0:
113,167,86661,5,8,3:0:0:0:
98,188,86729,1,0,2:0:0:0:
84,211,86798,1,0,2:0:0:0:
72,234,86865,1,0,2:0:0:0:
60,257,86934,1,2,2:3:0:0:
49,281,87002,1,0,2:0:0:0:
39,305,87070,1,0,2:0:0:0:
30,330,87138,1,0,2:0:0:0:
23,355,87207,101,8,3:0:0:0:
36,353,87274,1,0,2:0:0:0:
49,352,87343,1,0,2:0:0:0:
62,351,87411,1,0,2:0:0:0:
75,349,87480,1,0,2:0:0:0:
88,348,87547,1,0,2:0:0:0:
101,347,87616,1,0,2:0:0:0:
114,346,87684,1,0,2:0:0:0:
127,345,87752,1,2,2:3:0:0:
140,343,87820,1,0,2:0:0:0:
153,342,87889,1,0,2:0:0:0:
166,341,87956,1,0,2:0:0:0:
179,340,88025,1,0,2:0:0:0:
192,339,88093,1,0,2:0:0:0:
205,338,88161,1,0,2:0:0:0:
219,336,88229,1,0,2:0:0:0:
232,335,88298,5,8,3:0:0:0:
150,9,89116,1,2,2:0:0:0:
176,36,89184,1,0,2:0:0:0:
205,60,89252,1,2,2:0:0:0:
242,50,89320,1,0,2:0:0:0:
275,37,89389,101,4,3:2:0:0:
287,40,89456,1,0,2:0:0:0:
300,44,89525,1,0,2:0:0:0:
312,47,89593,1,0,2:0:0:0:
325,50,89661,1,0,2:0:0:0:
338,53,89729,1,0,2:0:0:0:
351,56,89798,1,0,2:0:0:0:
364,58,89865,1,0,2:0:0:0:
377,60,89934,1,8,3:0:0:0:
390,62,90002,1,0,2:0:0:0:
403,64,90071,1,0,2:0:0:0:
416,66,90138,1,0,2:0:0:0:
429,67,90207,1,0,2:0:0:0:
442,68,90275,1,0,2:0:0:0:
455,69,90343,1,0,2:0:0:0:
468,70,90411,1,0,2:0:0:0:
481,70,90480,21,8,3:0:0:0:
473,80,90547,1,0,2:0:0:0:
466,92,90616,1,0,2:0:0:0:
460,103,90684,1,0,2:0:0:0:
453,114,90752,1,0,2:0:0:0:
447,126,90820,1,0,2:0:0:0:
441,138,90889,1,0,2:0:0:0:
436,150,90956,1,0,2:0:0:0:
431,162,91025,1,8,3:0:0:0:
426,174,91093,1,0,2:0:0:0:
422,187,91161,1,0,2:0:0:0:
418,199,91229,1,0,2:0:0:0:
414,212,91298,1,0,2:0:0:0:
411,224,91366,1,0,2:0:0:0:
408,237,91434,1,0,2:0:0:0:
405,250,91502,1,0,2:0:0:0:
403,263,91571,85,8,3:0:0:0:
390,259,91638,1,0,2:0:0:0:
377,255,91707,1,0,2:0:0:0:
365,252,91775,1,0,2:0:0:0:
352,249,91843,1,0,2:0:0:0:
339,246,91911,1,0,2:0:0:0:
326,243,91980,1,0,2:0:0:0:
313,241,92047,1,0,2:0:0:0:
300,239,92116,1,8,3:0:0:0:
287,237,92184,1,0,2:0:0:0:
274,235,92252,1,0,2:0:0:0:
261,233,92320,1,0,2:0:0:0:
248,232,92389,1,0,2:0:0:0:
235,231,92456,1,0,2:0:0:0:
222,230,92525,1,0,2:0:0:0:
209,229,92593,1,0,2:0:0:0:
197,230,92661,21,8,3:0:0:0:
204,219,92729,1,0,2:0:0:0:
211,207,92798,1,0,2:0:0:0:
217,196,92866,1,0,2:0:0:0:
224,185,92934,1,0,2:0:0:0:
230,173,93002,1,0,2:0:0:0:
236,161,93070,1,0,2:0:0:0:
241,149,93138,1,0,2:0:0:0:
246,137,93207,1,8,3:0:0:0:
251,125,93275,1,0,2:0:0:0:
255,112,93343,1,0,2:0:0:0:
259,100,93411,1,0,2:0:0:0:
263,87,93480,1,0,2:0:0:0:
266,75,93547,1,0,2:0:0:0:
269,62,93616,1,0,2:0:0:0:
272,49,93684,1,0,2:0:0:0:
274,36,93752,85,8,3:0:0:0:
262,41,93820,1,0,2:0:0:0:
250,47,93889,1,0,2:0:0:0:
238,53,93957,1,0,2:0:0:0:
226,58,94025,1,0,2:0:0:0:
214,63,94093,1,0,2:0:0:0:
201,67,94161,1,0,2:0:0:0:
189,72,94229,1,0,2:0:0:0:
177,76,94298,1,8,3:0:0:0:
164,80,94366,1,0,2:0:0:0:
152,83,94434,1,0,2:0:0:0:
139,87,94502,1,0,2:0:0:0:
126,90,94570,1,0,2:0:0:0:
113,93,94638,1,0,2:0:0:0:
100,95,94707,1,0,2:0:0:0:
87,97,94775,1,0,2:0:0:0:
74,99,94843,21,8,3:0:0:0:
71,111,94911,1,0,2:0:0:0:
69,124,94979,1,0,2:0:0:0:
66,137,95047,1,0,2:0:0:0:
63,150,95116,1,0,2:0:0:0:
60,163,95184,1,0,2:0:0:0:
56,175,95252,1,0,2:0:0:0:
53,188,95320,1,0,2:0:0:0:
49,200,95388,1,8,3:0:0:0:
45,213,95457,1,0,2:0:0:0:
40,225,95525,1,0,2:0:0:0:
35,237,95593,1,0,2:0:0:0:
30,250,95661,1,0,2:0:0:0:
25,262,95729,1,0,2:0:0:0:
20,274,95798,1,0,2:0:0:0:
14,285,95866,1,0,2:0:0:0:
8,297,95934,85,8,3:0:0:0:
19,291,96002,1,0,2:0:0:0:
31,285,96070,1,0,2:0:0:0:
43,279,96138,1,0,2:0:0:0:
55,274,96207,1,0,2:0:0:0:
67,269,96275,1,0,2:0:0:0:
80,265,96343,1,0,2:0:0:0:
92,260,96411,1,0,2:0:0:0:
104,256,96479,1,8,3:0:0:0:
117,252,96548,1,0,2:0:0:0:
129,249,96616,1,0,2:0:0:0:
142,245,96684,1,0,2:0:0:0:
155,242,96752,1,0,2:0:0:0:
168,239,96820,1,0,2:0:0:0:
181,237,96888,1,0,2:0:0:0:
194,235,96957,1,0,2:0:0:0:
208,234,97025,21,8,3:0:0:0:
210,221,97093,1,0,2:0:0:0:
212,208,97161,1,0,2:0:0:0:
215,195,97229,1,0,2:0:0:0:
218,182,97297,1,0,2:0:0:0:
221,169,97366,1,0,2:0:0:0:
225,157,97434,1,0,2:0:0:0:
228,144,97502,1,0,2:0:0:0:
232,132,97570,1,8,3:0:0:0:
236,119,97638,1,0,2:0:0:0:
241,107,97706,1,0,2:0:0:0:
246,95,97775,1,0,2:0:0:0:
251,82,97843,1,0,2:0:0:0:
256,70,97911,1,0,2:0:0:0:
261,58,97979,1,0,2:0:0:0:
267,47,98048,1,0,2:0:0:0:
273,35,98116,53,8,3:0:0:0:
275,56,98184,1,0,2:0:0:0:
278,78,98252,1,0,2:0:0:0:
280,100,98320,1,0,2:0:0:0:
282,121,98388,1,2,2:3:0:0:
285,143,98457,1,0,2:0:0:0:
287,165,98525,1,0,2:0:0:0:
290,187,98593,1,0,2:0:0:0:
292,208,98661,1,8,3:0:0:0:
294,230,98729,1,0,2:0:0:0:
297,252,98797,1,0,2:0:0:0:
299,274,98866,1,0,2:0:0:0:
301,295,98934,1,2,2:3:0:0:
303,317,99002,1,0,2:0:0:0:
305,339,99070,1,0,2:0:0:0:
308,361,99139,1,0,2:0:0:0:
310,383,99206,37,8,3:0:0:0:
331,380,99275,1,0,2:0:0:0:
353,377,99343,1,0,2:0:0:0:
375,375,99411,1,0,2:0:0:0:
396,373,99479,69,8,3:0:0:0:
393,352,99548,1,0,2:0:0:0:
390,330,99615,1,0,2:0:0:0:
388,308,99684,1,0,2:0:0:0:
386,287,99752,37,8,3:0:0:0:
407,284,99820,1,0,2:0:0:0:
429,281,99888,1,0,2:0:0:0:
451,279,99957,1,0,2:0:0:0:
472,277,100024,69,8,3:0:0:0:
469,256,100093,1,0,2:0:0:0:
466,234,100161,1,0,2:0:0:0:
464,212,100229,1,0,2:0:0:0:
462,191,100297,37,8,3:0:0:0:
440,190,100366,1,0,2:0:0:0:
418,189,100434,1,0,2:0:0:0:
396,188,100502,1,0,2:0:0:0:
374,186,100570,1,2,2:3:0:0:
352,185,100639,1,0,2:0:0:0:
331,183,100706,1,0,2:0:0:0:
309,181,100775,1,0,2:0:0:0:
287,178,100843,1,8,3:0:0:0:
265,175,100911,1,0,2:0:0:0:
244,172,100979,1,0,2:0:0:0:
222,169,101048,1,0,2:0:0:0:
200,166,101115,1,2,2:3:0:0:
179,162,101184,1,0,2:0:0:0:
157,158,101252,1,0,2:0:0:0:
136,153,101320,1,0,2:0:0:0:
115,149,101388,69,8,3:0:0:0:
115,127,101457,1,0,2:0:0:0:
116,105,101524,1,0,2:0:0:0:
117,83,101593,1,0,2:0:0:0:
119,61,101661,37,8,3:0:0:0:
97,61,101730,1,0,2:0:0:0:
75,60,101797,1,0,2:0:0:0:
53,59,101866,1,0,2:0:0:0:
31,57,101934,69,8,3:0:0:0:
31,79,102002,1,0,2:0:0:0:
30,101,102070,1,0,2:0:0:0:
29,123,102139,1,0,2:0:0:0:
27,145,102206,37,8,3:0:0:0:
49,145,102275,1,0,2:0:0:0:
71,146,102343,1,0,2:0:0:0:
93,147,102411,1,0,2:0:0:0:
114,149,102479,70,0,L|122:205,7,35,8|0|0|0|0|0|0|0,3:0|2:0|2:0|2:0|2:0|2:0|2:0|2:0,2:0:0:0:
171,239,103025,2,0,L|179:295,7,35,2|0|0|0|0|0|0|0,0:0|2:0|2:0|2:0|2:0|2:0|2:0|2:0,2:0:0:0:
246,224,103570,1,8,3:0:0:0:
251,198,103639,1,0,2:0:0:0:
257,172,103706,1,0,2:0:0:0:
261,146,103775,1,0,2:0:0:0:
264,120,103843,1,2,2:3:0:0:
266,94,103911,1,0,2:0:0:0:
268,68,103979,1,0,2:0:0:0:
269,42,104048,1,0,2:0:0:0:
268,14,104115,2,0,L|330:1,3,35,2|0|0|0,2:0|2:0|2:0|2:0,2:0:0:0:
366,47,104388,2,0,L|411:35,3,35,2|0|0|0,2:3|2:0|2:0|2:0,2:0:0:0:
476,63,104661,38,0,L|463:121,7,35,8|0|0|0|0|0|0|0,3:0|2:0|2:0|2:0|2:0|2:0|2:0|2:0,2:0:0:0:
511,160,105206,2,0,L|498:218,7,35,2|0|0|0|0|0|0|0,2:0|2:0|2:0|2:0|2:0|2:0|2:0|2:0,2:0:0:0:
433,219,105752,1,2,2:3:0:0:
415,222,105821,1,0,2:0:0:0:
398,225,105888,1,0,2:0:0:0:
381,227,105957,1,0,2:0:0:0:
363,229,106025,1,2,2:0:0:0:
323,303,106161,1,0,2:0:0:0:
353,384,106297,1,2,2:0:0:0:
82,346,106570,1,2,2:0:0:0:
85,320,106639,1,0,2:0:0:0:
88,293,106706,1,2,2:0:0:0:
90,267,106775,1,0,2:0:0:0:
91,241,106843,21,4,3:2:0:0:
81,207,106911,1,0,2:0:0:0:
75,172,106979,1,0,2:0:0:0:
72,137,107048,1,0,2:0:0:0:
72,102,107116,1,2,2:0:0:0:
128,29,107252,1,8,3:0:0:0:
161,19,107320,1,0,2:0:0:0:
196,13,107388,1,0,2:0:0:0:
231,10,107457,1,0,2:0:0:0:
266,10,107525,1,2,2:0:0:0:
305,86,107661,1,8,3:0:0:0:
315,119,107730,1,0,2:0:0:0:
321,154,107797,1,2,2:0:0:0:
281,252,107934,101,8,3:0:0:0:
314,261,108002,1,0,2:0:0:0:
349,267,108070,1,0,2:0:0:0:
384,270,108139,1,0,2:0:0:0:
419,270,108207,1,2,2:0:0:0:
493,215,108343,1,8,3:0:0:0:
503,182,108411,1,0,2:0:0:0:
509,147,108479,1,0,2:0:0:0:
512,112,108548,1,0,2:0:0:0:
512,77,108616,1,2,2:0:0:0:
436,38,108752,1,8,3:0:0:0:
403,28,108820,1,0,2:0:0:0:
368,22,108888,1,2,2:0:0:0:
280,90,109025,5,8,3:0:0:0:
289,123,109093,1,0,2:0:0:0:
295,158,109161,1,0,2:0:0:0:
298,193,109229,1,0,2:0:0:0:
298,228,109297,1,2,2:0:0:0:
228,300,109434,1,8,3:0:0:0:
195,310,109502,1,0,2:0:0:0:
160,316,109570,1,0,2:0:0:0:
125,319,109638,1,0,2:0:0:0:
90,319,109707,1,2,2:0:0:0:
51,243,109843,1,8,3:0:0:0:
41,210,109911,1,0,2:0:0:0:
35,175,109979,1,2,2:0:0:0:
123,100,110116,101,8,3:0:0:0:
157,102,110184,1,0,2:0:0:0:
192,109,110252,1,0,2:0:0:0:
225,119,110320,1,0,2:0:0:0:
258,131,110388,1,2,2:0:0:0:
307,210,110525,1,8,3:0:0:0:
305,244,110593,1,0,2:0:0:0:
298,279,110661,1,0,2:0:0:0:
288,313,110729,1,0,2:0:0:0:
275,346,110798,1,2,2:0:0:0:
359,384,110934,1,8,3:0:0:0:
394,381,111002,1,0,2:0:0:0:
429,374,111070,1,2,2:0:0:0:
501,307,111207,5,8,3:0:0:0:
499,273,111275,1,0,2:0:0:0:
492,238,111343,1,0,2:0:0:0:
482,205,111411,1,0,2:0:0:0:
470,172,111479,1,2,2:3:0:0:
472,138,111547,1,0,2:0:0:0:
479,103,111616,1,0,2:0:0:0:
489,70,111684,1,0,2:0:0:0:
501,37,111752,1,2,2:0:0:0:
412,0,111888,1,8,3:0:0:0:
378,2,111956,1,0,2:0:0:0:
343,9,112025,1,0,2:0:0:0:
309,19,112093,1,0,2:0:0:0:
276,32,112161,1,2,2:0:0:0:
194,107,112298,101,8,3:0:0:0:
160,105,112366,1,0,2:0:0:0:
125,98,112434,1,0,2:0:0:0:
92,88,112502,1,0,2:0:0:0:
59,76,112570,1,2,2:3:0:0:
61,110,112638,1,0,2:0:0:0:
68,145,112707,1,0,2:0:0:0:
78,178,112775,1,0,2:0:0:0:
90,211,112843,1,2,2:0:0:0:
142,296,112979,1,8,3:0:0:0:
176,294,113047,1,0,2:0:0:0:
211,287,113116,1,0,2:0:0:0:
245,277,113184,1,0,2:0:0:0:
278,264,113252,1,2,2:0:0:0:
298,171,113389,5,8,3:0:0:0:
300,137,113456,1,0,2:0:0:0:
307,102,113525,1,0,2:0:0:0:
317,68,113593,1,0,2:0:0:0:
330,35,113661,1,2,2:3:0:0:
364,33,113729,1,0,2:0:0:0:
399,26,113798,1,0,2:0:0:0:
433,16,113865,1,0,2:0:0:0:
466,3,113934,1,2,2:0:0:0:
512,88,114070,1,8,3:0:0:0:
510,122,114138,1,0,2:0:0:0:
503,157,114207,1,0,2:0:0:0:
493,191,114274,1,0,2:0:0:0:
480,224,114343,1,2,2:0:0:0:
384,286,114479,101,8,3:0:0:0:
350,288,114547,1,0,2:0:0:0:
315,295,114616,1,0,2:0:0:0:
281,305,114684,1,0,2:0:0:0:
248,318,114752,1,2,2:3:0:0:
214,316,114820,1,0,2:0:0:0:
179,309,114889,1,0,2:0:0:0:
145,299,114956,1,0,2:0:0:0:
112,286,115025,1,2,2:0:0:0:
32,223,115161,1,8,3:0:0:0:
19,190,115229,1,0,2:0:0:0:
9,156,115298,1,0,2:0:0:0:
2,121,115365,1,0,2:0:0:0:
0,87,115434,1,2,2:0:0:0:
68,16,115570,5,4,3:2:0:0:
85,14,115638,1,0,2:0:0:0:
102,14,115707,1,0,2:0:0:0:
120,17,115774,1,0,2:0:0:0:
136,22,115843,1,2,2:3:0:0:
152,30,115911,1,0,2:0:0:0:
167,39,115980,1,0,2:0:0:0:
180,51,116047,1,0,2:0:0:0:
191,64,116116,1,8,3:0:0:0:
201,78,116184,1,0,2:0:0:0:
209,94,116252,1,0,2:0:0:0:
214,111,116320,1,0,2:0:0:0:
217,128,116389,1,2,2:3:0:0:
217,146,116456,1,0,2:0:0:0:
215,163,116525,1,0,2:0:0:0:
211,180,116593,1,0,2:0:0:0:
205,196,116661,1,8,3:0:0:0:
187,197,116729,1,0,2:0:0:0:
170,197,116798,1,0,2:0:0:0:
152,194,116865,1,0,2:0:0:0:
136,189,116934,1,2,2:3:0:0:
120,181,117002,1,0,2:0:0:0:
105,172,117070,1,0,2:0:0:0:
92,160,117138,1,0,2:0:0:0:
81,147,117207,1,8,3:0:0:0:
71,133,117275,1,0,2:0:0:0:
63,117,117343,1,0,2:0:0:0:
58,100,117411,1,0,2:0:0:0:
55,83,117480,1,2,2:3:0:0:
55,65,117547,1,0,2:0:0:0:
57,48,117616,1,0,2:0:0:0:
61,31,117684,1,0,2:0:0:0:
68,16,117752,1,8,3:0:0:0:
85,14,117820,1,0,2:0:0:0:
102,14,117889,1,0,2:0:0:0:
120,17,117956,1,0,2:0:0:0:
136,22,118025,1,2,2:3:0:0:
152,30,118093,1,0,2:0:0:0:
167,39,118161,1,0,2:0:0:0:
180,51,118229,1,0,2:0:0:0:
191,64,118298,1,8,3:0:0:0:
201,78,118365,1,0,2:0:0:0:
209,94,118434,1,0,2:0:0:0:
214,111,118502,1,0,2:0:0:0:
217,128,118571,1,2,2:3:0:0:
217,146,118638,1,0,2:0:0:0:
215,163,118707,1,0,2:0:0:0:
211,180,118775,1,0,2:0:0:0:
205,196,118843,1,8,3:0:0:0:
187,197,118911,1,0,2:0:0:0:
170,197,118980,1,0,2:0:0:0:
152,194,119047,1,0,2:0:0:0:
136,189,119116,1,2,2:3:0:0:
120,181,119184,1,0,2:0:0:0:
105,172,119252,1,0,2:0:0:0:
92,160,119320,1,0,2:0:0:0:
81,147,119389,1,8,3:0:0:0:
71,133,119456,1,0,2:0:0:0:
63,117,119525,1,0,2:0:0:0:
58,100,119593,1,0,2:0:0:0:
55,83,119661,1,2,2:3:0:0:
55,65,119729,1,0,2:0:0:0:
57,48,119798,1,0,2:0:0:0:
63,34,119866,1,0,2:0:0:0:
67,15,119934,101,8,3:0:0:0:
61,33,120002,1,0,2:0:0:0:
56,52,120071,1,0,2:0:0:0:
50,71,120138,1,0,2:0:0:0:
46,90,120207,1,2,2:3:0:0:
41,110,120275,1,0,2:0:0:0:
36,129,120343,1,0,2:0:0:0:
32,148,120411,1,0,2:0:0:0:
28,167,120480,1,8,3:0:0:0:
24,186,120547,1,0,2:0:0:0:
21,206,120616,1,0,2:0:0:0:
17,225,120684,1,0,2:0:0:0:
14,245,120752,1,2,2:3:0:0:
11,264,120820,1,0,2:0:0:0:
8,284,120889,1,0,2:0:0:0:
6,303,120956,1,0,2:0:0:0:
4,323,121025,1,8,3:0:0:0:
23,320,121093,1,0,2:0:0:0:
43,318,121161,1,0,2:0:0:0:
62,315,121229,1,0,2:0:0:0:
82,313,121298,1,2,2:3:0:0:
101,311,121366,1,0,2:0:0:0:
121,308,121434,1,0,2:0:0:0:
140,306,121502,1,0,2:0:0:0:
160,304,121570,1,8,3:0:0:0:
180,302,121638,1,0,2:0:0:0:
199,300,121707,1,0,2:0:0:0:
219,299,121775,1,0,2:0:0:0:
238,297,121843,1,2,2:3:0:0:
258,295,121911,1,0,2:0:0:0:
278,294,121980,1,0,2:0:0:0:
297,292,122047,1,0,2:0:0:0:
317,291,122116,1,8,3:0:0:0:
312,269,122184,1,0,2:0:0:0:
310,248,122252,1,0,2:0:0:0:
310,226,122320,1,0,2:0:0:0:
312,204,122389,1,2,2:3:0:0:
317,183,122457,1,0,2:0:0:0:
324,162,122525,1,0,2:0:0:0:
334,142,122593,1,0,2:0:0:0:
345,124,122661,1,8,3:0:0:0:
359,107,122729,1,0,2:0:0:0:
374,91,122798,1,0,2:0:0:0:
391,77,122866,1,0,2:0:0:0:
410,65,122934,1,2,2:3:0:0:
429,56,123002,1,0,2:0:0:0:
450,48,123070,1,0,2:0:0:0:
471,43,123138,1,0,2:0:0:0:
493,40,123207,1,8,3:0:0:0:
488,58,123275,1,0,2:0:0:0:
483,77,123343,1,0,2:0:0:0:
477,96,123411,1,0,2:0:0:0:
473,115,123479,1,2,2:3:0:0:
468,135,123547,1,0,2:0:0:0:
463,154,123616,1,0,2:0:0:0:
459,173,123684,1,0,2:0:0:0:
455,192,123752,1,8,3:0:0:0:
451,211,123820,1,0,2:0:0:0:
448,231,123888,1,2,2:0:0:0:
444,250,123957,1,0,2:0:0:0:
441,270,124025,1,0,2:0:0:0:
438,289,124093,1,0,2:0:0:0:
435,309,124161,1,2,2:0:0:0:
433,328,124229,1,0,2:0:0:0:
431,348,124298,21,4,3:2:0:0:
364,368,124434,1,2,2:0:0:0:
294,364,124570,1,8,2:0:0:0:
228,339,124707,1,0,2:0:0:0:
177,291,124843,1,0,2:0:0:0:
145,228,124979,1,2,2:0:0:0:
135,158,125116,1,8,2:0:0:0:
157,91,125252,1,0,2:0:0:0:
211,47,125388,1,0,2:0:0:0:
280,55,125525,1,2,2:0:0:0:
327,106,125661,1,8,2:0:0:0:
323,175,125797,1,0,2:0:0:0:
271,222,125934,1,0,2:0:0:0:
201,213,126070,1,2,2:0:0:0:
172,149,126206,1,8,2:0:0:0:
209,89,126343,1,0,2:0:0:0:
278,92,126479,69,2,2:3:0:0:
334,132,126616,1,2,2:0:0:0:
370,192,126752,1,8,2:0:0:0:
385,260,126888,1,0,2:0:0:0:
374,329,127025,1,0,2:0:0:0:
322,377,127161,1,2,2:0:0:0:
252,379,127297,1,8,2:0:0:0:
193,340,127434,1,0,2:0:0:0:
164,275,127570,1,0,2:0:0:0:
128,214,127706,1,2,2:0:0:0:
61,192,127843,1,8,2:0:0:0:
2,230,127979,1,0,2:0:0:0:
4,299,128115,1,0,2:0:0:0:
58,342,128252,1,2,2:0:0:0:
127,332,128388,1,8,2:0:0:0:
149,265,128524,1,0,2:0:0:0:
176,200,128661,37,2,2:3:0:0:
238,168,128797,1,2,2:0:0:0:
308,168,128934,1,8,2:0:0:0:
372,195,129070,1,0,2:0:0:0:
412,252,129206,1,0,2:0:0:0:
427,320,129343,1,2,2:0:0:0:
392,380,129479,1,8,2:0:0:0:
322,376,129615,1,0,2:0:0:0:
296,310,129752,1,0,2:0:0:0:
327,247,129888,1,2,2:0:0:0:
391,220,130024,1,8,2:0:0:0:
431,162,130161,1,0,2:0:0:0:
413,94,130297,1,0,2:0:0:0:
348,66,130434,1,2,2:0:0:0:
293,109,130570,1,8,2:0:0:0:
297,178,130706,1,0,2:0:0:0:
259,237,130843,69,2,2:3:0:0:
189,241,130979,1,2,2:0:0:0:
140,190,131115,1,8,2:0:0:0:
157,121,131252,1,0,2:0:0:0:
222,96,131388,1,0,2:0:0:0:
278,137,131525,1,2,2:0:0:0:
347,140,131661,1,8,2:0:0:0:
401,96,131797,1,0,2:0:0:0:
392,26,131934,1,0,2:0:0:0:
323,10,132070,1,2,2:0:0:0:
280,65,132206,1,8,2:0:0:0:
313,126,132343,1,0,2:0:0:0:
382,120,132479,1,0,2:0:0:0:
64,197,132752,1,2,2:0:0:0:
59,231,132821,1,0,2:0:0:0:
54,265,132888,1,2,2:0:0:0:
50,299,132957,1,0,2:0:0:0:
44,334,133025,85,4,3:2:0:0:
52,332,133093,1,0,2:0:0:0:
61,331,133161,1,0,2:0:0:0:
70,330,133230,1,0,2:0:0:0:
78,329,133297,1,0,2:0:0:0:
87,328,133366,1,0,2:0:0:0:
96,327,133434,1,0,2:0:0:0:
104,326,133502,1,0,2:0:0:0:
113,325,133570,1,2,2:3:0:0:
122,324,133639,1,0,2:0:0:0:
130,323,133706,1,0,2:0:0:0:
139,322,133775,1,0,2:0:0:0:
148,321,133843,1,0,2:0:0:0:
156,320,133911,1,0,2:0:0:0:
165,319,133979,1,0,2:0:0:0:
174,318,134048,1,0,2:0:0:0:
182,317,134116,1,8,3:0:0:0:
191,316,134184,1,0,2:0:0:0:
200,315,134252,1,0,2:0:0:0:
209,314,134321,1,0,2:0:0:0:
217,313,134388,1,0,2:0:0:0:
226,312,134457,1,0,2:0:0:0:
235,311,134525,1,0,2:0:0:0:
243,310,134593,1,0,2:0:0:0:
252,309,134661,1,2,2:3:0:0:
261,308,134730,1,0,2:0:0:0:
269,307,134797,1,0,2:0:0:0:
278,306,134866,1,0,2:0:0:0:
287,305,134934,1,0,2:0:0:0:
296,304,135002,1,0,2:0:0:0:
304,303,135070,1,0,2:0:0:0:
313,302,135139,1,0,2:0:0:0:
322,302,135206,21,8,3:0:0:0:
324,293,135275,1,0,2:0:0:0:
325,284,135343,1,0,2:0:0:0:
326,275,135411,1,0,2:0:0:0:
327,267,135479,1,0,2:0:0:0:
328,258,135548,1,0,2:0:0:0:
329,249,135616,1,0,2:0:0:0:
330,241,135684,1,0,2:0:0:0:
331,232,135752,1,2,2:3:0:0:
332,223,135820,1,0,2:0:0:0:
333,215,135888,1,0,2:0:0:0:
334,206,135957,1,0,2:0:0:0:
335,197,136025,1,0,2:0:0:0:
336,189,136093,1,0,2:0:0:0:
337,180,136161,1,0,2:0:0:0:
338,171,136230,1,0,2:0:0:0:
339,163,136297,1,8,3:0:0:0:
340,154,136366,1,0,2:0:0:0:
341,145,136434,1,0,2:0:0:0:
342,136,136502,1,0,2:0:0:0:
343,128,136570,1,0,2:0:0:0:
344,119,136639,1,0,2:0:0:0:
345,110,136707,1,0,2:0:0:0:
346,102,136775,1,0,2:0:0:0:
347,93,136843,1,2,2:3:0:0:
348,84,136911,1,0,2:0:0:0:
349,76,136979,1,0,2:0:0:0:
350,67,137048,1,0,2:0:0:0:
351,58,137116,1,0,2:0:0:0:
352,49,137184,1,0,2:0:0:0:
353,41,137252,1,0,2:0:0:0:
354,32,137320,1,0,2:0:0:0:
354,23,137388,85,8,3:0:0:0:
345,24,137457,1,0,2:0:0:0:
336,25,137525,1,0,2:0:0:0:
327,26,137593,1,0,2:0:0:0:
319,27,137661,1,0,2:0:0:0:
310,28,137729,1,0,2:0:0:0:
301,29,137797,1,0,2:0:0:0:
293,30,137866,1,0,2:0:0:0:
284,31,137934,1,2,2:3:0:0:
275,32,138002,1,0,2:0:0:0:
267,33,138070,1,0,2:0:0:0:
258,34,138138,1,0,2:0:0:0:
249,35,138207,1,0,2:0:0:0:
241,36,138275,1,0,2:0:0:0:
232,37,138343,1,0,2:0:0:0:
223,38,138411,1,0,2:0:0:0:
215,39,138479,1,8,3:0:0:0:
206,40,138548,1,0,2:0:0:0:
197,41,138616,1,0,2:0:0:0:
188,42,138684,1,0,2:0:0:0:
180,43,138752,1,0,2:0:0:0:
171,44,138820,1,0,2:0:0:0:
162,45,138888,1,0,2:0:0:0:
154,46,138957,1,0,2:0:0:0:
145,47,139025,1,2,2:3:0:0:
136,48,139093,1,0,2:0:0:0:
128,49,139161,1,0,2:0:0:0:
119,50,139229,1,0,2:0:0:0:
110,51,139298,1,0,2:0:0:0:
101,52,139366,1,0,2:0:0:0:
93,53,139434,1,0,2:0:0:0:
84,54,139502,1,0,2:0:0:0:
76,55,139570,21,8,3:0:0:0:
74,64,139638,1,0,2:0:0:0:
73,73,139707,1,0,2:0:0:0:
72,82,139775,1,0,2:0:0:0:
71,90,139843,1,0,2:0:0:0:
70,99,139911,1,0,2:0:0:0:
69,108,139979,1,0,2:0:0:0:
68,116,140047,1,0,2:0:0:0:
67,125,140116,1,2,2:3:0:0:
66,134,140184,1,0,2:0:0:0:
65,142,140252,1,0,2:0:0:0:
64,151,140320,1,0,2:0:0:0:
63,160,140388,1,0,2:0:0:0:
62,168,140456,1,0,2:0:0:0:
61,177,140525,1,0,2:0:0:0:
60,186,140593,1,0,2:0:0:0:
59,194,140661,1,8,3:0:0:0:
103,261,140798,1,8,3:0:0:0:
112,263,140866,1,0,2:0:0:0:
121,264,140934,1,2,2:0:0:0:
130,265,141002,1,0,2:0:0:0:
138,266,141070,1,2,2:3:0:0:
206,226,141207,1,8,3:0:0:0:
215,228,141275,1,0,2:0:0:0:
224,229,141343,1,2,2:0:0:0:
233,230,141411,1,0,2:0:0:0:
241,231,141479,1,2,2:3:0:0:
239,266,141547,1,0,2:0:0:0:
235,300,141616,1,2,2:0:0:0:
231,334,141684,1,0,2:0:0:0:
230,369,141752,69,4,3:2:0:0:
268,367,141820,1,0,2:0:0:0:
306,365,141889,1,0,2:0:0:0:
344,363,141956,1,0,2:0:0:0:
382,362,142025,1,2,2:0:0:0:
492,384,142161,1,8,3:0:0:0:
490,346,142229,1,0,2:0:0:0:
488,308,142298,1,0,2:0:0:0:
486,270,142365,1,0,2:0:0:0:
485,232,142434,1,2,2:0:0:0:
512,152,142570,1,8,3:0:0:0:
510,114,142638,1,0,2:0:0:0:
508,76,142707,1,0,2:0:0:0:
506,38,142774,1,0,2:0:0:0:
505,0,142843,1,4,2:0:0:0:
466,0,142911,1,0,2:0:0:0:
427,2,142979,1,0,2:0:0:0:
388,6,143047,1,0,2:0:0:0:
349,10,143116,1,2,2:0:0:0:
253,33,143252,1,8,3:0:0:0:
214,33,143320,1,0,2:0:0:0:
175,31,143389,1,0,2:0:0:0:
136,27,143456,1,0,2:0:0:0:
97,23,143525,1,2,2:0:0:0:
0,0,143661,1,8,3:0:0:0:
5,37,143729,1,0,2:0:0:0:
11,75,143798,1,0,2:0:0:0:
17,112,143865,1,0,2:0:0:0:
22,150,143934,1,4,2:0:0:0:
16,187,144002,1,0,2:0:0:0:
11,224,144070,1,0,2:0:0:0:
8,261,144138,1,0,2:0:0:0:
1,298,144207,1,2,2:0:0:0:
66,384,144343,1,8,3:0:0:0:
104,382,144411,1,0,2:0:0:0:
143,380,144480,1,0,2:0:0:0:
182,376,144547,1,0,2:0:0:0:
221,372,144616,1,2,2:0:0:0:
310,384,144752,1,8,3:0:0:0:
348,382,144820,1,0,2:0:0:0:
387,380,144889,1,0,2:0:0:0:
426,376,144956,1,0,2:0:0:0:
465,372,145025,1,4,2:0:0:0:
463,334,145093,1,0,2:0:0:0:
461,295,145161,1,0,2:0:0:0:
457,256,145229,1,0,2:0:0:0:
453,217,145298,1,2,2:0:0:0:
512,155,145434,1,8,3:0:0:0:
510,117,145502,1,0,2:0:0:0:
508,78,145570,1,0,2:0:0:0:
504,39,145638,1,0,2:0:0:0:
500,0,145707,1,2,2:0:0:0:
412,12,145843,1,8,3:0:0:0:
373,12,145911,1,0,2:0:0:0:
334,15,145980,1,0,2:0:0:0:
295,20,146047,1,0,2:0:0:0:
256,22,146116,5,4,1:2:0:0:
293,29,146184,1,0,2:0:0:0:
330,36,146252,1,0,2:0:0:0:
367,43,146320,1,0,2:0:0:0:
404,50,146389,1,2,2:0:0:0:
480,110,146525,1,8,3:0:0:0:
487,147,146593,1,0,2:0:0:0:
494,184,146661,1,0,2:0:0:0:
501,221,146729,1,0,2:0:0:0:
508,258,146798,1,2,2:0:0:0:
512,339,146934,1,8,3:0:0:0:
475,346,147002,1,0,2:0:0:0:
438,353,147071,1,0,2:0:0:0:
401,360,147138,1,0,2:0:0:0:
364,367,147207,1,4,2:0:0:0:
327,360,147275,1,0,2:0:0:0:
290,353,147343,1,0,2:0:0:0:
253,346,147411,1,0,2:0:0:0:
216,339,147480,1,2,2:0:0:0:
148,384,147616,1,8,3:0:0:0:
111,377,147684,1,0,2:0:0:0:
74,370,147752,1,0,2:0:0:0:
37,363,147820,1,0,2:0:0:0:
0,356,147889,1,2,2:0:0:0:
28,263,148025,1,8,3:0:0:0:
21,226,148093,1,0,2:0:0:0:
14,189,148161,1,0,2:0:0:0:
7,152,148229,1,0,2:0:0:0:
0,115,148298,1,4,2:0:0:0:
37,108,148366,1,0,2:0:0:0:
74,101,148434,1,0,2:0:0:0:
111,94,148502,1,0,2:0:0:0:
148,87,148571,1,2,2:0:0:0:
217,24,148707,1,8,3:0:0:0:
254,31,148775,1,0,2:0:0:0:
291,38,148843,1,0,2:0:0:0:
328,45,148911,1,0,2:0:0:0:
365,52,148980,1,2,2:0:0:0:
450,86,149116,1,8,3:0:0:0:
457,123,149184,1,0,2:0:0:0:
464,160,149252,1,0,2:0:0:0:
471,197,149320,1,0,2:0:0:0:
478,234,149389,1,4,2:0:0:0:
471,271,149456,1,0,2:0:0:0:
464,308,149525,1,0,2:0:0:0:
457,345,149593,1,0,2:0:0:0:
450,382,149661,1,2,2:0:0:0:
351,356,149798,1,8,3:0:0:0:
314,363,149866,1,0,2:0:0:0:
277,370,149934,1,0,2:0:0:0:
240,377,150002,1,0,2:0:0:0:
203,384,150070,1,2,2:0:0:0:
100,365,150207,1,8,3:0:0:0:
93,328,150275,1,0,2:0:0:0:
86,291,150343,1,0,2:0:0:0:
79,254,150411,1,0,2:0:0:0:
72,217,150480,101,4,2:0:0:0:
90,192,150547,1,0,2:0:0:0:
113,172,150616,1,0,2:0:0:0:
139,156,150684,1,0,2:0:0:0:
168,146,150752,1,2,2:0:0:0:
198,141,150820,1,0,2:0:0:0:
229,143,150889,1,0,2:0:0:0:
259,150,150957,1,0,2:0:0:0:
286,162,151025,1,8,3:0:0:0:
311,180,151093,1,0,2:0:0:0:
332,202,151161,1,0,2:0:0:0:
349,228,151229,1,0,2:0:0:0:
360,257,151298,1,2,2:0:0:0:
366,287,151366,1,0,2:0:0:0:
365,317,151434,1,0,2:0:0:0:
359,347,151502,1,0,2:0:0:0:
348,375,151570,5,8,3:0:0:0:
325,354,151638,1,0,2:0:0:0:
307,329,151707,1,0,2:0:0:0:
293,302,151775,1,0,2:0:0:0:
284,273,151843,1,2,2:0:0:0:
279,242,151911,1,0,2:0:0:0:
281,212,151979,1,0,2:0:0:0:
287,182,152047,1,0,2:0:0:0:
298,154,152116,1,8,3:0:0:0:
314,128,152184,1,0,2:0:0:0:
335,105,152252,1,0,2:0:0:0:
358,85,152320,1,0,2:0:0:0:
385,71,152388,1,2,2:0:0:0:
414,61,152457,1,0,2:0:0:0:
444,56,152525,1,0,2:0:0:0:
475,56,152593,1,0,2:0:0:0:
505,61,152661,101,4,2:0:0:0:
496,91,152729,1,0,2:0:0:0:
482,118,152798,1,0,2:0:0:0:
463,142,152866,1,0,2:0:0:0:
440,161,152934,1,2,2:0:0:0:
413,176,153002,1,0,2:0:0:0:
384,185,153070,1,0,2:0:0:0:
354,188,153138,1,0,2:0:0:0:
323,186,153207,1,8,3:0:0:0:
294,177,153275,1,0,2:0:0:0:
267,163,153343,1,0,2:0:0:0:
243,143,153411,1,0,2:0:0:0:
224,120,153479,1,2,2:0:0:0:
209,93,153548,1,0,2:0:0:0:
201,63,153616,1,0,2:0:0:0:
198,33,153684,1,0,2:0:0:0:
201,3,153752,5,4,3:2:0:0:
172,14,153820,1,0,2:0:0:0:
152,38,153888,1,0,2:0:0:0:
146,68,153957,1,0,2:0:0:0:
150,98,154025,1,2,2:0:0:0:
166,123,154093,1,0,2:0:0:0:
192,139,154161,1,0,2:0:0:0:
220,149,154229,1,0,2:0:0:0:
244,167,154297,1,8,3:0:0:0:
260,193,154366,1,0,2:0:0:0:
261,223,154434,1,0,2:0:0:0:
250,251,154502,1,0,2:0:0:0:
223,266,154570,1,2,2:0:0:0:
192,268,154638,1,0,2:0:0:0:
162,275,154706,1,0,2:0:0:0:
139,295,154775,1,0,2:0:0:0:
132,325,154843,101,4,2:0:0:0:
127,326,154911,1,0,2:0:0:0:
123,327,154979,1,0,2:0:0:0:
119,328,155048,1,0,2:0:0:0:
115,329,155116,1,2,2:0:0:0:
110,331,155184,1,0,2:0:0:0:
106,332,155252,1,0,2:0:0:0:
102,333,155320,1,0,2:0:0:0:
98,334,155388,1,8,3:0:0:0:
93,335,155457,1,0,2:0:0:0:
89,336,155525,1,0,2:0:0:0:
85,337,155593,1,0,2:0:0:0:
81,337,155661,1,2,2:0:0:0:
76,338,155729,1,0,2:0:0:0:
72,339,155797,1,0,2:0:0:0:
68,340,155866,1,0,2:0:0:0:
63,341,155934,5,8,3:0:0:0:
66,332,156002,1,0,2:0:0:0:
69,324,156070,1,0,2:0:0:0:
71,316,156139,1,0,2:0:0:0:
74,307,156206,1,2,2:0:0:0:
76,299,156275,1,0,2:0:0:0:
78,290,156343,1,0,2:0:0:0:
80,282,156411,1,0,2:0:0:0:
82,273,156479,1,8,3:0:0:0:
84,265,156548,1,0,2:0:0:0:
86,256,156615,1,0,2:0:0:0:
87,247,156684,1,0,2:0:0:0:
89,239,156752,1,2,2:0:0:0:
90,230,156820,1,0,2:0:0:0:
91,222,156888,1,0,2:0:0:0:
92,213,156957,1,0,2:0:0:0:
93,204,157024,101,4,3:2:0:0:
105,216,157093,1,0,2:0:0:0:
118,228,157161,1,0,2:0:0:0:
130,240,157229,1,0,2:0:0:0:
143,251,157297,1,2,2:0:0:0:
157,263,157366,1,0,2:0:0:0:
170,274,157434,1,0,2:0:0:0:
184,285,157502,1,0,2:0:0:0:
198,295,157570,1,8,3:0:0:0:
212,305,157639,1,0,2:0:0:0:
227,315,157706,1,0,2:0:0:0:
241,325,157775,1,0,2:0:0:0:
256,334,157843,1,2,2:0:0:0:
271,343,157911,1,0,2:0:0:0:
286,352,157979,1,0,2:0:0:0:
302,360,158048,1,0,2:0:0:0:
317,368,158115,5,4,3:2:0:0:
326,345,158184,1,0,2:0:0:0:
335,323,158252,1,2,2:0:0:0:
345,301,158320,1,0,2:0:0:0:
354,279,158388,1,2,2:3:0:0:
364,257,158457,1,0,2:0:0:0:
375,235,158524,1,2,2:0:0:0:
385,214,158593,1,0,2:0:0:0:
396,192,158661,1,8,3:0:0:0:
406,171,158730,1,0,2:0:0:0:
418,149,158797,1,2,2:0:0:0:
429,128,158866,1,0,2:0:0:0:
440,107,158934,1,2,2:3:0:0:
452,86,159002,1,0,2:0:0:0:
464,65,159070,1,2,2:0:0:0:
476,44,159139,1,0,2:0:0:0:
488,23,159206,69,4,2:0:0:0:
408,1,159343,1,0,2:0:0:0:
326,26,159479,1,2,2:3:0:0:
310,45,159548,1,0,2:0:0:0:
304,68,159615,1,0,2:0:0:0:
288,156,159752,1,2,2:2:0:0:
269,140,159820,1,0,2:0:0:0:
246,134,159888,1,0,2:0:0:0:
168,170,160025,1,2,2:3:0:0:
163,146,160093,1,0,2:0:0:0:
158,121,160161,1,0,2:0:0:0:
151,97,160230,1,0,2:0:0:0:
143,73,160297,53,2,2:0:0:0:
62,38,160434,1,0,2:0:0:0:
4,103,160570,1,2,2:3:0:0:
4,127,160639,1,0,2:0:0:0:
9,150,160706,1,0,2:0:0:0:
82,233,160843,1,2,2:3:0:0:
82,209,160911,1,0,2:0:0:0:
87,186,160979,1,0,2:0:0:0:
191,159,161115,1,2,2:3:0:0:
199,241,161252,1,0,2:0:0:0:
143,302,161388,53,4,2:0:0:0:
199,369,161525,1,0,2:0:0:0:
293,344,161661,1,2,2:3:0:0:
293,319,161730,1,0,2:0:0:0:
284,296,161797,1,0,2:0:0:0:
203,235,161934,1,2,2:0:0:0:
226,227,162002,1,0,2:0:0:0:
247,214,162070,1,0,2:0:0:0:
285,118,162206,1,2,2:3:0:0:
270,97,162275,1,0,2:0:0:0:
260,74,162343,1,0,2:0:0:0:
254,50,162411,1,0,2:0:0:0:
251,25,162479,53,2,2:0:0:0:
341,0,162616,1,0,2:0:0:0:
410,67,162752,1,2,2:3:0:0:
393,85,162821,1,0,2:0:0:0:
370,94,162888,1,0,2:0:0:0:
460,136,163025,1,2,2:3:0:0:
477,152,163093,1,0,2:0:0:0:
490,172,163161,1,0,2:0:0:0:
461,264,163297,1,2,2:3:0:0:
368,248,163434,1,0,2:0:0:0:
291,301,163570,53,4,2:0:0:0:
206,252,163706,1,2,2:3:0:0:
208,227,163775,1,0,2:0:0:0:
220,205,163843,1,0,2:0:0:0:
240,191,163911,1,0,2:0:0:0:
263,184,163979,1,2,2:0:0:0:
181,88,164116,1,2,2:3:0:0:
182,112,164184,1,0,2:0:0:0:
172,134,164252,1,0,2:0:0:0:
155,152,164320,1,0,2:0:0:0:
132,161,164388,1,2,2:0:0:0:
35,129,164525,1,2,2:3:0:0:
47,108,164593,1,0,2:0:0:0:
53,84,164661,53,2,2:0:0:0:
119,23,164797,1,0,2:0:0:0:
207,56,164934,1,2,2:3:0:0:
220,76,165002,1,0,2:0:0:0:
225,99,165070,1,0,2:0:0:0:
224,205,165207,1,2,2:0:0:0:
203,191,165275,1,0,2:0:0:0:
179,183,165343,1,0,2:0:0:0:
85,222,165479,1,2,2:0:0:0:
71,242,165548,1,0,2:0:0:0:
65,265,165616,1,0,2:0:0:0:
108,359,165752,53,4,2:0:0:0:
177,296,165888,1,2,2:3:0:0:
200,301,165957,1,0,2:0:0:0:
222,311,166025,1,0,2:0:0:0:
242,324,166093,1,0,2:0:0:0:
258,342,166161,1,2,2:0:0:0:
358,368,166297,1,2,2:3:0:0:
376,352,166366,1,0,2:0:0:0:
398,341,166434,1,0,2:0:0:0:
421,333,166502,1,0,2:0:0:0:
445,329,166570,1,2,2:0:0:0:
505,262,166707,1,2,2:3:0:0:
486,246,166775,1,0,2:0:0:0:
471,226,166843,53,2,2:0:0:0:
510,138,166979,1,0,2:0:0:0:
477,50,167116,1,2,2:3:0:0:
457,37,167184,1,0,2:0:0:0:
434,32,167252,1,0,2:0:0:0:
328,33,167388,1,2,2:0:0:0:
342,54,167457,1,0,2:0:0:0:
350,78,167525,1,0,2:0:0:0:
311,172,167661,1,2,2:3:0:0:
291,186,167729,1,0,2:0:0:0:
268,192,167798,1,0,2:0:0:0:
166,157,167934,53,4,2:0:0:0:
175,127,168002,1,0,2:0:0:0:
177,95,168070,1,0,2:0:0:0:
166,65,168138,1,0,2:0:0:0:
143,42,168207,1,0,2:0:0:0:
114,29,168275,1,0,2:0:0:0:
82,27,168343,1,2,2:0:0:0:
4,121,168479,1,2,2:3:0:0:
34,111,168547,1,0,2:0:0:0:
65,106,168616,1,2,2:0:0:0:
103,205,168752,1,2,2:3:0:0:
95,235,168820,1,0,2:0:0:0:
87,265,168888,1,0,2:0:0:0:
82,296,168956,1,0,2:0:0:0:
79,327,169025,53,2,2:0:0:0:
184,384,169161,1,0,2:0:0:0:
274,318,169298,1,2,2:3:0:0:
260,289,169366,1,0,2:0:0:0:
235,269,169434,1,0,2:0:0:0:
144,249,169570,1,2,2:0:0:0:
154,218,169638,1,0,2:0:0:0:
151,186,169707,1,0,2:0:0:0:
88,120,169843,1,2,2:3:0:0:
116,105,169911,1,0,2:0:0:0:
137,80,169979,1,0,2:0:0:0:
239,10,170116,53,4,2:0:0:0:
240,41,170184,1,0,2:0:0:0:
249,71,170252,1,0,2:0:0:0:
271,92,170320,1,0,2:0:0:0:
300,103,170389,1,0,2:0:0:0:
330,107,170456,1,0,2:0:0:0:
360,100,170525,1,2,2:0:0:0:
435,4,170661,1,2,2:3:0:0:
437,35,170729,1,0,2:0:0:0:
441,66,170798,1,2,2:0:0:0:
512,160,170934,1,2,2:3:0:0:
481,166,171002,1,0,2:0:0:0:
450,173,171070,1,0,2:0:0:0:
419,180,171138,1,0,2:0:0:0:
389,190,171207,53,2,2:0:0:0:
356,304,171343,1,0,2:0:0:0:
314,228,171479,1,2,2:3:0:0:
293,204,171547,1,0,2:0:0:0:
265,188,171616,1,0,2:0:0:0:
427,258,171752,1,2,2:0:0:0:
458,251,171820,1,0,2:0:0:0:
486,235,171889,1,0,2:0:0:0:
348,322,172025,1,2,2:3:0:0:
338,352,172093,1,0,2:0:0:0:
338,384,172161,1,0,2:0:0:0:
203,317,172298,53,4,2:0:0:0:
173,326,172365,1,0,2:0:0:0:
145,341,172434,1,0,2:0:0:0:
120,361,172502,1,0,2:0:0:0:
99,384,172570,1,2,2:0:0:0:
4,323,172707,1,0,2:0:0:0:
43,219,172843,1,2,2:3:0:0:
55,247,172911,1,0,2:0:0:0:
80,265,172980,1,2,2:0:0:0:
119,125,173116,1,2,2:3:0:0:
87,125,173184,1,0,2:0:0:0:
56,130,173252,1,0,2:0:0:0:
26,141,173320,1,0,2:0:0:0:
0,159,173389,53,2,2:0:0:0:
82,255,173525,1,2,2:3:0:0:
90,224,173593,1,0,2:0:0:0:
116,206,173661,1,2,2:0:0:0:
238,161,173798,1,2,2:3:0:0:
209,147,173865,1,0,2:0:0:0:
190,121,173934,1,2,2:0:0:0:
283,2,174070,1,2,2:3:0:0:
256,19,174138,1,0,2:0:0:0:
224,24,174207,1,2,2:0:0:0:
94,88,174343,1,2,2:3:0:0:
87,57,174411,1,0,2:0:0:0:
66,32,174480,53,4,2:0:0:0:
35,38,174547,1,0,2:0:0:0:
14,61,174616,1,0,2:0:0:0:
3,90,174684,1,0,2:0:0:0:
2,121,174752,1,2,2:0:0:0:
82,201,174889,1,0,2:0:0:0:
186,161,175025,1,2,2:3:0:0:
182,129,175093,1,0,2:0:0:0:
187,98,175161,1,2,2:0:0:0:
311,50,175298,1,2,2:3:0:0:
322,79,175365,1,0,2:0:0:0:
330,109,175434,1,0,2:0:0:0:
334,140,175502,1,0,2:0:0:0:
334,171,175571,53,2,2:0:0:0:
429,91,175707,1,2,2:3:0:0:
460,91,175775,1,0,2:0:0:0:
489,101,175843,1,2,2:0:0:0:
496,0,175980,1,0,2:0:0:0:
354,35,176116,1,2,2:3:0:0:
352,55,176184,1,0,2:0:0:0:
350,75,176252,1,0,2:0:0:0:
348,96,176320,1,0,2:0:0:0:
345,116,176389,1,2,2:0:0:0:
343,136,176456,1,0,2:0:0:0:
341,156,176525,1,0,2:0:0:0:
339,176,176593,1,0,2:0:0:0:
336,196,176661,53,0,2:0:0:0:
274,251,176798,1,0,2:0:0:0:
274,251,176866,1,2,2:0:0:0:
186,239,177002,1,0,2:0:0:0:
186,239,177071,1,2,2:0:0:0:
150,157,177207,1,0,2:0:0:0:
150,157,177275,1,2,2:0:0:0:
192,81,177411,1,0,2:0:0:0:
192,81,177480,1,2,2:0:0:0:
127,13,177616,1,0,2:0:0:0:
40,35,177752,101,4,2:0:0:0:
82,111,177889,1,2,2:3:0:0:
109,105,177956,1,0,2:0:0:0:
136,100,178025,1,0,2:0:0:0:
163,96,178093,1,0,2:0:0:0:
190,91,178161,1,2,2:0:0:0:
267,141,178298,1,2,2:3:0:0:
263,168,178366,1,0,2:0:0:0:
259,195,178434,1,0,2:0:0:0:
255,222,178502,1,0,2:0:0:0:
251,249,178570,1,0,2:0:0:0:
247,276,178638,1,0,2:0:0:0:
243,303,178707,1,2,2:0:0:0:
229,384,178843,5,2,2:3:0:0:
323,384,178980,1,0,2:0:0:0:
323,384,179047,1,2,2:0:0:0:
404,343,179184,1,0,2:0:0:0:
404,343,179252,1,2,2:0:0:0:
420,253,179389,1,0,2:0:0:0:
420,253,179457,1,2,2:0:0:0:
366,177,179593,1,0,2:0:0:0:
366,177,179661,1,2,2:0:0:0:
266,169,179798,1,0,2:0:0:0:
195,245,179934,101,4,2:0:0:0:
99,216,180070,1,2,2:3:0:0:
91,189,180138,1,0,2:0:0:0:
87,161,180207,1,0,2:0:0:0:
87,132,180275,1,0,2:0:0:0:
88,104,180343,1,2,2:0:0:0:
154,48,180479,1,2,2:3:0:0:
181,45,180547,1,0,2:0:0:0:
208,42,180616,1,0,2:0:0:0:
236,40,180684,1,0,2:0:0:0:
264,38,180752,1,0,2:0:0:0:
291,36,180820,1,0,2:0:0:0:
319,34,180888,1,2,2:0:0:0:
402,0,181025,5,2,2:3:0:0:
446,80,181161,1,0,2:0:0:0:
446,80,181229,1,2,2:0:0:0:
506,152,181366,1,0,2:0:0:0:
506,152,181434,1,2,2:0:0:0:
446,216,181570,1,0,2:0:0:0:
446,216,181638,1,2,2:0:0:0:
415,299,181775,1,0,2:0:0:0:
415,299,181843,1,2,2:0:0:0:
422,384,181979,1,0,2:0:0:0:
331,374,182116,101,4,2:0:0:0:
330,345,182184,1,0,2:0:0:0:
327,316,182252,1,0,2:0:0:0:
324,288,182320,1,0,2:0:0:0:
321,260,182388,1,0,2:0:0:0:
317,232,182457,1,0,2:0:0:0:
313,204,182525,1,2,2:0:0:0:
225,174,182661,1,2,2:3:0:0:
197,174,182729,1,0,2:0:0:0:
168,175,182797,1,0,2:0:0:0:
139,175,182866,1,0,2:0:0:0:
111,174,182934,1,0,2:0:0:0:
82,172,183002,1,0,2:0:0:0:
53,171,183070,1,2,2:0:0:0:
0,96,183206,5,2,2:3:0:0:
58,38,183343,1,0,2:0:0:0:
58,38,183411,1,2,2:0:0:0:
145,52,183548,1,0,2:0:0:0:
145,52,183616,1,2,2:0:0:0:
171,139,183752,1,0,2:0:0:0:
171,139,183820,1,2,2:0:0:0:
114,209,183957,1,0,2:0:0:0:
114,209,184025,1,2,2:0:0:0:
102,302,184161,1,0,2:0:0:0:
171,368,184297,101,4,2:0:0:0:
271,355,184434,1,2,2:3:0:0:
266,327,184502,1,0,2:0:0:0:
262,299,184570,1,0,2:0:0:0:
259,271,184639,1,0,2:0:0:0:
255,243,184706,1,0,2:0:0:0:
251,215,184775,1,0,2:0:0:0:
248,187,184843,1,2,2:0:0:0:
343,171,184979,1,2,2:3:0:0:
346,143,185048,1,0,2:0:0:0:
349,115,185115,1,0,2:0:0:0:
352,87,185184,1,0,2:0:0:0:
355,59,185252,1,0,2:0:0:0:
358,31,185320,1,0,2:0:0:0:
362,3,185388,5,4,2:0:0:0:
456,17,185524,1,2,2:3:0:0:
468,42,185593,1,2,2:0:0:0:
452,130,185729,1,2,2:3:0:0:
428,146,185797,1,2,2:0:0:0:
337,157,185934,1,2,2:0:0:0:
312,142,186002,1,0,2:0:0:0:
292,121,186070,1,0,2:0:0:0:
238,55,186206,1,2,2:0:0:0:
210,51,186275,1,0,2:0:0:0:
181,49,186343,1,0,2:0:0:0:
153,48,186411,1,0,2:0:0:0:
124,48,186479,101,4,2:0:0:0:
51,92,186615,1,2,2:3:0:0:
41,118,186684,1,2,2:0:0:0:
75,199,186820,1,2,2:3:0:0:
102,206,186888,1,2,2:0:0:0:
180,160,187024,1,2,2:3:0:0:
184,132,187093,1,2,2:0:0:0:
253,72,187230,1,2,2:3:0:0:
280,75,187297,1,2,2:0:0:0:
327,150,187434,1,2,2:0:0:0:
295,239,187570,5,4,2:0:0:0:
346,318,187706,1,2,2:3:0:0:
373,322,187775,1,2,2:0:0:0:
455,283,187911,1,2,2:3:0:0:
457,255,187979,1,2,2:0:0:0:
411,173,188115,1,2,2:0:0:0:
383,167,188184,1,0,2:0:0:0:
355,163,188252,1,0,2:0:0:0:
282,231,188388,1,2,2:0:0:0:
255,239,188457,1,0,2:0:0:0:
227,246,188525,1,0,2:0:0:0:
199,251,188593,1,0,2:0:0:0:
171,256,188661,101,4,2:0:0:0:
118,323,188797,1,2,2:3:0:0:
106,348,188866,1,2,2:0:0:0:
17,332,189002,1,2,2:3:0:0:
10,304,189070,1,2,2:0:0:0:
50,221,189206,1,2,2:3:0:0:
75,210,189275,1,2,2:0:0:0:
138,141,189411,1,2,2:3:0:0:
133,113,189479,1,2,2:0:0:0:
53,67,189615,1,2,2:0:0:0:
129,0,189752,5,4,2:0:0:0:
218,41,189888,1,2,2:3:0:0:
214,68,189957,1,0,2:0:0:0:
210,95,190025,1,2,2:0:0:0:
274,171,190161,1,2,2:3:0:0:
301,166,190230,1,0,2:0:0:0:
328,162,190297,1,0,2:0:0:0:
355,157,190366,1,0,2:0:0:0:
382,152,190434,1,2,2:0:0:0:
465,114,190570,1,2,2:3:0:0:
471,86,190639,1,0,2:0:0:0:
478,59,190706,1,0,2:0:0:0:
485,31,190775,1,0,2:0:0:0:
492,3,190843,101,4,2:0:0:0:
384,32,190979,1,2,2:3:0:0:
389,59,191048,1,2,2:0:0:0:
325,125,191184,1,2,2:3:0:0:
317,152,191252,1,2,2:0:0:0:
243,204,191388,1,2,2:3:0:0:
216,208,191457,1,2,2:0:0:0:
132,178,191593,1,2,2:3:0:0:
126,150,191661,1,2,2:0:0:0:
34,118,191797,1,2,2:0:0:0:
0,210,191934,5,4,2:0:0:0:
47,290,192070,1,2,2:3:0:0:
74,283,192139,1,0,2:0:0:0:
101,277,192206,1,2,2:0:0:0:
203,262,192343,1,2,2:3:0:0:
196,289,192411,1,0,2:0:0:0:
191,316,192479,1,0,2:0:0:0:
186,343,192548,1,0,2:0:0:0:
180,370,192616,1,2,2:0:0:0:
287,355,192752,1,2,2:3:0:0:
314,350,192820,1,0,2:0:0:0:
341,345,192888,1,0,2:0:0:0:
368,341,192957,1,0,2:0:0:0:
396,335,193025,102,0,L|401:287,7,35,4|0|0|0|0|0|0|0,2:0|2:0|2:0|2:0|2:0|2:0|2:0|2:0,2:0:0:0:
461,257,193570,2,0,L|447:198,7,35,2|0|0|0|0|0|0|0,2:0|2:0|2:0|2:0|2:0|2:0|2:0|2:0,2:0:0:0:
503,153,194116,37,8,3:0:0:0:
480,139,194184,1,0,2:0:0:0:
456,129,194252,1,0,2:0:0:0:
430,123,194320,1,0,2:0:0:0:
404,120,194388,1,8,3:0:0:0:
378,122,194457,1,0,2:0:0:0:
352,127,194525,1,0,2:0:0:0:
328,136,194593,1,0,2:0:0:0:
305,149,194661,1,8,3:0:0:0:
284,165,194729,1,0,2:0:0:0:
266,184,194797,1,0,2:0:0:0:
251,205,194866,1,0,2:0:0:0:
239,229,194934,1,8,3:0:0:0:
231,254,195002,1,0,2:0:0:0:
226,280,195070,1,0,2:0:0:0:
226,306,195138,1,0,2:0:0:0:
229,332,195207,69,4,2:0:0:0:
253,336,195275,1,0,2:0:0:0:
277,336,195343,1,0,2:0:0:0:
301,333,195411,1,0,2:0:0:0:
324,327,195479,1,8,3:0:0:0:
346,317,195548,1,0,2:0:0:0:
367,305,195616,1,0,2:0:0:0:
386,291,195684,1,0,2:0:0:0:
402,274,195752,1,8,3:0:0:0:
416,254,195820,1,0,2:0:0:0:
428,233,195888,1,0,2:0:0:0:
437,210,195957,1,0,2:0:0:0:
441,186,196025,1,8,3:0:0:0:
444,163,196093,1,0,2:0:0:0:
442,138,196161,1,0,2:0:0:0:
438,115,196229,1,0,2:0:0:0:
430,92,196298,37,4,2:0:0:0:
415,74,196366,1,0,2:0:0:0:
398,58,196434,1,0,2:0:0:0:
380,44,196502,1,0,2:0:0:0:
361,31,196570,1,8,3:0:0:0:
340,21,196638,1,0,2:0:0:0:
319,12,196707,1,0,2:0:0:0:
297,6,196775,1,0,2:0:0:0:
275,1,196843,1,8,3:0:0:0:
252,0,196911,1,0,2:0:0:0:
229,0,196979,1,0,2:0:0:0:
206,1,197047,1,0,2:0:0:0:
183,6,197116,1,8,3:0:0:0:
161,12,197184,1,0,2:0:0:0:
140,21,197252,1,0,2:0:0:0:
120,31,197320,1,0,2:0:0:0:
100,44,197388,1,8,3:0:0:0:
82,58,197456,1,0,2:0:0:0:
66,74,197525,1,0,2:0:0:0:
51,91,197593,1,0,2:0:0:0:
38,110,197661,1,8,3:0:0:0:
26,130,197729,1,0,2:0:0:0:
17,151,197798,1,0,2:0:0:0:
9,172,197866,1,0,2:0:0:0:
4,195,197934,1,8,3:0:0:0:
1,218,198002,1,0,2:0:0:0:
0,240,198070,1,0,2:0:0:0:
1,263,198138,1,0,2:0:0:0:
5,286,198207,1,8,3:0:0:0:
10,308,198275,1,0,2:0:0:0:
18,330,198343,1,0,2:0:0:0:
28,351,198411,1,0,2:0:0:0:
40,371,198479,69,4,2:0:0:0:
67,363,198547,1,0,2:0:0:0:
95,357,198616,1,0,2:0:0:0:
122,351,198684,1,0,2:0:0:0:
150,345,198752,1,8,3:0:0:0:
178,339,198820,1,0,2:0:0:0:
206,334,198889,1,0,2:0:0:0:
234,329,198956,1,0,2:0:0:0:
262,324,199025,1,8,3:0:0:0:
290,320,199093,1,0,2:0:0:0:
318,316,199161,1,0,2:0:0:0:
347,313,199229,1,0,2:0:0:0:
375,310,199298,1,8,3:0:0:0:
403,307,199365,1,0,2:0:0:0:
432,305,199434,1,0,2:0:0:0:
460,303,199502,1,0,2:0:0:0:
488,301,199570,37,4,2:0:0:0:
459,296,199638,1,0,2:0:0:0:
431,292,199707,1,0,2:0:0:0:
403,288,199774,1,0,2:0:0:0:
375,284,199843,1,8,3:0:0:0:
347,281,199911,1,0,2:0:0:0:
318,278,199979,1,0,2:0:0:0:
290,276,200047,1,0,2:0:0:0:
262,274,200116,1,8,3:0:0:0:
233,272,200184,1,0,2:0:0:0:
205,271,200252,1,0,2:0:0:0:
176,270,200320,1,0,2:0:0:0:
148,270,200389,1,8,3:0:0:0:
120,270,200456,1,0,2:0:0:0:
91,270,200525,1,0,2:0:0:0:
63,270,200593,1,0,2:0:0:0:
34,271,200661,69,4,2:0:0:0:
63,260,200729,1,0,2:0:0:0:
92,250,200798,1,0,2:0:0:0:
120,240,200865,1,0,2:0:0:0:
150,230,200934,1,8,3:0:0:0:
179,221,201002,1,0,2:0:0:0:
208,212,201070,1,0,2:0:0:0:
238,204,201138,1,0,2:0:0:0:
267,196,201207,1,8,3:0:0:0:
297,188,201274,1,0,2:0:0:0:
327,181,201343,1,0,2:0:0:0:
357,175,201411,1,0,2:0:0:0:
387,169,201480,1,8,3:0:0:0:
417,164,201547,1,0,2:0:0:0:
447,159,201616,1,0,2:0:0:0:
477,154,201684,1,0,2:0:0:0:
508,150,201752,37,4,2:0:0:0:
469,142,201820,1,0,2:0:0:0:
430,134,201889,1,0,2:0:0:0:
392,126,201956,1,0,2:0:0:0:
353,117,202025,1,8,3:0:0:0:
315,109,202093,1,0,2:0:0:0:
276,101,202161,1,0,2:0:0:0:
238,93,202229,1,0,2:0:0:0:
199,84,202298,2,0,L|191:36,3,35,8|0|0|0,3:0|2:0|2:0|2:0,2:0:0:0:
266,34,202570,2,0,L|259:-13,3,35,2|0|0|0,2:0|2:0|2:0|2:0,2:0:0:0:
335,83,202843,69,4,2:0:0:0:
348,105,202911,1,0,2:0:0:0:
356,130,202980,1,0,2:0:0:0:
360,156,203047,1,0,2:0:0:0:
359,182,203116,1,8,3:0:0:0:
353,208,203184,1,0,2:0:0:0:
343,232,203252,1,0,2:0:0:0:
328,253,203320,1,0,2:0:0:0:
309,271,203389,1,8,3:0:0:0:
287,286,203456,1,0,2:0:0:0:
263,296,203525,1,0,2:0:0:0:
237,302,203593,1,0,2:0:0:0:
211,302,203661,1,8,3:0:0:0:
185,298,203729,1,0,2:0:0:0:
161,289,203798,1,0,2:0:0:0:
138,275,203865,1,0,2:0:0:0:
119,258,203934,37,4,2:0:0:0:
134,245,204002,1,0,2:0:0:0:
147,230,204071,1,0,2:0:0:0:
156,213,204138,1,0,2:0:0:0:
163,195,204207,1,8,3:0:0:0:
167,175,204275,1,0,2:0:0:0:
168,156,204343,1,0,2:0:0:0:
165,136,204411,1,0,2:0:0:0:
159,118,204480,1,8,3:0:0:0:
150,100,204547,1,0,2:0:0:0:
138,85,204616,1,0,2:0:0:0:
123,71,204684,1,0,2:0:0:0:
107,60,204752,1,8,3:0:0:0:
89,53,204820,1,0,2:0:0:0:
70,48,204889,1,0,2:0:0:0:
50,46,204956,1,0,2:0:0:0:
31,48,205025,69,4,2:0:0:0:
30,68,205093,1,0,2:0:0:0:
30,89,205161,1,0,2:0:0:0:
32,110,205229,1,0,2:0:0:0:
35,130,205298,1,8,3:0:0:0:
40,150,205366,1,0,2:0:0:0:
46,170,205434,1,0,2:0:0:0:
54,190,205502,1,0,2:0:0:0:
62,209,205571,1,8,3:0:0:0:
72,227,205638,1,0,2:0:0:0:
84,244,205707,1,0,2:0:0:0:
96,261,205775,1,0,2:0:0:0:
110,277,205843,1,8,3:0:0:0:
124,291,205911,1,0,2:0:0:0:
140,305,205980,1,0,2:0:0:0:
156,318,206047,1,0,2:0:0:0:
174,329,206116,1,8,3:0:0:0:
192,339,206184,1,0,2:0:0:0:
210,348,206252,1,0,2:0:0:0:
230,356,206320,1,0,2:0:0:0:
250,362,206389,1,8,3:0:0:0:
270,367,206456,1,0,2:0:0:0:
290,371,206525,1,0,2:0:0:0:
311,373,206593,1,0,2:0:0:0:
332,374,206661,1,8,3:0:0:0:
352,373,206729,1,0,2:0:0:0:
373,371,206798,1,0,2:0:0:0:
394,367,206866,1,0,2:0:0:0:
414,362,206934,1,8,3:0:0:0:
433,356,207002,1,0,2:0:0:0:
453,348,207070,1,0,2:0:0:0:
472,340,207138,1,0,2:0:0:0:
490,329,207207,37,4,2:0:0:0:
464,322,207275,1,0,2:0:0:0:
438,317,207343,1,0,2:0:0:0:
413,311,207411,1,0,2:0:0:0:
387,306,207480,1,8,3:0:0:0:
361,301,207547,1,0,2:0:0:0:
335,296,207616,1,0,2:0:0:0:
310,291,207684,1,0,2:0:0:0:
284,287,207752,1,8,3:0:0:0:
258,283,207820,1,0,2:0:0:0:
232,279,207889,1,0,2:0:0:0:
206,275,207957,1,0,2:0:0:0:
180,271,208025,1,8,3:0:0:0:
154,268,208093,1,0,2:0:0:0:
128,265,208161,1,0,2:0:0:0:
102,262,208229,1,0,2:0:0:0:
75,261,208298,69,4,2:0:0:0:
102,255,208366,1,0,2:0:0:0:
130,248,208434,1,0,2:0:0:0:
157,240,208502,1,0,2:0:0:0:
184,231,208570,1,8,3:0:0:0:
211,221,208638,1,0,2:0:0:0:
237,210,208707,1,0,2:0:0:0:
263,198,208775,1,0,2:0:0:0:
288,185,208843,1,8,3:0:0:0:
313,172,208911,1,0,2:0:0:0:
338,157,208979,1,0,2:0:0:0:
361,142,209047,1,0,2:0:0:0:
385,125,209116,1,8,3:0:0:0:
407,108,209184,1,0,2:0:0:0:
429,90,209252,1,0,2:0:0:0:
451,71,209320,1,0,2:0:0:0:
471,51,209388,37,4,2:0:0:0:
479,80,209457,1,0,2:0:0:0:
483,110,209525,1,0,2:0:0:0:
484,141,209593,1,0,2:0:0:0:
480,171,209661,1,8,3:0:0:0:
473,201,209729,1,0,2:0:0:0:
462,230,209798,1,0,2:0:0:0:
447,256,209866,1,0,2:0:0:0:
429,281,209934,1,8,3:0:0:0:
408,303,210002,1,0,2:0:0:0:
385,323,210070,1,0,2:0:0:0:
359,339,210138,1,0,2:0:0:0:
331,352,210207,1,8,3:0:0:0:
301,361,210275,1,0,2:0:0:0:
271,366,210343,1,0,2:0:0:0:
241,367,210411,1,0,2:0:0:0:
210,364,210479,69,4,2:0:0:0:
231,339,210548,1,0,2:0:0:0:
248,311,210616,1,2,2:0:0:0:
259,280,210684,1,0,2:0:0:0:
266,248,210752,1,8,3:0:0:0:
267,215,210820,1,0,2:0:0:0:
263,183,210888,1,2,2:0:0:0:
254,151,210957,1,0,2:0:0:0:
239,122,211025,1,8,3:0:0:0:
220,95,211093,1,0,2:0:0:0:
197,72,211161,1,2,2:0:0:0:
171,52,211229,1,0,2:0:0:0:
142,38,211297,1,8,3:0:0:0:
110,28,211366,1,0,2:0:0:0:
78,23,211434,1,2,2:0:0:0:
45,24,211502,1,0,2:0:0:0:
13,30,211570,53,4,2:0:0:0:
8,68,211638,1,0,2:0:0:0:
7,106,211706,1,0,2:0:0:0:
6,144,211775,1,0,2:0:0:0:
5,182,211843,1,2,2:0:0:0:
77,257,211979,1,8,3:0:0:0:
115,256,212048,1,0,2:0:0:0:
153,255,212116,1,0,2:0:0:0:
191,255,212184,1,0,2:0:0:0:
229,253,212252,1,2,2:0:0:0:
305,196,212388,1,8,3:0:0:0:
304,158,212457,1,0,2:0:0:0:
303,120,212525,1,0,2:0:0:0:
303,82,212593,1,0,2:0:0:0:
301,44,212661,1,4,2:0:0:0:
339,41,212729,1,0,2:0:0:0:
377,39,212797,1,0,2:0:0:0:
415,39,212866,1,0,2:0:0:0:
453,37,212934,1,2,2:0:0:0:
511,111,213070,1,8,3:0:0:0:
510,149,213139,1,0,2:0:0:0:
511,187,213206,1,0,2:0:0:0:
511,225,213275,1,0,2:0:0:0:
512,263,213343,1,2,2:0:0:0:
475,355,213479,1,8,3:0:0:0:
436,358,213548,1,0,2:0:0:0:
397,361,213615,1,0,2:0:0:0:
358,361,213684,1,0,2:0:0:0:
319,362,213752,1,4,2:0:0:0:
316,323,213820,1,0,2:0:0:0:
314,284,213888,1,0,2:0:0:0:
311,245,213957,1,0,2:0:0:0:
306,206,214024,1,2,2:0:0:0:
234,135,214161,1,8,3:0:0:0:
195,135,214229,1,0,2:0:0:0:
156,135,214297,1,0,2:0:0:0:
117,134,214366,1,0,2:0:0:0:
78,133,214434,1,2,2:0:0:0:
12,188,214570,1,8,3:0:0:0:
9,226,214639,1,0,2:0:0:0:
4,264,214706,1,0,2:0:0:0:
2,302,214775,1,0,2:0:0:0:
0,340,214843,1,4,2:0:0:0:
37,344,214911,1,0,2:0:0:0:
75,346,214979,1,0,2:0:0:0:
113,347,215048,1,0,2:0:0:0:
151,348,215115,1,2,2:0:0:0:
233,384,215252,1,8,3:0:0:0:
233,345,215320,1,0,2:0:0:0:
233,306,215388,1,0,2:0:0:0:
232,267,215457,1,0,2:0:0:0:
232,228,215524,1,2,2:0:0:0:
276,156,215661,1,8,3:0:0:0:
276,117,215730,1,0,2:0:0:0:
276,78,215797,1,0,2:0:0:0:
275,39,215866,1,0,2:0:0:0:
275,0,215934,53,4,2:0:0:0:
301,2,216002,1,0,2:0:0:0:
327,4,216070,1,0,2:0:0:0:
353,5,216139,1,0,2:0:0:0:
379,6,216206,1,8,3:0:0:0:
406,6,216275,1,0,2:0:0:0:
432,5,216343,1,0,2:0:0:0:
458,4,216411,1,0,2:0:0:0:
484,1,216479,1,8,3:0:0:0:
481,27,216548,1,0,2:0:0:0:
479,53,216615,1,0,2:0:0:0:
478,79,216684,1,0,2:0:0:0:
477,105,216752,1,8,3:0:0:0:
477,132,216820,1,0,2:0:0:0:
478,158,216888,1,2,2:0:0:0:
416,226,217025,1,4,2:0:0:0:
390,228,217093,1,0,2:0:0:0:
364,230,217161,1,0,2:0:0:0:
338,231,217230,1,0,2:0:0:0:
312,232,217297,1,8,3:0:0:0:
285,232,217366,1,0,2:0:0:0:
259,231,217434,1,0,2:0:0:0:
233,230,217502,1,0,2:0:0:0:
207,227,217570,1,8,3:0:0:0:
210,253,217639,1,0,2:0:0:0:
212,279,217706,1,0,2:0:0:0:
213,305,217775,1,0,2:0:0:0:
214,331,217843,1,8,3:0:0:0:
214,358,217911,1,0,2:0:0:0:
213,384,217979,1,2,2:0:0:0:
118,354,218115,1,4,2:0:0:0:
117,325,218184,1,0,2:0:0:0:
116,296,218252,1,0,2:0:0:0:
114,267,218321,1,0,2:0:0:0:
113,239,218388,1,8,3:0:0:0:
85,236,218457,1,0,2:0:0:0:
57,233,218525,1,0,2:0:0:0:
29,231,218593,1,0,2:0:0:0:
0,229,218661,1,8,3:0:0:0:
2,201,218730,1,0,2:0:0:0:
4,173,218797,1,0,2:0:0:0:
6,145,218866,1,0,2:0:0:0:
8,117,218934,1,8,3:0:0:0:
10,89,219002,1,0,2:0:0:0:
13,61,219070,1,2,2:0:0:0:
106,8,219206,1,4,2:0:0:0:
137,9,219275,1,0,2:0:0:0:
168,10,219343,1,0,2:0:0:0:
199,11,219411,1,0,2:0:0:0:
230,12,219479,1,8,3:0:0:0:
234,43,219548,1,0,2:0:0:0:
236,74,219616,1,0,2:0:0:0:
238,105,219684,1,0,2:0:0:0:
238,136,219752,1,8,3:0:0:0:
268,145,219821,1,0,2:0:0:0:
298,150,219888,1,0,2:0:0:0:
329,155,219957,1,0,2:0:0:0:
360,159,220025,1,8,3:0:0:0:
368,188,220093,1,0,2:0:0:0:
374,218,220161,1,0,2:0:0:0:
378,249,220230,1,0,2:0:0:0:
381,280,220297,53,4,2:0:0:0:
343,287,220366,1,0,2:0:0:0:
304,293,220434,1,0,2:0:0:0:
265,297,220502,1,0,2:0:0:0:
226,300,220570,1,2,2:0:0:0:
164,381,220706,1,8,3:0:0:0:
125,376,220775,1,0,2:0:0:0:
86,372,220843,1,0,2:0:0:0:
47,367,220911,1,0,2:0:0:0:
9,360,220979,1,2,2:0:0:0:
71,258,221116,1,8,3:0:0:0:
64,220,221184,1,0,2:0:0:0:
58,181,221252,1,0,2:0:0:0:
52,142,221320,1,0,2:0:0:0:
45,104,221388,1,4,2:0:0:0:
81,91,221457,1,0,2:0:0:0:
117,78,221525,1,0,2:0:0:0:
153,65,221593,1,0,2:0:0:0:
188,50,221661,1,2,2:0:0:0:
289,8,221797,1,8,3:0:0:0:
326,15,221866,1,0,2:0:0:0:
363,22,221934,1,0,2:0:0:0:
400,29,222002,1,0,2:0:0:0:
437,37,222070,1,2,2:0:0:0:
492,129,222207,1,8,3:0:0:0:
486,166,222275,1,0,2:0:0:0:
482,204,222343,1,0,2:0:0:0:
478,242,222411,1,0,2:0:0:0:
474,280,222479,1,4,2:0:0:0:
435,274,222548,1,0,2:0:0:0:
396,268,222616,1,0,2:0:0:0:
358,261,222684,1,0,2:0:0:0:
319,254,222752,1,2,2:0:0:0:
246,196,222888,1,8,3:0:0:0:
246,157,222957,1,0,2:0:0:0:
246,118,223025,1,0,2:0:0:0:
245,79,223093,1,0,2:0:0:0:
242,40,223161,1,2,2:0:0:0:
158,6,223297,1,8,3:0:0:0:
120,13,223366,1,0,2:0:0:0:
81,19,223434,1,0,2:0:0:0:
43,27,223502,1,0,2:0:0:0:
5,35,223570,1,4,2:0:0:0:
9,73,223638,1,0,2:0:0:0:
11,111,223707,1,0,2:0:0:0:
14,149,223775,1,0,2:0:0:0:
17,187,223843,1,2,2:0:0:0:
56,286,223979,1,8,3:0:0:0:
91,302,224048,1,0,2:0:0:0:
126,317,224116,1,0,2:0:0:0:
162,329,224184,1,0,2:0:0:0:
198,342,224252,1,2,2:0:0:0:
314,342,224388,1,8,3:0:0:0:
350,329,224457,1,0,2:0:0:0:
386,317,224525,1,0,2:0:0:0:
421,302,224593,1,0,2:0:0:0:
456,286,224661,53,4,2:0:0:0:
454,254,224729,1,0,2:0:0:0:
453,222,224798,1,0,2:0:0:0:
453,190,224866,1,0,2:0:0:0:
452,158,224934,1,8,3:0:0:0:
421,151,225002,1,0,2:0:0:0:
389,147,225070,1,0,2:0:0:0:
358,139,225138,1,0,2:0:0:0:
327,131,225207,1,8,3:0:0:0:
324,99,225275,1,0,2:0:0:0:
321,67,225343,1,0,2:0:0:0:
317,35,225411,1,0,2:0:0:0:
314,3,225479,1,8,3:0:0:0:
282,5,225547,1,0,2:0:0:0:
250,9,225616,1,0,2:0:0:0:
219,13,225684,1,0,2:0:0:0:
187,16,225752,1,4,2:0:0:0:
191,47,225820,1,0,2:0:0:0:
195,77,225888,1,0,2:0:0:0:
198,108,225956,1,0,2:0:0:0:
202,139,226025,1,8,3:0:0:0:
233,135,226093,1,0,2:0:0:0:
264,131,226161,1,0,2:0:0:0:
295,128,226229,1,0,2:0:0:0:
326,124,226298,1,8,3:0:0:0:
334,153,226366,1,0,2:0:0:0:
341,183,226434,1,0,2:0:0:0:
346,214,226502,1,0,2:0:0:0:
352,244,226570,1,8,3:0:0:0:
321,253,226638,1,0,2:0:0:0:
290,259,226707,1,0,2:0:0:0:
259,264,226775,1,0,2:0:0:0:
227,269,226843,1,4,2:0:0:0:
192,262,226911,1,0,2:0:0:0:
158,254,226979,1,0,2:0:0:0:
123,245,227047,1,0,2:0:0:0:
89,234,227116,1,8,3:0:0:0:
78,200,227184,1,0,2:0:0:0:
67,166,227252,1,0,2:0:0:0:
57,132,227320,1,0,2:0:0:0:
49,97,227389,1,8,3:0:0:0:
77,77,227456,1,0,2:0:0:0:
106,57,227525,1,0,2:0:0:0:
135,37,227593,1,0,2:0:0:0:
164,18,227661,1,8,3:0:0:0:
196,30,227729,1,0,2:0:0:0:
228,42,227798,1,0,2:0:0:0:
260,53,227865,1,0,2:0:0:0:
291,67,227934,1,8,3:0:0:0:
293,102,228002,1,0,2:0:0:0:
291,136,228070,1,0,2:0:0:0:
289,171,228138,1,0,2:0:0:0:
285,205,228207,1,4,2:0:0:0:
223,299,228343,1,2,2:0:0:0:
124,278,228479,2,0,L|67:289,3,35,8|0|0|0,3:0|2:0|2:0|2:0,2:0:0:0:
35,333,228752,2,0,L|-16:343,3,35,0|0|0|0,2:0|2:0|2:0|2:0,2:0:0:0:
102,380,229025,53,4,2:0:0:0:
143,372,229093,1,0,2:0:0:0:
176,346,229161,1,0,2:0:0:0:
192,307,229229,1,0,2:0:0:0:
192,264,229298,1,2,2:0:0:0:
86,208,229434,1,8,3:0:0:0:
52,182,229502,1,0,2:0:0:0:
33,144,229570,1,0,2:0:0:0:
29,102,229638,1,0,2:0:0:0:
40,61,229707,1,2,2:0:0:0:
146,9,229843,1,8,3:0:0:0:
174,40,229911,1,0,2:0:0:0:
212,57,229980,1,2,2:0:0:0:
330,21,230116,101,4,2:0:0:0:
369,34,230184,1,0,2:0:0:0:
400,60,230252,1,0,2:0:0:0:
422,95,230320,1,0,2:0:0:0:
435,135,230389,1,2,2:0:0:0:
403,257,230525,1,8,3:0:0:0:
365,275,230593,1,0,2:0:0:0:
324,285,230661,1,0,2:0:0:0:
282,290,230729,1,0,2:0:0:0:
239,287,230798,1,2,2:0:0:0:
137,207,230934,1,8,3:0:0:0:
170,181,231002,1,0,2:0:0:0:
189,144,231070,1,2,2:0:0:0:
153,9,231207,5,4,2:0:0:0:
110,11,231275,1,0,2:0:0:0:
71,27,231343,1,0,2:0:0:0:
45,60,231411,1,0,2:0:0:0:
38,101,231480,1,2,2:0:0:0:
145,161,231616,1,8,3:0:0:0:
186,152,231684,1,0,2:0:0:0:
227,145,231752,1,0,2:0:0:0:
268,140,231820,1,0,2:0:0:0:
309,135,231889,1,2,2:0:0:0:
410,196,232025,1,8,3:0:0:0:
420,236,232093,1,0,2:0:0:0:
412,277,232161,1,2,2:0:0:0:
319,383,232298,101,4,2:0:0:0:
277,374,232365,1,0,2:0:0:0:
249,342,232434,1,0,2:0:0:0:
242,300,232502,1,0,2:0:0:0:
262,263,232571,1,2,2:0:0:0:
351,212,232707,1,8,3:0:0:0:
371,175,232775,1,0,2:0:0:0:
387,136,232843,1,0,2:0:0:0:
393,94,232911,1,0,2:0:0:0:
388,52,232980,1,2,2:0:0:0:
273,15,233116,1,8,3:0:0:0:
235,34,233184,1,0,2:0:0:0:
195,48,233252,1,0,2:0:0:0:
153,56,233320,1,0,2:0:0:0:
111,64,233389,5,4,2:0:0:0:
110,105,233456,1,0,2:0:0:0:
93,143,233525,1,0,2:0:0:0:
60,169,233593,1,0,2:0:0:0:
18,174,233661,1,2,2:0:0:0:
38,22,233798,1,8,3:0:0:0:
77,36,233866,1,0,2:0:0:0:
116,48,233934,1,0,2:0:0:0:
156,59,234002,1,0,2:0:0:0:
196,69,234071,1,2,2:0:0:0:
294,154,234207,1,8,3:0:0:0:
329,131,234275,1,0,2:0:0:0:
343,91,234343,1,2,2:0:0:0:
439,14,234480,101,4,2:0:0:0:
473,38,234547,1,0,2:0:0:0:
495,73,234616,1,0,2:0:0:0:
505,113,234684,1,0,2:0:0:0:
505,154,234752,1,2,2:0:0:0:
401,262,234889,1,8,3:0:0:0:
361,247,234956,1,0,2:0:0:0:
339,210,235025,1,0,2:0:0:0:
339,167,235093,1,0,2:0:0:0:
364,133,235161,1,2,2:0:0:0:
492,239,235298,1,8,3:0:0:0:
501,280,235366,1,0,2:0:0:0:
484,318,235434,1,2,2:0:0:0:
359,377,235570,5,4,2:0:0:0:
327,350,235638,1,0,2:0:0:0:
289,331,235707,1,0,2:0:0:0:
248,320,235775,1,0,2:0:0:0:
206,314,235843,1,2,2:0:0:0:
59,353,235980,1,8,3:0:0:0:
80,317,236047,1,0,2:0:0:0:
91,276,236116,1,0,2:0:0:0:
100,234,236184,1,0,2:0:0:0:
100,192,236252,1,2,2:0:0:0:
72,48,236389,1,8,3:0:0:0:
31,61,236457,1,0,2:0:0:0:
8,95,236525,1,2,2:0:0:0:
150,104,236661,101,4,2:0:0:0:
185,125,236729,1,0,2:0:0:0:
205,161,236798,1,0,2:0:0:0:
211,202,236866,1,0,2:0:0:0:
199,242,236934,1,2,2:0:0:0:
277,330,237070,1,8,3:0:0:0:
314,311,237138,1,0,2:0:0:0:
353,296,237207,1,0,2:0:0:0:
393,285,237275,1,0,2:0:0:0:
434,277,237343,1,0,2:0:0:0:
434,234,237411,1,0,2:0:0:0:
438,192,237479,1,8,3:0:0:0:
399,177,237547,1,0,2:0:0:0:
359,161,237616,1,0,2:0:0:0:
320,142,237684,1,0,2:0:0:0:
284,118,237752,5,4,2:0:0:0:
289,76,237820,1,0,2:0:0:0:
321,48,237888,1,0,2:0:0:0:
363,46,237957,1,0,2:0:0:0:
398,68,238025,1,2,2:0:0:0:
466,186,238161,1,8,3:0:0:0:
432,211,238229,1,0,2:0:0:0:
412,248,238298,1,0,2:0:0:0:
398,288,238366,1,0,2:0:0:0:
392,329,238434,1,2,2:0:0:0:
263,378,238570,1,8,3:0:0:0:
275,338,238638,1,0,2:0:0:0:
265,297,238707,1,0,2:0:0:0:
233,269,238775,1,0,2:0:0:0:
191,266,238843,101,4,2:0:0:0:
149,256,238911,1,0,2:0:0:0:
107,250,238979,1,0,2:0:0:0:
65,243,239048,1,0,2:0:0:0:
23,236,239116,1,8,3:0:0:0:
30,194,239184,1,0,2:0:0:0:
36,152,239252,1,0,2:0:0:0:
40,110,239320,1,0,2:0:0:0:
44,68,239388,1,2,0:2:0:0:
158,10,239525,1,8,3:0:0:0:
200,8,239593,1,0,2:0:0:0:
239,23,239661,1,0,2:0:0:0:
265,55,239729,1,0,2:0:0:0:
269,96,239797,1,2,2:0:0:0:
339,249,239934,5,4,2:0:0:0:
380,240,240002,1,0,2:0:0:0:
414,216,240070,1,0,2:0:0:0:
435,180,240138,1,0,2:0:0:0:
441,138,240206,1,8,3:0:0:0:
401,123,240275,1,0,2:0:0:0:
359,115,240343,1,0,2:0:0:0:
317,109,240411,1,0,2:0:0:0:
275,102,240479,1,8,3:0:0:0:
261,141,240548,1,0,2:0:0:0:
251,181,240616,1,0,2:0:0:0:
244,222,240684,1,0,2:0:0:0:
238,263,240752,1,8,3:0:0:0:
196,259,240820,1,0,2:0:0:0:
155,271,240888,1,0,2:0:0:0:
126,301,240957,1,0,2:0:0:0:
114,341,241025,101,4,2:0:0:0:
255,384,241161,1,8,3:0:0:0:
258,342,241229,1,0,2:0:0:0:
260,299,241297,1,0,2:0:0:0:
261,256,241366,1,0,2:0:0:0:
261,214,241434,1,2,2:0:0:0:
165,115,241570,1,8,3:0:0:0:
205,103,241639,1,0,2:0:0:0:
245,94,241706,1,0,2:0:0:0:
286,85,241775,1,0,2:0:0:0:
327,76,241843,1,8,3:0:0:0:
289,57,241911,1,0,2:0:0:0:
250,39,241979,1,0,2:0:0:0:
210,24,242048,1,0,2:0:0:0:
171,8,242115,5,4,2:0:0:0:
148,43,242184,1,0,2:0:0:0:
116,70,242252,1,0,2:0:0:0:
75,78,242320,1,0,2:0:0:0:
33,73,242388,1,8,3:0:0:0:
37,114,242457,1,0,2:0:0:0:
40,155,242524,1,0,2:0:0:0:
43,197,242593,1,0,2:0:0:0:
45,239,242661,1,8,3:0:0:0:
74,250,242729,1,0,2:0:0:0:
103,261,242797,1,0,2:0:0:0:
132,271,242866,1,0,2:0:0:0:
161,281,242934,1,8,3:0:0:0:
198,273,243002,1,0,2:0:0:0:
235,265,243070,1,0,2:0:0:0:
272,257,243139,1,0,2:0:0:0:
309,250,243206,101,4,2:0:0:0:
351,250,243275,1,0,2:0:0:0:
385,274,243343,1,0,2:0:0:0:
407,308,243411,1,0,2:0:0:0:
412,349,243479,1,2,2:0:0:0:
512,250,243615,1,8,3:0:0:0:
471,236,243684,1,0,2:0:0:0:
442,204,243752,1,0,2:0:0:0:
431,163,243820,1,0,2:0:0:0:
441,122,243888,1,2,2:0:0:0:
506,7,244024,1,8,3:0:0:0:
464,14,244093,1,0,2:0:0:0:
423,21,244161,1,0,2:0:0:0:
380,29,244230,1,0,2:0:0:0:
339,38,244297,37,4,2:0:0:0:
337,48,244366,1,0,2:0:0:0:
335,58,244434,1,0,2:0:0:0:
334,68,244502,1,0,2:0:0:0:
333,78,244570,1,2,2:0:0:0:
332,88,244639,1,0,2:0:0:0:
331,98,244706,1,0,2:0:0:0:
330,108,244775,1,0,2:0:0:0:
329,118,244843,1,2,2:0:0:0:
328,128,244911,1,0,2:0:0:0:
327,138,244979,1,0,2:0:0:0:
326,148,245048,1,0,2:0:0:0:
325,158,245115,1,2,2:0:0:0:
324,168,245184,1,0,2:0:0:0:
322,178,245252,1,0,2:0:0:0:
321,188,245320,1,0,2:0:0:0:
320,200,245388,6,0,L|266:210,7,35,4|0|0|0|0|0|0|0,2:0|2:0|2:0|2:0|2:0|2:0|2:0|2:0,2:0:0:0:
219,167,245934,2,0,L|165:177,7,35,2|0|0|0|0|0|0|0,2:2|2:0|2:0|2:0|2:0|2:0|2:0|2:0,2:0:0:0:
176,93,246479,85,4,2:0:0:0:
147,79,246548,1,0,2:0:0:0:
115,76,246615,1,0,2:0:0:0:
84,85,246684,1,0,2:0:0:0:
60,106,246752,1,8,3:0:0:0:
46,134,246821,1,0,2:0:0:0:
42,165,246888,1,0,2:0:0:0:
48,196,246957,1,0,2:0:0:0:
65,222,247025,1,8,3:0:0:0:
91,238,247093,1,0,2:0:0:0:
121,244,247161,1,0,2:0:0:0:
152,242,247230,1,0,2:0:0:0:
183,244,247297,1,8,3:0:0:0:
212,256,247366,1,0,2:0:0:0:
235,276,247434,1,0,2:0:0:0:
247,304,247502,1,0,2:0:0:0:
255,334,247570,37,4,2:0:0:0:
222,346,247639,1,0,2:0:0:0:
188,335,247706,1,0,2:0:0:0:
167,306,247775,1,0,2:0:0:0:
165,270,247843,1,8,3:0:0:0:
182,239,247911,1,0,2:0:0:0:
214,225,247979,1,0,2:0:0:0:
248,219,248048,1,0,2:0:0:0:
279,204,248116,1,8,3:0:0:0:
300,176,248184,1,0,2:0:0:0:
307,141,248252,1,0,2:0:0:0:
296,107,248321,1,0,2:0:0:0:
269,84,248388,1,8,3:0:0:0:
233,81,248457,1,0,2:0:0:0:
199,92,248525,1,0,2:0:0:0:
177,119,248593,1,0,2:0:0:0:
171,153,248661,37,4,2:0:0:0:
194,183,248730,1,0,2:0:0:0:
227,201,248797,1,0,2:0:0:0:
263,214,248866,1,0,2:0:0:0:
300,224,248934,1,8,3:0:0:0:
337,231,249002,1,0,2:0:0:0:
375,235,249070,1,2,2:3:0:0:
413,237,249139,1,0,2:0:0:0:
451,233,249206,1,8,3:0:0:0:
486,217,249275,1,0,2:0:0:0:
500,181,249343,1,0,2:0:0:0:
493,142,249411,1,0,2:0:0:0:
462,118,249479,1,8,3:0:0:0:
423,111,249548,1,0,2:0:0:0:
387,96,249616,1,2,2:3:0:0:
363,65,249684,1,0,2:0:0:0:
353,27,249752,101,4,2:0:0:0:
392,12,249820,1,0,2:0:0:0:
432,21,249888,1,2,2:0:0:0:
460,52,249957,1,0,2:0:0:0:
473,91,250025,1,8,3:0:0:0:
466,132,250093,1,0,2:0:0:0:
436,162,250161,1,2,2:3:0:0:
395,172,250230,1,0,2:0:0:0:
353,165,250297,1,8,3:0:0:0:
322,135,250366,1,0,2:0:0:0:
305,96,250434,1,2,2:0:0:0:
276,65,250502,1,0,2:0:0:0:
238,46,250570,1,8,3:0:0:0:
195,45,250639,1,0,2:0:0:0:
157,64,250707,1,2,2:3:0:0:
135,99,250775,1,0,2:0:0:0:
130,140,250843,37,4,2:0:0:0:
107,166,250911,1,0,2:0:0:0:
72,166,250979,1,0,2:0:0:0:
48,139,251048,1,0,2:0:0:0:
51,104,251116,1,8,3:0:0:0:
80,85,251184,1,0,2:0:0:0:
114,88,251252,1,0,2:0:0:0:
136,115,251320,1,0,2:0:0:0:
138,149,251388,1,8,3:0:0:0:
112,173,251457,1,0,2:0:0:0:
97,205,251525,1,0,2:0:0:0:
93,239,251593,1,0,2:0:0:0:
103,272,251661,1,8,3:0:0:0:
126,297,251729,1,0,2:0:0:0:
158,308,251797,1,0,2:0:0:0:
193,306,251866,1,0,2:0:0:0:
222,286,251934,37,4,2:0:0:0:
224,247,252002,1,0,2:0:0:0:
237,211,252070,1,0,2:0:0:0:
267,187,252138,1,0,2:0:0:0:
304,177,252207,1,8,3:0:0:0:
342,180,252275,1,0,2:0:0:0:
375,198,252343,1,0,2:0:0:0:
400,227,252411,1,0,2:0:0:0:
413,262,252479,1,8,3:0:0:0:
415,300,252548,1,0,2:0:0:0:
401,336,252616,1,0,2:0:0:0:
368,356,252684,1,0,2:0:0:0:
329,356,252752,1,8,3:0:0:0:
301,329,252820,1,0,2:0:0:0:
301,290,252888,1,0,2:0:0:0:
329,263,252957,1,0,2:0:0:0:
367,264,253025,37,4,2:0:0:0:
397,235,253093,1,0,2:0:0:0:
407,194,253161,1,0,2:0:0:0:
400,152,253229,1,0,2:0:0:0:
370,122,253298,1,8,3:0:0:0:
330,109,253366,1,0,2:0:0:0:
288,113,253434,1,2,2:3:0:0:
249,129,253502,1,0,2:0:0:0:
226,164,253570,1,8,3:0:0:0:
213,204,253638,1,0,2:0:0:0:
209,246,253707,1,0,2:0:0:0:
202,287,253775,1,0,2:0:0:0:
178,321,253843,1,8,3:0:0:0:
140,339,253911,1,0,2:0:0:0:
98,341,253979,1,2,2:3:0:0:
57,330,254047,1,0,2:0:0:0:
34,294,254116,101,4,2:0:0:0:
72,269,254184,1,0,2:0:0:0:
104,236,254252,1,2,2:0:0:0:
122,194,254320,1,0,2:0:0:0:
128,149,254388,1,8,3:0:0:0:
118,104,254456,1,0,2:0:0:0:
122,58,254525,1,2,2:3:0:0:
157,28,254593,1,0,2:0:0:0:
202,26,254661,1,8,3:0:0:0:
237,54,254729,1,0,2:0:0:0:
247,98,254798,1,2,2:0:0:0:
262,140,254866,1,0,2:0:0:0:
296,170,254934,1,8,3:0:0:0:
341,174,255002,1,0,2:0:0:0:
382,156,255070,1,2,2:3:0:0:
402,114,255138,1,0,2:0:0:0:
398,69,255207,37,4,2:0:0:0:
431,48,255275,1,0,2:0:0:0:
467,59,255343,1,0,2:0:0:0:
480,95,255411,1,0,2:0:0:0:
459,127,255479,1,8,3:0:0:0:
422,140,255547,1,0,2:0:0:0:
388,159,255616,1,0,2:0:0:0:
363,188,255684,1,0,2:0:0:0:
354,225,255752,1,8,3:0:0:0:
359,263,255820,1,0,2:0:0:0:
379,295,255889,1,0,2:0:0:0:
413,312,255956,1,0,2:0:0:0:
451,315,256025,1,8,3:0:0:0:
485,296,256093,1,0,2:0:0:0:
492,258,256161,1,0,2:0:0:0:
469,226,256229,1,0,2:0:0:0:
429,227,256298,37,4,2:0:0:0:
392,246,256365,1,0,2:0:0:0:
352,259,256434,1,0,2:0:0:0:
310,263,256502,1,0,2:0:0:0:
268,256,256570,1,8,3:0:0:0:
234,230,256638,1,0,2:0:0:0:
217,191,256707,1,0,2:0:0:0:
212,149,256774,1,0,2:0:0:0:
204,107,256843,1,8,3:0:0:0:
189,67,256911,1,0,2:0:0:0:
154,43,256979,1,0,2:0:0:0:
112,38,257047,1,0,2:0:0:0:
76,61,257116,1,8,3:0:0:0:
62,100,257184,1,0,2:0:0:0:
79,138,257252,1,0,2:0:0:0:
117,154,257320,1,0,2:0:0:0:
158,149,257389,37,4,2:0:0:0:
193,176,257456,1,0,2:0:0:0:
214,216,257525,1,0,2:0:0:0:
215,260,257593,1,0,2:0:0:0:
196,301,257661,1,8,3:0:0:0:
155,321,257729,1,0,2:0:0:0:
109,320,257798,1,2,2:3:0:0:
69,297,257865,1,0,2:0:0:0:
55,253,257934,1,8,3:0:0:0:
57,207,258002,1,0,2:0:0:0:
82,169,258070,1,0,2:0:0:0:
121,147,258138,1,0,2:0:0:0:
151,113,258207,1,8,3:0:0:0:
150,67,258274,1,0,2:0:0:0:
121,31,258343,1,2,2:3:0:0:
77,18,258411,1,0,2:0:0:0:
34,35,258480,101,4,2:0:0:0:
13,78,258547,1,0,2:0:0:0:
13,127,258616,1,2,2:0:0:0:
43,165,258684,1,0,2:0:0:0:
89,178,258752,1,8,3:0:0:0:
136,166,258820,1,0,2:0:0:0:
165,126,258889,1,2,2:3:0:0:
193,86,258956,1,0,2:0:0:0:
239,68,259025,1,8,3:0:0:0:
287,76,259093,1,0,2:0:0:0:
316,114,259161,1,2,2:0:0:0:
315,163,259229,1,0,2:0:0:0:
312,212,259298,1,8,3:0:0:0:
328,257,259365,1,0,2:0:0:0:
367,286,259434,1,2,2:3:0:0:
415,294,259502,1,0,2:0:0:0:
460,276,259570,37,4,2:0:0:0:
462,241,259638,1,0,2:0:0:0:
442,212,259707,1,0,2:0:0:0:
407,203,259775,1,0,2:0:0:0:
374,215,259843,1,8,3:0:0:0:
359,246,259911,1,0,2:0:0:0:
359,281,259980,1,0,2:0:0:0:
352,315,260047,1,0,2:0:0:0:
333,344,260116,1,8,3:0:0:0:
301,358,260184,1,0,2:0:0:0:
266,354,260252,1,0,2:0:0:0:
240,330,260320,1,0,2:0:0:0:
233,295,260389,1,8,3:0:0:0:
247,263,260456,1,0,2:0:0:0:
273,240,260525,1,0,2:0:0:0:
285,207,260593,1,0,2:0:0:0:
278,172,260661,37,4,2:0:0:0:
239,155,260729,1,0,2:0:0:0:
212,122,260798,1,0,2:0:0:0:
206,80,260865,1,0,2:0:0:0:
227,43,260934,1,8,3:0:0:0:
266,27,261002,1,0,2:0:0:0:
307,31,261071,1,0,2:0:0:0:
339,56,261138,1,0,2:0:0:0:
350,96,261207,1,8,3:0:0:0:
347,138,261275,1,0,2:0:0:0:
317,167,261343,1,0,2:0:0:0:
276,177,261411,1,0,2:0:0:0:
233,177,261480,1,8,3:0:0:0:
193,190,261547,1,0,2:0:0:0:
162,219,261616,1,0,2:0:0:0:
140,255,261684,1,0,2:0:0:0:
138,296,261752,37,4,2:0:0:0:
101,329,261820,1,0,2:0:0:0:
51,329,261889,1,0,2:0:0:0:
25,287,261956,1,0,2:0:0:0:
36,239,262025,1,8,3:0:0:0:
77,213,262093,1,0,2:0:0:0:
113,180,262161,1,2,2:3:0:0:
114,130,262229,1,0,2:0:0:0:
83,91,262298,1,8,3:0:0:0:
76,42,262366,1,0,2:0:0:0:
106,4,262434,1,0,2:0:0:0:
155,2,262502,1,0,2:0:0:0:
186,40,262571,1,8,3:0:0:0:
194,87,262638,1,0,2:0:0:0:
205,134,262707,1,2,2:3:0:0:
249,155,262775,1,0,2:0:0:0:
294,137,262843,101,4,2:0:0:0:
304,81,262911,1,0,2:0:0:0:
260,45,262980,1,2,2:0:0:0:
203,53,263047,1,0,2:0:0:0:
178,103,263116,1,8,3:0:0:0:
194,156,263184,1,0,2:0:0:0:
187,211,263252,1,2,2:0:0:0:
152,255,263320,1,0,2:0:0:0:
138,310,263389,1,8,3:0:0:0:
158,361,263456,1,0,2:0:0:0:
211,377,263525,1,2,2:0:0:0:
262,353,263593,1,0,2:0:0:0:
277,298,263661,1,8,3:0:0:0:
310,253,263729,1,0,2:0:0:0:
364,240,263798,1,2,2:0:0:0:
416,258,263866,1,0,2:0:0:0:
454,298,263934,53,4,2:0:0:0:
512,221,264070,1,2,2:3:0:0:
508,203,264138,1,0,2:0:0:0:
505,186,264207,1,0,2:0:0:0:
503,169,264275,1,0,2:0:0:0:
501,151,264343,1,0,2:0:0:0:
499,134,264411,1,0,2:0:0:0:
497,117,264480,1,2,2:0:0:0:
451,39,264616,1,2,2:3:0:0:
433,37,264684,1,0,2:0:0:0:
416,35,264752,1,2,2:0:0:0:
346,90,264889,1,2,2:3:0:0:
258,130,265025,85,4,2:0:0:0:
260,147,265093,1,0,2:0:0:0:
262,164,265161,1,0,2:0:0:0:
264,182,265229,1,0,2:0:0:0:
266,199,265298,1,0,2:0:0:0:
268,216,265366,1,0,2:0:0:0:
270,234,265434,1,0,2:0:0:0:
272,251,265502,1,0,2:0:0:0:
274,269,265570,1,2,2:0:0:0:
197,339,265707,1,0,2:0:0:0:
113,311,265843,1,2,2:3:0:0:
109,293,265911,1,0,2:0:0:0:
107,276,265979,1,2,2:0:0:0:
74,193,266116,21,4,2:0:0:0:
56,192,266184,1,0,2:0:0:0:
39,191,266252,1,0,2:0:0:0:
21,189,266320,1,0,2:0:0:0:
4,186,266388,1,2,2:0:0:0:
0,100,266525,1,0,2:0:0:0:
66,41,266661,1,2,2:3:0:0:
149,77,266798,1,0,2:0:0:0:
168,167,266934,1,2,2:0:0:0:
168,184,267002,1,0,2:0:0:0:
168,202,267070,1,0,2:0:0:0:
280,271,267207,1,2,2:3:0:0:
280,253,267275,1,0,2:0:0:0:
280,236,267343,1,0,2:0:0:0:
281,218,267411,1,0,2:0:0:0:
282,201,267479,1,0,2:0:0:0:
283,183,267548,1,0,2:0:0:0:
284,166,267616,1,0,2:0:0:0:
286,148,267684,1,0,2:0:0:0:
288,131,267752,1,2,2:0:0:0:
347,61,267888,1,2,2:3:0:0:
364,61,267957,1,0,2:0:0:0:
382,61,268025,1,2,2:0:0:0:
459,124,268161,1,0,2:0:0:0:
507,214,268297,21,4,2:0:0:0:
443,283,268434,1,2,2:3:0:0:
426,283,268502,1,0,2:0:0:0:
408,283,268570,1,2,2:0:0:0:
316,341,268706,1,2,2:3:0:0:
311,324,268775,1,0,2:0:0:0:
307,307,268843,1,0,2:0:0:0:
304,289,268911,1,0,2:0:0:0:
301,272,268979,1,0,2:0:0:0:
300,255,269048,1,0,2:0:0:0:
299,237,269116,1,2,2:0:0:0:
222,184,269252,1,0,2:0:0:0:
140,255,269388,85,4,2:0:0:0:
122,252,269457,1,0,2:0:0:0:
105,250,269525,1,0,2:0:0:0:
87,248,269593,1,0,2:0:0:0:
70,246,269661,1,2,2:0:0:0:
8,182,269797,1,2,2:3:0:0:
3,165,269866,1,0,2:0:0:0:
0,147,269934,1,2,2:0:0:0:
61,75,270070,1,2,2:3:0:0:
78,70,270139,1,0,2:0:0:0:
96,67,270206,1,2,2:0:0:0:
155,144,270343,1,0,2:0:0:0:
257,173,270479,21,4,2:0:0:0:
259,155,270548,1,0,2:0:0:0:
260,138,270615,1,0,2:0:0:0:
258,120,270684,1,0,2:0:0:0:
254,103,270752,1,2,3:0:0:0:
248,87,270820,1,0,2:0:0:0:
241,71,270888,1,0,2:0:0:0:
231,56,270957,1,0,2:0:0:0:
220,43,271024,1,2,2:3:0:0:
207,31,271093,1,0,2:0:0:0:
193,21,271161,1,0,2:0:0:0:
177,13,271229,1,0,2:0:0:0:
161,6,271297,1,2,2:3:0:0:
144,2,271366,1,0,2:0:0:0:
127,0,271434,1,2,2:0:0:0:
54,69,271570,1,2,3:0:0:0:
51,88,271639,1,0,2:0:0:0:
49,108,271706,1,0,2:0:0:0:
47,128,271775,1,0,2:0:0:0:
45,148,271843,1,2,2:3:0:0:
42,168,271911,1,0,2:0:0:0:
40,188,271979,1,0,2:0:0:0:
38,208,272048,1,0,2:0:0:0:
35,227,272115,1,2,2:3:0:0:
33,247,272184,1,0,2:0:0:0:
30,267,272252,1,0,2:0:0:0:
27,287,272320,1,0,2:0:0:0:
25,307,272388,1,2,2:3:0:0:
22,327,272457,1,0,2:0:0:0:
19,346,272524,1,2,2:0:0:0:
111,384,272661,5,4,2:0:0:0:
173,326,272797,1,2,2:0:0:0:
170,308,272866,1,0,2:0:0:0:
167,291,272934,1,0,2:0:0:0:
224,229,273070,1,0,2:0:0:0:
272,301,273206,1,2,2:0:0:0:
269,319,273275,1,0,2:0:0:0:
266,336,273343,1,0,2:0:0:0:
345,370,273479,1,0,2:0:0:0:
421,329,273615,1,0,2:0:0:0:
398,236,273752,101,2,2:0:0:0:
380,236,273820,1,0,2:0:0:0:
363,235,273888,1,0,2:0:0:0:
345,234,273957,1,0,2:0:0:0:
328,232,274025,1,0,2:0:0:0:
265,174,274161,1,2,2:0:0:0:
265,156,274230,1,0,2:0:0:0:
266,139,274297,1,0,2:0:0:0:
267,121,274366,1,0,2:0:0:0:
269,104,274434,1,0,2:0:0:0:
208,32,274570,1,0,2:0:0:0:
292,9,274706,1,0,2:0:0:0:
369,66,274843,5,2,2:0:0:0:
386,64,274911,1,0,2:0:0:0:
403,62,274979,1,0,2:0:0:0:
421,59,275048,1,0,2:0:0:0:
438,56,275115,1,0,2:0:0:0:
505,124,275252,1,0,2:0:0:0:
480,217,275388,1,0,2:0:0:0:
383,211,275525,1,0,2:0:0:0:
296,197,275661,1,2,2:0:0:0:
291,180,275730,1,0,2:0:0:0:
289,162,275797,1,0,2:0:0:0:
202,107,275934,101,0,2:0:0:0:
175,193,276070,1,2,2:0:0:0:
180,210,276139,1,0,2:0:0:0:
182,228,276206,1,0,2:0:0:0:
100,275,276343,1,0,2:0:0:0:
30,230,276479,1,2,2:0:0:0:
25,213,276548,1,0,2:0:0:0:
23,195,276616,1,0,2:0:0:0:
70,129,276752,1,2,2:0:0:0:
75,112,276821,1,0,2:0:0:0:
77,94,276888,1,0,2:0:0:0:
136,29,277025,5,4,2:0:0:0:
152,35,277093,1,0,2:0:0:0:
169,40,277161,1,0,2:0:0:0:
186,44,277230,1,0,2:0:0:0:
203,47,277297,1,0,2:0:0:0:
220,50,277366,1,0,2:0:0:0:
238,51,277434,1,0,2:0:0:0:
255,52,277502,1,0,2:0:0:0:
272,51,277570,1,0,2:0:0:0:
216,140,277706,1,2,2:0:0:0:
221,157,277775,1,0,2:0:0:0:
223,175,277843,1,0,2:0:0:0:
264,259,277979,1,0,2:0:0:0:
308,350,278116,101,2,2:0:0:0:
324,343,278184,1,0,2:0:0:0:
341,338,278252,1,0,2:0:0:0:
358,334,278320,1,0,2:0:0:0:
375,331,278388,1,0,2:0:0:0:
392,328,278457,1,0,2:0:0:0:
410,327,278525,1,0,2:0:0:0:
427,326,278593,1,0,2:0:0:0:
444,327,278661,1,0,2:0:0:0:
388,239,278797,1,2,2:0:0:0:
393,222,278866,1,0,2:0:0:0:
395,204,278934,1,0,2:0:0:0:
438,115,279070,1,0,2:0:0:0:
374,37,279207,5,4,2:0:0:0:
313,94,279343,1,2,2:0:0:0:
295,96,279411,1,0,2:0:0:0:
278,98,279479,1,0,2:0:0:0:
209,49,279616,1,2,2:0:0:0:
191,47,279684,1,0,2:0:0:0:
174,45,279752,1,0,2:0:0:0:
108,94,279888,1,2,2:0:0:0:
90,96,279957,1,0,2:0:0:0:
73,98,280025,1,0,2:0:0:0:
2,49,280161,1,0,2:0:0:0:
0,204,280297,101,4,2:0:0:0:
24,202,280366,1,0,2:0:0:0:
49,200,280434,1,0,2:0:0:0:
74,199,280502,1,0,2:0:0:0:
99,197,280570,1,0,2:0:0:0:
124,194,280638,1,0,2:0:0:0:
149,193,280707,1,0,2:0:0:0:
174,190,280775,1,0,2:0:0:0:
199,188,280843,1,0,2:0:0:0:
224,185,280911,1,0,2:0:0:0:
249,182,280979,1,0,2:0:0:0:
274,179,281048,1,0,2:0:0:0:
298,176,281116,1,0,2:0:0:0:
324,172,281184,1,0,2:0:0:0:
348,168,281252,1,0,2:0:0:0:
373,165,281320,1,0,2:0:0:0:
398,161,281388,5,4,2:0:0:0:
