osu file format v14

[General]
AudioFilename: audio.ogg
AudioLeadIn: 0
PreviewTime: 104116
Countdown: 0
SampleSet: Soft
StackLeniency: 0.7
Mode: 0
LetterboxInBreaks: 0
WidescreenStoryboard: 0

[Editor]
DistanceSpacing: 1.08
BeatDivisor: 4
GridSize: 32
TimelineZoom: 1.5

[Metadata]
Title:Crimsonic dimension
TitleUnicode:Crimsonic dimension
Artist:-45
ArtistUnicode:-45
Creator:Sanch-KK
Version:Phantasm
Source:東方怪綺談 ~ Mystic Square
Tags:aye1337 228 electronic instrumental yoshikawa45 touhou candybug Akito Yoshikawa trance gothic progressive D'va;;;;;;;;5 stamina deathstream rsi yuki ユキ th5 kaikidan Bizarre Romantic Story zun team shanghai alice 真紅の少女 ~ Crimson Dead!! maiden stage 4 featured artist fa mpg mappers guild mg
BeatmapID:4466556
BeatmapSetID:2125044

[Difficulty]
HPDrainRate:5
CircleSize:4
OverallDifficulty:8
ApproachRate:8.5
SliderMultiplier:1.4
SliderTickRate:1

[Events]
//Background and Video events
0,0,"maxresdefault.jpg",0,0
//Break Periods
//Storyboard Layer 0 (Background)
//Storyboard Layer 1 (Fail)
//Storyboard Layer 2 (Pass)
//Storyboard Layer 3 (Foreground)
//Storyboard Layer 4 (Overlay)
//Storyboard Sound Samples

[TimingPoints]
15695,394.736842105263,4,2,0,75,1,0
28326,-100,4,2,0,80,0,0
78852,-100,4,2,0,85,0,0
104116,-100,4,2,0,80,0,0
154642,-100,4,2,0,85,0,0
180102,-100,4,2,0,80,0,0
205168,-100,4,2,0,90,0,0
230629,-100,4,2,0,80,0,0
280958,-100,4,2,0,85,0,0
306221,-100,4,2,0,90,0,0
331484,-100,4,2,0,95,0,0
356747,-100,4,2,0,100,0,0
382208,-100,4,2,0,75,0,0

[Colours]
Combo1 : 177,98,191
Combo2 : 65,216,80
Combo3 : 206,66,125
Combo4 : 119,75,233
Combo5 : 242,207,142
Combo6 : 249,189,218
Combo7 : 210,210,210
Combo8 : 175,154,172

[HitObjects]
55,62,15694,85,4,2:0:0:0:
72,64,15793,1,0,2:0:0:0:
88,71,15892,1,0,2:0:0:0:
101,83,15991,1,0,2:0:0:0:
110,98,16089,1,0,2:0:0:0:
170,156,16287,1,2,2:0:0:0:
187,155,16385,1,0,2:0:0:0:
204,150,16484,1,0,2:0:0:0:
218,141,16583,1,0,2:0:0:0:
230,128,16681,1,0,2:0:0:0:
277,61,16879,1,2,2:0:0:0:
291,52,16977,1,0,2:0:0:0:
308,48,17076,1,0,2:0:0:0:
388,94,17273,5,2,2:3:0:0:
397,108,17372,1,0,2:0:0:0:
401,125,17471,1,0,2:0:0:0:
398,142,17570,1,0,2:0:0:0:
390,158,17668,1,0,2:0:0:0:
347,227,17866,1,2,2:0:0:0:
349,244,17964,1,0,2:0:0:0:
357,259,18063,1,0,2:0:0:0:
371,270,18162,1,0,2:0:0:0:
387,276,18260,1,0,2:0:0:0:
481,305,18458,1,2,2:0:0:0:
483,322,18556,1,0,2:0:0:0:
479,338,18655,1,0,2:0:0:0:
407,370,18852,101,2,2:3:0:0:
389,367,18951,1,0,2:0:0:0:
373,360,19050,1,0,2:0:0:0:
360,348,19148,1,0,2:0:0:0:
351,333,19247,1,0,2:0:0:0:
292,276,19445,1,2,2:0:0:0:
275,277,19543,1,0,2:0:0:0:
258,282,19642,1,0,2:0:0:0:
244,291,19741,1,0,2:0:0:0:
232,304,19839,1,0,2:0:0:0:
185,371,20037,1,2,2:0:0:0:
171,380,20135,1,0,2:0:0:0:
154,384,20234,1,0,2:0:0:0:
74,338,20431,5,2,2:3:0:0:
65,324,20530,1,0,2:0:0:0:
61,307,20629,1,0,2:0:0:0:
64,290,20727,1,0,2:0:0:0:
72,274,20826,1,0,2:0:0:0:
115,205,21023,1,2,2:0:0:0:
113,188,21122,1,0,2:0:0:0:
105,173,21221,1,0,2:0:0:0:
91,162,21319,1,0,2:0:0:0:
75,156,21418,1,0,2:0:0:0:
6,105,21616,1,2,2:0:0:0:
4,88,21714,1,0,2:0:0:0:
8,72,21813,1,0,2:0:0:0:
84,18,22010,101,2,2:3:0:0:
94,32,22109,1,0,2:0:0:0:
102,47,22208,1,0,2:0:0:0:
107,64,22306,1,0,2:0:0:0:
110,81,22405,1,0,2:0:0:0:
74,164,22602,1,2,2:0:0:0:
57,168,22701,1,0,2:0:0:0:
41,175,22800,1,0,2:0:0:0:
27,185,22898,1,0,2:0:0:0:
16,199,22997,1,0,2:0:0:0:
17,287,23194,1,2,2:0:0:0:
28,299,23293,1,0,2:0:0:0:
45,305,23392,1,0,2:0:0:0:
143,335,23589,5,2,2:3:0:0:
157,325,23688,1,0,2:0:0:0:
168,312,23787,1,0,2:0:0:0:
208,217,23984,1,2,2:0:0:0:
220,205,24083,1,0,2:0:0:0:
235,195,24181,1,0,2:0:0:0:
250,187,24280,1,0,2:0:0:0:
267,182,24379,1,0,2:0:0:0:
352,230,24576,1,2,2:0:0:0:
363,243,24675,1,0,2:0:0:0:
376,254,24773,1,0,2:0:0:0:
392,261,24872,1,0,2:0:0:0:
409,265,24971,1,0,2:0:0:0:
478,156,25168,101,2,2:3:0:0:
464,166,25267,1,0,2:0:0:0:
449,174,25366,1,0,2:0:0:0:
432,179,25464,1,0,2:0:0:0:
415,182,25563,1,0,2:0:0:0:
332,146,25760,1,2,2:0:0:0:
328,129,25859,1,0,2:0:0:0:
321,113,25958,1,0,2:0:0:0:
311,99,26056,1,0,2:0:0:0:
297,88,26155,1,0,2:0:0:0:
209,89,26352,1,2,2:0:0:0:
197,100,26451,1,0,2:0:0:0:
191,117,26550,1,0,2:0:0:0:
161,215,26747,5,2,2:3:0:0:
171,229,26846,1,0,2:0:0:0:
184,240,26944,1,0,2:0:0:0:
276,229,27142,1,0,2:0:0:0:
327,305,27339,1,0,2:0:0:0:
416,342,27537,1,2,2:0:0:0:
443,327,27635,1,0,2:0:0:0:
472,314,27734,1,0,2:0:0:0:
459,284,27833,1,0,2:0:0:0:
443,256,27931,1,0,2:0:0:0:
471,243,28030,1,0,2:0:0:0:
500,231,28129,1,0,2:0:0:0:
489,201,28227,1,0,2:0:0:0:
476,171,28326,101,4,2:0:0:0:
484,79,28523,1,2,2:0:0:0:
464,86,28622,1,0,2:0:0:0:
445,93,28721,1,0,2:0:0:0:
426,99,28819,1,0,2:0:0:0:
406,105,28918,1,0,2:0:0:0:
386,108,29017,1,0,2:0:0:0:
366,110,29116,1,0,2:0:0:0:
306,49,29313,1,2,2:0:0:0:
285,43,29412,1,0,2:0:0:0:
264,39,29510,1,0,2:0:0:0:
243,34,29609,1,0,2:0:0:0:
223,32,29708,1,0,2:0:0:0:
134,10,29905,85,2,2:3:0:0:
128,27,30004,1,0,2:0:0:0:
119,44,30102,1,0,2:0:0:0:
107,60,30201,1,0,2:0:0:0:
93,73,30300,1,0,2:0:0:0:
78,83,30398,1,0,2:0:0:0:
59,89,30497,1,0,2:0:0:0:
41,92,30596,1,0,2:0:0:0:
21,91,30694,1,0,2:0:0:0:
0,177,30892,1,2,2:0:0:0:
19,184,30991,1,0,2:0:0:0:
36,196,31089,1,0,2:0:0:0:
50,210,31188,1,0,2:0:0:0:
60,229,31287,1,0,2:0:0:0:
118,319,31484,21,2,2:3:0:0:
122,298,31583,1,0,2:0:0:0:
131,279,31681,1,0,2:0:0:0:
143,261,31780,1,0,2:0:0:0:
157,246,31879,1,0,2:0:0:0:
175,233,31977,1,0,2:0:0:0:
193,225,32076,1,0,2:0:0:0:
324,232,32273,1,2,2:0:0:0:
311,214,32372,1,0,2:0:0:0:
301,196,32471,1,0,2:0:0:0:
294,177,32569,1,0,2:0:0:0:
288,156,32668,1,0,2:0:0:0:
285,135,32767,1,0,2:0:0:0:
285,114,32866,1,0,2:0:0:0:
308,36,33063,85,2,2:3:0:0:
325,36,33162,1,0,2:0:0:0:
342,37,33260,1,0,2:0:0:0:
359,41,33359,1,0,2:0:0:0:
376,47,33458,1,2,2:3:0:0:
392,55,33556,1,0,2:0:0:0:
407,64,33655,1,0,2:0:0:0:
420,75,33754,1,0,2:0:0:0:
433,87,33852,1,2,2:3:0:0:
444,101,33951,1,0,2:0:0:0:
453,115,34050,1,0,2:0:0:0:
461,131,34148,1,0,2:0:0:0:
467,147,34247,1,2,2:3:0:0:
471,165,34346,1,0,2:0:0:0:
473,182,34444,1,0,2:0:0:0:
473,199,34543,1,0,2:0:0:0:
471,217,34642,21,2,2:0:0:0:
442,298,34839,1,0,2:0:0:0:
443,316,34938,1,0,2:0:0:0:
449,332,35037,1,2,2:0:0:0:
367,356,35234,1,0,2:0:0:0:
355,370,35333,1,0,2:0:0:0:
348,384,35431,1,2,2:0:0:0:
282,328,35629,1,0,2:0:0:0:
264,330,35727,1,0,2:0:0:0:
249,335,35826,1,2,2:0:0:0:
231,252,36023,1,0,2:0:0:0:
217,241,36122,1,0,2:0:0:0:
203,234,36221,1,2,2:3:0:0:
194,249,36319,1,0,2:0:0:0:
186,265,36418,1,0,2:0:0:0:
175,279,36517,1,0,2:0:0:0:
162,291,36616,1,0,2:0:0:0:
148,300,36714,1,0,2:0:0:0:
131,306,36813,1,0,2:0:0:0:
114,309,36912,1,0,2:0:0:0:
95,306,37010,85,0,2:0:0:0:
103,290,37109,1,0,2:0:0:0:
110,274,37208,1,0,2:0:0:0:
115,257,37306,1,0,2:0:0:0:
119,240,37405,1,2,2:0:0:0:
122,223,37504,1,0,2:0:0:0:
123,206,37602,1,0,2:0:0:0:
122,188,37701,1,0,2:0:0:0:
120,171,37800,21,4,2:0:0:0:
49,127,37997,1,0,2:0:0:0:
48,109,38096,1,0,2:0:0:0:
42,93,38194,1,2,2:0:0:0:
124,69,38392,1,0,2:0:0:0:
136,55,38491,1,0,2:0:0:0:
143,41,38589,1,2,2:0:0:0:
209,97,38787,1,0,2:0:0:0:
227,95,38885,1,0,2:0:0:0:
242,90,38984,1,2,2:0:0:0:
278,168,39181,1,0,2:0:0:0:
247,256,39379,85,2,2:3:0:0:
259,270,39477,1,0,2:0:0:0:
271,282,39576,1,0,2:0:0:0:
284,294,39675,1,0,2:0:0:0:
298,305,39773,1,2,2:0:0:0:
313,314,39872,1,0,2:0:0:0:
328,322,39971,1,0,2:0:0:0:
344,329,40069,1,0,2:0:0:0:
361,335,40168,1,2,2:0:0:0:
378,340,40267,1,0,2:0:0:0:
395,343,40366,1,0,2:0:0:0:
412,345,40464,1,0,2:0:0:0:
430,345,40563,1,2,2:0:0:0:
447,344,40662,1,0,2:0:0:0:
465,342,40760,1,0,2:0:0:0:
482,339,40859,1,0,2:0:0:0:
498,334,40958,21,2,2:3:0:0:
488,209,41155,1,0,2:0:0:0:
489,230,41254,1,0,2:0:0:0:
496,249,41352,1,2,2:0:0:0:
398,278,41550,1,0,2:0:0:0:
383,295,41648,1,0,2:0:0:0:
375,312,41747,1,2,2:0:0:0:
296,245,41944,1,0,2:0:0:0:
274,247,42043,1,0,2:0:0:0:
256,253,42142,1,2,2:0:0:0:
234,153,42339,1,0,2:0:0:0:
217,140,42438,1,0,2:0:0:0:
201,132,42537,1,2,2:0:0:0:
177,36,42734,1,0,2:0:0:0:
168,47,42833,1,0,2:0:0:0:
158,58,42931,1,2,2:3:0:0:
147,67,43030,1,0,2:0:0:0:
135,76,43129,1,0,2:0:0:0:
122,83,43227,1,0,2:0:0:0:
109,89,43326,1,2,2:0:0:0:
95,94,43425,1,0,2:0:0:0:
81,97,43523,1,0,2:0:0:0:
67,99,43622,1,0,2:0:0:0:
52,99,43721,1,2,2:0:0:0:
37,98,43819,1,0,2:0:0:0:
23,96,43918,1,0,2:0:0:0:
0,190,44116,85,2,2:3:0:0:
9,202,44214,1,0,2:0:0:0:
19,213,44313,1,0,2:0:0:0:
30,222,44412,1,0,2:0:0:0:
42,231,44510,1,2,2:0:0:0:
55,238,44609,1,0,2:0:0:0:
68,244,44708,1,0,2:0:0:0:
82,249,44806,1,0,2:0:0:0:
96,252,44905,1,2,2:0:0:0:
110,254,45004,1,0,2:0:0:0:
125,254,45102,1,0,2:0:0:0:
140,253,45201,1,0,2:0:0:0:
154,251,45300,1,2,2:0:0:0:
247,235,45497,1,0,2:0:0:0:
287,150,45694,21,2,2:3:0:0:
286,132,45793,1,0,2:0:0:0:
286,115,45892,1,0,2:0:0:0:
285,97,45991,1,0,2:0:0:0:
285,80,46089,1,2,2:0:0:0:
284,62,46188,1,0,2:0:0:0:
284,45,46287,1,0,2:0:0:0:
283,27,46385,1,0,2:0:0:0:
282,10,46484,1,2,2:0:0:0:
378,33,46681,1,0,2:0:0:0:
396,32,46780,1,0,2:0:0:0:
412,26,46879,1,2,2:0:0:0:
436,108,47076,1,0,2:0:0:0:
450,120,47175,1,0,2:0:0:0:
464,127,47273,1,2,2:3:0:0:
408,193,47471,1,0,2:0:0:0:
410,211,47569,1,0,2:0:0:0:
415,226,47668,1,2,2:0:0:0:
332,244,47866,1,0,2:0:0:0:
321,258,47964,1,0,2:0:0:0:
314,272,48063,1,2,2:0:0:0:
228,239,48260,1,0,2:0:0:0:
210,240,48359,1,0,2:0:0:0:
194,246,48458,1,2,2:0:0:0:
170,164,48655,1,0,2:0:0:0:
156,152,48754,1,0,2:0:0:0:
142,145,48852,1,2,2:0:0:0:
198,79,49050,1,0,2:0:0:0:
196,61,49148,1,0,2:0:0:0:
191,46,49247,1,2,2:0:0:0:
274,28,49444,1,0,2:0:0:0:
285,14,49543,1,0,2:0:0:0:
292,0,49642,1,2,2:0:0:0:
366,45,49839,1,2,2:0:0:0:
381,52,49938,1,0,2:0:0:0:
398,58,50037,1,0,2:0:0:0:
415,62,50135,1,0,2:0:0:0:
432,63,50234,1,0,2:0:0:0:
512,145,50431,85,2,2:3:0:0:
494,148,50530,1,0,2:0:0:0:
478,154,50629,1,0,2:0:0:0:
461,160,50727,1,0,2:0:0:0:
446,168,50826,1,0,2:0:0:0:
423,272,51023,1,0,2:0:0:0:
424,290,51122,1,0,2:0:0:0:
430,306,51221,1,2,2:0:0:0:
348,330,51418,1,0,2:0:0:0:
336,344,51517,1,0,2:0:0:0:
329,358,51616,1,2,2:0:0:0:
263,302,51813,1,0,2:0:0:0:
245,304,51912,1,0,2:0:0:0:
230,309,52010,1,2,2:0:0:0:
212,226,52208,1,0,2:0:0:0:
198,215,52306,1,0,2:0:0:0:
184,208,52405,1,2,2:0:0:0:
229,126,52602,1,0,2:0:0:0:
226,108,52701,1,0,2:0:0:0:
221,93,52800,2,0,L|171:81,3,35,2|0|0|0,2:0|2:0|2:0|2:0,2:0:0:0:
142,28,53194,2,0,L|103:16,3,35,0|0|0|0,2:0|2:0|2:0|2:0,2:0:0:0:
37,51,53589,37,4,0:2:0:0:
33,59,53688,1,0,2:0:0:0:
31,67,53787,1,0,2:0:0:0:
30,76,53885,1,0,2:0:0:0:
30,85,53984,1,2,2:0:0:0:
30,93,54083,1,0,2:0:0:0:
32,102,54181,1,0,2:0:0:0:
34,110,54280,1,0,2:0:0:0:
38,118,54379,1,2,2:0:0:0:
42,126,54477,1,0,2:0:0:0:
47,133,54576,1,0,2:0:0:0:
53,139,54675,1,0,2:0:0:0:
60,145,54773,1,2,2:3:0:0:
87,137,54872,1,0,2:0:0:0:
114,133,54971,1,0,2:0:0:0:
129,155,55069,1,0,2:0:0:0:
144,177,55168,5,8,3:0:0:0:
150,176,55267,1,0,2:0:0:0:
157,176,55366,1,0,2:0:0:0:
163,177,55464,1,0,2:0:0:0:
170,178,55563,1,2,2:0:0:0:
176,180,55662,1,0,2:0:0:0:
182,183,55760,1,0,2:0:0:0:
188,186,55859,1,0,2:0:0:0:
193,189,55958,1,2,2:0:0:0:
198,193,56056,1,0,2:0:0:0:
203,198,56155,1,0,2:0:0:0:
208,203,56254,1,0,2:0:0:0:
212,208,56352,1,2,2:3:0:0:
193,229,56451,1,0,2:0:0:0:
169,244,56550,1,0,2:0:0:0:
141,239,56648,1,0,2:0:0:0:
117,233,56747,101,8,3:0:0:0:
115,239,56846,1,0,2:0:0:0:
115,245,56944,1,0,2:0:0:0:
115,252,57043,1,0,2:0:0:0:
116,259,57142,1,2,2:0:0:0:
118,265,57241,1,0,2:0:0:0:
120,271,57339,1,0,2:0:0:0:
124,277,57438,1,0,2:0:0:0:
128,282,57537,1,2,2:0:0:0:
132,287,57635,1,0,2:0:0:0:
137,291,57734,1,0,2:0:0:0:
142,295,57833,1,0,2:0:0:0:
148,298,57931,1,2,2:3:0:0:
170,280,58030,1,0,2:0:0:0:
192,263,58129,1,0,2:0:0:0:
215,278,58227,1,0,2:0:0:0:
243,295,58326,5,8,3:0:0:0:
251,292,58425,1,0,2:0:0:0:
260,291,58523,1,0,2:0:0:0:
268,291,58622,1,0,2:0:0:0:
277,291,58721,1,2,2:0:0:0:
286,293,58819,1,0,2:0:0:0:
294,296,58918,1,0,2:0:0:0:
302,300,59017,1,0,2:0:0:0:
309,304,59116,1,2,2:0:0:0:
316,310,59214,1,0,2:0:0:0:
322,316,59313,1,0,2:0:0:0:
327,323,59412,1,0,2:0:0:0:
331,331,59510,1,2,2:3:0:0:
404,384,59708,1,2,2:0:0:0:
475,333,59905,101,4,0:2:0:0:
479,325,60004,1,0,2:0:0:0:
481,317,60103,1,0,2:0:0:0:
482,308,60201,1,0,2:0:0:0:
482,299,60300,1,2,2:0:0:0:
482,291,60399,1,0,2:0:0:0:
480,282,60497,1,0,2:0:0:0:
478,274,60596,1,0,2:0:0:0:
474,266,60695,1,2,2:0:0:0:
470,258,60793,1,0,2:0:0:0:
465,251,60892,1,0,2:0:0:0:
459,245,60991,1,0,2:0:0:0:
452,239,61089,1,2,2:3:0:0:
425,247,61188,1,0,2:0:0:0:
398,251,61287,1,0,2:0:0:0:
383,229,61385,1,0,2:0:0:0:
368,207,61484,5,8,3:0:0:0:
362,208,61583,1,0,2:0:0:0:
355,208,61682,1,0,2:0:0:0:
349,207,61780,1,0,2:0:0:0:
342,206,61879,1,2,2:0:0:0:
336,204,61978,1,0,2:0:0:0:
330,201,62076,1,0,2:0:0:0:
324,198,62175,1,0,2:0:0:0:
319,195,62274,1,2,2:0:0:0:
314,191,62372,1,0,2:0:0:0:
309,186,62471,1,0,2:0:0:0:
304,181,62570,1,0,2:0:0:0:
300,176,62668,1,2,2:3:0:0:
319,155,62767,1,0,2:0:0:0:
343,140,62866,1,0,2:0:0:0:
371,145,62964,1,0,2:0:0:0:
395,151,63063,101,8,3:0:0:0:
397,145,63162,1,0,2:0:0:0:
397,139,63260,1,0,2:0:0:0:
397,132,63359,1,0,2:0:0:0:
396,125,63458,1,2,2:0:0:0:
394,119,63557,1,0,2:0:0:0:
392,113,63655,1,0,2:0:0:0:
388,107,63754,1,0,2:0:0:0:
384,102,63853,1,2,2:0:0:0:
380,97,63951,1,0,2:0:0:0:
375,93,64050,1,0,2:0:0:0:
370,89,64149,1,0,2:0:0:0:
364,86,64247,1,2,2:3:0:0:
341,102,64346,1,0,2:0:0:0:
319,119,64445,1,0,2:0:0:0:
295,104,64543,1,0,2:0:0:0:
269,89,64642,5,8,3:0:0:0:
261,92,64741,1,0,2:0:0:0:
252,93,64839,1,0,2:0:0:0:
244,93,64938,1,0,2:0:0:0:
235,93,65037,1,2,2:0:0:0:
226,91,65135,1,0,2:0:0:0:
218,88,65234,1,0,2:0:0:0:
210,84,65333,1,0,2:0:0:0:
203,80,65432,1,2,2:0:0:0:
196,74,65530,1,0,2:0:0:0:
190,68,65629,1,0,2:0:0:0:
185,61,65728,1,0,2:0:0:0:
181,53,65826,1,2,2:3:0:0:
108,0,66024,1,2,2:0:0:0:
81,105,66221,101,4,0:0:0:0:
89,102,66319,1,0,2:0:0:0:
98,101,66418,1,0,2:0:0:0:
106,99,66517,1,0,2:0:0:0:
115,97,66616,1,2,2:0:0:0:
123,95,66714,1,0,2:0:0:0:
132,93,66813,1,0,2:0:0:0:
140,92,66912,1,0,2:0:0:0:
149,90,67010,1,2,2:0:0:0:
158,89,67109,1,0,2:0:0:0:
166,87,67208,1,0,2:0:0:0:
175,86,67306,1,0,2:0:0:0:
184,85,67405,1,2,2:3:0:0:
182,113,67504,1,0,2:0:0:0:
182,140,67602,1,0,2:0:0:0:
209,134,67701,1,0,2:0:0:0:
237,132,67800,5,8,3:0:0:0:
234,140,67898,1,0,2:0:0:0:
231,148,67997,1,0,2:0:0:0:
229,157,68096,1,0,2:0:0:0:
227,165,68194,1,2,2:0:0:0:
225,174,68293,1,0,2:0:0:0:
223,182,68392,1,0,2:0:0:0:
221,191,68491,1,0,2:0:0:0:
219,199,68589,1,2,2:0:0:0:
218,208,68688,1,0,2:0:0:0:
216,217,68787,1,0,2:0:0:0:
215,225,68885,1,0,2:0:0:0:
214,234,68984,1,2,2:3:0:0:
187,225,69083,1,0,2:0:0:0:
159,218,69181,1,0,2:0:0:0:
164,245,69280,1,0,2:0:0:0:
167,272,69379,101,8,3:0:0:0:
158,274,69477,1,0,2:0:0:0:
149,275,69576,1,0,2:0:0:0:
141,277,69675,1,0,2:0:0:0:
132,279,69773,1,2,2:0:0:0:
124,281,69872,1,0,2:0:0:0:
115,283,69971,1,0,2:0:0:0:
107,284,70069,1,0,2:0:0:0:
98,286,70168,1,2,2:0:0:0:
89,287,70267,1,0,2:0:0:0:
81,289,70366,1,0,2:0:0:0:
72,290,70464,1,0,2:0:0:0:
63,291,70563,1,2,2:3:0:0:
75,265,70662,1,0,2:0:0:0:
86,239,70760,1,0,2:0:0:0:
57,236,70859,1,0,2:0:0:0:
28,237,70958,5,8,3:0:0:0:
30,228,71056,1,0,2:0:0:0:
33,220,71155,1,0,2:0:0:0:
35,211,71254,1,0,2:0:0:0:
37,203,71352,1,2,2:0:0:0:
39,194,71451,1,0,2:0:0:0:
41,186,71550,1,0,2:0:0:0:
43,177,71648,1,0,2:0:0:0:
45,169,71747,1,2,2:0:0:0:
46,160,71846,1,0,2:0:0:0:
48,151,71944,1,0,2:0:0:0:
49,143,72043,1,0,2:0:0:0:
50,134,72142,1,2,2:3:0:0:
144,97,72339,1,2,2:0:0:0:
185,9,72537,101,4,0:0:0:0:
193,5,72635,1,0,2:0:0:0:
201,3,72734,1,0,2:0:0:0:
210,1,72833,1,0,2:0:0:0:
218,0,72931,1,2,2:0:0:0:
227,1,73030,1,0,2:0:0:0:
236,2,73129,1,0,2:0:0:0:
244,4,73227,1,0,2:0:0:0:
253,7,73326,1,2,2:0:0:0:
260,10,73425,1,0,2:0:0:0:
268,15,73523,1,0,2:0:0:0:
275,20,73622,1,0,2:0:0:0:
281,26,73721,1,2,2:3:0:0:
258,42,73819,1,0,2:0:0:0:
242,65,73918,1,0,2:0:0:0:
248,92,74017,1,0,2:0:0:0:
257,118,74116,5,8,3:0:0:0:
253,126,74214,1,0,2:0:0:0:
251,134,74313,1,0,2:0:0:0:
250,143,74412,1,0,2:0:0:0:
251,152,74510,1,2,2:0:0:0:
252,160,74609,1,0,2:0:0:0:
254,169,74708,1,0,2:0:0:0:
257,177,74806,1,0,2:0:0:0:
261,185,74905,1,2,2:0:0:0:
266,192,75004,1,0,2:0:0:0:
272,198,75102,1,0,2:0:0:0:
278,204,75201,1,0,2:0:0:0:
286,209,75300,1,2,2:3:0:0:
296,183,75398,1,0,2:0:0:0:
313,161,75497,1,0,2:0:0:0:
338,172,75596,1,0,2:0:0:0:
362,184,75694,101,8,3:0:0:0:
363,175,75793,1,0,2:0:0:0:
364,166,75892,1,0,2:0:0:0:
367,158,75991,1,0,2:0:0:0:
370,150,76089,1,2,2:0:0:0:
373,142,76188,1,0,2:0:0:0:
378,134,76287,1,0,2:0:0:0:
383,127,76385,1,0,2:0:0:0:
388,120,76484,1,2,2:0:0:0:
394,114,76583,1,0,2:0:0:0:
401,108,76681,1,0,2:0:0:0:
408,103,76780,1,0,2:0:0:0:
415,98,76879,1,2,2:3:0:0:
398,75,76977,1,0,2:0:0:0:
382,51,77076,1,0,2:0:0:0:
405,36,77175,1,0,2:0:0:0:
430,24,77273,5,8,3:0:0:0:
421,23,77372,1,0,2:0:0:0:
412,23,77471,1,0,2:0:0:0:
403,23,77569,1,0,2:0:0:0:
395,22,77668,1,2,2:0:0:0:
386,22,77767,1,0,2:0:0:0:
377,21,77866,1,0,2:0:0:0:
368,20,77964,1,0,2:0:0:0:
360,19,78063,2,0,L|371:59,3,35,2|0|0|0,2:0|2:0|2:0|2:0,2:0:0:0:
287,2,78458,2,0,L|262:-1,6,17.5,2|0|0|0|0|0|0,0:3|0:0|0:0|0:0|0:0|0:0|0:0,0:0:0:0:
244,79,78852,69,4,1:2:0:0:
244,96,78951,1,0,2:0:0:0:
247,113,79050,1,0,2:0:0:0:
253,130,79148,1,0,2:0:0:0:
260,146,79247,1,2,2:3:0:0:
269,161,79346,1,0,2:0:0:0:
280,174,79444,1,0,2:0:0:0:
292,187,79543,1,0,2:0:0:0:
306,197,79642,1,8,3:0:0:0:
321,206,79741,1,0,2:0:0:0:
337,213,79839,1,0,2:0:0:0:
354,218,79938,1,0,2:0:0:0:
372,220,80037,1,2,2:3:0:0:
384,191,80135,1,0,2:0:0:0:
399,163,80234,1,0,2:0:0:0:
418,187,80333,1,0,2:0:0:0:
440,209,80431,101,8,3:0:0:0:
424,211,80530,1,0,2:0:0:0:
410,216,80629,1,0,2:0:0:0:
395,221,80727,1,0,2:0:0:0:
382,228,80826,1,2,2:3:0:0:
368,235,80925,1,0,2:0:0:0:
356,244,81023,1,0,2:0:0:0:
344,254,81122,1,0,2:0:0:0:
334,265,81221,1,8,3:0:0:0:
324,277,81319,1,0,2:0:0:0:
315,290,81418,1,0,2:0:0:0:
307,303,81517,1,0,2:0:0:0:
301,317,81616,1,2,2:3:0:0:
325,336,81714,1,0,2:0:0:0:
345,359,81813,1,0,2:0:0:0:
315,369,81912,1,0,2:0:0:0:
288,376,82010,5,8,3:0:0:0:
287,358,82109,1,0,2:0:0:0:
284,341,82208,1,0,2:0:0:0:
278,324,82306,1,0,2:0:0:0:
271,308,82405,1,2,2:3:0:0:
262,293,82504,1,0,2:0:0:0:
251,280,82602,1,0,2:0:0:0:
239,267,82701,1,0,2:0:0:0:
225,257,82800,1,8,3:0:0:0:
210,248,82898,1,0,2:0:0:0:
194,241,82997,1,0,2:0:0:0:
177,236,83096,1,0,2:0:0:0:
159,234,83194,1,2,2:3:0:0:
146,263,83293,1,0,2:0:0:0:
138,293,83392,1,0,2:0:0:0:
115,270,83491,1,0,2:0:0:0:
92,246,83589,101,8,3:0:0:0:
107,243,83688,1,0,2:0:0:0:
121,238,83787,1,0,2:0:0:0:
136,233,83885,1,0,2:0:0:0:
149,226,83984,1,2,2:3:0:0:
163,219,84083,1,0,2:0:0:0:
175,210,84181,1,0,2:0:0:0:
187,200,84280,1,0,2:0:0:0:
197,189,84379,1,8,3:0:0:0:
207,177,84477,1,0,2:0:0:0:
216,164,84576,1,0,2:0:0:0:
224,151,84675,1,0,2:0:0:0:
230,137,84773,1,2,2:3:0:0:
207,114,84872,1,0,2:0:0:0:
189,87,84971,1,0,2:0:0:0:
219,79,85069,1,0,2:0:0:0:
250,73,85168,5,4,0:0:0:0:
221,52,85267,1,0,2:0:0:0:
189,39,85366,1,0,2:0:0:0:
155,33,85464,1,0,2:0:0:0:
120,34,85563,1,2,2:0:0:0:
40,81,85760,1,2,2:3:0:0:
19,109,85859,1,0,2:0:0:0:
6,141,85958,1,0,2:0:0:0:
0,175,86056,1,0,2:0:0:0:
1,210,86155,1,2,2:0:0:0:
56,271,86352,1,2,2:3:0:0:
88,284,86451,1,0,2:0:0:0:
122,289,86550,1,2,2:0:0:0:
206,260,86747,101,8,3:0:0:0:
220,228,86846,1,0,2:0:0:0:
231,195,86944,1,0,2:0:0:0:
238,160,87043,1,0,2:0:0:0:
240,125,87142,1,2,2:0:0:0:
300,65,87339,1,2,2:3:0:0:
334,58,87438,1,0,2:0:0:0:
369,54,87537,1,0,2:0:0:0:
404,51,87635,1,0,2:0:0:0:
439,50,87734,1,2,2:0:0:0:
498,114,87931,1,2,2:3:0:0:
503,148,88030,1,0,2:0:0:0:
501,183,88129,1,2,2:0:0:0:
442,245,88326,5,8,3:0:0:0:
443,279,88425,1,0,2:0:0:0:
446,314,88523,1,0,2:0:0:0:
449,349,88622,1,0,2:0:0:0:
454,384,88721,1,2,0:0:0:0:
358,374,88918,1,2,2:3:0:0:
322,375,89017,1,0,2:0:0:0:
287,374,89116,1,0,2:0:0:0:
253,370,89214,1,0,2:0:0:0:
218,363,89313,1,2,2:0:0:0:
138,327,89510,1,2,2:3:0:0:
141,292,89609,1,0,2:0:0:0:
149,258,89708,1,2,2:0:0:0:
82,201,89905,101,8,3:0:0:0:
70,167,90004,1,0,2:0:0:0:
63,133,90102,1,0,2:0:0:0:
60,98,90201,1,0,2:0:0:0:
62,63,90300,1,2,2:0:0:0:
156,24,90497,1,2,2:3:0:0:
168,58,90596,1,0,2:0:0:0:
175,92,90694,1,0,2:0:0:0:
178,127,90793,1,0,2:0:0:0:
176,162,90892,1,2,2:0:0:0:
234,232,91089,1,2,2:3:0:0:
268,238,91188,1,0,2:0:0:0:
302,244,91287,1,0,2:0:0:0:
337,248,91385,1,0,2:0:0:0:
372,252,91484,5,4,3:2:0:0:
366,235,91583,1,0,2:0:0:0:
362,218,91681,1,0,2:0:0:0:
360,201,91780,1,0,2:0:0:0:
361,183,91879,1,2,2:0:0:0:
365,166,91977,1,0,2:0:0:0:
370,149,92076,1,0,2:0:0:0:
378,134,92175,1,0,2:0:0:0:
388,119,92273,1,8,3:0:0:0:
400,106,92372,1,0,2:0:0:0:
413,95,92471,1,0,2:0:0:0:
427,85,92569,1,0,2:0:0:0:
443,78,92668,1,2,2:0:0:0:
457,50,92767,1,0,2:0:0:0:
474,23,92866,1,0,2:0:0:0:
488,42,92964,1,0,2:0:0:0:
512,71,93063,101,8,3:0:0:0:
507,87,93162,1,0,2:0:0:0:
503,104,93260,1,0,2:0:0:0:
499,121,93359,1,0,2:0:0:0:
494,138,93458,1,2,2:0:0:0:
491,155,93556,1,0,2:0:0:0:
487,173,93655,1,0,2:0:0:0:
483,190,93754,1,0,2:0:0:0:
480,207,93852,1,8,3:0:0:0:
476,224,93951,1,0,2:0:0:0:
473,241,94050,1,0,2:0:0:0:
470,258,94148,1,0,2:0:0:0:
467,276,94247,1,2,2:0:0:0:
490,296,94346,1,0,2:0:0:0:
510,319,94444,1,0,2:0:0:0:
481,333,94543,1,0,2:0:0:0:
456,345,94642,5,8,3:0:0:0:
439,349,94741,1,0,2:0:0:0:
422,353,94839,1,0,2:0:0:0:
405,357,94938,1,0,2:0:0:0:
387,361,95037,1,2,2:0:0:0:
370,364,95135,1,0,2:0:0:0:
353,367,95234,1,0,2:0:0:0:
336,369,95333,1,0,2:0:0:0:
318,371,95431,1,8,3:0:0:0:
301,373,95530,1,0,2:0:0:0:
283,375,95629,1,0,2:0:0:0:
266,376,95727,1,0,2:0:0:0:
248,377,95826,1,2,2:0:0:0:
231,349,95925,1,0,2:0:0:0:
215,321,96023,1,0,2:0:0:0:
197,347,96122,1,0,2:0:0:0:
179,376,96221,101,8,3:0:0:0:
181,358,96319,1,0,2:0:0:0:
182,341,96418,1,0,2:0:0:0:
180,323,96517,1,0,2:0:0:0:
176,306,96616,1,2,2:0:0:0:
169,290,96714,1,0,2:0:0:0:
161,275,96813,1,0,2:0:0:0:
151,261,96912,1,0,2:0:0:0:
139,248,97010,1,8,3:0:0:0:
125,237,97109,1,0,2:0:0:0:
110,228,97208,1,0,2:0:0:0:
94,221,97306,1,0,2:0:0:0:
77,216,97405,1,2,2:0:0:0:
61,243,97504,1,0,2:0:0:0:
44,269,97602,1,0,2:0:0:0:
23,244,97701,1,0,2:0:0:0:
8,219,97800,5,4,3:2:0:0:
14,184,97898,1,0,2:0:0:0:
18,149,97997,1,0,2:0:0:0:
20,114,98096,1,0,2:0:0:0:
19,79,98194,1,2,2:0:0:0:
87,29,98392,1,2,2:3:0:0:
121,24,98491,1,0,2:0:0:0:
156,23,98589,1,0,2:0:0:0:
191,25,98688,1,0,2:0:0:0:
226,30,98787,1,2,2:0:0:0:
264,106,98984,1,2,2:3:0:0:
265,140,99083,1,0,2:0:0:0:
262,175,99181,1,2,2:0:0:0:
309,252,99379,101,8,3:0:0:0:
343,245,99477,1,0,2:0:0:0:
378,240,99576,1,0,2:0:0:0:
412,239,99675,1,0,2:0:0:0:
447,239,99773,1,2,2:0:0:0:
486,167,99971,1,2,2:3:0:0:
477,133,100069,1,0,2:0:0:0:
471,98,100168,1,0,2:0:0:0:
466,63,100267,1,0,2:0:0:0:
465,28,100366,1,2,2:0:0:0:
382,10,100563,1,2,2:3:0:0:
347,16,100662,1,0,2:0:0:0:
312,18,100760,1,2,2:0:0:0:
245,78,100958,5,8,3:0:0:0:
246,95,101056,1,0,2:0:0:0:
247,112,101155,1,0,2:0:0:0:
249,130,101254,1,0,2:0:0:0:
250,147,101352,1,2,2:0:0:0:
251,165,101451,1,0,2:0:0:0:
253,182,101550,1,0,2:0:0:0:
254,200,101648,1,0,2:0:0:0:
255,217,101747,1,8,3:0:0:0:
256,235,101846,1,0,2:0:0:0:
257,252,101944,1,0,2:0:0:0:
258,270,102043,1,0,2:0:0:0:
259,287,102142,1,2,2:0:0:0:
260,304,102241,1,0,2:0:0:0:
261,322,102339,1,0,2:0:0:0:
262,339,102438,1,0,2:0:0:0:
262,357,102537,1,8,3:0:0:0:
166,336,102734,101,2,2:3:0:0:
161,294,102833,1,0,2:0:0:0:
175,254,102931,1,2,2:0:0:0:
212,234,103030,1,0,2:0:0:0:
253,237,103129,1,2,2:3:0:0:
293,227,103227,1,0,2:0:0:0:
323,197,103326,1,8,3:0:0:0:
327,155,103425,1,0,2:0:0:0:
298,124,103523,1,2,2:3:0:0:
255,122,103622,1,0,2:0:0:0:
214,108,103721,1,2,2:0:0:0:
191,72,103819,1,0,2:0:0:0:
196,30,103918,1,2,2:3:0:0:
229,4,104017,1,0,2:0:0:0:
229,4,104116,21,4,0:0:0:0:
228,21,104214,1,0,2:0:0:0:
228,38,104313,1,0,2:0:0:0:
227,56,104412,1,0,2:0:0:0:
225,73,104510,1,2,2:0:0:0:
155,113,104708,1,2,2:3:0:0:
137,111,104806,1,0,2:0:0:0:
120,110,104905,1,0,2:0:0:0:
102,109,105004,1,0,2:0:0:0:
85,109,105102,1,2,2:0:0:0:
23,163,105300,1,2,2:3:0:0:
21,180,105398,1,0,2:0:0:0:
19,197,105497,1,2,2:0:0:0:
59,269,105694,101,4,2:0:0:0:
76,271,105793,1,0,2:0:0:0:
93,273,105892,1,0,2:0:0:0:
111,275,105991,1,0,2:0:0:0:
128,277,106089,1,2,2:0:0:0:
192,327,106287,1,2,2:3:0:0:
209,327,106385,1,0,2:0:0:0:
227,327,106484,1,0,2:0:0:0:
244,327,106583,1,0,2:0:0:0:
262,327,106681,1,2,2:0:0:0:
331,283,106879,1,2,2:3:0:0:
348,282,106977,1,0,2:0:0:0:
365,281,107076,1,0,2:0:0:0:
438,235,107273,5,4,2:0:0:0:
435,217,107372,1,0,2:0:0:0:
433,200,107471,1,0,2:0:0:0:
432,182,107569,1,0,2:0:0:0:
432,165,107668,1,2,2:0:0:0:
491,106,107866,1,2,2:3:0:0:
487,88,107964,1,0,2:0:0:0:
485,71,108063,1,0,2:0:0:0:
484,54,108162,1,0,2:0:0:0:
483,36,108260,1,2,2:0:0:0:
405,2,108458,1,2,2:3:0:0:
388,1,108556,1,0,2:0:0:0:
371,0,108655,1,2,2:0:0:0:
298,50,108852,101,4,2:0:0:0:
301,68,108951,1,0,2:0:0:0:
303,85,109050,1,0,2:0:0:0:
304,103,109148,1,0,2:0:0:0:
304,120,109247,1,2,2:0:0:0:
245,179,109444,1,2,2:3:0:0:
249,197,109543,1,0,2:0:0:0:
251,214,109642,1,0,2:0:0:0:
233,217,109741,1,0,2:0:0:0:
216,221,109839,1,2,2:0:0:0:
169,287,110037,1,2,2:3:0:0:
170,304,110135,1,0,2:0:0:0:
171,321,110234,1,2,2:0:0:0:
52,254,110431,5,4,0:0:0:0:
51,245,110530,1,0,2:0:0:0:
50,236,110629,1,0,2:0:0:0:
49,227,110727,1,0,2:0:0:0:
48,219,110826,1,0,2:0:0:0:
47,210,110925,1,0,2:0:0:0:
46,201,111023,1,0,2:0:0:0:
45,193,111122,1,0,2:0:0:0:
44,184,111221,1,2,2:3:0:0:
43,175,111319,1,0,2:0:0:0:
42,167,111418,1,0,2:0:0:0:
41,158,111517,1,0,2:0:0:0:
40,149,111616,1,0,2:0:0:0:
39,140,111714,1,0,2:0:0:0:
37,132,111813,1,0,2:0:0:0:
36,123,111912,1,0,2:0:0:0:
35,114,112010,101,8,3:0:0:0:
51,119,112109,1,0,2:0:0:0:
68,123,112208,1,0,2:0:0:0:
85,127,112306,1,0,2:0:0:0:
102,131,112405,1,2,2:3:0:0:
120,133,112504,1,0,2:0:0:0:
137,135,112602,1,0,2:0:0:0:
154,136,112701,1,0,2:0:0:0:
172,137,112800,5,8,3:0:0:0:
166,120,112898,1,0,2:0:0:0:
161,103,112997,1,0,2:0:0:0:
157,86,113096,1,0,2:0:0:0:
154,69,113194,1,2,2:3:0:0:
151,52,113293,1,0,2:0:0:0:
150,34,113392,1,0,2:0:0:0:
150,17,113491,1,0,2:0:0:0:
150,0,113589,101,8,3:0:0:0:
158,2,113688,1,0,2:0:0:0:
166,5,113787,1,0,2:0:0:0:
175,7,113885,1,0,2:0:0:0:
183,9,113984,1,0,2:0:0:0:
192,11,114083,1,0,2:0:0:0:
200,13,114181,1,0,2:0:0:0:
209,15,114280,1,0,2:0:0:0:
217,17,114379,1,2,2:3:0:0:
226,19,114477,1,0,2:0:0:0:
234,20,114576,1,0,2:0:0:0:
243,22,114675,1,0,2:0:0:0:
252,23,114773,1,0,2:0:0:0:
260,24,114872,1,0,2:0:0:0:
269,25,114971,1,0,2:0:0:0:
278,26,115069,1,0,2:0:0:0:
286,27,115168,6,0,L|296:74,3,35,8|0|0|0,3:0|2:0|2:0|2:0,2:0:0:0:
361,88,115563,2,0,L|371:135,3,35,0|0|0|0,2:0|2:0|2:0|2:0,2:0:0:0:
319,179,115958,2,0,L|328:225,3,35,2|0|0|0,2:0|2:0|2:0|2:0,2:0:0:0:
267,264,116352,2,0,L|281:319,3,35,0|0|0|0,2:0|2:0|2:0|2:0,2:0:0:0:
325,356,116747,101,4,2:0:0:0:
341,357,116846,1,0,2:0:0:0:
359,359,116944,1,0,2:0:0:0:
432,319,117142,1,2,2:3:0:0:
433,302,117241,1,0,2:0:0:0:
435,284,117339,1,0,2:0:0:0:
395,207,117537,1,2,2:3:0:0:
379,206,117635,1,0,2:0:0:0:
361,204,117734,1,0,2:0:0:0:
288,244,117931,1,2,2:3:0:0:
287,261,118030,1,0,2:0:0:0:
285,278,118129,1,0,2:0:0:0:
240,350,118326,1,2,2:3:0:0:
224,351,118425,1,0,2:0:0:0:
206,353,118523,1,0,2:0:0:0:
133,313,118721,1,2,2:3:0:0:
132,296,118819,1,0,2:0:0:0:
130,278,118918,1,0,2:0:0:0:
170,201,119116,1,2,2:3:0:0:
186,200,119214,1,0,2:0:0:0:
204,198,119313,1,0,2:0:0:0:
277,238,119510,1,2,2:3:0:0:
278,255,119609,1,0,2:0:0:0:
280,272,119708,1,0,2:0:0:0:
365,317,119905,5,8,2:3:0:0:
378,316,120004,1,0,2:0:0:0:
391,314,120102,1,0,2:0:0:0:
403,311,120201,1,0,2:0:0:0:
415,306,120300,1,2,2:3:0:0:
427,300,120398,1,0,2:0:0:0:
438,292,120497,1,2,2:0:0:0:
447,283,120596,1,0,2:0:0:0:
456,273,120694,1,2,2:3:0:0:
463,262,120793,1,0,2:0:0:0:
469,251,120892,1,0,2:0:0:0:
473,238,120991,1,0,2:0:0:0:
476,225,121089,1,2,2:3:0:0:
477,212,121188,1,0,2:0:0:0:
477,199,121287,1,0,2:0:0:0:
475,186,121385,1,0,2:0:0:0:
472,174,121484,101,4,2:0:0:0:
456,175,121583,1,0,2:0:0:0:
438,177,121681,1,0,2:0:0:0:
365,137,121879,1,2,2:3:0:0:
364,120,121977,1,0,2:0:0:0:
362,102,122076,1,2,2:0:0:0:
296,51,122273,1,2,2:3:0:0:
280,50,122372,1,0,2:0:0:0:
262,48,122471,1,0,2:0:0:0:
189,88,122668,1,2,2:3:0:0:
188,105,122767,1,0,2:0:0:0:
186,122,122866,1,0,2:0:0:0:
91,242,123063,5,4,0:0:0:0:
88,226,123162,1,0,2:0:0:0:
85,211,123260,1,0,2:0:0:0:
82,196,123359,1,0,2:0:0:0:
79,181,123458,1,0,2:0:0:0:
77,166,123556,1,0,2:0:0:0:
74,151,123655,1,0,2:0:0:0:
72,136,123754,1,0,2:0:0:0:
70,121,123852,1,2,2:3:0:0:
68,106,123951,1,0,2:0:0:0:
66,90,124050,1,0,2:0:0:0:
64,75,124148,1,0,2:0:0:0:
62,60,124247,1,0,2:0:0:0:
60,45,124346,1,0,2:0:0:0:
58,30,124444,1,0,2:0:0:0:
57,14,124543,1,0,2:0:0:0:
55,0,124642,101,8,3:0:0:0:
63,19,124741,1,0,2:0:0:0:
72,40,124839,1,0,2:0:0:0:
80,60,124938,1,0,2:0:0:0:
87,81,125037,1,2,2:3:0:0:
94,101,125135,1,0,2:0:0:0:
101,122,125234,1,0,2:0:0:0:
106,143,125333,1,0,2:0:0:0:
113,167,125431,5,8,3:0:0:0:
98,188,125530,1,0,2:0:0:0:
84,211,125629,1,0,2:0:0:0:
72,234,125727,1,0,2:0:0:0:
60,257,125826,1,2,2:3:0:0:
49,281,125925,1,0,2:0:0:0:
39,305,126023,1,0,2:0:0:0:
30,330,126122,1,0,2:0:0:0:
23,355,126221,101,8,3:0:0:0:
36,353,126319,1,0,2:0:0:0:
49,352,126418,1,0,2:0:0:0:
62,351,126517,1,0,2:0:0:0:
75,349,126616,1,0,2:0:0:0:
88,348,126714,1,0,2:0:0:0:
101,347,126813,1,0,2:0:0:0:
114,346,126912,1,0,2:0:0:0:
127,345,127010,1,2,2:3:0:0:
140,343,127109,1,0,2:0:0:0:
153,342,127208,1,0,2:0:0:0:
166,341,127306,1,0,2:0:0:0:
179,340,127405,1,0,2:0:0:0:
192,339,127504,1,0,2:0:0:0:
205,338,127602,1,0,2:0:0:0:
219,336,127701,1,0,2:0:0:0:
232,335,127800,5,8,3:0:0:0:
150,9,128984,1,2,2:0:0:0:
176,36,129083,1,0,2:0:0:0:
205,60,129181,1,2,2:0:0:0:
242,50,129280,1,0,2:0:0:0:
275,37,129379,101,4,3:2:0:0:
287,40,129477,1,0,2:0:0:0:
300,44,129576,1,0,2:0:0:0:
312,47,129675,1,0,2:0:0:0:
325,50,129773,1,0,2:0:0:0:
338,53,129872,1,0,2:0:0:0:
351,56,129971,1,0,2:0:0:0:
364,58,130069,1,0,2:0:0:0:
377,60,130168,1,8,3:0:0:0:
390,62,130267,1,0,2:0:0:0:
403,64,130366,1,0,2:0:0:0:
416,66,130464,1,0,2:0:0:0:
429,67,130563,1,0,2:0:0:0:
442,68,130662,1,0,2:0:0:0:
455,69,130760,1,0,2:0:0:0:
468,70,130859,1,0,2:0:0:0:
481,70,130958,21,8,3:0:0:0:
473,80,131056,1,0,2:0:0:0:
466,92,131155,1,0,2:0:0:0:
460,103,131254,1,0,2:0:0:0:
453,114,131352,1,0,2:0:0:0:
447,126,131451,1,0,2:0:0:0:
441,138,131550,1,0,2:0:0:0:
436,150,131648,1,0,2:0:0:0:
431,162,131747,1,8,3:0:0:0:
426,174,131846,1,0,2:0:0:0:
422,187,131944,1,0,2:0:0:0:
418,199,132043,1,0,2:0:0:0:
414,212,132142,1,0,2:0:0:0:
411,224,132241,1,0,2:0:0:0:
408,237,132339,1,0,2:0:0:0:
405,250,132438,1,0,2:0:0:0:
403,263,132537,85,8,3:0:0:0:
390,259,132635,1,0,2:0:0:0:
377,255,132734,1,0,2:0:0:0:
365,252,132833,1,0,2:0:0:0:
352,249,132931,1,0,2:0:0:0:
339,246,133030,1,0,2:0:0:0:
326,243,133129,1,0,2:0:0:0:
313,241,133227,1,0,2:0:0:0:
300,239,133326,1,8,3:0:0:0:
287,237,133425,1,0,2:0:0:0:
274,235,133523,1,0,2:0:0:0:
261,233,133622,1,0,2:0:0:0:
248,232,133721,1,0,2:0:0:0:
235,231,133819,1,0,2:0:0:0:
222,230,133918,1,0,2:0:0:0:
209,229,134017,1,0,2:0:0:0:
197,230,134116,21,8,3:0:0:0:
204,219,134214,1,0,2:0:0:0:
211,207,134313,1,0,2:0:0:0:
217,196,134412,1,0,2:0:0:0:
224,185,134510,1,0,2:0:0:0:
230,173,134609,1,0,2:0:0:0:
236,161,134708,1,0,2:0:0:0:
241,149,134806,1,0,2:0:0:0:
246,137,134905,1,8,3:0:0:0:
251,125,135004,1,0,2:0:0:0:
255,112,135102,1,0,2:0:0:0:
259,100,135201,1,0,2:0:0:0:
263,87,135300,1,0,2:0:0:0:
266,75,135398,1,0,2:0:0:0:
269,62,135497,1,0,2:0:0:0:
272,49,135596,1,0,2:0:0:0:
274,36,135694,85,8,3:0:0:0:
262,41,135793,1,0,2:0:0:0:
250,47,135892,1,0,2:0:0:0:
238,53,135991,1,0,2:0:0:0:
226,58,136089,1,0,2:0:0:0:
214,63,136188,1,0,2:0:0:0:
201,67,136287,1,0,2:0:0:0:
189,72,136385,1,0,2:0:0:0:
177,76,136484,1,8,3:0:0:0:
164,80,136583,1,0,2:0:0:0:
152,83,136681,1,0,2:0:0:0:
139,87,136780,1,0,2:0:0:0:
126,90,136879,1,0,2:0:0:0:
113,93,136977,1,0,2:0:0:0:
100,95,137076,1,0,2:0:0:0:
87,97,137175,1,0,2:0:0:0:
74,99,137273,21,8,3:0:0:0:
71,111,137372,1,0,2:0:0:0:
69,124,137471,1,0,2:0:0:0:
66,137,137569,1,0,2:0:0:0:
63,150,137668,1,0,2:0:0:0:
60,163,137767,1,0,2:0:0:0:
56,175,137866,1,0,2:0:0:0:
53,188,137964,1,0,2:0:0:0:
49,200,138063,1,8,3:0:0:0:
45,213,138162,1,0,2:0:0:0:
40,225,138260,1,0,2:0:0:0:
35,237,138359,1,0,2:0:0:0:
30,250,138458,1,0,2:0:0:0:
25,262,138556,1,0,2:0:0:0:
20,274,138655,1,0,2:0:0:0:
14,285,138754,1,0,2:0:0:0:
8,297,138852,85,8,3:0:0:0:
19,291,138951,1,0,2:0:0:0:
31,285,139050,1,0,2:0:0:0:
43,279,139148,1,0,2:0:0:0:
55,274,139247,1,0,2:0:0:0:
67,269,139346,1,0,2:0:0:0:
80,265,139444,1,0,2:0:0:0:
92,260,139543,1,0,2:0:0:0:
104,256,139642,1,8,3:0:0:0:
117,252,139741,1,0,2:0:0:0:
129,249,139839,1,0,2:0:0:0:
142,245,139938,1,0,2:0:0:0:
155,242,140037,1,0,2:0:0:0:
168,239,140135,1,0,2:0:0:0:
181,237,140234,1,0,2:0:0:0:
194,235,140333,1,0,2:0:0:0:
208,234,140431,21,8,3:0:0:0:
210,221,140530,1,0,2:0:0:0:
212,208,140629,1,0,2:0:0:0:
215,195,140727,1,0,2:0:0:0:
218,182,140826,1,0,2:0:0:0:
221,169,140925,1,0,2:0:0:0:
225,157,141023,1,0,2:0:0:0:
228,144,141122,1,0,2:0:0:0:
232,132,141221,1,8,3:0:0:0:
236,119,141319,1,0,2:0:0:0:
241,107,141418,1,0,2:0:0:0:
246,95,141517,1,0,2:0:0:0:
251,82,141616,1,0,2:0:0:0:
256,70,141714,1,0,2:0:0:0:
261,58,141813,1,0,2:0:0:0:
267,47,141912,1,0,2:0:0:0:
273,35,142010,53,8,3:0:0:0:
275,56,142109,1,0,2:0:0:0:
278,78,142208,1,0,2:0:0:0:
280,100,142306,1,0,2:0:0:0:
282,121,142405,1,2,2:3:0:0:
285,143,142504,1,0,2:0:0:0:
287,165,142602,1,0,2:0:0:0:
290,187,142701,1,0,2:0:0:0:
292,208,142800,1,8,3:0:0:0:
294,230,142898,1,0,2:0:0:0:
297,252,142997,1,0,2:0:0:0:
299,274,143096,1,0,2:0:0:0:
301,295,143194,1,2,2:3:0:0:
303,317,143293,1,0,2:0:0:0:
305,339,143392,1,0,2:0:0:0:
308,361,143491,1,0,2:0:0:0:
310,383,143589,37,8,3:0:0:0:
331,380,143688,1,0,2:0:0:0:
353,377,143787,1,0,2:0:0:0:
375,375,143885,1,0,2:0:0:0:
396,373,143984,69,8,3:0:0:0:
393,352,144083,1,0,2:0:0:0:
390,330,144181,1,0,2:0:0:0:
388,308,144280,1,0,2:0:0:0:
386,287,144379,37,8,3:0:0:0:
407,284,144477,1,0,2:0:0:0:
429,281,144576,1,0,2:0:0:0:
451,279,144675,1,0,2:0:0:0:
472,277,144773,69,8,3:0:0:0:
469,256,144872,1,0,2:0:0:0:
466,234,144971,1,0,2:0:0:0:
464,212,145069,1,0,2:0:0:0:
462,191,145168,37,8,3:0:0:0:
440,190,145267,1,0,2:0:0:0:
418,189,145366,1,0,2:0:0:0:
396,188,145464,1,0,2:0:0:0:
374,186,145563,1,2,2:3:0:0:
352,185,145662,1,0,2:0:0:0:
331,183,145760,1,0,2:0:0:0:
309,181,145859,1,0,2:0:0:0:
287,178,145958,1,8,3:0:0:0:
265,175,146056,1,0,2:0:0:0:
244,172,146155,1,0,2:0:0:0:
222,169,146254,1,0,2:0:0:0:
200,166,146352,1,2,2:3:0:0:
179,162,146451,1,0,2:0:0:0:
157,158,146550,1,0,2:0:0:0:
136,153,146648,1,0,2:0:0:0:
115,149,146747,69,8,3:0:0:0:
115,127,146846,1,0,2:0:0:0:
116,105,146944,1,0,2:0:0:0:
117,83,147043,1,0,2:0:0:0:
119,61,147142,37,8,3:0:0:0:
97,61,147241,1,0,2:0:0:0:
75,60,147339,1,0,2:0:0:0:
53,59,147438,1,0,2:0:0:0:
31,57,147537,69,8,3:0:0:0:
31,79,147635,1,0,2:0:0:0:
30,101,147734,1,0,2:0:0:0:
29,123,147833,1,0,2:0:0:0:
27,145,147931,37,8,3:0:0:0:
49,145,148030,1,0,2:0:0:0:
71,146,148129,1,0,2:0:0:0:
93,147,148227,1,0,2:0:0:0:
114,149,148326,70,0,L|122:205,7,35,8|0|0|0|0|0|0|0,3:0|2:0|2:0|2:0|2:0|2:0|2:0|2:0,2:0:0:0:
171,239,149116,2,0,L|179:295,7,35,2|0|0|0|0|0|0|0,0:0|2:0|2:0|2:0|2:0|2:0|2:0|2:0,2:0:0:0:
246,224,149905,1,8,3:0:0:0:
251,198,150004,1,0,2:0:0:0:
257,172,150102,1,0,2:0:0:0:
261,146,150201,1,0,2:0:0:0:
264,120,150300,1,2,2:3:0:0:
266,94,150398,1,0,2:0:0:0:
268,68,150497,1,0,2:0:0:0:
269,42,150596,1,0,2:0:0:0:
268,14,150694,2,0,L|330:1,3,35,2|0|0|0,2:0|2:0|2:0|2:0,2:0:0:0:
366,47,151089,2,0,L|411:35,3,35,2|0|0|0,2:3|2:0|2:0|2:0,2:0:0:0:
476,63,151484,38,0,L|463:121,7,35,8|0|0|0|0|0|0|0,3:0|2:0|2:0|2:0|2:0|2:0|2:0|2:0,2:0:0:0:
511,160,152273,2,0,L|498:218,7,35,2|0|0|0|0|0|0|0,2:0|2:0|2:0|2:0|2:0|2:0|2:0|2:0,2:0:0:0:
433,219,153063,1,2,2:3:0:0:
415,222,153162,1,0,2:0:0:0:
398,225,153260,1,0,2:0:0:0:
381,227,153359,1,0,2:0:0:0:
363,229,153458,1,2,2:0:0:0:
323,303,153655,1,0,2:0:0:0:
353,384,153852,1,2,2:0:0:0:
82,346,154247,1,2,2:0:0:0:
85,320,154346,1,0,2:0:0:0:
88,293,154444,1,2,2:0:0:0:
90,267,154543,1,0,2:0:0:0:
91,241,154642,21,4,3:2:0:0:
81,207,154741,1,0,2:0:0:0:
75,172,154839,1,0,2:0:0:0:
72,137,154938,1,0,2:0:0:0:
72,102,155037,1,2,2:0:0:0:
128,29,155234,1,8,3:0:0:0:
161,19,155333,1,0,2:0:0:0:
196,13,155431,1,0,2:0:0:0:
231,10,155530,1,0,2:0:0:0:
266,10,155629,1,2,2:0:0:0:
305,86,155826,1,8,3:0:0:0:
315,119,155925,1,0,2:0:0:0:
321,154,156023,1,2,2:0:0:0:
281,252,156221,101,8,3:0:0:0:
314,261,156319,1,0,2:0:0:0:
349,267,156418,1,0,2:0:0:0:
384,270,156517,1,0,2:0:0:0:
419,270,156616,1,2,2:0:0:0:
493,215,156813,1,8,3:0:0:0:
503,182,156912,1,0,2:0:0:0:
509,147,157010,1,0,2:0:0:0:
512,112,157109,1,0,2:0:0:0:
512,77,157208,1,2,2:0:0:0:
436,38,157405,1,8,3:0:0:0:
403,28,157504,1,0,2:0:0:0:
368,22,157602,1,2,2:0:0:0:
280,90,157800,5,8,3:0:0:0:
289,123,157898,1,0,2:0:0:0:
295,158,157997,1,0,2:0:0:0:
298,193,158096,1,0,2:0:0:0:
298,228,158194,1,2,2:0:0:0:
228,300,158392,1,8,3:0:0:0:
195,310,158491,1,0,2:0:0:0:
160,316,158589,1,0,2:0:0:0:
125,319,158688,1,0,2:0:0:0:
90,319,158787,1,2,2:0:0:0:
51,243,158984,1,8,3:0:0:0:
41,210,159083,1,0,2:0:0:0:
35,175,159181,1,2,2:0:0:0:
123,100,159379,101,8,3:0:0:0:
157,102,159477,1,0,2:0:0:0:
192,109,159576,1,0,2:0:0:0:
225,119,159675,1,0,2:0:0:0:
258,131,159773,1,2,2:0:0:0:
307,210,159971,1,8,3:0:0:0:
305,244,160069,1,0,2:0:0:0:
298,279,160168,1,0,2:0:0:0:
288,313,160267,1,0,2:0:0:0:
275,346,160366,1,2,2:0:0:0:
359,384,160563,1,8,3:0:0:0:
394,381,160662,1,0,2:0:0:0:
429,374,160760,1,2,2:0:0:0:
501,307,160958,5,8,3:0:0:0:
499,273,161056,1,0,2:0:0:0:
492,238,161155,1,0,2:0:0:0:
482,205,161254,1,0,2:0:0:0:
470,172,161352,1,2,2:3:0:0:
472,138,161451,1,0,2:0:0:0:
479,103,161550,1,0,2:0:0:0:
489,70,161648,1,0,2:0:0:0:
501,37,161747,1,2,2:0:0:0:
412,0,161944,1,8,3:0:0:0:
378,2,162043,1,0,2:0:0:0:
343,9,162142,1,0,2:0:0:0:
309,19,162241,1,0,2:0:0:0:
276,32,162339,1,2,2:0:0:0:
194,107,162537,101,8,3:0:0:0:
160,105,162635,1,0,2:0:0:0:
125,98,162734,1,0,2:0:0:0:
92,88,162833,1,0,2:0:0:0:
59,76,162931,1,2,2:3:0:0:
61,110,163030,1,0,2:0:0:0:
68,145,163129,1,0,2:0:0:0:
78,178,163227,1,0,2:0:0:0:
90,211,163326,1,2,2:0:0:0:
142,296,163523,1,8,3:0:0:0:
176,294,163622,1,0,2:0:0:0:
211,287,163721,1,0,2:0:0:0:
245,277,163819,1,0,2:0:0:0:
278,264,163918,1,2,2:0:0:0:
298,171,164116,5,8,3:0:0:0:
300,137,164214,1,0,2:0:0:0:
307,102,164313,1,0,2:0:0:0:
317,68,164412,1,0,2:0:0:0:
330,35,164510,1,2,2:3:0:0:
364,33,164609,1,0,2:0:0:0:
399,26,164708,1,0,2:0:0:0:
433,16,164806,1,0,2:0:0:0:
466,3,164905,1,2,2:0:0:0:
512,88,165102,1,8,3:0:0:0:
510,122,165201,1,0,2:0:0:0:
503,157,165300,1,0,2:0:0:0:
493,191,165398,1,0,2:0:0:0:
480,224,165497,1,2,2:0:0:0:
384,286,165694,101,8,3:0:0:0:
350,288,165793,1,0,2:0:0:0:
315,295,165892,1,0,2:0:0:0:
281,305,165991,1,0,2:0:0:0:
248,318,166089,1,2,2:3:0:0:
214,316,166188,1,0,2:0:0:0:
179,309,166287,1,0,2:0:0:0:
145,299,166385,1,0,2:0:0:0:
112,286,166484,1,2,2:0:0:0:
32,223,166681,1,8,3:0:0:0:
19,190,166780,1,0,2:0:0:0:
9,156,166879,1,0,2:0:0:0:
2,121,166977,1,0,2:0:0:0:
0,87,167076,1,2,2:0:0:0:
68,16,167273,5,4,3:2:0:0:
85,14,167372,1,0,2:0:0:0:
102,14,167471,1,0,2:0:0:0:
120,17,167569,1,0,2:0:0:0:
136,22,167668,1,2,2:3:0:0:
152,30,167767,1,0,2:0:0:0:
167,39,167866,1,0,2:0:0:0:
180,51,167964,1,0,2:0:0:0:
191,64,168063,1,8,3:0:0:0:
201,78,168162,1,0,2:0:0:0:
209,94,168260,1,0,2:0:0:0:
214,111,168359,1,0,2:0:0:0:
217,128,168458,1,2,2:3:0:0:
217,146,168556,1,0,2:0:0:0:
215,163,168655,1,0,2:0:0:0:
211,180,168754,1,0,2:0:0:0:
205,196,168852,1,8,3:0:0:0:
187,197,168951,1,0,2:0:0:0:
170,197,169050,1,0,2:0:0:0:
152,194,169148,1,0,2:0:0:0:
136,189,169247,1,2,2:3:0:0:
120,181,169346,1,0,2:0:0:0:
105,172,169444,1,0,2:0:0:0:
92,160,169543,1,0,2:0:0:0:
81,147,169642,1,8,3:0:0:0:
71,133,169741,1,0,2:0:0:0:
63,117,169839,1,0,2:0:0:0:
58,100,169938,1,0,2:0:0:0:
55,83,170037,1,2,2:3:0:0:
55,65,170135,1,0,2:0:0:0:
57,48,170234,1,0,2:0:0:0:
61,31,170333,1,0,2:0:0:0:
68,16,170431,1,8,3:0:0:0:
85,14,170530,1,0,2:0:0:0:
102,14,170629,1,0,2:0:0:0:
120,17,170727,1,0,2:0:0:0:
136,22,170826,1,2,2:3:0:0:
152,30,170925,1,0,2:0:0:0:
167,39,171023,1,0,2:0:0:0:
180,51,171122,1,0,2:0:0:0:
191,64,171221,1,8,3:0:0:0:
201,78,171319,1,0,2:0:0:0:
209,94,171418,1,0,2:0:0:0:
214,111,171517,1,0,2:0:0:0:
217,128,171616,1,2,2:3:0:0:
217,146,171714,1,0,2:0:0:0:
215,163,171813,1,0,2:0:0:0:
211,180,171912,1,0,2:0:0:0:
205,196,172010,1,8,3:0:0:0:
187,197,172109,1,0,2:0:0:0:
170,197,172208,1,0,2:0:0:0:
152,194,172306,1,0,2:0:0:0:
136,189,172405,1,2,2:3:0:0:
120,181,172504,1,0,2:0:0:0:
105,172,172602,1,0,2:0:0:0:
92,160,172701,1,0,2:0:0:0:
81,147,172800,1,8,3:0:0:0:
71,133,172898,1,0,2:0:0:0:
63,117,172997,1,0,2:0:0:0:
58,100,173096,1,0,2:0:0:0:
55,83,173194,1,2,2:3:0:0:
55,65,173293,1,0,2:0:0:0:
57,48,173392,1,0,2:0:0:0:
63,34,173491,1,0,2:0:0:0:
67,15,173589,101,8,3:0:0:0:
61,33,173688,1,0,2:0:0:0:
56,52,173787,1,0,2:0:0:0:
50,71,173885,1,0,2:0:0:0:
46,90,173984,1,2,2:3:0:0:
41,110,174083,1,0,2:0:0:0:
36,129,174181,1,0,2:0:0:0:
32,148,174280,1,0,2:0:0:0:
28,167,174379,1,8,3:0:0:0:
24,186,174477,1,0,2:0:0:0:
21,206,174576,1,0,2:0:0:0:
17,225,174675,1,0,2:0:0:0:
14,245,174773,1,2,2:3:0:0:
11,264,174872,1,0,2:0:0:0:
8,284,174971,1,0,2:0:0:0:
6,303,175069,1,0,2:0:0:0:
4,323,175168,1,8,3:0:0:0:
23,320,175267,1,0,2:0:0:0:
43,318,175366,1,0,2:0:0:0:
62,315,175464,1,0,2:0:0:0:
82,313,175563,1,2,2:3:0:0:
101,311,175662,1,0,2:0:0:0:
121,308,175760,1,0,2:0:0:0:
140,306,175859,1,0,2:0:0:0:
160,304,175958,1,8,3:0:0:0:
180,302,176056,1,0,2:0:0:0:
199,300,176155,1,0,2:0:0:0:
219,299,176254,1,0,2:0:0:0:
238,297,176352,1,2,2:3:0:0:
258,295,176451,1,0,2:0:0:0:
278,294,176550,1,0,2:0:0:0:
297,292,176648,1,0,2:0:0:0:
317,291,176747,1,8,3:0:0:0:
312,269,176846,1,0,2:0:0:0:
310,248,176944,1,0,2:0:0:0:
310,226,177043,1,0,2:0:0:0:
312,204,177142,1,2,2:3:0:0:
317,183,177241,1,0,2:0:0:0:
324,162,177339,1,0,2:0:0:0:
334,142,177438,1,0,2:0:0:0:
345,124,177537,1,8,3:0:0:0:
359,107,177635,1,0,2:0:0:0:
374,91,177734,1,0,2:0:0:0:
391,77,177833,1,0,2:0:0:0:
410,65,177931,1,2,2:3:0:0:
429,56,178030,1,0,2:0:0:0:
450,48,178129,1,0,2:0:0:0:
471,43,178227,1,0,2:0:0:0:
493,40,178326,1,8,3:0:0:0:
488,58,178425,1,0,2:0:0:0:
483,77,178523,1,0,2:0:0:0:
477,96,178622,1,0,2:0:0:0:
473,115,178721,1,2,2:3:0:0:
468,135,178819,1,0,2:0:0:0:
463,154,178918,1,0,2:0:0:0:
459,173,179017,1,0,2:0:0:0:
455,192,179116,1,8,3:0:0:0:
451,211,179214,1,0,2:0:0:0:
448,231,179313,1,2,2:0:0:0:
444,250,179412,1,0,2:0:0:0:
441,270,179510,1,0,2:0:0:0:
438,289,179609,1,0,2:0:0:0:
435,309,179708,1,2,2:0:0:0:
433,328,179806,1,0,2:0:0:0:
431,348,179905,21,4,3:2:0:0:
364,368,180102,1,2,2:0:0:0:
294,364,180300,1,8,2:0:0:0:
228,339,180497,1,0,2:0:0:0:
177,291,180694,1,0,2:0:0:0:
145,228,180892,1,2,2:0:0:0:
135,158,181089,1,8,2:0:0:0:
157,91,181287,1,0,2:0:0:0:
211,47,181484,1,0,2:0:0:0:
280,55,181681,1,2,2:0:0:0:
327,106,181879,1,8,2:0:0:0:
323,175,182076,1,0,2:0:0:0:
271,222,182273,1,0,2:0:0:0:
201,213,182471,1,2,2:0:0:0:
172,149,182668,1,8,2:0:0:0:
209,89,182866,1,0,2:0:0:0:
278,92,183063,69,2,2:3:0:0:
334,132,183260,1,2,2:0:0:0:
370,192,183458,1,8,2:0:0:0:
385,260,183655,1,0,2:0:0:0:
374,329,183852,1,0,2:0:0:0:
322,377,184050,1,2,2:0:0:0:
252,379,184247,1,8,2:0:0:0:
193,340,184444,1,0,2:0:0:0:
164,275,184642,1,0,2:0:0:0:
128,214,184839,1,2,2:0:0:0:
61,192,185037,1,8,2:0:0:0:
2,230,185234,1,0,2:0:0:0:
4,299,185431,1,0,2:0:0:0:
58,342,185629,1,2,2:0:0:0:
127,332,185826,1,8,2:0:0:0:
149,265,186023,1,0,2:0:0:0:
176,200,186221,37,2,2:3:0:0:
238,168,186418,1,2,2:0:0:0:
308,168,186616,1,8,2:0:0:0:
372,195,186813,1,0,2:0:0:0:
412,252,187010,1,0,2:0:0:0:
427,320,187208,1,2,2:0:0:0:
392,380,187405,1,8,2:0:0:0:
322,376,187602,1,0,2:0:0:0:
296,310,187800,1,0,2:0:0:0:
327,247,187997,1,2,2:0:0:0:
391,220,188194,1,8,2:0:0:0:
431,162,188392,1,0,2:0:0:0:
413,94,188589,1,0,2:0:0:0:
348,66,188787,1,2,2:0:0:0:
293,109,188984,1,8,2:0:0:0:
297,178,189181,1,0,2:0:0:0:
259,237,189379,69,2,2:3:0:0:
189,241,189576,1,2,2:0:0:0:
140,190,189773,1,8,2:0:0:0:
157,121,189971,1,0,2:0:0:0:
222,96,190168,1,0,2:0:0:0:
278,137,190366,1,2,2:0:0:0:
347,140,190563,1,8,2:0:0:0:
401,96,190760,1,0,2:0:0:0:
392,26,190958,1,0,2:0:0:0:
323,10,191155,1,2,2:0:0:0:
280,65,191352,1,8,2:0:0:0:
313,126,191550,1,0,2:0:0:0:
382,120,191747,1,0,2:0:0:0:
64,197,192142,1,2,2:0:0:0:
59,231,192241,1,0,2:0:0:0:
54,265,192339,1,2,2:0:0:0:
50,299,192438,1,0,2:0:0:0:
44,334,192537,85,4,3:2:0:0:
52,332,192635,1,0,2:0:0:0:
61,331,192734,1,0,2:0:0:0:
70,330,192833,1,0,2:0:0:0:
78,329,192931,1,0,2:0:0:0:
87,328,193030,1,0,2:0:0:0:
96,327,193129,1,0,2:0:0:0:
104,326,193227,1,0,2:0:0:0:
113,325,193326,1,2,2:3:0:0:
122,324,193425,1,0,2:0:0:0:
130,323,193523,1,0,2:0:0:0:
139,322,193622,1,0,2:0:0:0:
148,321,193721,1,0,2:0:0:0:
156,320,193819,1,0,2:0:0:0:
165,319,193918,1,0,2:0:0:0:
174,318,194017,1,0,2:0:0:0:
182,317,194116,1,8,3:0:0:0:
191,316,194214,1,0,2:0:0:0:
200,315,194313,1,0,2:0:0:0:
209,314,194412,1,0,2:0:0:0:
217,313,194510,1,0,2:0:0:0:
226,312,194609,1,0,2:0:0:0:
235,311,194708,1,0,2:0:0:0:
243,310,194806,1,0,2:0:0:0:
252,309,194905,1,2,2:3:0:0:
261,308,195004,1,0,2:0:0:0:
269,307,195102,1,0,2:0:0:0:
278,306,195201,1,0,2:0:0:0:
287,305,195300,1,0,2:0:0:0:
296,304,195398,1,0,2:0:0:0:
304,303,195497,1,0,2:0:0:0:
313,302,195596,1,0,2:0:0:0:
322,302,195694,21,8,3:0:0:0:
324,293,195793,1,0,2:0:0:0:
325,284,195892,1,0,2:0:0:0:
326,275,195991,1,0,2:0:0:0:
327,267,196089,1,0,2:0:0:0:
328,258,196188,1,0,2:0:0:0:
329,249,196287,1,0,2:0:0:0:
330,241,196385,1,0,2:0:0:0:
331,232,196484,1,2,2:3:0:0:
332,223,196583,1,0,2:0:0:0:
333,215,196681,1,0,2:0:0:0:
334,206,196780,1,0,2:0:0:0:
335,197,196879,1,0,2:0:0:0:
336,189,196977,1,0,2:0:0:0:
337,180,197076,1,0,2:0:0:0:
338,171,197175,1,0,2:0:0:0:
339,163,197273,1,8,3:0:0:0:
340,154,197372,1,0,2:0:0:0:
341,145,197471,1,0,2:0:0:0:
342,136,197569,1,0,2:0:0:0:
343,128,197668,1,0,2:0:0:0:
344,119,197767,1,0,2:0:0:0:
345,110,197866,1,0,2:0:0:0:
346,102,197964,1,0,2:0:0:0:
347,93,198063,1,2,2:3:0:0:
348,84,198162,1,0,2:0:0:0:
349,76,198260,1,0,2:0:0:0:
350,67,198359,1,0,2:0:0:0:
351,58,198458,1,0,2:0:0:0:
352,49,198556,1,0,2:0:0:0:
353,41,198655,1,0,2:0:0:0:
354,32,198754,1,0,2:0:0:0:
354,23,198852,85,8,3:0:0:0:
345,24,198951,1,0,2:0:0:0:
336,25,199050,1,0,2:0:0:0:
327,26,199148,1,0,2:0:0:0:
319,27,199247,1,0,2:0:0:0:
310,28,199346,1,0,2:0:0:0:
301,29,199444,1,0,2:0:0:0:
293,30,199543,1,0,2:0:0:0:
284,31,199642,1,2,2:3:0:0:
275,32,199741,1,0,2:0:0:0:
267,33,199839,1,0,2:0:0:0:
258,34,199938,1,0,2:0:0:0:
249,35,200037,1,0,2:0:0:0:
241,36,200135,1,0,2:0:0:0:
232,37,200234,1,0,2:0:0:0:
223,38,200333,1,0,2:0:0:0:
215,39,200431,1,8,3:0:0:0:
206,40,200530,1,0,2:0:0:0:
197,41,200629,1,0,2:0:0:0:
188,42,200727,1,0,2:0:0:0:
180,43,200826,1,0,2:0:0:0:
171,44,200925,1,0,2:0:0:0:
162,45,201023,1,0,2:0:0:0:
154,46,201122,1,0,2:0:0:0:
145,47,201221,1,2,2:3:0:0:
136,48,201319,1,0,2:0:0:0:
128,49,201418,1,0,2:0:0:0:
119,50,201517,1,0,2:0:0:0:
110,51,201616,1,0,2:0:0:0:
101,52,201714,1,0,2:0:0:0:
93,53,201813,1,0,2:0:0:0:
84,54,201912,1,0,2:0:0:0:
76,55,202010,21,8,3:0:0:0:
74,64,202109,1,0,2:0:0:0:
73,73,202208,1,0,2:0:0:0:
72,82,202306,1,0,2:0:0:0:
71,90,202405,1,0,2:0:0:0:
70,99,202504,1,0,2:0:0:0:
69,108,202602,1,0,2:0:0:0:
68,116,202701,1,0,2:0:0:0:
67,125,202800,1,2,2:3:0:0:
66,134,202898,1,0,2:0:0:0:
65,142,202997,1,0,2:0:0:0:
64,151,203096,1,0,2:0:0:0:
63,160,203194,1,0,2:0:0:0:
62,168,203293,1,0,2:0:0:0:
61,177,203392,1,0,2:0:0:0:
60,186,203491,1,0,2:0:0:0:
59,194,203589,1,8,3:0:0:0:
103,261,203787,1,8,3:0:0:0:
112,263,203885,1,0,2:0:0:0:
121,264,203984,1,2,2:0:0:0:
130,265,204083,1,0,2:0:0:0:
138,266,204181,1,2,2:3:0:0:
206,226,204379,1,8,3:0:0:0:
215,228,204477,1,0,2:0:0:0:
224,229,204576,1,2,2:0:0:0:
233,230,204675,1,0,2:0:0:0:
241,231,204773,1,2,2:3:0:0:
239,266,204872,1,0,2:0:0:0:
235,300,204971,1,2,2:0:0:0:
231,334,205069,1,0,2:0:0:0:
230,369,205168,69,4,3:2:0:0:
268,367,205267,1,0,2:0:0:0:
306,365,205366,1,0,2:0:0:0:
344,363,205464,1,0,2:0:0:0:
382,362,205563,1,2,2:0:0:0:
492,384,205760,1,8,3:0:0:0:
490,346,205859,1,0,2:0:0:0:
488,308,205958,1,0,2:0:0:0:
486,270,206056,1,0,2:0:0:0:
485,232,206155,1,2,2:0:0:0:
512,152,206352,1,8,3:0:0:0:
510,114,206451,1,0,2:0:0:0:
508,76,206550,1,0,2:0:0:0:
506,38,206648,1,0,2:0:0:0:
505,0,206747,1,4,2:0:0:0:
466,0,206846,1,0,2:0:0:0:
427,2,206944,1,0,2:0:0:0:
388,6,207043,1,0,2:0:0:0:
349,10,207142,1,2,2:0:0:0:
253,33,207339,1,8,3:0:0:0:
214,33,207438,1,0,2:0:0:0:
175,31,207537,1,0,2:0:0:0:
136,27,207635,1,0,2:0:0:0:
97,23,207734,1,2,2:0:0:0:
0,0,207931,1,8,3:0:0:0:
5,37,208030,1,0,2:0:0:0:
11,75,208129,1,0,2:0:0:0:
17,112,208227,1,0,2:0:0:0:
22,150,208326,1,4,2:0:0:0:
16,187,208425,1,0,2:0:0:0:
11,224,208523,1,0,2:0:0:0:
8,261,208622,1,0,2:0:0:0:
1,298,208721,1,2,2:0:0:0:
66,384,208918,1,8,3:0:0:0:
104,382,209017,1,0,2:0:0:0:
143,380,209116,1,0,2:0:0:0:
182,376,209214,1,0,2:0:0:0:
221,372,209313,1,2,2:0:0:0:
310,384,209510,1,8,3:0:0:0:
348,382,209609,1,0,2:0:0:0:
387,380,209708,1,0,2:0:0:0:
426,376,209806,1,0,2:0:0:0:
465,372,209905,1,4,2:0:0:0:
463,334,210004,1,0,2:0:0:0:
461,295,210102,1,0,2:0:0:0:
457,256,210201,1,0,2:0:0:0:
453,217,210300,1,2,2:0:0:0:
512,155,210497,1,8,3:0:0:0:
510,117,210596,1,0,2:0:0:0:
508,78,210694,1,0,2:0:0:0:
504,39,210793,1,0,2:0:0:0:
500,0,210892,1,2,2:0:0:0:
412,12,211089,1,8,3:0:0:0:
373,12,211188,1,0,2:0:0:0:
334,15,211287,1,0,2:0:0:0:
295,20,211385,1,0,2:0:0:0:
256,22,211484,5,4,1:2:0:0:
293,29,211583,1,0,2:0:0:0:
330,36,211681,1,0,2:0:0:0:
367,43,211780,1,0,2:0:0:0:
404,50,211879,1,2,2:0:0:0:
480,110,212076,1,8,3:0:0:0:
487,147,212175,1,0,2:0:0:0:
494,184,212273,1,0,2:0:0:0:
501,221,212372,1,0,2:0:0:0:
508,258,212471,1,2,2:0:0:0:
512,339,212668,1,8,3:0:0:0:
475,346,212767,1,0,2:0:0:0:
438,353,212866,1,0,2:0:0:0:
401,360,212964,1,0,2:0:0:0:
364,367,213063,1,4,2:0:0:0:
327,360,213162,1,0,2:0:0:0:
290,353,213260,1,0,2:0:0:0:
253,346,213359,1,0,2:0:0:0:
216,339,213458,1,2,2:0:0:0:
148,384,213655,1,8,3:0:0:0:
111,377,213754,1,0,2:0:0:0:
74,370,213852,1,0,2:0:0:0:
37,363,213951,1,0,2:0:0:0:
0,356,214050,1,2,2:0:0:0:
28,263,214247,1,8,3:0:0:0:
21,226,214346,1,0,2:0:0:0:
14,189,214444,1,0,2:0:0:0:
7,152,214543,1,0,2:0:0:0:
0,115,214642,1,4,2:0:0:0:
37,108,214741,1,0,2:0:0:0:
74,101,214839,1,0,2:0:0:0:
111,94,214938,1,0,2:0:0:0:
148,87,215037,1,2,2:0:0:0:
217,24,215234,1,8,3:0:0:0:
254,31,215333,1,0,2:0:0:0:
291,38,215431,1,0,2:0:0:0:
328,45,215530,1,0,2:0:0:0:
365,52,215629,1,2,2:0:0:0:
450,86,215826,1,8,3:0:0:0:
457,123,215925,1,0,2:0:0:0:
464,160,216023,1,0,2:0:0:0:
471,197,216122,1,0,2:0:0:0:
478,234,216221,1,4,2:0:0:0:
471,271,216319,1,0,2:0:0:0:
464,308,216418,1,0,2:0:0:0:
457,345,216517,1,0,2:0:0:0:
450,382,216616,1,2,2:0:0:0:
351,356,216813,1,8,3:0:0:0:
314,363,216912,1,0,2:0:0:0:
277,370,217010,1,0,2:0:0:0:
240,377,217109,1,0,2:0:0:0:
203,384,217208,1,2,2:0:0:0:
100,365,217405,1,8,3:0:0:0:
93,328,217504,1,0,2:0:0:0:
86,291,217602,1,0,2:0:0:0:
79,254,217701,1,0,2:0:0:0:
72,217,217800,101,4,2:0:0:0:
90,192,217898,1,0,2:0:0:0:
113,172,217997,1,0,2:0:0:0:
139,156,218096,1,0,2:0:0:0:
168,146,218194,1,2,2:0:0:0:
198,141,218293,1,0,2:0:0:0:
229,143,218392,1,0,2:0:0:0:
259,150,218491,1,0,2:0:0:0:
286,162,218589,1,8,3:0:0:0:
311,180,218688,1,0,2:0:0:0:
332,202,218787,1,0,2:0:0:0:
349,228,218885,1,0,2:0:0:0:
360,257,218984,1,2,2:0:0:0:
366,287,219083,1,0,2:0:0:0:
365,317,219181,1,0,2:0:0:0:
359,347,219280,1,0,2:0:0:0:
348,375,219379,5,8,3:0:0:0:
325,354,219477,1,0,2:0:0:0:
307,329,219576,1,0,2:0:0:0:
293,302,219675,1,0,2:0:0:0:
284,273,219773,1,2,2:0:0:0:
279,242,219872,1,0,2:0:0:0:
281,212,219971,1,0,2:0:0:0:
287,182,220069,1,0,2:0:0:0:
298,154,220168,1,8,3:0:0:0:
314,128,220267,1,0,2:0:0:0:
335,105,220366,1,0,2:0:0:0:
358,85,220464,1,0,2:0:0:0:
385,71,220563,1,2,2:0:0:0:
414,61,220662,1,0,2:0:0:0:
444,56,220760,1,0,2:0:0:0:
475,56,220859,1,0,2:0:0:0:
505,61,220958,101,4,2:0:0:0:
496,91,221056,1,0,2:0:0:0:
482,118,221155,1,0,2:0:0:0:
463,142,221254,1,0,2:0:0:0:
440,161,221352,1,2,2:0:0:0:
413,176,221451,1,0,2:0:0:0:
384,185,221550,1,0,2:0:0:0:
354,188,221648,1,0,2:0:0:0:
323,186,221747,1,8,3:0:0:0:
294,177,221846,1,0,2:0:0:0:
267,163,221944,1,0,2:0:0:0:
243,143,222043,1,0,2:0:0:0:
224,120,222142,1,2,2:0:0:0:
209,93,222241,1,0,2:0:0:0:
201,63,222339,1,0,2:0:0:0:
198,33,222438,1,0,2:0:0:0:
201,3,222537,5,4,3:2:0:0:
172,14,222635,1,0,2:0:0:0:
152,38,222734,1,0,2:0:0:0:
146,68,222833,1,0,2:0:0:0:
150,98,222931,1,2,2:0:0:0:
166,123,223030,1,0,2:0:0:0:
192,139,223129,1,0,2:0:0:0:
220,149,223227,1,0,2:0:0:0:
244,167,223326,1,8,3:0:0:0:
260,193,223425,1,0,2:0:0:0:
261,223,223523,1,0,2:0:0:0:
250,251,223622,1,0,2:0:0:0:
223,266,223721,1,2,2:0:0:0:
192,268,223819,1,0,2:0:0:0:
162,275,223918,1,0,2:0:0:0:
139,295,224017,1,0,2:0:0:0:
132,325,224116,101,4,2:0:0:0:
127,326,224214,1,0,2:0:0:0:
123,327,224313,1,0,2:0:0:0:
119,328,224412,1,0,2:0:0:0:
115,329,224510,1,2,2:0:0:0:
110,331,224609,1,0,2:0:0:0:
106,332,224708,1,0,2:0:0:0:
102,333,224806,1,0,2:0:0:0:
98,334,224905,1,8,3:0:0:0:
93,335,225004,1,0,2:0:0:0:
89,336,225102,1,0,2:0:0:0:
85,337,225201,1,0,2:0:0:0:
81,337,225300,1,2,2:0:0:0:
76,338,225398,1,0,2:0:0:0:
72,339,225497,1,0,2:0:0:0:
68,340,225596,1,0,2:0:0:0:
63,341,225694,5,8,3:0:0:0:
66,332,225793,1,0,2:0:0:0:
69,324,225892,1,0,2:0:0:0:
71,316,225991,1,0,2:0:0:0:
74,307,226089,1,2,2:0:0:0:
76,299,226188,1,0,2:0:0:0:
78,290,226287,1,0,2:0:0:0:
80,282,226385,1,0,2:0:0:0:
82,273,226484,1,8,3:0:0:0:
84,265,226583,1,0,2:0:0:0:
86,256,226681,1,0,2:0:0:0:
87,247,226780,1,0,2:0:0:0:
89,239,226879,1,2,2:0:0:0:
90,230,226977,1,0,2:0:0:0:
91,222,227076,1,0,2:0:0:0:
92,213,227175,1,0,2:0:0:0:
93,204,227273,101,4,3:2:0:0:
105,216,227372,1,0,2:0:0:0:
118,228,227471,1,0,2:0:0:0:
130,240,227569,1,0,2:0:0:0:
143,251,227668,1,2,2:0:0:0:
157,263,227767,1,0,2:0:0:0:
170,274,227866,1,0,2:0:0:0:
184,285,227964,1,0,2:0:0:0:
198,295,228063,1,8,3:0:0:0:
212,305,228162,1,0,2:0:0:0:
227,315,228260,1,0,2:0:0:0:
241,325,228359,1,0,2:0:0:0:
256,334,228458,1,2,2:0:0:0:
271,343,228556,1,0,2:0:0:0:
286,352,228655,1,0,2:0:0:0:
302,360,228754,1,0,2:0:0:0:
317,368,228852,5,4,3:2:0:0:
326,345,228951,1,0,2:0:0:0:
335,323,229050,1,2,2:0:0:0:
345,301,229148,1,0,2:0:0:0:
354,279,229247,1,2,2:3:0:0:
364,257,229346,1,0,2:0:0:0:
375,235,229444,1,2,2:0:0:0:
385,214,229543,1,0,2:0:0:0:
396,192,229642,1,8,3:0:0:0:
406,171,229741,1,0,2:0:0:0:
418,149,229839,1,2,2:0:0:0:
429,128,229938,1,0,2:0:0:0:
440,107,230037,1,2,2:3:0:0:
452,86,230135,1,0,2:0:0:0:
464,65,230234,1,2,2:0:0:0:
476,44,230333,1,0,2:0:0:0:
488,23,230431,69,4,2:0:0:0:
408,1,230629,1,0,2:0:0:0:
326,26,230826,1,2,2:3:0:0:
310,45,230925,1,0,2:0:0:0:
304,68,231023,1,0,2:0:0:0:
288,156,231221,1,2,2:2:0:0:
269,140,231319,1,0,2:0:0:0:
246,134,231418,1,0,2:0:0:0:
168,170,231616,1,2,2:3:0:0:
163,146,231714,1,0,2:0:0:0:
158,121,231813,1,0,2:0:0:0:
151,97,231912,1,0,2:0:0:0:
143,73,232010,53,2,2:0:0:0:
62,38,232208,1,0,2:0:0:0:
4,103,232405,1,2,2:3:0:0:
4,127,232504,1,0,2:0:0:0:
9,150,232602,1,0,2:0:0:0:
82,233,232800,1,2,2:3:0:0:
82,209,232898,1,0,2:0:0:0:
87,186,232997,1,0,2:0:0:0:
191,159,233194,1,2,2:3:0:0:
199,241,233392,1,0,2:0:0:0:
143,302,233589,53,4,2:0:0:0:
199,369,233787,1,0,2:0:0:0:
293,344,233984,1,2,2:3:0:0:
293,319,234083,1,0,2:0:0:0:
284,296,234181,1,0,2:0:0:0:
203,235,234379,1,2,2:0:0:0:
226,227,234477,1,0,2:0:0:0:
247,214,234576,1,0,2:0:0:0:
285,118,234773,1,2,2:3:0:0:
270,97,234872,1,0,2:0:0:0:
260,74,234971,1,0,2:0:0:0:
254,50,235069,1,0,2:0:0:0:
251,25,235168,53,2,2:0:0:0:
341,0,235366,1,0,2:0:0:0:
410,67,235563,1,2,2:3:0:0:
393,85,235662,1,0,2:0:0:0:
370,94,235760,1,0,2:0:0:0:
460,136,235958,1,2,2:3:0:0:
477,152,236056,1,0,2:0:0:0:
490,172,236155,1,0,2:0:0:0:
461,264,236352,1,2,2:3:0:0:
368,248,236550,1,0,2:0:0:0:
291,301,236747,53,4,2:0:0:0:
206,252,236944,1,2,2:3:0:0:
208,227,237043,1,0,2:0:0:0:
220,205,237142,1,0,2:0:0:0:
240,191,237241,1,0,2:0:0:0:
263,184,237339,1,2,2:0:0:0:
181,88,237537,1,2,2:3:0:0:
182,112,237635,1,0,2:0:0:0:
172,134,237734,1,0,2:0:0:0:
155,152,237833,1,0,2:0:0:0:
132,161,237931,1,2,2:0:0:0:
35,129,238129,1,2,2:3:0:0:
47,108,238227,1,0,2:0:0:0:
53,84,238326,53,2,2:0:0:0:
119,23,238523,1,0,2:0:0:0:
207,56,238721,1,2,2:3:0:0:
220,76,238819,1,0,2:0:0:0:
225,99,238918,1,0,2:0:0:0:
224,205,239116,1,2,2:0:0:0:
203,191,239214,1,0,2:0:0:0:
179,183,239313,1,0,2:0:0:0:
85,222,239510,1,2,2:0:0:0:
71,242,239609,1,0,2:0:0:0:
65,265,239708,1,0,2:0:0:0:
108,359,239905,53,4,2:0:0:0:
177,296,240102,1,2,2:3:0:0:
200,301,240201,1,0,2:0:0:0:
222,311,240300,1,0,2:0:0:0:
242,324,240398,1,0,2:0:0:0:
258,342,240497,1,2,2:0:0:0:
358,368,240694,1,2,2:3:0:0:
376,352,240793,1,0,2:0:0:0:
398,341,240892,1,0,2:0:0:0:
421,333,240991,1,0,2:0:0:0:
445,329,241089,1,2,2:0:0:0:
505,262,241287,1,2,2:3:0:0:
486,246,241385,1,0,2:0:0:0:
471,226,241484,53,2,2:0:0:0:
510,138,241681,1,0,2:0:0:0:
477,50,241879,1,2,2:3:0:0:
457,37,241977,1,0,2:0:0:0:
434,32,242076,1,0,2:0:0:0:
328,33,242273,1,2,2:0:0:0:
342,54,242372,1,0,2:0:0:0:
350,78,242471,1,0,2:0:0:0:
311,172,242668,1,2,2:3:0:0:
291,186,242767,1,0,2:0:0:0:
268,192,242866,1,0,2:0:0:0:
166,157,243063,53,4,2:0:0:0:
175,127,243162,1,0,2:0:0:0:
177,95,243260,1,0,2:0:0:0:
166,65,243359,1,0,2:0:0:0:
143,42,243458,1,0,2:0:0:0:
114,29,243556,1,0,2:0:0:0:
82,27,243655,1,2,2:0:0:0:
4,121,243852,1,2,2:3:0:0:
34,111,243951,1,0,2:0:0:0:
65,106,244050,1,2,2:0:0:0:
103,205,244247,1,2,2:3:0:0:
95,235,244346,1,0,2:0:0:0:
87,265,244444,1,0,2:0:0:0:
82,296,244543,1,0,2:0:0:0:
79,327,244642,53,2,2:0:0:0:
184,384,244839,1,0,2:0:0:0:
274,318,245037,1,2,2:3:0:0:
260,289,245135,1,0,2:0:0:0:
235,269,245234,1,0,2:0:0:0:
144,249,245431,1,2,2:0:0:0:
154,218,245530,1,0,2:0:0:0:
151,186,245629,1,0,2:0:0:0:
88,120,245826,1,2,2:3:0:0:
116,105,245925,1,0,2:0:0:0:
137,80,246023,1,0,2:0:0:0:
239,10,246221,53,4,2:0:0:0:
240,41,246319,1,0,2:0:0:0:
249,71,246418,1,0,2:0:0:0:
271,92,246517,1,0,2:0:0:0:
300,103,246616,1,0,2:0:0:0:
330,107,246714,1,0,2:0:0:0:
360,100,246813,1,2,2:0:0:0:
435,4,247010,1,2,2:3:0:0:
437,35,247109,1,0,2:0:0:0:
441,66,247208,1,2,2:0:0:0:
512,160,247405,1,2,2:3:0:0:
481,166,247504,1,0,2:0:0:0:
450,173,247602,1,0,2:0:0:0:
419,180,247701,1,0,2:0:0:0:
389,190,247800,53,2,2:0:0:0:
356,304,247997,1,0,2:0:0:0:
314,228,248194,1,2,2:3:0:0:
293,204,248293,1,0,2:0:0:0:
265,188,248392,1,0,2:0:0:0:
427,258,248589,1,2,2:0:0:0:
458,251,248688,1,0,2:0:0:0:
486,235,248787,1,0,2:0:0:0:
348,322,248984,1,2,2:3:0:0:
338,352,249083,1,0,2:0:0:0:
338,384,249181,1,0,2:0:0:0:
203,317,249379,53,4,2:0:0:0:
173,326,249477,1,0,2:0:0:0:
145,341,249576,1,0,2:0:0:0:
120,361,249675,1,0,2:0:0:0:
99,384,249773,1,2,2:0:0:0:
4,323,249971,1,0,2:0:0:0:
43,219,250168,1,2,2:3:0:0:
55,247,250267,1,0,2:0:0:0:
80,265,250366,1,2,2:0:0:0:
119,125,250563,1,2,2:3:0:0:
87,125,250662,1,0,2:0:0:0:
56,130,250760,1,0,2:0:0:0:
26,141,250859,1,0,2:0:0:0:
0,159,250958,53,2,2:0:0:0:
82,255,251155,1,2,2:3:0:0:
90,224,251254,1,0,2:0:0:0:
116,206,251352,1,2,2:0:0:0:
238,161,251550,1,2,2:3:0:0:
209,147,251648,1,0,2:0:0:0:
190,121,251747,1,2,2:0:0:0:
283,2,251944,1,2,2:3:0:0:
256,19,252043,1,0,2:0:0:0:
224,24,252142,1,2,2:0:0:0:
94,88,252339,1,2,2:3:0:0:
87,57,252438,1,0,2:0:0:0:
66,32,252537,53,4,2:0:0:0:
35,38,252635,1,0,2:0:0:0:
14,61,252734,1,0,2:0:0:0:
3,90,252833,1,0,2:0:0:0:
2,121,252931,1,2,2:0:0:0:
82,201,253129,1,0,2:0:0:0:
186,161,253326,1,2,2:3:0:0:
182,129,253425,1,0,2:0:0:0:
187,98,253523,1,2,2:0:0:0:
311,50,253721,1,2,2:3:0:0:
322,79,253819,1,0,2:0:0:0:
330,109,253918,1,0,2:0:0:0:
334,140,254017,1,0,2:0:0:0:
334,171,254116,53,2,2:0:0:0:
429,91,254313,1,2,2:3:0:0:
460,91,254412,1,0,2:0:0:0:
489,101,254510,1,2,2:0:0:0:
496,0,254708,1,0,2:0:0:0:
354,35,254905,1,2,2:3:0:0:
352,55,255004,1,0,2:0:0:0:
350,75,255102,1,0,2:0:0:0:
348,96,255201,1,0,2:0:0:0:
345,116,255300,1,2,2:0:0:0:
343,136,255398,1,0,2:0:0:0:
341,156,255497,1,0,2:0:0:0:
339,176,255596,1,0,2:0:0:0:
336,196,255694,53,0,2:0:0:0:
274,251,255892,1,0,2:0:0:0:
274,251,255991,1,2,2:0:0:0:
186,239,256188,1,0,2:0:0:0:
186,239,256287,1,2,2:0:0:0:
150,157,256484,1,0,2:0:0:0:
150,157,256583,1,2,2:0:0:0:
192,81,256780,1,0,2:0:0:0:
192,81,256879,1,2,2:0:0:0:
127,13,257076,1,0,2:0:0:0:
40,35,257273,101,4,2:0:0:0:
82,111,257471,1,2,2:3:0:0:
109,105,257569,1,0,2:0:0:0:
136,100,257668,1,0,2:0:0:0:
163,96,257767,1,0,2:0:0:0:
190,91,257866,1,2,2:0:0:0:
267,141,258063,1,2,2:3:0:0:
263,168,258162,1,0,2:0:0:0:
259,195,258260,1,0,2:0:0:0:
255,222,258359,1,0,2:0:0:0:
251,249,258458,1,0,2:0:0:0:
247,276,258556,1,0,2:0:0:0:
243,303,258655,1,2,2:0:0:0:
229,384,258852,5,2,2:3:0:0:
323,384,259050,1,0,2:0:0:0:
323,384,259148,1,2,2:0:0:0:
404,343,259346,1,0,2:0:0:0:
404,343,259444,1,2,2:0:0:0:
420,253,259642,1,0,2:0:0:0:
420,253,259741,1,2,2:0:0:0:
366,177,259938,1,0,2:0:0:0:
366,177,260037,1,2,2:0:0:0:
266,169,260234,1,0,2:0:0:0:
195,245,260431,101,4,2:0:0:0:
99,216,260629,1,2,2:3:0:0:
91,189,260727,1,0,2:0:0:0:
87,161,260826,1,0,2:0:0:0:
87,132,260925,1,0,2:0:0:0:
88,104,261023,1,2,2:0:0:0:
154,48,261221,1,2,2:3:0:0:
181,45,261319,1,0,2:0:0:0:
208,42,261418,1,0,2:0:0:0:
236,40,261517,1,0,2:0:0:0:
264,38,261616,1,0,2:0:0:0:
291,36,261714,1,0,2:0:0:0:
319,34,261813,1,2,2:0:0:0:
402,0,262010,5,2,2:3:0:0:
446,80,262208,1,0,2:0:0:0:
446,80,262306,1,2,2:0:0:0:
506,152,262504,1,0,2:0:0:0:
506,152,262602,1,2,2:0:0:0:
446,216,262800,1,0,2:0:0:0:
446,216,262898,1,2,2:0:0:0:
415,299,263096,1,0,2:0:0:0:
415,299,263194,1,2,2:0:0:0:
422,384,263392,1,0,2:0:0:0:
331,374,263589,101,4,2:0:0:0:
330,345,263688,1,0,2:0:0:0:
327,316,263787,1,0,2:0:0:0:
324,288,263885,1,0,2:0:0:0:
321,260,263984,1,0,2:0:0:0:
317,232,264083,1,0,2:0:0:0:
313,204,264181,1,2,2:0:0:0:
225,174,264379,1,2,2:3:0:0:
197,174,264477,1,0,2:0:0:0:
168,175,264576,1,0,2:0:0:0:
139,175,264675,1,0,2:0:0:0:
111,174,264773,1,0,2:0:0:0:
82,172,264872,1,0,2:0:0:0:
53,171,264971,1,2,2:0:0:0:
0,96,265168,5,2,2:3:0:0:
58,38,265366,1,0,2:0:0:0:
58,38,265464,1,2,2:0:0:0:
145,52,265662,1,0,2:0:0:0:
145,52,265760,1,2,2:0:0:0:
171,139,265958,1,0,2:0:0:0:
171,139,266056,1,2,2:0:0:0:
114,209,266254,1,0,2:0:0:0:
114,209,266352,1,2,2:0:0:0:
102,302,266550,1,0,2:0:0:0:
171,368,266747,101,4,2:0:0:0:
271,355,266944,1,2,2:3:0:0:
266,327,267043,1,0,2:0:0:0:
262,299,267142,1,0,2:0:0:0:
259,271,267241,1,0,2:0:0:0:
255,243,267339,1,0,2:0:0:0:
251,215,267438,1,0,2:0:0:0:
248,187,267537,1,2,2:0:0:0:
343,171,267734,1,2,2:3:0:0:
346,143,267833,1,0,2:0:0:0:
349,115,267931,1,0,2:0:0:0:
352,87,268030,1,0,2:0:0:0:
355,59,268129,1,0,2:0:0:0:
358,31,268227,1,0,2:0:0:0:
362,3,268326,5,4,2:0:0:0:
456,17,268523,1,2,2:3:0:0:
468,42,268622,1,2,2:0:0:0:
452,130,268819,1,2,2:3:0:0:
428,146,268918,1,2,2:0:0:0:
337,157,269116,1,2,2:0:0:0:
312,142,269214,1,0,2:0:0:0:
292,121,269313,1,0,2:0:0:0:
238,55,269510,1,2,2:0:0:0:
210,51,269609,1,0,2:0:0:0:
181,49,269708,1,0,2:0:0:0:
153,48,269806,1,0,2:0:0:0:
124,48,269905,101,4,2:0:0:0:
51,92,270102,1,2,2:3:0:0:
41,118,270201,1,2,2:0:0:0:
75,199,270398,1,2,2:3:0:0:
102,206,270497,1,2,2:0:0:0:
180,160,270694,1,2,2:3:0:0:
184,132,270793,1,2,2:0:0:0:
253,72,270991,1,2,2:3:0:0:
280,75,271089,1,2,2:0:0:0:
327,150,271287,1,2,2:0:0:0:
295,239,271484,5,4,2:0:0:0:
346,318,271681,1,2,2:3:0:0:
373,322,271780,1,2,2:0:0:0:
455,283,271977,1,2,2:3:0:0:
457,255,272076,1,2,2:0:0:0:
411,173,272273,1,2,2:0:0:0:
383,167,272372,1,0,2:0:0:0:
355,163,272471,1,0,2:0:0:0:
282,231,272668,1,2,2:0:0:0:
255,239,272767,1,0,2:0:0:0:
227,246,272866,1,0,2:0:0:0:
199,251,272964,1,0,2:0:0:0:
171,256,273063,101,4,2:0:0:0:
118,323,273260,1,2,2:3:0:0:
106,348,273359,1,2,2:0:0:0:
17,332,273556,1,2,2:3:0:0:
10,304,273655,1,2,2:0:0:0:
50,221,273852,1,2,2:3:0:0:
75,210,273951,1,2,2:0:0:0:
138,141,274148,1,2,2:3:0:0:
133,113,274247,1,2,2:0:0:0:
53,67,274444,1,2,2:0:0:0:
129,0,274642,5,4,2:0:0:0:
218,41,274839,1,2,2:3:0:0:
214,68,274938,1,0,2:0:0:0:
210,95,275037,1,2,2:0:0:0:
274,171,275234,1,2,2:3:0:0:
301,166,275333,1,0,2:0:0:0:
328,162,275431,1,0,2:0:0:0:
355,157,275530,1,0,2:0:0:0:
382,152,275629,1,2,2:0:0:0:
465,114,275826,1,2,2:3:0:0:
471,86,275925,1,0,2:0:0:0:
478,59,276023,1,0,2:0:0:0:
485,31,276122,1,0,2:0:0:0:
492,3,276221,101,4,2:0:0:0:
384,32,276418,1,2,2:3:0:0:
389,59,276517,1,2,2:0:0:0:
325,125,276714,1,2,2:3:0:0:
317,152,276813,1,2,2:0:0:0:
243,204,277010,1,2,2:3:0:0:
216,208,277109,1,2,2:0:0:0:
132,178,277306,1,2,2:3:0:0:
126,150,277405,1,2,2:0:0:0:
34,118,277602,1,2,2:0:0:0:
0,210,277800,5,4,2:0:0:0:
47,290,277997,1,2,2:3:0:0:
74,283,278096,1,0,2:0:0:0:
101,277,278194,1,2,2:0:0:0:
203,262,278392,1,2,2:3:0:0:
196,289,278491,1,0,2:0:0:0:
191,316,278589,1,0,2:0:0:0:
186,343,278688,1,0,2:0:0:0:
180,370,278787,1,2,2:0:0:0:
287,355,278984,1,2,2:3:0:0:
314,350,279083,1,0,2:0:0:0:
341,345,279181,1,0,2:0:0:0:
368,341,279280,1,0,2:0:0:0:
396,335,279379,102,0,L|401:287,7,35,4|0|0|0|0|0|0|0,2:0|2:0|2:0|2:0|2:0|2:0|2:0|2:0,2:0:0:0:
461,257,280168,2,0,L|447:198,7,35,2|0|0|0|0|0|0|0,2:0|2:0|2:0|2:0|2:0|2:0|2:0|2:0,2:0:0:0:
503,153,280958,37,8,3:0:0:0:
480,139,281056,1,0,2:0:0:0:
456,129,281155,1,0,2:0:0:0:
430,123,281254,1,0,2:0:0:0:
404,120,281352,1,8,3:0:0:0:
378,122,281451,1,0,2:0:0:0:
352,127,281550,1,0,2:0:0:0:
328,136,281648,1,0,2:0:0:0:
305,149,281747,1,8,3:0:0:0:
284,165,281846,1,0,2:0:0:0:
266,184,281944,1,0,2:0:0:0:
251,205,282043,1,0,2:0:0:0:
239,229,282142,1,8,3:0:0:0:
231,254,282241,1,0,2:0:0:0:
226,280,282339,1,0,2:0:0:0:
226,306,282438,1,0,2:0:0:0:
229,332,282537,69,4,2:0:0:0:
253,336,282635,1,0,2:0:0:0:
277,336,282734,1,0,2:0:0:0:
301,333,282833,1,0,2:0:0:0:
324,327,282931,1,8,3:0:0:0:
346,317,283030,1,0,2:0:0:0:
367,305,283129,1,0,2:0:0:0:
386,291,283227,1,0,2:0:0:0:
402,274,283326,1,8,3:0:0:0:
416,254,283425,1,0,2:0:0:0:
428,233,283523,1,0,2:0:0:0:
437,210,283622,1,0,2:0:0:0:
441,186,283721,1,8,3:0:0:0:
444,163,283819,1,0,2:0:0:0:
442,138,283918,1,0,2:0:0:0:
438,115,284017,1,0,2:0:0:0:
430,92,284116,37,4,2:0:0:0:
415,74,284214,1,0,2:0:0:0:
398,58,284313,1,0,2:0:0:0:
380,44,284412,1,0,2:0:0:0:
361,31,284510,1,8,3:0:0:0:
340,21,284609,1,0,2:0:0:0:
319,12,284708,1,0,2:0:0:0:
297,6,284806,1,0,2:0:0:0:
275,1,284905,1,8,3:0:0:0:
252,0,285004,1,0,2:0:0:0:
229,0,285102,1,0,2:0:0:0:
206,1,285201,1,0,2:0:0:0:
183,6,285300,1,8,3:0:0:0:
161,12,285398,1,0,2:0:0:0:
140,21,285497,1,0,2:0:0:0:
120,31,285596,1,0,2:0:0:0:
100,44,285694,1,8,3:0:0:0:
82,58,285793,1,0,2:0:0:0:
66,74,285892,1,0,2:0:0:0:
51,91,285991,1,0,2:0:0:0:
38,110,286089,1,8,3:0:0:0:
26,130,286188,1,0,2:0:0:0:
17,151,286287,1,0,2:0:0:0:
9,172,286385,1,0,2:0:0:0:
4,195,286484,1,8,3:0:0:0:
1,218,286583,1,0,2:0:0:0:
0,240,286681,1,0,2:0:0:0:
1,263,286780,1,0,2:0:0:0:
5,286,286879,1,8,3:0:0:0:
10,308,286977,1,0,2:0:0:0:
18,330,287076,1,0,2:0:0:0:
28,351,287175,1,0,2:0:0:0:
40,371,287273,69,4,2:0:0:0:
67,363,287372,1,0,2:0:0:0:
95,357,287471,1,0,2:0:0:0:
122,351,287569,1,0,2:0:0:0:
150,345,287668,1,8,3:0:0:0:
178,339,287767,1,0,2:0:0:0:
206,334,287866,1,0,2:0:0:0:
234,329,287964,1,0,2:0:0:0:
262,324,288063,1,8,3:0:0:0:
290,320,288162,1,0,2:0:0:0:
318,316,288260,1,0,2:0:0:0:
347,313,288359,1,0,2:0:0:0:
375,310,288458,1,8,3:0:0:0:
403,307,288556,1,0,2:0:0:0:
432,305,288655,1,0,2:0:0:0:
460,303,288754,1,0,2:0:0:0:
488,301,288852,37,4,2:0:0:0:
459,296,288951,1,0,2:0:0:0:
431,292,289050,1,0,2:0:0:0:
403,288,289148,1,0,2:0:0:0:
375,284,289247,1,8,3:0:0:0:
347,281,289346,1,0,2:0:0:0:
318,278,289444,1,0,2:0:0:0:
290,276,289543,1,0,2:0:0:0:
262,274,289642,1,8,3:0:0:0:
233,272,289741,1,0,2:0:0:0:
205,271,289839,1,0,2:0:0:0:
176,270,289938,1,0,2:0:0:0:
148,270,290037,1,8,3:0:0:0:
120,270,290135,1,0,2:0:0:0:
91,270,290234,1,0,2:0:0:0:
63,270,290333,1,0,2:0:0:0:
34,271,290431,69,4,2:0:0:0:
63,260,290530,1,0,2:0:0:0:
92,250,290629,1,0,2:0:0:0:
120,240,290727,1,0,2:0:0:0:
150,230,290826,1,8,3:0:0:0:
179,221,290925,1,0,2:0:0:0:
208,212,291023,1,0,2:0:0:0:
238,204,291122,1,0,2:0:0:0:
267,196,291221,1,8,3:0:0:0:
297,188,291319,1,0,2:0:0:0:
327,181,291418,1,0,2:0:0:0:
357,175,291517,1,0,2:0:0:0:
387,169,291616,1,8,3:0:0:0:
417,164,291714,1,0,2:0:0:0:
447,159,291813,1,0,2:0:0:0:
477,154,291912,1,0,2:0:0:0:
508,150,292010,37,4,2:0:0:0:
469,142,292109,1,0,2:0:0:0:
430,134,292208,1,0,2:0:0:0:
392,126,292306,1,0,2:0:0:0:
353,117,292405,1,8,3:0:0:0:
315,109,292504,1,0,2:0:0:0:
276,101,292602,1,0,2:0:0:0:
238,93,292701,1,0,2:0:0:0:
199,84,292800,2,0,L|191:36,3,35,8|0|0|0,3:0|2:0|2:0|2:0,2:0:0:0:
266,34,293194,2,0,L|259:-13,3,35,2|0|0|0,2:0|2:0|2:0|2:0,2:0:0:0:
335,83,293589,69,4,2:0:0:0:
348,105,293688,1,0,2:0:0:0:
356,130,293787,1,0,2:0:0:0:
360,156,293885,1,0,2:0:0:0:
359,182,293984,1,8,3:0:0:0:
353,208,294083,1,0,2:0:0:0:
343,232,294181,1,0,2:0:0:0:
328,253,294280,1,0,2:0:0:0:
309,271,294379,1,8,3:0:0:0:
287,286,294477,1,0,2:0:0:0:
263,296,294576,1,0,2:0:0:0:
237,302,294675,1,0,2:0:0:0:
211,302,294773,1,8,3:0:0:0:
185,298,294872,1,0,2:0:0:0:
161,289,294971,1,0,2:0:0:0:
138,275,295069,1,0,2:0:0:0:
119,258,295168,37,4,2:0:0:0:
134,245,295267,1,0,2:0:0:0:
147,230,295366,1,0,2:0:0:0:
156,213,295464,1,0,2:0:0:0:
163,195,295563,1,8,3:0:0:0:
167,175,295662,1,0,2:0:0:0:
168,156,295760,1,0,2:0:0:0:
165,136,295859,1,0,2:0:0:0:
159,118,295958,1,8,3:0:0:0:
150,100,296056,1,0,2:0:0:0:
138,85,296155,1,0,2:0:0:0:
123,71,296254,1,0,2:0:0:0:
107,60,296352,1,8,3:0:0:0:
89,53,296451,1,0,2:0:0:0:
70,48,296550,1,0,2:0:0:0:
50,46,296648,1,0,2:0:0:0:
31,48,296747,69,4,2:0:0:0:
30,68,296846,1,0,2:0:0:0:
30,89,296944,1,0,2:0:0:0:
32,110,297043,1,0,2:0:0:0:
35,130,297142,1,8,3:0:0:0:
40,150,297241,1,0,2:0:0:0:
46,170,297339,1,0,2:0:0:0:
54,190,297438,1,0,2:0:0:0:
62,209,297537,1,8,3:0:0:0:
72,227,297635,1,0,2:0:0:0:
84,244,297734,1,0,2:0:0:0:
96,261,297833,1,0,2:0:0:0:
110,277,297931,1,8,3:0:0:0:
124,291,298030,1,0,2:0:0:0:
140,305,298129,1,0,2:0:0:0:
156,318,298227,1,0,2:0:0:0:
174,329,298326,1,8,3:0:0:0:
192,339,298425,1,0,2:0:0:0:
210,348,298523,1,0,2:0:0:0:
230,356,298622,1,0,2:0:0:0:
250,362,298721,1,8,3:0:0:0:
270,367,298819,1,0,2:0:0:0:
290,371,298918,1,0,2:0:0:0:
311,373,299017,1,0,2:0:0:0:
332,374,299116,1,8,3:0:0:0:
352,373,299214,1,0,2:0:0:0:
373,371,299313,1,0,2:0:0:0:
394,367,299412,1,0,2:0:0:0:
414,362,299510,1,8,3:0:0:0:
433,356,299609,1,0,2:0:0:0:
453,348,299708,1,0,2:0:0:0:
472,340,299806,1,0,2:0:0:0:
490,329,299905,37,4,2:0:0:0:
464,322,300004,1,0,2:0:0:0:
438,317,300102,1,0,2:0:0:0:
413,311,300201,1,0,2:0:0:0:
387,306,300300,1,8,3:0:0:0:
361,301,300398,1,0,2:0:0:0:
335,296,300497,1,0,2:0:0:0:
310,291,300596,1,0,2:0:0:0:
284,287,300694,1,8,3:0:0:0:
258,283,300793,1,0,2:0:0:0:
232,279,300892,1,0,2:0:0:0:
206,275,300991,1,0,2:0:0:0:
180,271,301089,1,8,3:0:0:0:
154,268,301188,1,0,2:0:0:0:
128,265,301287,1,0,2:0:0:0:
102,262,301385,1,0,2:0:0:0:
75,261,301484,69,4,2:0:0:0:
102,255,301583,1,0,2:0:0:0:
130,248,301681,1,0,2:0:0:0:
157,240,301780,1,0,2:0:0:0:
184,231,301879,1,8,3:0:0:0:
211,221,301977,1,0,2:0:0:0:
237,210,302076,1,0,2:0:0:0:
263,198,302175,1,0,2:0:0:0:
288,185,302273,1,8,3:0:0:0:
313,172,302372,1,0,2:0:0:0:
338,157,302471,1,0,2:0:0:0:
361,142,302569,1,0,2:0:0:0:
385,125,302668,1,8,3:0:0:0:
407,108,302767,1,0,2:0:0:0:
429,90,302866,1,0,2:0:0:0:
451,71,302964,1,0,2:0:0:0:
471,51,303063,37,4,2:0:0:0:
479,80,303162,1,0,2:0:0:0:
483,110,303260,1,0,2:0:0:0:
484,141,303359,1,0,2:0:0:0:
480,171,303458,1,8,3:0:0:0:
473,201,303556,1,0,2:0:0:0:
462,230,303655,1,0,2:0:0:0:
447,256,303754,1,0,2:0:0:0:
429,281,303852,1,8,3:0:0:0:
408,303,303951,1,0,2:0:0:0:
385,323,304050,1,0,2:0:0:0:
359,339,304148,1,0,2:0:0:0:
331,352,304247,1,8,3:0:0:0:
301,361,304346,1,0,2:0:0:0:
271,366,304444,1,0,2:0:0:0:
241,367,304543,1,0,2:0:0:0:
210,364,304642,69,4,2:0:0:0:
231,339,304741,1,0,2:0:0:0:
248,311,304839,1,2,2:0:0:0:
259,280,304938,1,0,2:0:0:0:
266,248,305037,1,8,3:0:0:0:
267,215,305135,1,0,2:0:0:0:
263,183,305234,1,2,2:0:0:0:
254,151,305333,1,0,2:0:0:0:
239,122,305431,1,8,3:0:0:0:
220,95,305530,1,0,2:0:0:0:
197,72,305629,1,2,2:0:0:0:
171,52,305727,1,0,2:0:0:0:
142,38,305826,1,8,3:0:0:0:
110,28,305925,1,0,2:0:0:0:
78,23,306023,1,2,2:0:0:0:
45,24,306122,1,0,2:0:0:0:
13,30,306221,53,4,2:0:0:0:
8,68,306319,1,0,2:0:0:0:
7,106,306418,1,0,2:0:0:0:
6,144,306517,1,0,2:0:0:0:
5,182,306616,1,2,2:0:0:0:
77,257,306813,1,8,3:0:0:0:
115,256,306912,1,0,2:0:0:0:
153,255,307010,1,0,2:0:0:0:
191,255,307109,1,0,2:0:0:0:
229,253,307208,1,2,2:0:0:0:
305,196,307405,1,8,3:0:0:0:
304,158,307504,1,0,2:0:0:0:
303,120,307602,1,0,2:0:0:0:
303,82,307701,1,0,2:0:0:0:
301,44,307800,1,4,2:0:0:0:
339,41,307898,1,0,2:0:0:0:
377,39,307997,1,0,2:0:0:0:
415,39,308096,1,0,2:0:0:0:
453,37,308194,1,2,2:0:0:0:
511,111,308392,1,8,3:0:0:0:
510,149,308491,1,0,2:0:0:0:
511,187,308589,1,0,2:0:0:0:
511,225,308688,1,0,2:0:0:0:
512,263,308787,1,2,2:0:0:0:
475,355,308984,1,8,3:0:0:0:
436,358,309083,1,0,2:0:0:0:
397,361,309181,1,0,2:0:0:0:
358,361,309280,1,0,2:0:0:0:
319,362,309379,1,4,2:0:0:0:
316,323,309477,1,0,2:0:0:0:
314,284,309576,1,0,2:0:0:0:
311,245,309675,1,0,2:0:0:0:
306,206,309773,1,2,2:0:0:0:
234,135,309971,1,8,3:0:0:0:
195,135,310069,1,0,2:0:0:0:
156,135,310168,1,0,2:0:0:0:
117,134,310267,1,0,2:0:0:0:
78,133,310366,1,2,2:0:0:0:
12,188,310563,1,8,3:0:0:0:
9,226,310662,1,0,2:0:0:0:
4,264,310760,1,0,2:0:0:0:
2,302,310859,1,0,2:0:0:0:
0,340,310958,1,4,2:0:0:0:
37,344,311056,1,0,2:0:0:0:
75,346,311155,1,0,2:0:0:0:
113,347,311254,1,0,2:0:0:0:
151,348,311352,1,2,2:0:0:0:
233,384,311550,1,8,3:0:0:0:
233,345,311648,1,0,2:0:0:0:
233,306,311747,1,0,2:0:0:0:
232,267,311846,1,0,2:0:0:0:
232,228,311944,1,2,2:0:0:0:
276,156,312142,1,8,3:0:0:0:
276,117,312241,1,0,2:0:0:0:
276,78,312339,1,0,2:0:0:0:
275,39,312438,1,0,2:0:0:0:
275,0,312537,53,4,2:0:0:0:
301,2,312635,1,0,2:0:0:0:
327,4,312734,1,0,2:0:0:0:
353,5,312833,1,0,2:0:0:0:
379,6,312931,1,8,3:0:0:0:
406,6,313030,1,0,2:0:0:0:
432,5,313129,1,0,2:0:0:0:
458,4,313227,1,0,2:0:0:0:
484,1,313326,1,8,3:0:0:0:
481,27,313425,1,0,2:0:0:0:
479,53,313523,1,0,2:0:0:0:
478,79,313622,1,0,2:0:0:0:
477,105,313721,1,8,3:0:0:0:
477,132,313819,1,0,2:0:0:0:
478,158,313918,1,2,2:0:0:0:
416,226,314116,1,4,2:0:0:0:
390,228,314214,1,0,2:0:0:0:
364,230,314313,1,0,2:0:0:0:
338,231,314412,1,0,2:0:0:0:
312,232,314510,1,8,3:0:0:0:
285,232,314609,1,0,2:0:0:0:
259,231,314708,1,0,2:0:0:0:
233,230,314806,1,0,2:0:0:0:
207,227,314905,1,8,3:0:0:0:
210,253,315004,1,0,2:0:0:0:
212,279,315102,1,0,2:0:0:0:
213,305,315201,1,0,2:0:0:0:
214,331,315300,1,8,3:0:0:0:
214,358,315398,1,0,2:0:0:0:
213,384,315497,1,2,2:0:0:0:
118,354,315694,1,4,2:0:0:0:
117,325,315793,1,0,2:0:0:0:
116,296,315892,1,0,2:0:0:0:
114,267,315991,1,0,2:0:0:0:
113,239,316089,1,8,3:0:0:0:
85,236,316188,1,0,2:0:0:0:
57,233,316287,1,0,2:0:0:0:
29,231,316385,1,0,2:0:0:0:
0,229,316484,1,8,3:0:0:0:
2,201,316583,1,0,2:0:0:0:
4,173,316681,1,0,2:0:0:0:
6,145,316780,1,0,2:0:0:0:
8,117,316879,1,8,3:0:0:0:
10,89,316977,1,0,2:0:0:0:
13,61,317076,1,2,2:0:0:0:
106,8,317273,1,4,2:0:0:0:
137,9,317372,1,0,2:0:0:0:
168,10,317471,1,0,2:0:0:0:
199,11,317569,1,0,2:0:0:0:
230,12,317668,1,8,3:0:0:0:
234,43,317767,1,0,2:0:0:0:
236,74,317866,1,0,2:0:0:0:
238,105,317964,1,0,2:0:0:0:
238,136,318063,1,8,3:0:0:0:
268,145,318162,1,0,2:0:0:0:
298,150,318260,1,0,2:0:0:0:
329,155,318359,1,0,2:0:0:0:
360,159,318458,1,8,3:0:0:0:
368,188,318556,1,0,2:0:0:0:
374,218,318655,1,0,2:0:0:0:
378,249,318754,1,0,2:0:0:0:
381,280,318852,53,4,2:0:0:0:
343,287,318951,1,0,2:0:0:0:
304,293,319050,1,0,2:0:0:0:
265,297,319148,1,0,2:0:0:0:
226,300,319247,1,2,2:0:0:0:
164,381,319444,1,8,3:0:0:0:
125,376,319543,1,0,2:0:0:0:
86,372,319642,1,0,2:0:0:0:
47,367,319741,1,0,2:0:0:0:
9,360,319839,1,2,2:0:0:0:
71,258,320037,1,8,3:0:0:0:
64,220,320135,1,0,2:0:0:0:
58,181,320234,1,0,2:0:0:0:
52,142,320333,1,0,2:0:0:0:
45,104,320431,1,4,2:0:0:0:
81,91,320530,1,0,2:0:0:0:
117,78,320629,1,0,2:0:0:0:
153,65,320727,1,0,2:0:0:0:
188,50,320826,1,2,2:0:0:0:
289,8,321023,1,8,3:0:0:0:
326,15,321122,1,0,2:0:0:0:
363,22,321221,1,0,2:0:0:0:
400,29,321319,1,0,2:0:0:0:
437,37,321418,1,2,2:0:0:0:
492,129,321616,1,8,3:0:0:0:
486,166,321714,1,0,2:0:0:0:
482,204,321813,1,0,2:0:0:0:
478,242,321912,1,0,2:0:0:0:
474,280,322010,1,4,2:0:0:0:
435,274,322109,1,0,2:0:0:0:
396,268,322208,1,0,2:0:0:0:
358,261,322306,1,0,2:0:0:0:
319,254,322405,1,2,2:0:0:0:
246,196,322602,1,8,3:0:0:0:
246,157,322701,1,0,2:0:0:0:
246,118,322800,1,0,2:0:0:0:
245,79,322898,1,0,2:0:0:0:
242,40,322997,1,2,2:0:0:0:
158,6,323194,1,8,3:0:0:0:
120,13,323293,1,0,2:0:0:0:
81,19,323392,1,0,2:0:0:0:
43,27,323491,1,0,2:0:0:0:
5,35,323589,1,4,2:0:0:0:
9,73,323688,1,0,2:0:0:0:
11,111,323787,1,0,2:0:0:0:
14,149,323885,1,0,2:0:0:0:
17,187,323984,1,2,2:0:0:0:
56,286,324181,1,8,3:0:0:0:
91,302,324280,1,0,2:0:0:0:
126,317,324379,1,0,2:0:0:0:
162,329,324477,1,0,2:0:0:0:
198,342,324576,1,2,2:0:0:0:
314,342,324773,1,8,3:0:0:0:
350,329,324872,1,0,2:0:0:0:
386,317,324971,1,0,2:0:0:0:
421,302,325069,1,0,2:0:0:0:
456,286,325168,53,4,2:0:0:0:
454,254,325267,1,0,2:0:0:0:
453,222,325366,1,0,2:0:0:0:
453,190,325464,1,0,2:0:0:0:
452,158,325563,1,8,3:0:0:0:
421,151,325662,1,0,2:0:0:0:
389,147,325760,1,0,2:0:0:0:
358,139,325859,1,0,2:0:0:0:
327,131,325958,1,8,3:0:0:0:
324,99,326056,1,0,2:0:0:0:
321,67,326155,1,0,2:0:0:0:
317,35,326254,1,0,2:0:0:0:
314,3,326352,1,8,3:0:0:0:
282,5,326451,1,0,2:0:0:0:
250,9,326550,1,0,2:0:0:0:
219,13,326648,1,0,2:0:0:0:
187,16,326747,1,4,2:0:0:0:
191,47,326846,1,0,2:0:0:0:
195,77,326944,1,0,2:0:0:0:
198,108,327043,1,0,2:0:0:0:
202,139,327142,1,8,3:0:0:0:
233,135,327241,1,0,2:0:0:0:
264,131,327339,1,0,2:0:0:0:
295,128,327438,1,0,2:0:0:0:
326,124,327537,1,8,3:0:0:0:
334,153,327635,1,0,2:0:0:0:
341,183,327734,1,0,2:0:0:0:
346,214,327833,1,0,2:0:0:0:
352,244,327931,1,8,3:0:0:0:
321,253,328030,1,0,2:0:0:0:
290,259,328129,1,0,2:0:0:0:
259,264,328227,1,0,2:0:0:0:
227,269,328326,1,4,2:0:0:0:
192,262,328425,1,0,2:0:0:0:
158,254,328523,1,0,2:0:0:0:
123,245,328622,1,0,2:0:0:0:
89,234,328721,1,8,3:0:0:0:
78,200,328819,1,0,2:0:0:0:
67,166,328918,1,0,2:0:0:0:
57,132,329017,1,0,2:0:0:0:
49,97,329116,1,8,3:0:0:0:
77,77,329214,1,0,2:0:0:0:
106,57,329313,1,0,2:0:0:0:
135,37,329412,1,0,2:0:0:0:
164,18,329510,1,8,3:0:0:0:
196,30,329609,1,0,2:0:0:0:
228,42,329708,1,0,2:0:0:0:
260,53,329806,1,0,2:0:0:0:
291,67,329905,1,8,3:0:0:0:
293,102,330004,1,0,2:0:0:0:
291,136,330102,1,0,2:0:0:0:
289,171,330201,1,0,2:0:0:0:
285,205,330300,1,4,2:0:0:0:
223,299,330497,1,2,2:0:0:0:
124,278,330694,2,0,L|67:289,3,35,8|0|0|0,3:0|2:0|2:0|2:0,2:0:0:0:
35,333,331089,2,0,L|-16:343,3,35,0|0|0|0,2:0|2:0|2:0|2:0,2:0:0:0:
102,380,331484,53,4,2:0:0:0:
143,372,331583,1,0,2:0:0:0:
176,346,331681,1,0,2:0:0:0:
192,307,331780,1,0,2:0:0:0:
192,264,331879,1,2,2:0:0:0:
86,208,332076,1,8,3:0:0:0:
52,182,332175,1,0,2:0:0:0:
33,144,332273,1,0,2:0:0:0:
29,102,332372,1,0,2:0:0:0:
40,61,332471,1,2,2:0:0:0:
146,9,332668,1,8,3:0:0:0:
174,40,332767,1,0,2:0:0:0:
212,57,332866,1,2,2:0:0:0:
330,21,333063,101,4,2:0:0:0:
369,34,333162,1,0,2:0:0:0:
400,60,333260,1,0,2:0:0:0:
422,95,333359,1,0,2:0:0:0:
435,135,333458,1,2,2:0:0:0:
403,257,333655,1,8,3:0:0:0:
365,275,333754,1,0,2:0:0:0:
324,285,333852,1,0,2:0:0:0:
282,290,333951,1,0,2:0:0:0:
239,287,334050,1,2,2:0:0:0:
137,207,334247,1,8,3:0:0:0:
170,181,334346,1,0,2:0:0:0:
189,144,334444,1,2,2:0:0:0:
153,9,334642,5,4,2:0:0:0:
110,11,334741,1,0,2:0:0:0:
71,27,334839,1,0,2:0:0:0:
45,60,334938,1,0,2:0:0:0:
38,101,335037,1,2,2:0:0:0:
145,161,335234,1,8,3:0:0:0:
186,152,335333,1,0,2:0:0:0:
227,145,335431,1,0,2:0:0:0:
268,140,335530,1,0,2:0:0:0:
309,135,335629,1,2,2:0:0:0:
410,196,335826,1,8,3:0:0:0:
420,236,335925,1,0,2:0:0:0:
412,277,336023,1,2,2:0:0:0:
319,383,336221,101,4,2:0:0:0:
277,374,336319,1,0,2:0:0:0:
249,342,336418,1,0,2:0:0:0:
242,300,336517,1,0,2:0:0:0:
262,263,336616,1,2,2:0:0:0:
351,212,336813,1,8,3:0:0:0:
371,175,336912,1,0,2:0:0:0:
387,136,337010,1,0,2:0:0:0:
393,94,337109,1,0,2:0:0:0:
388,52,337208,1,2,2:0:0:0:
273,15,337405,1,8,3:0:0:0:
235,34,337504,1,0,2:0:0:0:
195,48,337602,1,0,2:0:0:0:
153,56,337701,1,0,2:0:0:0:
111,64,337800,5,4,2:0:0:0:
110,105,337898,1,0,2:0:0:0:
93,143,337997,1,0,2:0:0:0:
60,169,338096,1,0,2:0:0:0:
18,174,338194,1,2,2:0:0:0:
38,22,338392,1,8,3:0:0:0:
77,36,338491,1,0,2:0:0:0:
116,48,338589,1,0,2:0:0:0:
156,59,338688,1,0,2:0:0:0:
196,69,338787,1,2,2:0:0:0:
294,154,338984,1,8,3:0:0:0:
329,131,339083,1,0,2:0:0:0:
343,91,339181,1,2,2:0:0:0:
439,14,339379,101,4,2:0:0:0:
473,38,339477,1,0,2:0:0:0:
495,73,339576,1,0,2:0:0:0:
505,113,339675,1,0,2:0:0:0:
505,154,339773,1,2,2:0:0:0:
401,262,339971,1,8,3:0:0:0:
361,247,340069,1,0,2:0:0:0:
339,210,340168,1,0,2:0:0:0:
339,167,340267,1,0,2:0:0:0:
364,133,340366,1,2,2:0:0:0:
492,239,340563,1,8,3:0:0:0:
501,280,340662,1,0,2:0:0:0:
484,318,340760,1,2,2:0:0:0:
359,377,340958,5,4,2:0:0:0:
327,350,341056,1,0,2:0:0:0:
289,331,341155,1,0,2:0:0:0:
248,320,341254,1,0,2:0:0:0:
206,314,341352,1,2,2:0:0:0:
59,353,341550,1,8,3:0:0:0:
80,317,341648,1,0,2:0:0:0:
91,276,341747,1,0,2:0:0:0:
100,234,341846,1,0,2:0:0:0:
100,192,341944,1,2,2:0:0:0:
72,48,342142,1,8,3:0:0:0:
31,61,342241,1,0,2:0:0:0:
8,95,342339,1,2,2:0:0:0:
150,104,342537,101,4,2:0:0:0:
185,125,342635,1,0,2:0:0:0:
205,161,342734,1,0,2:0:0:0:
211,202,342833,1,0,2:0:0:0:
199,242,342931,1,2,2:0:0:0:
277,330,343129,1,8,3:0:0:0:
314,311,343227,1,0,2:0:0:0:
353,296,343326,1,0,2:0:0:0:
393,285,343425,1,0,2:0:0:0:
434,277,343523,1,0,2:0:0:0:
434,234,343622,1,0,2:0:0:0:
438,192,343721,1,8,3:0:0:0:
399,177,343819,1,0,2:0:0:0:
359,161,343918,1,0,2:0:0:0:
320,142,344017,1,0,2:0:0:0:
284,118,344116,5,4,2:0:0:0:
289,76,344214,1,0,2:0:0:0:
321,48,344313,1,0,2:0:0:0:
363,46,344412,1,0,2:0:0:0:
398,68,344510,1,2,2:0:0:0:
466,186,344708,1,8,3:0:0:0:
432,211,344806,1,0,2:0:0:0:
412,248,344905,1,0,2:0:0:0:
398,288,345004,1,0,2:0:0:0:
392,329,345102,1,2,2:0:0:0:
263,378,345300,1,8,3:0:0:0:
275,338,345398,1,0,2:0:0:0:
265,297,345497,1,0,2:0:0:0:
233,269,345596,1,0,2:0:0:0:
191,266,345694,101,4,2:0:0:0:
149,256,345793,1,0,2:0:0:0:
107,250,345892,1,0,2:0:0:0:
65,243,345991,1,0,2:0:0:0:
23,236,346089,1,8,3:0:0:0:
30,194,346188,1,0,2:0:0:0:
36,152,346287,1,0,2:0:0:0:
40,110,346385,1,0,2:0:0:0:
44,68,346484,1,2,0:2:0:0:
158,10,346681,1,8,3:0:0:0:
200,8,346780,1,0,2:0:0:0:
239,23,346879,1,0,2:0:0:0:
265,55,346977,1,0,2:0:0:0:
269,96,347076,1,2,2:0:0:0:
339,249,347273,5,4,2:0:0:0:
380,240,347372,1,0,2:0:0:0:
414,216,347471,1,0,2:0:0:0:
435,180,347569,1,0,2:0:0:0:
441,138,347668,1,8,3:0:0:0:
401,123,347767,1,0,2:0:0:0:
359,115,347866,1,0,2:0:0:0:
317,109,347964,1,0,2:0:0:0:
275,102,348063,1,8,3:0:0:0:
261,141,348162,1,0,2:0:0:0:
251,181,348260,1,0,2:0:0:0:
244,222,348359,1,0,2:0:0:0:
238,263,348458,1,8,3:0:0:0:
196,259,348556,1,0,2:0:0:0:
155,271,348655,1,0,2:0:0:0:
126,301,348754,1,0,2:0:0:0:
114,341,348852,101,4,2:0:0:0:
255,384,349050,1,8,3:0:0:0:
258,342,349148,1,0,2:0:0:0:
260,299,349247,1,0,2:0:0:0:
261,256,349346,1,0,2:0:0:0:
261,214,349444,1,2,2:0:0:0:
165,115,349642,1,8,3:0:0:0:
205,103,349741,1,0,2:0:0:0:
245,94,349839,1,0,2:0:0:0:
286,85,349938,1,0,2:0:0:0:
327,76,350037,1,8,3:0:0:0:
289,57,350135,1,0,2:0:0:0:
250,39,350234,1,0,2:0:0:0:
210,24,350333,1,0,2:0:0:0:
171,8,350431,5,4,2:0:0:0:
148,43,350530,1,0,2:0:0:0:
116,70,350629,1,0,2:0:0:0:
75,78,350727,1,0,2:0:0:0:
33,73,350826,1,8,3:0:0:0:
37,114,350925,1,0,2:0:0:0:
40,155,351023,1,0,2:0:0:0:
43,197,351122,1,0,2:0:0:0:
45,239,351221,1,8,3:0:0:0:
74,250,351319,1,0,2:0:0:0:
103,261,351418,1,0,2:0:0:0:
132,271,351517,1,0,2:0:0:0:
161,281,351616,1,8,3:0:0:0:
198,273,351714,1,0,2:0:0:0:
235,265,351813,1,0,2:0:0:0:
272,257,351912,1,0,2:0:0:0:
309,250,352010,101,4,2:0:0:0:
351,250,352109,1,0,2:0:0:0:
385,274,352208,1,0,2:0:0:0:
407,308,352306,1,0,2:0:0:0:
412,349,352405,1,2,2:0:0:0:
512,250,352602,1,8,3:0:0:0:
471,236,352701,1,0,2:0:0:0:
442,204,352800,1,0,2:0:0:0:
431,163,352898,1,0,2:0:0:0:
441,122,352997,1,2,2:0:0:0:
506,7,353194,1,8,3:0:0:0:
464,14,353293,1,0,2:0:0:0:
423,21,353392,1,0,2:0:0:0:
380,29,353491,1,0,2:0:0:0:
339,38,353589,37,4,2:0:0:0:
337,48,353688,1,0,2:0:0:0:
335,58,353787,1,0,2:0:0:0:
334,68,353885,1,0,2:0:0:0:
333,78,353984,1,2,2:0:0:0:
332,88,354083,1,0,2:0:0:0:
331,98,354181,1,0,2:0:0:0:
330,108,354280,1,0,2:0:0:0:
329,118,354379,1,2,2:0:0:0:
328,128,354477,1,0,2:0:0:0:
327,138,354576,1,0,2:0:0:0:
326,148,354675,1,0,2:0:0:0:
325,158,354773,1,2,2:0:0:0:
324,168,354872,1,0,2:0:0:0:
322,178,354971,1,0,2:0:0:0:
321,188,355069,1,0,2:0:0:0:
320,200,355168,6,0,L|266:210,7,35,4|0|0|0|0|0|0|0,2:0|2:0|2:0|2:0|2:0|2:0|2:0|2:0,2:0:0:0:
219,167,355958,2,0,L|165:177,7,35,2|0|0|0|0|0|0|0,2:2|2:0|2:0|2:0|2:0|2:0|2:0|2:0,2:0:0:0:
176,93,356747,85,4,2:0:0:0:
147,79,356846,1,0,2:0:0:0:
115,76,356944,1,0,2:0:0:0:
84,85,357043,1,0,2:0:0:0:
60,106,357142,1,8,3:0:0:0:
46,134,357241,1,0,2:0:0:0:
42,165,357339,1,0,2:0:0:0:
48,196,357438,1,0,2:0:0:0:
65,222,357537,1,8,3:0:0:0:
91,238,357635,1,0,2:0:0:0:
121,244,357734,1,0,2:0:0:0:
152,242,357833,1,0,2:0:0:0:
183,244,357931,1,8,3:0:0:0:
212,256,358030,1,0,2:0:0:0:
235,276,358129,1,0,2:0:0:0:
247,304,358227,1,0,2:0:0:0:
255,334,358326,37,4,2:0:0:0:
222,346,358425,1,0,2:0:0:0:
188,335,358523,1,0,2:0:0:0:
167,306,358622,1,0,2:0:0:0:
165,270,358721,1,8,3:0:0:0:
182,239,358819,1,0,2:0:0:0:
214,225,358918,1,0,2:0:0:0:
248,219,359017,1,0,2:0:0:0:
279,204,359116,1,8,3:0:0:0:
300,176,359214,1,0,2:0:0:0:
307,141,359313,1,0,2:0:0:0:
296,107,359412,1,0,2:0:0:0:
269,84,359510,1,8,3:0:0:0:
233,81,359609,1,0,2:0:0:0:
199,92,359708,1,0,2:0:0:0:
177,119,359806,1,0,2:0:0:0:
171,153,359905,37,4,2:0:0:0:
194,183,360004,1,0,2:0:0:0:
227,201,360102,1,0,2:0:0:0:
263,214,360201,1,0,2:0:0:0:
300,224,360300,1,8,3:0:0:0:
337,231,360398,1,0,2:0:0:0:
375,235,360497,1,2,2:3:0:0:
413,237,360596,1,0,2:0:0:0:
451,233,360694,1,8,3:0:0:0:
486,217,360793,1,0,2:0:0:0:
500,181,360892,1,0,2:0:0:0:
493,142,360991,1,0,2:0:0:0:
462,118,361089,1,8,3:0:0:0:
423,111,361188,1,0,2:0:0:0:
387,96,361287,1,2,2:3:0:0:
363,65,361385,1,0,2:0:0:0:
353,27,361484,101,4,2:0:0:0:
392,12,361583,1,0,2:0:0:0:
432,21,361681,1,2,2:0:0:0:
460,52,361780,1,0,2:0:0:0:
473,91,361879,1,8,3:0:0:0:
466,132,361977,1,0,2:0:0:0:
436,162,362076,1,2,2:3:0:0:
395,172,362175,1,0,2:0:0:0:
353,165,362273,1,8,3:0:0:0:
322,135,362372,1,0,2:0:0:0:
305,96,362471,1,2,2:0:0:0:
276,65,362569,1,0,2:0:0:0:
238,46,362668,1,8,3:0:0:0:
195,45,362767,1,0,2:0:0:0:
157,64,362866,1,2,2:3:0:0:
135,99,362964,1,0,2:0:0:0:
130,140,363063,37,4,2:0:0:0:
107,166,363162,1,0,2:0:0:0:
72,166,363260,1,0,2:0:0:0:
48,139,363359,1,0,2:0:0:0:
51,104,363458,1,8,3:0:0:0:
80,85,363556,1,0,2:0:0:0:
114,88,363655,1,0,2:0:0:0:
136,115,363754,1,0,2:0:0:0:
138,149,363852,1,8,3:0:0:0:
112,173,363951,1,0,2:0:0:0:
97,205,364050,1,0,2:0:0:0:
93,239,364148,1,0,2:0:0:0:
103,272,364247,1,8,3:0:0:0:
126,297,364346,1,0,2:0:0:0:
158,308,364444,1,0,2:0:0:0:
193,306,364543,1,0,2:0:0:0:
222,286,364642,37,4,2:0:0:0:
224,247,364741,1,0,2:0:0:0:
237,211,364839,1,0,2:0:0:0:
267,187,364938,1,0,2:0:0:0:
304,177,365037,1,8,3:0:0:0:
342,180,365135,1,0,2:0:0:0:
375,198,365234,1,0,2:0:0:0:
400,227,365333,1,0,2:0:0:0:
413,262,365431,1,8,3:0:0:0:
415,300,365530,1,0,2:0:0:0:
401,336,365629,1,0,2:0:0:0:
368,356,365727,1,0,2:0:0:0:
329,356,365826,1,8,3:0:0:0:
301,329,365925,1,0,2:0:0:0:
301,290,366023,1,0,2:0:0:0:
329,263,366122,1,0,2:0:0:0:
367,264,366221,37,4,2:0:0:0:
397,235,366319,1,0,2:0:0:0:
407,194,366418,1,0,2:0:0:0:
400,152,366517,1,0,2:0:0:0:
370,122,366616,1,8,3:0:0:0:
330,109,366714,1,0,2:0:0:0:
288,113,366813,1,2,2:3:0:0:
249,129,366912,1,0,2:0:0:0:
226,164,367010,1,8,3:0:0:0:
213,204,367109,1,0,2:0:0:0:
209,246,367208,1,0,2:0:0:0:
202,287,367306,1,0,2:0:0:0:
178,321,367405,1,8,3:0:0:0:
140,339,367504,1,0,2:0:0:0:
98,341,367602,1,2,2:3:0:0:
57,330,367701,1,0,2:0:0:0:
34,294,367800,101,4,2:0:0:0:
72,269,367898,1,0,2:0:0:0:
104,236,367997,1,2,2:0:0:0:
122,194,368096,1,0,2:0:0:0:
128,149,368194,1,8,3:0:0:0:
118,104,368293,1,0,2:0:0:0:
122,58,368392,1,2,2:3:0:0:
157,28,368491,1,0,2:0:0:0:
202,26,368589,1,8,3:0:0:0:
237,54,368688,1,0,2:0:0:0:
247,98,368787,1,2,2:0:0:0:
262,140,368885,1,0,2:0:0:0:
296,170,368984,1,8,3:0:0:0:
341,174,369083,1,0,2:0:0:0:
382,156,369181,1,2,2:3:0:0:
402,114,369280,1,0,2:0:0:0:
398,69,369379,37,4,2:0:0:0:
431,48,369477,1,0,2:0:0:0:
467,59,369576,1,0,2:0:0:0:
480,95,369675,1,0,2:0:0:0:
459,127,369773,1,8,3:0:0:0:
422,140,369872,1,0,2:0:0:0:
388,159,369971,1,0,2:0:0:0:
363,188,370069,1,0,2:0:0:0:
354,225,370168,1,8,3:0:0:0:
359,263,370267,1,0,2:0:0:0:
379,295,370366,1,0,2:0:0:0:
413,312,370464,1,0,2:0:0:0:
451,315,370563,1,8,3:0:0:0:
485,296,370662,1,0,2:0:0:0:
492,258,370760,1,0,2:0:0:0:
469,226,370859,1,0,2:0:0:0:
429,227,370958,37,4,2:0:0:0:
392,246,371056,1,0,2:0:0:0:
352,259,371155,1,0,2:0:0:0:
310,263,371254,1,0,2:0:0:0:
268,256,371352,1,8,3:0:0:0:
234,230,371451,1,0,2:0:0:0:
217,191,371550,1,0,2:0:0:0:
212,149,371648,1,0,2:0:0:0:
204,107,371747,1,8,3:0:0:0:
189,67,371846,1,0,2:0:0:0:
154,43,371944,1,0,2:0:0:0:
112,38,372043,1,0,2:0:0:0:
76,61,372142,1,8,3:0:0:0:
62,100,372241,1,0,2:0:0:0:
79,138,372339,1,0,2:0:0:0:
117,154,372438,1,0,2:0:0:0:
158,149,372537,37,4,2:0:0:0:
193,176,372635,1,0,2:0:0:0:
214,216,372734,1,0,2:0:0:0:
215,260,372833,1,0,2:0:0:0:
196,301,372931,1,8,3:0:0:0:
155,321,373030,1,0,2:0:0:0:
109,320,373129,1,2,2:3:0:0:
69,297,373227,1,0,2:0:0:0:
55,253,373326,1,8,3:0:0:0:
57,207,373425,1,0,2:0:0:0:
82,169,373523,1,0,2:0:0:0:
121,147,373622,1,0,2:0:0:0:
151,113,373721,1,8,3:0:0:0:
150,67,373819,1,0,2:0:0:0:
121,31,373918,1,2,2:3:0:0:
77,18,374017,1,0,2:0:0:0:
34,35,374116,101,4,2:0:0:0:
13,78,374214,1,0,2:0:0:0:
13,127,374313,1,2,2:0:0:0:
43,165,374412,1,0,2:0:0:0:
89,178,374510,1,8,3:0:0:0:
136,166,374609,1,0,2:0:0:0:
165,126,374708,1,2,2:3:0:0:
193,86,374806,1,0,2:0:0:0:
239,68,374905,1,8,3:0:0:0:
287,76,375004,1,0,2:0:0:0:
316,114,375102,1,2,2:0:0:0:
315,163,375201,1,0,2:0:0:0:
312,212,375300,1,8,3:0:0:0:
328,257,375398,1,0,2:0:0:0:
367,286,375497,1,2,2:3:0:0:
415,294,375596,1,0,2:0:0:0:
460,276,375694,37,4,2:0:0:0:
462,241,375793,1,0,2:0:0:0:
442,212,375892,1,0,2:0:0:0:
407,203,375991,1,0,2:0:0:0:
374,215,376089,1,8,3:0:0:0:
359,246,376188,1,0,2:0:0:0:
359,281,376287,1,0,2:0:0:0:
352,315,376385,1,0,2:0:0:0:
333,344,376484,1,8,3:0:0:0:
301,358,376583,1,0,2:0:0:0:
266,354,376681,1,0,2:0:0:0:
240,330,376780,1,0,2:0:0:0:
233,295,376879,1,8,3:0:0:0:
247,263,376977,1,0,2:0:0:0:
273,240,377076,1,0,2:0:0:0:
285,207,377175,1,0,2:0:0:0:
278,172,377273,37,4,2:0:0:0:
239,155,377372,1,0,2:0:0:0:
212,122,377471,1,0,2:0:0:0:
206,80,377569,1,0,2:0:0:0:
227,43,377668,1,8,3:0:0:0:
266,27,377767,1,0,2:0:0:0:
307,31,377866,1,0,2:0:0:0:
339,56,377964,1,0,2:0:0:0:
350,96,378063,1,8,3:0:0:0:
347,138,378162,1,0,2:0:0:0:
317,167,378260,1,0,2:0:0:0:
276,177,378359,1,0,2:0:0:0:
233,177,378458,1,8,3:0:0:0:
193,190,378556,1,0,2:0:0:0:
162,219,378655,1,0,2:0:0:0:
140,255,378754,1,0,2:0:0:0:
138,296,378852,37,4,2:0:0:0:
101,329,378951,1,0,2:0:0:0:
51,329,379050,1,0,2:0:0:0:
25,287,379148,1,0,2:0:0:0:
36,239,379247,1,8,3:0:0:0:
77,213,379346,1,0,2:0:0:0:
113,180,379444,1,2,2:3:0:0:
114,130,379543,1,0,2:0:0:0:
83,91,379642,1,8,3:0:0:0:
76,42,379741,1,0,2:0:0:0:
106,4,379839,1,0,2:0:0:0:
155,2,379938,1,0,2:0:0:0:
186,40,380037,1,8,3:0:0:0:
194,87,380135,1,0,2:0:0:0:
205,134,380234,1,2,2:3:0:0:
249,155,380333,1,0,2:0:0:0:
294,137,380431,101,4,2:0:0:0:
304,81,380530,1,0,2:0:0:0:
260,45,380629,1,2,2:0:0:0:
203,53,380727,1,0,2:0:0:0:
178,103,380826,1,8,3:0:0:0:
194,156,380925,1,0,2:0:0:0:
187,211,381023,1,2,2:0:0:0:
152,255,381122,1,0,2:0:0:0:
138,310,381221,1,8,3:0:0:0:
158,361,381319,1,0,2:0:0:0:
211,377,381418,1,2,2:0:0:0:
262,353,381517,1,0,2:0:0:0:
277,298,381616,1,8,3:0:0:0:
310,253,381714,1,0,2:0:0:0:
364,240,381813,1,2,2:0:0:0:
416,258,381912,1,0,2:0:0:0:
454,298,382010,53,4,2:0:0:0:
512,221,382208,1,2,2:3:0:0:
508,203,382306,1,0,2:0:0:0:
505,186,382405,1,0,2:0:0:0:
503,169,382504,1,0,2:0:0:0:
501,151,382602,1,0,2:0:0:0:
499,134,382701,1,0,2:0:0:0:
497,117,382800,1,2,2:0:0:0:
451,39,382997,1,2,2:3:0:0:
433,37,383096,1,0,2:0:0:0:
416,35,383194,1,2,2:0:0:0:
346,90,383392,1,2,2:3:0:0:
258,130,383589,85,4,2:0:0:0:
260,147,383688,1,0,2:0:0:0:
262,164,383787,1,0,2:0:0:0:
264,182,383885,1,0,2:0:0:0:
266,199,383984,1,0,2:0:0:0:
268,216,384083,1,0,2:0:0:0:
270,234,384181,1,0,2:0:0:0:
272,251,384280,1,0,2:0:0:0:
274,269,384379,1,2,2:0:0:0:
197,339,384576,1,0,2:0:0:0:
113,311,384773,1,2,2:3:0:0:
109,293,384872,1,0,2:0:0:0:
107,276,384971,1,2,2:0:0:0:
74,193,385168,21,4,2:0:0:0:
56,192,385267,1,0,2:0:0:0:
39,191,385366,1,0,2:0:0:0:
21,189,385464,1,0,2:0:0:0:
4,186,385563,1,2,2:0:0:0:
0,100,385760,1,0,2:0:0:0:
66,41,385958,1,2,2:3:0:0:
149,77,386155,1,0,2:0:0:0:
168,167,386352,1,2,2:0:0:0:
168,184,386451,1,0,2:0:0:0:
168,202,386550,1,0,2:0:0:0:
280,271,386747,1,2,2:3:0:0:
280,253,386846,1,0,2:0:0:0:
280,236,386944,1,0,2:0:0:0:
281,218,387043,1,0,2:0:0:0:
282,201,387142,1,0,2:0:0:0:
283,183,387241,1,0,2:0:0:0:
284,166,387339,1,0,2:0:0:0:
286,148,387438,1,0,2:0:0:0:
288,131,387537,1,2,2:0:0:0:
347,61,387734,1,2,2:3:0:0:
364,61,387833,1,0,2:0:0:0:
382,61,387931,1,2,2:0:0:0:
459,124,388129,1,0,2:0:0:0:
507,214,388326,21,4,2:0:0:0:
443,283,388523,1,2,2:3:0:0:
426,283,388622,1,0,2:0:0:0:
408,283,388721,1,2,2:0:0:0:
316,341,388918,1,2,2:3:0:0:
311,324,389017,1,0,2:0:0:0:
307,307,389116,1,0,2:0:0:0:
304,289,389214,1,0,2:0:0:0:
301,272,389313,1,0,2:0:0:0:
300,255,389412,1,0,2:0:0:0:
299,237,389510,1,2,2:0:0:0:
222,184,389708,1,0,2:0:0:0:
140,255,389905,85,4,2:0:0:0:
122,252,390004,1,0,2:0:0:0:
105,250,390102,1,0,2:0:0:0:
87,248,390201,1,0,2:0:0:0:
70,246,390300,1,2,2:0:0:0:
8,182,390497,1,2,2:3:0:0:
3,165,390596,1,0,2:0:0:0:
0,147,390694,1,2,2:0:0:0:
61,75,390892,1,2,2:3:0:0:
78,70,390991,1,0,2:0:0:0:
96,67,391089,1,2,2:0:0:0:
155,144,391287,1,0,2:0:0:0:
257,173,391484,21,4,2:0:0:0:
259,155,391583,1,0,2:0:0:0:
260,138,391681,1,0,2:0:0:0:
258,120,391780,1,0,2:0:0:0:
254,103,391879,1,2,3:0:0:0:
248,87,391977,1,0,2:0:0:0:
241,71,392076,1,0,2:0:0:0:
231,56,392175,1,0,2:0:0:0:
220,43,392273,1,2,2:3:0:0:
207,31,392372,1,0,2:0:0:0:
193,21,392471,1,0,2:0:0:0:
177,13,392569,1,0,2:0:0:0:
161,6,392668,1,2,2:3:0:0:
144,2,392767,1,0,2:0:0:0:
127,0,392866,1,2,2:0:0:0:
54,69,393063,1,2,3:0:0:0:
51,88,393162,1,0,2:0:0:0:
49,108,393260,1,0,2:0:0:0:
47,128,393359,1,0,2:0:0:0:
45,148,393458,1,2,2:3:0:0:
42,168,393556,1,0,2:0:0:0:
40,188,393655,1,0,2:0:0:0:
38,208,393754,1,0,2:0:0:0:
35,227,393852,1,2,2:3:0:0:
33,247,393951,1,0,2:0:0:0:
30,267,394050,1,0,2:0:0:0:
27,287,394148,1,0,2:0:0:0:
25,307,394247,1,2,2:3:0:0:
22,327,394346,1,0,2:0:0:0:
19,346,394444,1,2,2:0:0:0:
111,384,394642,5,4,2:0:0:0:
173,326,394839,1,2,2:0:0:0:
170,308,394938,1,0,2:0:0:0:
167,291,395037,1,0,2:0:0:0:
224,229,395234,1,0,2:0:0:0:
272,301,395431,1,2,2:0:0:0:
269,319,395530,1,0,2:0:0:0:
266,336,395629,1,0,2:0:0:0:
345,370,395826,1,0,2:0:0:0:
421,329,396023,1,0,2:0:0:0:
398,236,396221,101,2,2:0:0:0:
380,236,396319,1,0,2:0:0:0:
363,235,396418,1,0,2:0:0:0:
345,234,396517,1,0,2:0:0:0:
328,232,396616,1,0,2:0:0:0:
265,174,396813,1,2,2:0:0:0:
265,156,396912,1,0,2:0:0:0:
266,139,397010,1,0,2:0:0:0:
267,121,397109,1,0,2:0:0:0:
269,104,397208,1,0,2:0:0:0:
208,32,397405,1,0,2:0:0:0:
292,9,397602,1,0,2:0:0:0:
369,66,397800,5,2,2:0:0:0:
386,64,397898,1,0,2:0:0:0:
403,62,397997,1,0,2:0:0:0:
421,59,398096,1,0,2:0:0:0:
438,56,398194,1,0,2:0:0:0:
505,124,398392,1,0,2:0:0:0:
480,217,398589,1,0,2:0:0:0:
383,211,398787,1,0,2:0:0:0:
296,197,398984,1,2,2:0:0:0:
291,180,399083,1,0,2:0:0:0:
289,162,399181,1,0,2:0:0:0:
202,107,399379,101,0,2:0:0:0:
175,193,399576,1,2,2:0:0:0:
180,210,399675,1,0,2:0:0:0:
182,228,399773,1,0,2:0:0:0:
100,275,399971,1,0,2:0:0:0:
30,230,400168,1,2,2:0:0:0:
25,213,400267,1,0,2:0:0:0:
23,195,400366,1,0,2:0:0:0:
70,129,400563,1,2,2:0:0:0:
75,112,400662,1,0,2:0:0:0:
77,94,400760,1,0,2:0:0:0:
136,29,400958,5,4,2:0:0:0:
152,35,401056,1,0,2:0:0:0:
169,40,401155,1,0,2:0:0:0:
186,44,401254,1,0,2:0:0:0:
203,47,401352,1,0,2:0:0:0:
220,50,401451,1,0,2:0:0:0:
238,51,401550,1,0,2:0:0:0:
255,52,401648,1,0,2:0:0:0:
272,51,401747,1,0,2:0:0:0:
216,140,401944,1,2,2:0:0:0:
221,157,402043,1,0,2:0:0:0:
223,175,402142,1,0,2:0:0:0:
264,259,402339,1,0,2:0:0:0:
308,350,402537,101,2,2:0:0:0:
324,343,402635,1,0,2:0:0:0:
341,338,402734,1,0,2:0:0:0:
358,334,402833,1,0,2:0:0:0:
375,331,402931,1,0,2:0:0:0:
392,328,403030,1,0,2:0:0:0:
410,327,403129,1,0,2:0:0:0:
427,326,403227,1,0,2:0:0:0:
444,327,403326,1,0,2:0:0:0:
388,239,403523,1,2,2:0:0:0:
393,222,403622,1,0,2:0:0:0:
395,204,403721,1,0,2:0:0:0:
438,115,403918,1,0,2:0:0:0:
374,37,404116,5,4,2:0:0:0:
313,94,404313,1,2,2:0:0:0:
295,96,404412,1,0,2:0:0:0:
278,98,404510,1,0,2:0:0:0:
209,49,404708,1,2,2:0:0:0:
191,47,404806,1,0,2:0:0:0:
174,45,404905,1,0,2:0:0:0:
108,94,405102,1,2,2:0:0:0:
90,96,405201,1,0,2:0:0:0:
73,98,405300,1,0,2:0:0:0:
2,49,405497,1,0,2:0:0:0:
0,204,405694,101,4,2:0:0:0:
24,202,405793,1,0,2:0:0:0:
49,200,405892,1,0,2:0:0:0:
74,199,405991,1,0,2:0:0:0:
99,197,406089,1,0,2:0:0:0:
124,194,406188,1,0,2:0:0:0:
149,193,406287,1,0,2:0:0:0:
174,190,406385,1,0,2:0:0:0:
199,188,406484,1,0,2:0:0:0:
224,185,406583,1,0,2:0:0:0:
249,182,406681,1,0,2:0:0:0:
274,179,406780,1,0,2:0:0:0:
298,176,406879,1,0,2:0:0:0:
324,172,406977,1,0,2:0:0:0:
348,168,407076,1,0,2:0:0:0:
373,165,407175,1,0,2:0:0:0:
398,161,407273,5,4,2:0:0:0:
