osu file format v14

[General]
AudioFilename: audio.mp3
AudioLeadIn: 0
PreviewTime: 98843
Countdown: 0
SampleSet: Normal
StackLeniency: 0.6
Mode: 0
LetterboxInBreaks: 0
WidescreenStoryboard: 1

[Editor]
DistanceSpacing: 1
BeatDivisor: 2
GridSize: 32
TimelineZoom: 1.6

[Metadata]
Title:Corpse no Kokoro
TitleUnicode:コープスの心
Artist:-45
ArtistUnicode:-45
Creator:Shurelia
Version:Normal
Source:
Tags:Kikeiju electronic instrumental FA Featured Artist hinsvar local hero nik nikolomara mpg mappers' guild
BeatmapID:4302953
BeatmapSetID:2058747

[Difficulty]
HPDrainRate:4
CircleSize:3
OverallDifficulty:5
ApproachRate:5
SliderMultiplier:1.2
SliderTickRate:1

[Events]
//Background and Video events
0,0,"45bg.jpg",0,0
//Break Periods
//Storyboard Layer 0 (Background)
//Storyboard Layer 1 (Fail)
//Storyboard Layer 2 (Pass)
//Storyboard Layer 3 (Foreground)
//Storyboard Layer 4 (Overlay)
//Storyboard Sound Samples

[TimingPoints]
3031,375,4,2,1,40,1,0
15031,-100,4,2,1,50,0,0
21031,-125,4,2,1,50,0,0
27031,-100,4,1,1,60,0,0
45031,-100,4,1,1,60,0,0
51031,-100,4,1,1,60,0,0
81031,-100,4,1,1,60,0,0
87031,-100,4,1,1,60,0,0
99031,-100,4,1,1,70,0,1
122937,-100,4,1,1,70,0,0
123031,-100,4,1,1,70,0,1
147031,-100,4,1,1,70,0,0
153031,-100,4,1,1,70,0,0
153968,-100,4,1,1,70,0,0
165031,-100,4,1,1,70,0,0
165968,-100,4,1,1,70,0,0
171031,-125,4,1,1,60,0,0
195124,-100,4,1,1,20,0,0

[Colours]
Combo1 : 194,188,189
Combo2 : 73,79,80
Combo3 : 101,83,83
Combo4 : 101,91,83

[HitObjects]
256,192,15031,12,2,19531,0:0:0:0:
393,40,21031,6,0,P|428:43|464:49,2,72,2|2|2,0:0|0:0|0:0,0:0:0:0:
350,62,21781,2,0,P|302:65|254:62,1,96
163,32,22531,2,0,P|139:27|84:32,2,72,2|2|2,0:0|0:0|0:0,0:0:0:0:
166,79,23281,2,0,L|147:173,1,96
91,251,24031,6,0,P|57:263|21:268,2,72,2|2|2,0:0|0:0|0:0,0:0:0:0:
131,277,24781,2,0,P|177:286|225:283,1,96
315,317,25531,2,0,L|410:303,1,96,2|2,0:0|0:0,0:0:0:0:
475,233,26281,1,2,0:0:0:0:
448,141,26656,1,2,0:0:0:0:
327,128,27031,6,0,P|269:142|210:150,1,120,4|8,3:1|0:0,0:0:0:0:
94,180,27781,2,0,P|78:123|57:66,1,120,0|8,3:1|0:0,0:0:0:0:
162,6,28531,2,0,P|221:9|281:7,1,120,0|8,3:1|0:0,0:0:0:0:
402,8,29281,2,0,P|459:12|484:64,1,120,0|8,3:1|0:0,0:0:0:0:
484,124,29843,1,0,0:0:0:0:
484,124,30031,6,0,L|491:243,1,120,0|8,3:1|0:0,0:0:0:0:
409,333,30781,2,0,P|350:338|291:350,1,120,0|8,3:1|0:0,0:0:0:0:
172,372,31531,2,0,P|113:378|62:348,1,120,0|8,3:1|0:0,0:0:0:0:
8,241,32281,2,0,P|24:184|36:125,1,120,0|8,3:1|0:0,0:0:0:0:
90,99,32843,1,0,0:0:0:0:
89,98,33031,6,0,P|58:67|30:32,2,90,2|2|2,3:1|0:0|0:0,0:0:0:0:
149,90,33781,1,0,3:1:0:0:
206,106,33968,1,0,0:0:0:0:
218,164,34156,1,8,0:0:0:0:
164,271,34531,2,0,P|152:314|146:358,2,90,2|2|2,3:1|0:0|0:0,0:0:0:0:
225,267,35281,1,0,3:1:0:0:
280,289,35468,1,0,0:0:0:0:
312,339,35656,1,8,0:0:0:0:
423,296,36031,6,0,P|427:340|438:384,2,90,2|2|2,3:1|0:0|0:0,0:0:0:0:
465,252,36781,1,0,3:1:0:0:
487,196,36968,1,0,0:0:0:0:
487,135,37156,1,8,0:0:0:0:
499,15,37531,6,0,B|439:42|439:42|386:20|386:20|329:26,1,180,4|0,3:1|0:0,0:0:0:0:
272,46,38281,1,0,3:1:0:0:
184,128,38656,1,8,0:0:0:0:
65,108,39031,6,0,L|50:49,2,60,4|0|8,3:1|0:0|0:0,0:0:0:0:
63,167,39593,1,0,0:0:0:0:
63,167,39781,2,0,P|66:196|60:226,1,60,0|0,3:1|0:0,0:0:0:0:
35,280,40156,1,8,0:0:0:0:
68,376,40531,2,0,L|8:384,2,60,0|0|8,3:1|0:0|0:0,0:0:0:0:
126,364,41093,1,0,0:0:0:0:
126,364,41281,2,0,P|155:369|184:366,1,60,0|0,3:1|0:0,0:0:0:0:
243,354,41656,1,8,0:0:0:0:
357,318,42031,6,0,L|349:258,2,60,0|0|8,3:1|0:0|0:0,0:0:0:0:
401,357,42593,1,0,0:0:0:0:
406,360,42781,2,0,P|435:362|465:356,1,60,0|0,3:1|0:0,0:0:0:0:
490,302,43156,1,8,0:0:0:0:
486,182,43531,2,0,L|476:122,2,60,0|0|8,3:1|0:0|0:0,0:0:0:0:
432,202,44093,1,0,0:0:0:0:
432,201,44281,2,0,P|403:211|373:212,1,60,0|0,3:1|0:0,0:0:0:0:
320,184,44656,1,8,0:0:0:0:
245,89,45031,6,0,P|201:99|156:105,1,90,2|2,3:1|0:0,0:0:0:0:
72,72,45593,1,2,0:0:0:0:
72,72,45781,2,0,P|71:131|63:191,1,120,0|8,3:1|0:0,0:0:0:0:
15,300,46531,2,0,P|60:308|103:322,1,90,2|2,3:1|0:0,0:0:0:0:
182,279,47093,1,2,0:0:0:0:
182,278,47281,2,0,P|194:220|219:165,1,120,0|8,3:1|0:0,0:0:0:0:
278,61,48031,6,0,P|322:58|365:45,1,90,2|2,3:1|0:0,0:0:0:0:
462,34,48593,1,2,0:0:0:0:
462,34,48781,2,0,L|469:153,1,120,0|8,3:1|0:0,0:0:0:0:
454,212,49343,1,0,0:0:0:0:
447,271,49531,1,0,3:1:0:0:
356,371,51031,6,0,L|445:359,2,90,2|2|2,3:1|0:0|0:0,0:0:0:0:
295,375,51781,2,0,P|236:370|176:363,1,120,2|8,3:3|0:0,0:0:0:0:
104,266,52531,2,0,P|60:278|17:292,2,90,2|2|2,3:1|0:0|0:0,0:0:0:0:
133,212,53281,2,0,P|127:153|93:105,1,120,2|8,3:3|0:0,0:0:0:0:
196,46,54031,6,0,P|208:89|236:123,2,90,2|2|2,3:1|0:0|0:0,0:0:0:0:
245,11,54781,2,0,L|363:28,1,120,2|8,3:3|0:0,0:0:0:0:
483,24,55531,1,2,3:1:0:0:
472,143,55906,1,10,0:0:0:0:
398,237,56281,1,2,3:1:0:0:
287,189,56656,1,10,0:0:0:0:
167,209,57031,6,0,L|128:127,2,90,2|2|2,3:1|0:0|0:0,0:0:0:0:
207,321,57968,2,0,P|266:324|325:334,1,120,2|2,1:3|1:3,0:0:0:0:
382,353,58531,2,0,P|421:373|466:374,2,90,2|2|2,3:1|0:0|0:0,0:0:0:0:
382,235,59468,2,0,P|395:176|413:119,1,120,2|2,1:3|1:3,0:0:0:0:
419,58,60031,6,0,P|462:74|506:82,2,90,2|2|2,3:1|0:0|0:0,0:0:0:0:
315,1,60968,2,0,P|257:12|197:14,1,120,2|2,1:3|1:3,0:0:0:0:
136,22,61531,1,2,3:1:0:0:
34,86,61906,1,10,0:0:0:0:
118,171,62281,1,2,3:1:0:0:
41,263,62656,1,10,0:0:0:0:
101,368,63031,6,0,P|145:358|190:354,1,90,2|2,3:1|0:0,0:0:0:0:
284,363,63593,1,2,0:0:0:0:
283,362,63781,2,0,P|313:369|342:366,1,60,2|2,3:3|1:3,3:3:0:0:
396,340,64156,1,8,0:0:0:0:
512,367,64531,2,0,P|495:325|487:281,1,90,2|2,3:1|0:0,0:0:0:0:
504,195,65093,1,2,0:0:0:0:
503,195,65281,2,0,P|507:165|505:135,1,60,2|2,3:3|1:3,0:3:0:0:
490,76,65656,1,8,0:0:0:0:
385,14,66031,6,0,P|363:53|367:98,1,90,2|2,3:1|0:0,0:0:0:0:
398,187,66593,1,2,0:0:0:0:
397,187,66781,2,0,P|392:216|397:246,1,60,2|2,3:3|1:3,0:3:0:0:
399,306,67156,1,8,0:0:0:0:
304,382,67531,1,2,3:1:0:0:
184,382,67906,1,10,0:0:0:0:
64,362,68281,1,2,3:1:0:0:
26,247,68656,1,10,0:0:0:0:
10,128,69031,6,0,P|27:87|62:59,1,90,2|2,3:1|0:0,0:0:0:0:
127,121,69593,1,2,0:0:0:0:
127,121,69781,2,0,P|156:126|186:121,1,60,2|2,3:3|1:3,0:3:0:0:
243,103,70156,1,8,0:0:0:0:
318,9,70531,2,0,P|360:24|403:35,1,90,2|2,3:1|0:0,0:0:0:0:
497,27,71093,1,2,0:0:0:0:
497,26,71281,2,0,P|495:56|502:86,1,60,2|2,3:3|1:3,0:3:0:0:
512,142,71656,1,8,0:0:0:0:
460,252,72031,6,0,P|417:238|373:234,1,90,2|2,3:1|0:0,0:0:0:0:
296,279,72593,1,2,0:0:0:0:
296,279,72781,2,0,P|266:284|236:279,1,60,2|2,3:3|1:3,0:3:0:0:
179,261,73156,1,8,0:0:0:0:
69,316,73531,1,2,3:1:0:0:
173,374,73906,1,10,0:0:0:0:
290,348,74281,1,2,3:1:0:0:
408,368,74656,1,10,0:0:0:0:
457,333,74843,1,2,1:1:0:0:
505,297,75031,6,0,P|491:239|484:180,1,120,2|8,3:1|0:0,0:0:0:0:
418,79,75781,2,0,P|359:86|300:78,1,120,0|10,3:1|0:0,0:0:0:0:
246,68,76343,1,2,0:0:0:0:
246,68,76531,2,0,L|126:56,2,120,2|8|0,3:1|0:0|3:1,0:0:0:0:
250,187,77656,1,10,0:0:0:0:
252,246,77843,1,2,0:0:0:0:
252,306,78031,6,0,P|195:321|140:345,1,120,2|8,3:1|0:0,0:0:0:0:
22,372,78781,2,0,P|8:314|6:255,1,120,0|10,3:1|0:0,0:0:0:0:
43,207,79343,1,0,0:0:0:0:
43,207,79531,2,0,L|8:92,2,120,2|10|2,3:1|0:0|3:1,0:0:0:0:
157,242,80656,1,10,0:0:0:0:
215,254,80843,1,0,0:0:0:0:
273,267,81031,6,0,P|332:273|389:258,1,120,2|8,3:1|0:0,0:0:0:0:
479,178,81781,2,0,P|474:119|479:59,1,120,0|10,3:1|0:0,0:0:0:0:
424,36,82343,1,2,0:0:0:0:
423,36,82531,2,0,P|364:29|306:14,2,120,2|8|0,3:1|0:0|3:1,0:0:0:0:
382,148,83656,1,10,0:0:0:0:
331,115,83843,1,2,0:0:0:0:
271,102,84031,6,0,P|213:89|163:56,1,120,2|8,3:1|0:0,0:0:0:0:
48,23,84781,2,0,P|48:82|41:142,1,120,0|10,3:1|0:0,0:0:0:0:
28,200,85343,1,2,0:0:0:0:
27,200,85531,2,0,P|16:258|17:318,2,120,2|10|2,3:1|0:0|3:1,0:0:0:0:
147,203,86656,1,10,0:0:0:0:
262,231,87031,6,0,L|380:247,1,120,2|8,3:1|0:0,0:0:0:0:
444,259,87593,1,2,0:0:0:0:
444,259,87781,1,0,3:1:0:0:
426,377,88156,1,10,0:0:0:0:
312,341,88531,2,0,P|253:344|194:357,1,120,2|8,3:1|0:0,0:0:0:0:
141,379,89093,1,2,0:0:0:0:
141,379,89281,1,0,3:1:0:0:
21,379,89656,1,10,0:0:0:0:
16,262,90031,6,0,P|27:204|33:144,1,120,2|8,3:1|0:0,0:0:0:0:
21,91,90593,1,2,0:0:0:0:
21,91,90781,1,0,3:1:0:0:
98,0,91156,1,10,0:0:0:0:
209,43,91531,2,0,L|328:30,1,120,2|10,3:1|0:0,0:0:0:0:
370,73,92093,1,0,0:0:0:0:
413,115,92281,2,0,P|442:111|472:107,2,60,2|2|10,3:1|0:0|0:0,0:0:0:0:
301,157,93031,6,0,P|311:216|325:274,1,120,2|8,3:1|0:0,0:0:0:0:
363,327,93593,1,2,0:0:0:0:
363,327,93781,1,0,3:1:0:0:
255,379,94156,1,10,0:0:0:0:
135,361,94531,2,0,P|79:348|51:297,1,120,2|8,3:1|0:0,0:0:0:0:
59,241,95093,1,2,0:0:0:0:
59,241,95281,1,0,3:1:0:0:
67,121,95656,1,10,0:0:0:0:
177,162,96031,6,0,P|234:178|294:181,1,120,2|8,3:1|0:0,0:0:0:0:
347,150,96593,1,2,0:0:0:0:
347,150,96781,1,0,3:1:0:0:
466,137,97156,1,10,0:0:0:0:
475,21,97531,5,2,3:1:0:0:
354,8,97906,2,0,P|325:12|295:15,1,60,10|0,0:0|0:0,0:0:0:0:
176,2,98468,1,2,0:0:0:0:
176,2,98656,1,10,0:0:0:0:
57,25,99031,6,0,P|44:83|44:143,1,120,6|8,3:1|0:0,0:0:0:0:
107,157,99593,1,2,0:0:0:0:
107,157,99782,2,0,P|128:212|117:270,1,120,0|10,3:1|0:0,0:0:0:0:
52,371,100531,2,0,P|112:367|172:364,1,120,2|8,3:1|0:0,0:0:0:0:
214,321,101093,1,2,0:0:0:0:
214,320,101281,2,0,P|273:330|333:334,1,120,0|10,3:1|0:0,0:0:0:0:
448,368,102031,6,0,P|479:318|492:259,1,120,2|8,3:1|0:0,0:0:0:0:
444,235,102593,1,2,0:0:0:0:
444,235,102781,2,0,L|451:115,1,120,0|10,3:1|0:0,0:0:0:0:
435,0,103531,2,0,P|382:25|354:77,1,120,2|8,3:1|0:0,0:0:0:0:
346,140,104093,1,2,0:0:0:0:
346,140,104281,2,0,L|226:154,1,120,0|10,3:1|0:0,0:0:0:0:
149,246,105031,6,0,P|164:303|155:362,1,120,2|8,3:1|0:0,0:0:0:0:
93,370,105593,1,2,0:0:0:0:
92,369,105781,2,0,P|60:319|16:278,1,120,0|10,3:1|0:0,0:0:0:0:
16,158,106531,2,0,L|26:38,1,120,2|8,3:1|0:0,0:0:0:0:
84,22,107093,1,2,0:0:0:0:
84,22,107281,2,0,P|142:33|202:36,1,120,0|10,3:1|0:0,0:0:0:0:
321,14,108031,6,0,L|440:24,1,120,2|8,3:1|0:0,0:0:0:0:
502,42,108593,1,2,0:0:0:0:
501,42,108781,2,0,P|484:98|486:158,1,120,0|10,3:1|0:0,0:0:0:0:
432,265,109531,2,0,B|446:323|446:323|441:383,1,120,2|8,3:1|0:0,0:0:0:0:
382,377,110093,1,2,0:0:0:0:
381,377,110281,2,0,P|322:374|262:367,1,120,0|10,3:1|0:0,0:0:0:0:
176,283,111031,6,0,L|179:193,2,90,6|2|2,3:1|0:0|0:0,0:0:0:0:
124,313,111781,1,0,3:1:0:0:
33,234,112156,2,0,P|26:204|30:174,1,60,10|2,0:0|3:1,0:0:0:0:
52,119,112531,2,0,L|28:32,2,90,2|2|2,3:1|0:0|0:0,0:0:0:0:
111,109,113281,1,0,3:1:0:0:
209,40,113656,2,0,P|238:39|268:45,1,60,10|2,0:0|3:1,0:0:0:0:
323,69,114031,6,0,L|411:53,2,90,2|2|2,3:1|0:0|0:0,0:0:0:0:
301,125,114781,1,0,3:1:0:0:
231,222,115156,2,0,P|228:252|233:282,1,60,10|2,0:0|3:1,0:0:0:0:
252,339,115531,2,0,L|164:360,2,90,2|2|2,3:1|0:0|0:0,0:0:0:0:
311,330,116281,1,0,3:1:0:0:
379,231,116656,2,0,P|408:231|432:248,1,60,10|2,0:0|3:1,0:0:0:0:
479,286,117031,6,0,L|475:375,2,90,2|2|2,3:1|0:0|0:0,0:0:0:0:
506,232,117781,1,0,3:1:0:0:
491,112,118156,2,0,P|493:82|500:52,1,60,10|2,0:0|3:1,0:0:0:0:
453,14,118531,2,0,P|409:3|364:-3,2,90,2|2|2,3:1|0:0|0:0,0:0:0:0:
437,72,119281,1,0,3:1:0:0:
354,158,119656,2,0,P|324:154|296:143,1,60,10|2,0:0|3:1,0:0:0:0:
241,118,120031,6,0,L|245:207,2,90,2|2|2,3:1|0:0|0:0,0:0:0:0:
190,85,120781,1,0,3:1:0:0:
94,12,121156,2,0,P|64:12|26:39,1,60,10|2,0:0|3:1,0:0:0:0:
5,76,121531,2,0,L|16:165,2,90,2|2|2,3:1|0:0|0:0,0:0:0:0:
64,83,122281,1,0,3:1:0:0:
124,186,122656,2,0,P|118:217|113:244,1,60,10|2,0:0|3:1,0:0:0:0:
97,303,123031,6,0,P|140:315|184:313,1,90,6|2,3:1|0:0,0:0:0:0:
265,273,123593,2,0,L|255:213,2,60,2|0|0,0:0|3:1|0:0,0:0:0:0:
315,305,124156,1,10,0:0:0:0:
414,370,124531,6,0,P|456:373|479:337,1,90,2|2,3:1|0:0,0:0:0:0:
454,251,125093,2,0,L|513:245,2,60,2|0|0,0:0|3:1|0:0,0:0:0:0:
400,223,125656,1,10,0:0:0:0:
358,109,126031,6,0,P|317:125|272:128,1,90,2|2,3:1|0:0,0:0:0:0:
200,75,126593,2,0,L|203:15,2,60,2|0|0,0:0|3:1|0:0,0:0:0:0:
140,66,127156,1,10,0:0:0:0:
23,35,127531,6,0,L|14:124,1,90,2|2,3:1|0:0,0:0:0:0:
51,206,128093,2,0,L|134:197,2,60,2|0|0,0:0|3:1|0:0,0:0:0:0:
16,255,128656,1,10,0:0:0:0:
29,373,129031,6,0,P|74:368|119:366,1,90,2|2,3:1|0:0,0:0:0:0:
187,307,129593,2,0,L|179:231,2,60,2|0|0,0:0|3:1|0:0,0:0:0:0:
247,312,130156,1,10,0:0:0:0:
320,216,130531,6,0,P|314:172|306:128,1,90,2|2,3:1|0:0,0:0:0:0:
255,53,131093,2,0,P|225:58|196:65,2,60,2|0|0,0:0|3:1|0:0,0:0:0:0:
310,28,131656,1,10,0:0:0:0:
428,20,132031,6,0,P|431:64|442:108,1,90,2|2,3:1|0:0,0:0:0:0:
454,197,132593,2,0,P|482:188|512:183,2,60,2|0|0,0:0|3:1|0:0,0:0:0:0:
455,257,133156,1,10,0:0:0:0:
484,372,133531,6,0,P|439:366|394:364,1,90,2|2,3:1|0:0,0:0:0:0:
323,308,134093,2,0,P|324:278|329:248,2,60,2|0|0,0:0|3:1|0:0,0:0:0:0:
268,334,134656,1,10,0:0:0:0:
152,369,135031,6,0,P|109:377|64:373,1,90,6|2,3:1|0:0,0:0:0:0:
0,301,135593,1,2,0:0:0:0:
88,220,135968,1,0,0:0:0:0:
47,175,136156,2,0,P|33:148|29:118,1,60,10|2,0:0|3:1,0:0:0:0:
12,59,136531,6,0,P|57:55|99:38,1,90,2|2,3:1|0:0,0:0:0:0:
181,4,137093,1,2,0:0:0:0:
262,92,137468,1,0,0:0:0:0:
317,69,137656,2,0,P|343:55|373:51,1,60,10|2,0:0|3:1,0:0:0:0:
415,8,138031,6,0,P|459:8|502:22,1,90,2|2,3:1|0:0,0:0:0:0:
497,115,138593,1,2,0:0:0:0:
474,232,138968,1,0,0:0:0:0:
414,236,139156,2,0,P|384:229|357:217,1,60,10|2,0:0|3:1,0:0:0:0:
308,183,139531,6,0,P|264:176|219:179,1,90,2|2,3:1|0:0,0:0:0:0:
131,196,140093,1,2,0:0:0:0:
43,278,140468,1,0,0:0:0:0:
74,329,140656,2,0,P|84:356|108:373,1,60,10|2,0:0|3:1,0:0:0:0:
169,381,141031,6,0,P|213:379|258:373,1,90,2|2,3:1|0:0,0:0:0:0:
346,355,141593,1,2,0:0:0:0:
463,379,141968,1,0,0:0:0:0:
455,319,142156,2,0,P|453:289|459:259,1,60,10|2,0:0|3:1,0:0:0:0:
507,223,142531,6,0,P|498:178|494:134,1,90,2|2,3:1|0:0,0:0:0:0:
505,44,143093,1,2,0:0:0:0:
389,11,143468,1,0,0:0:0:0:
368,66,143656,2,0,P|364:96|351:123,1,60,10|2,0:0|3:1,0:0:0:0:
293,110,144031,6,0,P|249:110|205:99,1,90,2|2,3:1|0:0,0:0:0:0:
137,39,144593,1,2,0:0:0:0:
18,18,144968,1,0,0:0:0:0:
5,74,145156,2,0,L|12:133,1,60,10|2,0:0|3:1,0:0:0:0:
35,189,145531,6,0,P|37:234|34:279,1,90,2|2,3:1|0:0,0:0:0:0:
23,372,146093,1,2,0:0:0:0:
142,380,146468,1,0,0:0:0:0:
202,384,146656,2,0,P|228:370|258:366,1,60,10|2,0:0|3:1,0:0:0:0:
320,375,147031,6,0,P|363:363|407:352,2,90,6|2|2,3:1|0:0|0:0,0:0:0:0:
245,288,147968,1,0,0:0:0:0:
245,288,148156,2,0,P|236:259|222:230,1,60,10|2,0:0|0:0,0:0:0:0:
188,181,148531,2,0,P|230:167|273:153,2,90,2|2|2,3:1|0:0|0:0,0:0:0:0:
110,90,149468,1,0,0:0:0:0:
110,89,149656,2,0,P|136:75|164:66,1,60,10|2,0:0|0:0,0:0:0:0:
201,19,150031,6,0,P|258:35|318:42,1,120,2|8,3:1|0:0,0:0:0:0:
373,17,150593,2,0,P|429:33|465:80,1,120,2|0,0:0|0:0,0:0:0:0:
453,139,151156,1,10,0:0:0:0:
437,257,151531,2,0,P|439:286|443:316,2,60,2|0|8,3:1|0:0|0:0,0:0:0:0:
343,180,152281,2,0,P|340:150|336:120,2,60,0|0|10,3:1|0:0|0:0,0:0:0:0:
312,231,152843,1,2,0:0:0:0:
252,223,153031,6,0,P|192:219|132:217,2,120,2|8|0,3:1|0:0|3:1,0:0:0:0:
291,336,154156,1,10,0:0:0:0:
179,379,154531,2,0,P|119:374|59:371,1,120,2|8,3:1|0:0,0:0:0:0:
0,378,155093,1,2,0:0:0:0:
5,317,155281,2,0,P|16:259|20:199,1,120,0|10,3:1|0:0,0:0:0:0:
105,114,156031,6,0,P|98:54|72:0,2,120,2|8|0,3:1|0:0|3:1,0:0:0:0:
223,95,157156,1,10,0:0:0:0:
314,15,157531,2,0,P|372:13|421:46,1,120,2|8,3:1|0:0,0:0:0:0:
505,132,158281,2,0,P|493:190|484:250,1,120,0|10,3:1|0:0,0:0:0:0:
462,368,159031,6,0,P|402:359|342:355,1,120,2|8,3:1|0:0,0:0:0:0:
290,341,159593,1,2,0:0:0:0:
290,341,159781,1,0,3:1:0:0:
172,363,160156,1,10,0:0:0:0:
51,372,160531,2,0,P|28:318|37:259,1,120,2|8,3:1|0:0,0:0:0:0:
85,224,161093,2,0,P|144:224|203:212,1,120,2|0,0:0|0:0,0:0:0:0:
262,199,161656,1,10,0:0:0:0:
311,232,161843,1,2,0:0:0:0:
341,282,162031,6,0,P|338:223|343:163,1,120,2|8,3:1|0:0,0:0:0:0:
458,128,162781,2,0,P|461:187|456:247,1,120,0|10,3:1|0:0,0:0:0:0:
446,306,163343,1,2,0:0:0:0:
431,364,163531,2,0,L|297:375,2,120,2|8|0,3:1|0:0|3:1,0:0:0:0:
353,272,164656,1,10,0:0:0:0:
236,240,165031,6,0,P|178:252|118:246,1,120,2|8,3:1|0:0,0:0:0:0:
66,228,165593,1,2,0:0:0:0:
66,228,165781,1,0,3:1:0:0:
3,125,166156,2,0,P|2:95|17:69,1,60,10|2,0:0|0:0,0:0:0:0:
64,31,166531,6,0,P|108:29|153:24,2,90,2|2|2,3:1|0:0|0:0,0:0:0:0:
75,90,167281,2,0,P|133:101|193:110,1,120,0|10,3:1|0:0,0:0:0:0:
252,90,167844,1,2,0:0:0:0:
252,90,168031,2,0,P|259:149|276:206,1,120,2|8,3:1|0:0,0:0:0:0:
295,325,168781,2,0,P|353:312|413:305,1,120,0|10,3:1|0:0,0:0:0:0:
464,274,169343,1,2,0:0:0:0:
464,274,169531,5,2,3:1:0:0:
494,157,169906,1,8,0:0:0:0:
456,42,170281,1,0,3:1:0:0:
338,20,170656,1,10,0:0:0:0:
300,66,170843,1,2,0:0:0:0:
253,80,171031,6,0,P|161:59|68:80,1,192,2|0,3:1|3:1,0:0:0:0:
28,167,172156,1,2,0:0:0:0:
63,256,172531,2,0,P|154:280|246:255,1,192,2|0,3:1|3:1,0:0:0:0:
334,294,173656,1,2,0:0:0:0:
421,255,174031,6,0,P|437:162|395:77,1,192,2|0,3:1|3:1,0:0:0:0:
306,42,175156,1,2,0:0:0:0:
218,82,175531,2,0,P|207:175|249:260,1,192,2|0,3:1|3:1,0:0:0:0:
181,329,176656,1,2,0:0:0:0:
86,344,177031,6,0,P|77:273|66:202,1,144,2|2,3:1|0:0,0:0:0:0:
246,42,178531,2,0,P|337:27|411:84,1,192,2|0,3:1|3:1,0:0:0:0:
403,183,179656,1,2,0:0:0:0:
403,183,180031,2,0,L|214:146,1,192,2|0,3:1|3:1,0:0:0:0:
118,148,181156,1,2,0:0:0:0:
60,224,181531,2,0,L|247:266,1,192,2|0,3:1|3:1,0:0:0:0:
413,363,183031,6,0,L|425:171,1,192,2|0,3:1|3:1,0:0:0:0:
372,91,184156,1,2,0:0:0:0:
288,40,184531,2,0,P|198:16|115:60,1,192,2|0,3:1|3:1,0:0:0:0:
66,142,185656,1,2,0:0:0:0:
37,232,186031,2,0,P|128:253|202:196,1,192,2|0,3:1|3:1,0:0:0:0:
294,226,187156,1,2,0:0:0:0:
320,133,187531,2,0,P|225:118|130:101,1,192,2|0,3:1|3:1,0:0:0:0:
121,6,188656,1,2,0:0:0:0:
216,8,189031,6,0,P|311:20|405:38,1,192,2|0,3:1|3:1,0:0:0:0:
425,229,190531,2,0,P|332:255|242:288,1,192,2|0,3:1|3:1,0:0:0:0:
161,340,191656,1,2,0:0:0:0:
67,360,192031,2,0,P|71:265|64:169,1,192,2|0,3:1|3:1,0:0:0:0:
89,76,193156,1,2,0:0:0:0:
184,68,193531,5,2,3:1:0:0:
223,155,193906,1,8,0:0:0:0:
151,218,194281,1,0,3:1:0:0:
66,172,194656,1,10,0:0:0:0:
