osu file format v14

[General]
AudioFilename: audio.mp3
AudioLeadIn: 0
PreviewTime: 64685
Countdown: 0
SampleSet: Soft
StackLeniency: 0.7
Mode: 0
LetterboxInBreaks: 0
WidescreenStoryboard: 1

[Editor]
Bookmarks: 3013,15356,27699,64728,97642,122328,147014,164414,180871,197328,213785,230242,242585
DistanceSpacing: 0.9
BeatDivisor: 4
GridSize: 16
TimelineZoom: 1.5

[Metadata]
Title:Akaikutsu Nise
TitleUnicode:あかいくつ偽
Artist:-45
ArtistUnicode:-45
Creator:Local Hero
Version:Insane
Source:うみねこのなく頃に
Tags:aka ikutsunise yoshikawa-45 umineko no naku koro ni when the seagulls cry they 3 question arcs instrumental video game electronic FA featured artist corsace closed cc23 wf DT2 mappers guild mpg Akai Tsukunise
BeatmapID:4122210
BeatmapSetID:1984720

[Difficulty]
HPDrainRate:4
CircleSize:3.5
OverallDifficulty:7
ApproachRate:7.6
SliderMultiplier:1.7
SliderTickRate:1

[Events]
//Background and Video events
0,0,"Akaikutsunise+.jpg",0,0
//Break Periods
2,122538,146124
//Storyboard Layer 0 (Background)
//Storyboard Layer 1 (Fail)
//Storyboard Layer 2 (Pass)
//Storyboard Layer 3 (Foreground)
//Storyboard Layer 4 (Overlay)
//Storyboard Sound Samples

[TimingPoints]
3024,342.857142857143,6,2,0,50,1,0
15185,-100,6,2,0,20,0,0
15356,-142.857142857143,6,2,0,60,0,0
17424,-142.857142857143,6,2,0,62,0,0
19481,-142.857142857143,6,2,0,64,0,0
21538,-142.857142857143,6,2,0,66,0,0
23595,-142.857142857143,6,2,0,68,0,0
25652,-142.857142857143,6,2,0,70,0,0
27695,-100,6,2,0,80,0,0
63699,-83.3333333333333,6,2,0,80,0,0
64738,-76.9230769230769,6,2,0,90,0,1
80166,-100,6,2,0,90,0,1
81195,-76.9230769230769,6,2,0,90,0,1
95585,-142.857142857143,6,2,0,70,0,0
97652,-142.857142857143,6,2,0,60,0,0
147024,342.857142857143,3,2,0,50,1,0
147024,-142.857142857143,3,2,0,50,0,0
150109,-333.333333333334,3,2,0,50,0,0
151138,-142.857142857143,3,2,0,50,0,0
161410,363.636363636364,3,2,0,50,1,0
161773,400,3,2,0,50,1,0
162173,428.571428571429,3,2,0,50,1,0
162601,521.739130434783,3,2,0,50,1,0
163122,600,3,2,0,50,1,0
163722,689.655172413794,3,2,0,50,1,0
163722,-1000,3,2,0,50,0,0
164239,-1000,3,2,0,20,0,0
164411,342.857142857143,3,2,0,70,1,0
164411,-142.857142857143,3,2,0,70,0,0
170582,-200,3,2,0,70,0,0
172639,-142.857142857143,3,2,0,70,0,0
179839,-90.909090909091,3,2,0,70,0,0
180868,-90.909090909091,3,2,0,90,0,1
197325,-76.9230769230769,3,2,0,90,0,1
211725,-100,3,2,0,60,0,0
213782,-142.857142857143,3,2,0,60,0,0

[Colours]
Combo1 : 17,254,176
Combo2 : 173,255,95
Combo3 : 255,88,100
Combo4 : 255,94,55

[HitObjects]
256,192,13309,12,0,15195,0:0:0:0:
112,69,15366,5,14,1:2:0:0:
112,69,15538,2,0,L|122:150,2,59.4999981842041,0|2|2,0:0|0:0|0:0,0:0:0:0:
218,36,16052,2,0,L|208:119,1,59.4999981842041,2|0,0:0|0:0,0:0:0:0:
190,171,16395,1,2,0:0:0:0:
190,171,16566,1,2,0:0:0:0:
268,181,16738,1,2,0:0:0:0:
309,253,16909,1,2,0:0:0:0:
292,339,17081,1,2,0:0:0:0:
292,339,17166,1,0,0:0:0:0:
292,339,17252,1,0,0:0:0:0:
387,232,17424,5,14,1:2:0:0:
387,232,17595,2,0,P|384:202|382:170,2,59.4999981842041,0|2|2,0:0|0:0|0:0,0:0:0:0:
376,361,18109,2,0,P|367:340|346:302,1,59.4999981842041,2|0,0:0|0:0,0:0:0:0:
262,292,18452,1,2,0:0:0:0:
261,214,18624,1,2,0:0:0:0:
330,181,18795,1,2,0:0:0:0:
390,233,18966,1,2,0:0:0:0:
471,224,19138,1,2,0:0:0:0:
471,224,19224,1,0,0:0:0:0:
471,224,19309,1,0,0:0:0:0:
418,153,19481,5,14,1:2:0:0:
418,153,19652,2,0,L|404:86,2,59.4999981842041,0|2|2,0:0|0:0|0:0,0:0:0:0:
449,308,20166,2,0,P|441:344|432:379,1,59.4999981842041,2|0,0:0|0:0,0:0:0:0:
357,373,20509,1,2,0:0:0:0:
305,314,20681,1,2,0:0:0:0:
309,237,20852,1,2,0:0:0:0:
276,166,21024,1,2,0:0:0:0:
201,146,21195,1,2,0:0:0:0:
201,146,21281,1,0,0:0:0:0:
201,146,21366,1,0,0:0:0:0:
263,33,21538,6,0,P|258:69|255:101,1,59.4999981842041,14|0,1:2|0:0,0:0:0:0:
236,233,21881,1,2,0:0:0:0:
236,233,22052,1,2,0:0:0:0:
265,323,22224,2,0,P|232:325|183:329,1,59.4999981842041,2|0,0:0|0:0,0:0:0:0:
91,322,22566,1,2,0:0:0:0:
91,322,22738,1,2,0:0:0:0:
139,258,22909,1,2,0:0:0:0:
72,209,23081,1,2,0:0:0:0:
21,273,23252,1,2,0:0:0:0:
21,273,23338,1,0,0:0:0:0:
21,273,23424,1,0,0:0:0:0:
139,258,23595,6,0,P|141:223|148:184,1,59.4999981842042,14|0,1:2|0:0,0:0:0:0:
113,122,23938,1,2,0:0:0:0:
113,122,24109,1,2,0:0:0:0:
216,103,24281,2,0,P|223:137|234:175,1,59.4999981842042,2|0,0:0|0:0,0:0:0:0:
249,252,24624,1,2,0:0:0:0:
323,231,24795,1,2,0:0:0:0:
374,169,24966,1,2,0:0:0:0:
316,218,25138,1,2,0:0:0:0:
402,289,25309,1,2,0:0:0:0:
402,289,25395,1,0,0:0:0:0:
402,289,25481,1,0,0:0:0:0:
402,289,25566,1,0,0:0:0:0:
402,289,25652,6,0,P|437:298|469:310,1,59.4999981842042,14|0,1:2|0:0,0:0:0:0:
314,211,25995,2,0,P|349:201|381:190,1,59.4999981842042,2|0,1:2|0:0,0:0:0:0:
204,283,26338,2,0,P|236:302|263:321,1,59.4999981842042,0|0,1:0|1:0,0:0:0:0:
209,188,26681,1,2,0:0:0:0:
274,137,26852,1,2,0:0:0:0:
134,140,27024,1,2,0:0:0:0:
197,195,27195,1,2,0:0:0:0:
206,95,27366,1,10,1:2:0:0:
114,224,27538,1,10,1:2:0:0:
202,323,27709,6,0,P|265:303|362:301,1,127.5,14|0,1:0|0:0,0:0:0:0:
346,300,28052,2,0,P|350:350|355:394,1,85,0|2,1:0|0:0,0:0:0:0:
286,217,28395,2,0,P|298:172|309:125,1,85,0|2,1:0|0:0,0:0:0:0:
373,11,28738,1,0,1:0:0:0:
456,27,28909,1,2,0:2:0:0:
495,102,29081,1,0,1:2:0:0:
440,167,29252,1,2,0:2:0:0:
482,253,29424,1,0,1:0:0:0:
482,253,29509,1,0,1:0:0:0:
482,253,29595,1,0,1:0:0:0:
482,253,29766,6,0,L|391:236,1,85,14|0,1:2|0:0,0:0:0:0:
321,177,30109,1,0,1:0:0:0:
237,206,30281,1,2,0:0:0:0:
170,138,30452,2,0,L|89:115,1,85,0|2,1:0|0:0,0:0:0:0:
88,114,30795,1,0,1:0:0:0:
70,199,30966,1,0,0:0:0:0:
137,269,31138,1,0,1:0:0:0:
156,185,31309,1,0,1:0:0:0:
236,151,31481,1,2,1:2:0:0:
236,151,31566,1,2,1:2:0:0:
236,151,31652,1,2,1:2:0:0:
236,151,31824,6,0,P|240:214|244:286,1,127.5,14|0,0:0|0:0,0:0:0:0:
257,292,32166,2,0,P|278:258|317:237,1,85,0|2,1:0|0:0,0:0:0:0:
408,165,32509,2,0,P|361:159|327:116,1,85,0|0,1:0|1:0,0:0:0:0:
273,37,32852,1,0,1:0:0:0:
202,77,33024,1,2,0:0:0:0:
112,34,33195,1,0,1:0:0:0:
186,87,33366,1,2,0:0:0:0:
161,175,33538,1,0,1:0:0:0:
161,175,33624,1,0,1:0:0:0:
161,175,33709,1,0,1:0:0:0:
161,175,33881,6,0,P|154:219|146:260,1,85,14|2,1:2|0:0,0:0:0:0:
253,125,34224,2,0,P|260:166|268:208,1,85,0|2,1:0|0:0,0:0:0:0:
366,310,34566,2,0,P|303:292|220:337,1,127.5,2|0,1:2|0:0,0:0:0:0:
228,319,34909,1,2,1:2:0:0:
162,258,35081,1,2,0:0:0:0:
170,170,35252,1,0,1:0:0:0:
240,116,35424,1,0,1:0:0:0:
336,138,35595,1,2,1:2:0:0:
336,138,35681,1,2,1:2:0:0:
336,138,35766,1,2,1:2:0:0:
336,138,35852,1,2,1:2:0:0:
336,138,35938,6,0,B|356:165|375:187|375:187|362:217|351:269,1,127.5,14|0,1:2|0:0,0:0:0:0:
352,267,36281,2,0,B|333:295|319:320|319:320|286:318|234:325,1,127.5,0|0,1:0|0:0,0:0:0:0:
236,324,36624,2,0,B|203:316|174:311|174:311|165:280|140:233,1,127.5,0|0,1:0|0:0,0:0:0:0:
155,237,36966,2,0,P|162:188|168:140,1,85,0|2,1:0|0:0,0:0:0:0:
71,17,37309,2,0,P|64:66|58:114,1,85,0|2,1:0|0:0,0:0:0:0:
40,257,37652,1,2,1:2:0:0:
43,265,37738,1,2,1:2:0:0:
45,273,37824,1,2,1:2:0:0:
50,183,37995,5,14,1:2:0:0:
124,163,38166,1,0,0:0:0:0:
165,233,38338,1,0,1:0:0:0:
119,296,38509,1,0,0:0:0:0:
49,266,38681,1,0,1:0:0:0:
0,319,38852,1,0,0:0:0:0:
142,372,39024,2,0,P|155:310|169:247,1,127.5,0|0,1:0|0:0,0:0:0:0:
183,240,39366,1,0,1:0:0:0:
271,194,39538,1,0,1:0:0:0:
199,156,39709,1,2,1:2:0:0:
270,276,39881,1,2,1:2:0:0:
380,219,40052,6,0,P|372:177|366:135,1,85,14|0,1:2|0:0,0:0:0:0:
361,305,40395,2,0,P|403:297|445:291,1,85,0|0,1:0|0:0,0:0:0:0:
270,276,40738,2,0,P|278:318|284:360,1,85,0|0,1:0|0:0,0:0:0:0:
296,201,41081,1,2,1:2:0:0:
211,218,41252,1,2,0:0:0:0:
50,252,41424,1,0,1:0:0:0:
135,235,41595,1,0,1:0:0:0:
119,157,41766,1,2,1:2:0:0:
119,157,41852,1,2,1:2:0:0:
119,157,41938,1,2,1:2:0:0:
210,230,42109,6,0,L|196:282,2,42.5,14|2|2,1:2|0:0|0:0,0:0:0:0:
308,135,42452,2,0,L|361:130,2,42.5,2|2|2,1:2|0:0|0:0,0:0:0:0:
139,89,42795,1,2,1:2:0:0:
139,89,42966,1,2,0:0:0:0:
139,89,43138,2,0,P|171:117|207:145,1,85,2|0,1:2|0:0,0:0:0:0:
326,210,43481,1,0,1:0:0:0:
273,277,43652,1,0,1:0:0:0:
343,340,43824,1,2,1:2:0:0:
343,340,43909,1,2,1:2:0:0:
343,340,43995,1,2,1:2:0:0:
220,340,44166,6,0,P|181:335|130:331,1,85,14|0,1:2|0:0,0:0:0:0:
137,173,44509,2,0,P|90:179|31:180,1,85,2|0,1:2|0:0,0:0:0:0:
18,255,44852,1,2,1:2:0:0:
18,255,44938,1,2,0:0:0:0:
18,255,45024,1,2,0:2:0:0:
18,255,45195,2,0,B|45:296|45:296|36:362,1,85,2|0,1:2|0:0,0:0:0:0:
136,164,45538,2,0,B|109:205|109:205|118:271,1,85,0|2,1:0|0:2,0:0:0:0:
169,349,45881,2,0,P|145:354|115:360,2,42.5,2|2|2,1:2|1:2|1:2,0:0:0:0:
186,337,46224,5,14,1:2:0:0:
232,279,46395,1,0,0:0:0:0:
179,219,46566,1,0,1:0:0:0:
187,134,46738,1,0,0:0:0:0:
267,104,46909,1,0,1:0:0:0:
325,165,47081,1,0,0:0:0:0:
373,332,47252,2,0,P|331:277|246:273,1,127.5,2|0,1:2|0:0,0:0:0:0:
280,237,47595,2,0,P|351:244|399:174,1,127.5,2|0,1:2|0:0,0:0:0:0:
387,194,47938,1,2,1:2:0:0:
382,181,48024,1,2,1:2:0:0:
379,171,48109,1,2,1:2:0:0:
244,35,48281,6,0,B|227:66|205:95|205:95|215:133|221:183,1,127.5,14|0,1:2|0:0,0:0:0:0:
216,149,48624,2,0,P|258:152|300:157,1,85,2|0,1:2|0:0,0:0:0:0:
457,121,48966,2,0,L|498:113,2,42.5,0|0|0,1:0|0:0|0:0,0:0:0:0:
454,292,49309,2,0,P|396:247|316:274,1,127.5,2|2,1:2|0:0,0:0:0:0:
345,252,49652,2,0,P|300:247|256:239,1,85,0|0,1:0|0:0,0:0:0:0:
92,205,49995,2,0,P|69:207|47:209,2,42.5,2|2|2,1:2|1:2|1:2,0:0:0:0:
194,118,50338,5,14,1:2:0:0:
194,118,50509,1,2,0:0:0:0:
251,188,50681,1,0,1:0:0:0:
212,269,50852,1,2,0:0:0:0:
261,196,51024,1,0,1:0:0:0:
300,115,51195,1,2,0:0:0:0:
351,37,51366,2,0,L|437:65,1,85,2|2,1:2|0:0,0:0:0:0:
156,196,51709,2,0,L|34:175,1,85,2|2,1:2|1:2,0:0:0:0:
192,79,52052,1,2,1:2:0:0:
306,157,52224,1,2,1:2:0:0:
229,273,52395,5,14,1:2:0:0:
229,273,52566,1,2,0:0:0:0:
158,311,52738,1,0,1:0:0:0:
158,311,52909,1,2,0:0:0:0:
88,256,53081,2,0,P|82:215|76:172,1,85,0|2,1:0|0:0,0:0:0:0:
154,27,53424,2,0,P|156:92|169:162,1,127.5,2|0,1:2|0:0,0:0:0:0:
184,163,53766,1,0,1:0:0:0:
240,99,53938,1,0,1:0:0:0:
329,127,54109,1,2,1:2:0:0:
329,127,54195,1,2,1:2:0:0:
329,127,54281,1,2,1:2:0:0:
329,127,54452,6,0,P|372:113|428:94,1,85,14|0,1:2|0:0,0:0:0:0:
270,219,54795,2,0,P|311:229|369:252,1,85,0|0,1:0|0:0,0:0:0:0:
351,243,55138,1,0,1:0:0:0:
412,193,55309,1,0,1:0:0:0:
329,127,55481,2,0,P|262:122|198:114,1,127.5,2|0,1:2|0:0,0:0:0:0:
202,114,55824,2,0,P|197:181|189:245,1,127.5,0|0,1:0|0:0,0:0:0:0:
189,240,56166,1,2,1:2:0:0:
279,199,56338,1,2,1:2:0:0:
115,168,56509,6,0,P|91:133|64:98,1,85,14|0,1:2|0:0,0:0:0:0:
163,231,56852,2,0,P|187:266|214:301,1,85,0|2,1:2|0:0,0:0:0:0:
304,361,57195,2,0,P|299:297|328:226,1,127.5,0|0,1:0|0:0,0:0:0:0:
319,238,57538,2,0,P|361:241|405:247,1,85,2|0,1:2|0:0,0:0:0:0:
285,158,57881,2,0,P|242:154|198:148,1,85,0|0,1:0|1:0,0:0:0:0:
64,3,58224,2,0,P|125:55|123:132,1,127.5,2|2,1:2|1:2,0:0:0:0:
132,98,58566,5,14,1:2:0:0:
51,84,58738,1,0,0:0:0:0:
44,170,58909,1,0,1:0:0:0:
125,184,59081,1,0,0:0:0:0:
118,276,59252,2,0,P|74:270|20:261,1,85,2|0,1:2|1:0,0:0:0:0:
0,335,59595,1,0,1:0:0:0:
0,335,59766,1,2,0:0:0:0:
61,183,59938,1,0,1:0:0:0:
61,183,60109,1,2,0:0:0:0:
177,262,60281,1,2,1:2:0:0:
139,345,60452,1,2,1:2:0:0:
4,296,60624,6,0,P|50:283|119:267,1,85,14|2,1:2|0:0,0:0:0:0:
137,98,60966,2,0,P|183:111|252:127,1,85,0|2,1:0|0:0,0:0:0:0:
284,180,61309,1,2,1:2:0:0:
284,180,61481,1,0,1:0:0:0:
352,258,61652,2,0,P|364:195|393:98,1,127.5,2|0,1:2|0:0,0:0:0:0:
380,133,61995,2,0,P|334:116|293:98,1,85,2|0,1:2|0:0,0:0:0:0:
145,60,62338,2,0,P|124:47|91:36,2,42.5,2|2|2,1:2|1:2|1:2,0:0:0:0:
247,160,62681,5,14,1:2:0:0:
247,160,62852,1,0,1:0:0:0:
215,237,63024,1,2,1:2:0:0:
215,237,63195,1,0,1:0:0:0:
263,308,63366,1,2,1:2:0:0:
263,308,63538,1,0,1:0:0:0:
213,379,63709,6,0,P|166:366|103:350,1,101.999996887207,14|2,1:2|0:0,0:0:0:0:
43,105,64052,2,0,P|77:139|123:185,1,101.999996887207,2|2,1:2|1:2,0:0:0:0:
307,306,64395,1,8,1:2:0:0:
160,268,64566,1,8,1:2:0:0:
16,258,64738,5,14,1:0:0:0:
113,133,64909,1,0,1:0:0:0:
91,318,65081,1,0,1:0:0:0:
23,166,65252,1,0,1:0:0:0:
206,199,65424,2,0,P|265:207|339:215,1,110.499994941712,8|0,1:2|1:0,0:0:0:0:
315,212,65681,1,0,1:0:0:0:
315,212,65766,1,2,1:2:0:0:
336,138,65938,1,2,1:2:0:0:
283,10,66109,1,0,1:0:0:0:
265,84,66281,1,0,1:0:0:0:
423,87,66452,1,8,1:1:0:0:
433,85,66538,1,8,1:2:0:0:
442,83,66624,1,8,1:2:0:0:
454,80,66709,1,8,1:2:0:0:
466,78,66795,6,0,P|459:134|449:229,1,110.499994941712,14|0,1:0|0:0,0:0:0:0:
311,19,67138,2,0,P|318:75|328:170,1,110.499994941712,0|8,1:0|1:2,0:0:0:0:
412,290,67481,2,0,P|351:231|235:250,1,165.749992412568,2|2,1:2|1:2,0:0:0:0:
264,244,67824,1,0,1:0:0:0:
314,310,67995,1,0,1:0:0:0:
270,127,68166,1,8,1:2:0:0:
188,95,68338,1,8,1:2:0:0:
18,247,68509,1,0,1:0:0:0:
107,215,68681,1,0,1:0:0:0:
191,184,68852,6,0,P|185:248|178:326,1,110.499994941712,14|0,1:0|1:0,0:0:0:0:
171,348,69109,1,0,1:0:0:0:
116,338,69195,2,0,P|64:341|-9:349,1,110.499994941712,0|0,1:0|1:0,0:0:0:0:
11,182,69538,1,2,1:2:0:0:
97,213,69709,1,2,1:2:0:0:
206,66,69881,2,0,P|152:74|56:83,1,110.499994941712,8|0,1:2|1:2,0:0:0:0:
231,291,70224,2,0,P|291:272|384:271,1,110.499994941712,8|0,1:2|1:2,0:0:0:0:
291,85,70566,1,8,1:2:0:0:
240,169,70738,1,8,1:2:0:0:
430,368,70909,6,0,P|433:290|450:204,1,165.749992412568,14|2,1:0|1:2,0:0:0:0:
428,161,71252,1,2,1:2:0:0:
428,161,71424,1,0,1:0:0:0:
327,121,71595,2,0,P|338:181|351:245,1,110.499994941712,8|2,1:2|1:2,0:0:0:0:
347,229,71852,1,2,1:2:0:0:
347,229,71938,1,10,1:2:0:0:
305,300,72109,1,0,1:0:0:0:
208,154,72281,1,8,0:2:0:0:
226,228,72452,1,0,1:0:0:0:
317,79,72624,1,8,1:0:0:0:
313,95,72709,1,8,1:0:0:0:
309,111,72795,1,8,1:0:0:0:
305,127,72881,1,8,1:0:0:0:
300,143,72966,5,14,1:0:0:0:
227,200,73138,1,0,0:0:0:0:
140,172,73309,1,0,1:0:0:0:
123,85,73481,1,0,1:0:0:0:
31,45,73652,2,0,P|47:129|65:235,1,165.749992412568,2|2,1:2|1:2,0:0:0:0:
60,208,73995,2,0,B|115:205|115:205|140:137,1,110.499994941712,8|8,1:2|1:2,0:0:0:0:
240,132,74338,2,0,B|222:82|222:82|259:37,1,110.499994941712,0|0,1:0|1:0,0:0:0:0:
349,20,74681,1,8,1:2:0:0:
361,20,74766,1,8,1:2:0:0:
373,22,74852,1,8,1:2:0:0:
512,148,75024,5,14,1:0:0:0:
427,175,75195,1,2,1:2:0:0:
373,117,75366,1,2,1:2:0:0:
373,117,75538,1,0,1:0:0:0:
296,149,75709,1,2,1:2:0:0:
290,229,75881,1,2,1:2:0:0:
188,78,76052,2,0,P|201:139|214:204,1,110.499994941712,8|2,1:2|1:2,0:0:0:0:
194,373,76395,5,2,1:2:0:0:
117,208,76566,1,2,1:2:0:0:
150,286,76738,1,8,1:2:0:0:
77,132,76909,1,8,1:2:0:0:
199,217,77081,6,0,B|251:230|251:230|302:179,1,110.499994941712,14|0,1:0|1:0,0:0:0:0:
116,331,77424,2,0,B|129:279|129:279|78:228,1,110.499994941712,0|0,1:2|1:2,0:0:0:0:
6,165,77766,2,0,P|89:156|176:141,1,165.749992412568,2|2,1:2|1:2,0:0:0:0:
183,123,78109,1,0,1:0:0:0:
141,54,78281,1,0,1:0:0:0:
270,0,78452,1,0,1:2:0:0:
244,70,78624,1,0,1:2:0:0:
306,164,78795,1,8,1:2:0:0:
322,159,78881,1,8,1:2:0:0:
335,154,78966,1,8,1:2:0:0:
225,153,79138,6,0,P|244:224|255:284,1,110.499994941712,14|0,1:0|1:0,0:0:0:0:
118,350,79481,2,0,P|133:285|148:219,1,110.499994941712,0|0,1:0|1:0,0:0:0:0:
91,29,79824,2,0,P|85:94|75:161,1,110.499994941712,2|0,1:2|0:0,0:0:0:0:
78,138,80081,1,2,1:2:0:0:
78,138,80166,1,8,1:2:0:0:
239,220,80338,1,8,1:2:0:0:
52,232,80509,1,8,1:2:0:0:
179,100,80681,1,8,1:2:0:0:
155,278,80852,1,8,1:0:0:0:
155,278,80938,1,8,1:0:0:0:
155,278,81024,1,8,1:0:0:0:
155,278,81109,1,8,1:0:0:0:
155,278,81195,6,0,P|219:290|275:304,1,110.499994941712,14|2,1:0|1:2,0:0:0:0:
357,106,81538,2,0,P|293:94|237:80,1,110.499994941712,0|0,1:0|1:0,0:0:0:0:
42,55,81881,2,0,P|123:69|160:157,1,165.749992412568,2|2,1:2|1:2,0:0:0:0:
151,164,82224,1,0,1:0:0:0:
71,135,82395,1,0,1:0:0:0:
232,222,82566,1,2,1:2:0:0:
259,150,82737,1,2,1:2:0:0:
228,0,82909,1,8,1:2:0:0:
267,72,83080,1,8,1:2:0:0:
334,118,83252,6,0,P|388:183|374:245,1,110.499994941712,14|0,1:0|0:0,0:0:0:0:
395,256,83509,1,0,1:0:0:0:
357,272,83595,2,0,P|303:260|243:253,1,110.499994941712,0|0,1:0|1:0,0:0:0:0:
65,209,83938,2,0,P|118:197|182:182,1,110.499994941712,2|2,1:2|1:2,0:0:0:0:
172,184,84195,1,2,1:2:0:0:
172,184,84281,5,0,1:0:0:0:
197,113,84452,1,8,1:2:0:0:
136,53,84624,1,0,1:0:0:0:
56,72,84795,1,0,1:0:0:0:
247,35,84966,1,8,1:2:0:0:
323,16,85138,1,8,1:2:0:0:
395,78,85309,5,14,1:0:0:0:
415,155,85481,1,0,0:0:0:0:
361,226,85652,1,2,1:2:0:0:
269,227,85824,1,2,1:2:0:0:
150,171,85995,2,0,P|237:150|323:128,1,165.749992412568,8|0,1:2|1:0,0:0:0:0:
335,140,86338,2,0,B|383:193|383:193|364:272,1,110.499994941712,2|0,1:2|1:0,0:0:0:0:
68,223,86681,2,0,B|43:174|43:174|62:108,1,110.499994941712,2|0,1:2|1:0,0:0:0:0:
153,297,87024,2,0,P|203:277|263:262,1,110.499994941712,8|8,1:2|1:2,0:0:0:0:
257,262,87281,1,8,1:2:0:0:
257,262,87366,5,14,1:0:0:0:
272,180,87538,1,0,0:0:0:0:
142,113,87709,1,2,1:2:0:0:
184,191,87881,1,0,1:0:0:0:
331,349,88052,2,0,P|352:270|445:237,1,165.749992412568,2|2,1:2|1:2,0:0:0:0:
443,245,88395,1,8,1:2:0:0:
338,145,88566,1,8,1:2:0:0:
400,83,88738,1,8,1:2:0:0:
290,212,88909,1,8,1:2:0:0:
415,325,89081,1,8,1:0:0:0:
417,338,89166,1,8,1:0:0:0:
418,352,89252,1,8,1:0:0:0:
420,366,89338,1,8,1:0:0:0:
424,376,89424,6,2,P|468:340|521:311,1,110.499994941712,14|0,1:0|1:0,1:0:0:0:
387,134,89766,2,0,P|431:170|484:199,1,110.499994941712,0|8,1:0|1:2,0:0:0:0:
477,196,90109,2,0,P|398:216|277:265,1,165.749992412568,2|2,1:2|1:2,0:0:0:0:
309,256,90452,1,0,1:0:0:0:
211,238,90624,1,0,1:0:0:0:
74,130,90795,1,2,1:2:0:0:
172,148,90967,1,2,1:2:0:0:
163,319,91138,1,8,1:2:0:0:
148,320,91224,1,8,1:2:0:0:
133,321,91309,1,8,1:2:0:0:
30,254,91481,6,0,P|89:242|146:230,1,110.499994941712,14|2,1:0|1:2,0:0:0:0:
405,239,91824,2,0,P|346:227|289:215,1,110.499994941712,0|0,1:0|1:0,0:0:0:0:
151,27,92166,2,0,P|169:77|188:137,1,110.499994941712,2|2,1:2|1:2,0:0:0:0:
242,358,92509,1,8,1:2:0:0:
211,271,92681,1,0,1:0:0:0:
242,358,92852,1,8,1:2:0:0:
292,291,93024,1,0,1:0:0:0:
263,197,93195,1,8,1:2:0:0:
298,118,93366,1,8,1:2:0:0:
263,197,93538,6,0,P|208:182|156:169,1,110.499994941712,14|2,1:0|1:2,0:0:0:0:
156,169,93795,1,2,1:2:0:0:
156,169,93881,1,0,1:0:0:0:
120,91,94052,1,0,1:0:0:0:
48,17,94224,2,0,B|17:94|17:94|66:185,1,165.749992412568,2|2,1:2|1:2,0:0:0:0:
47,192,94566,2,0,B|71:252|71:252|23:322,1,110.499994941712,8|0,1:2|1:2,0:0:0:0:
86,376,94909,2,0,B|145:350|145:350|160:267,1,110.499994941712,8|0,1:2|1:2,0:0:0:0:
123,100,95252,1,8,1:2:0:0:
192,151,95424,1,8,1:2:0:0:
256,201,95595,5,12,1:0:0:0:
256,192,95681,12,12,97652,1:0:0:0:
240,191,97995,6,0,P|237:226|234:258,1,59.4999981842042,2|2,0:0|0:0,0:0:0:0:
165,325,98338,2,0,P|196:336|232:351,1,59.4999981842042
329,329,98681,1,2,0:0:0:0:
329,329,98852,1,0,0:0:0:0:
329,329,99024,1,2,0:0:0:0:
407,353,99195,1,2,0:0:0:0:
465,294,99366,1,2,0:0:0:0:
443,218,99538,1,2,0:0:0:0:
483,151,99709,5,2,0:0:0:0:
483,151,99881,2,0,L|469:83,1,59.4999981842042
380,27,100224,1,2,0:0:0:0:
380,27,100396,2,0,L|369:86,1,59.4999981842042
336,199,100738,1,2,0:0:0:0:
336,199,100909,1,0,0:0:0:0:
261,145,101081,1,2,0:0:0:0:
261,145,101252,1,2,0:0:0:0:
184,201,101424,1,2,0:0:0:0:
184,201,101595,1,2,0:0:0:0:
238,284,101766,6,0,P|179:310|112:339,1,118.999996368408,2|2,0:0|0:0,0:0:0:0:
19,284,102281,2,0,P|74:307|129:332,1,118.999996368408,2|0,0:0|0:0,0:0:0:0:
139,239,102795,2,0,P|144:205|148:167,1,59.4999981842042,2|0,0:0|0:0,0:0:0:0:
95,111,103138,2,0,P|98:82|103:53,1,59.4999981842042,2|0,0:0|0:0,0:0:0:0:
173,6,103481,1,2,0:0:0:0:
173,6,103652,1,2,0:0:0:0:
246,73,103824,6,0,P|275:69|306:64,2,59.4999981842042,2|2|2,0:0|0:0|0:0,0:0:0:0:
174,157,104338,2,0,P|203:161|234:166,2,59.4999981842042,0|2|0,0:0|0:0|0:0,0:0:0:0:
216,275,104852,2,0,P|244:266|272:258,1,59.4999981842042,2|0,0:0|0:0,0:0:0:0:
332,190,105195,1,2,0:0:0:0:
417,205,105366,1,2,0:0:0:0:
459,281,105538,1,2,0:0:0:0:
430,364,105709,1,2,0:0:0:0:
430,364,105881,6,0,P|369:353|299:347,1,118.999996368408,2|2,0:0|0:0,0:0:0:0:
230,221,106395,2,0,P|291:232|361:238,1,118.999996368408
215,365,106909,2,0,P|208:333|192:282,1,59.4999981842042,2|0,0:0|0:0,0:0:0:0:
110,255,107252,2,0,P|134:232|170:193,1,59.4999981842042,2|2,0:0|0:0,0:0:0:0:
132,104,107595,2,0,P|164:114|216:126,1,59.4999981842042,2|2,0:0|0:0,0:0:0:0:
283,88,107938,5,2,0:0:0:0:
283,88,108109,1,0,0:0:0:0:
283,88,108281,1,2,0:0:0:0:
310,167,108452,1,2,0:0:0:0:
253,233,108624,1,2,0:0:0:0:
253,233,108966,2,0,L|170:220,1,59.4999981842042,2|0,0:0|0:0,0:0:0:0:
354,275,109309,2,0,L|437:288,1,59.4999981842042,2|2,0:0|0:0,0:0:0:0:
327,192,109652,1,2,0:0:0:0:
292,120,109824,1,2,0:0:0:0:
354,65,109995,5,6,0:0:0:0:
354,65,110166,1,0,0:0:0:0:
434,89,110338,2,0,L|495:84,1,59.4999981842042,2|0,0:0|0:0,0:0:0:0:
372,172,110681,2,0,L|417:221,1,59.4999981842042,2|0,0:0|0:0,0:0:0:0:
277,156,111024,2,0,L|284:233,1,59.4999981842042,2|2,0:0|0:0,0:0:0:0:
213,65,111366,2,0,L|186:143,1,59.4999981842042,2|2,0:0|0:0,0:0:0:0:
78,24,111709,2,0,L|96:93,1,59.4999981842042,2|0,0:0|0:0,0:0:0:0:
59,175,112052,5,6,0:0:0:0:
59,175,112224,1,0,0:0:0:0:
204,211,112395,2,0,L|283:195,1,59.4999981842042,2|0,0:0|0:0,0:0:0:0:
371,161,112738,2,0,L|342:233,1,59.4999981842042,2|0,0:0|0:0,0:0:0:0:
454,310,113081,2,0,L|397:284,1,59.4999981842042,2|0,0:0|0:0,0:0:0:0:
294,121,113424,2,0,L|282:47,1,59.4999981842042,2|2,0:0|0:0,0:0:0:0:
287,206,113766,2,0,L|268:284,1,59.4999981842042,2|2,0:0|0:0,0:0:0:0:
221,340,114109,5,6,0:0:0:0:
221,340,114281,1,0,0:0:0:0:
136,286,114452,2,0,L|72:278,1,59.4999981842042,2|0,0:0|0:0,0:0:0:0:
233,235,114795,2,0,L|296:223,1,59.4999981842042,2|0,0:0|0:0,0:0:0:0:
81,179,115138,2,0,L|143:206,1,59.4999981842042,2|0,0:0|0:0,0:0:0:0:
205,151,115481,2,0,L|213:86,1,59.4999981842042,2|2,0:0|0:0,0:0:0:0:
140,48,115824,1,2,0:0:0:0:
140,48,115995,1,2,0:0:0:0:
29,40,116166,6,0,L|58:108,1,59.4999981842042,6|0,0:0|0:0,0:0:0:0:
104,170,116509,2,0,L|74:222,1,59.4999981842042,2|0,0:0|0:0,0:0:0:0:
96,327,116852,2,0,L|22:300,1,59.4999981842042,2|0,0:0|0:0,0:0:0:0:
145,258,117195,2,0,L|207:240,1,59.4999981842042,2|0,0:0|0:0,0:0:0:0:
266,169,117538,2,0,L|311:217,1,59.4999981842042,2|2,0:0|0:0,0:0:0:0:
331,320,117881,2,0,L|265:298,1,59.4999981842042,2|2,0:0|0:0,0:0:0:0:
175,161,118224,6,0,L|167:84,2,59.4999981842042,6|0|2,0:0|0:0|0:0,0:0:0:0:
123,232,118738,1,0,0:0:0:0:
123,232,118909,2,0,L|152:313,1,59.4999981842042,2|0,0:0|0:0,0:0:0:0:
254,181,119252,2,0,L|238:265,1,59.4999981842042,2|0,0:0|0:0,0:0:0:0:
349,295,119595,2,0,L|278:343,1,59.4999981842042,2|2,0:0|0:0,0:0:0:0:
214,358,119938,1,2,0:0:0:0:
214,358,120109,1,2,0:0:0:0:
157,288,120281,5,6,0:0:0:0:
143,299,120452,1,0,0:0:0:0:
64,240,120624,1,2,0:0:0:0:
68,253,120795,1,0,0:0:0:0:
123,184,120966,1,2,0:0:0:0:
204,152,121138,1,2,0:0:0:0:
269,44,121309,1,2,0:0:0:0:
262,65,121481,1,2,0:0:0:0:
351,166,121652,1,2,0:0:0:0:
357,144,121824,1,2,0:0:0:0:
512,0,121995,1,2,0:0:0:0:
423,58,122166,1,2,0:0:0:0:
485,152,122338,5,14,0:0:0:0:
21,70,147024,6,0,P|72:52|88:-12,2,118.999996368408,6|0|0,0:0|0:0|0:0,0:0:0:0:
179,60,148052,2,0,P|238:71|281:132,2,118.999996368408,2|0|0,0:0|0:0|0:0,0:0:0:0:
15,205,149081,5,2,0:0:0:0:
84,151,149424,1,0,0:0:0:0:
166,186,149766,1,0,0:0:0:0:
173,277,150109,2,0,L|165:382,1,89.2499972763062,2|0,0:0|0:0,0:0:0:0:
166,365,150795,1,2,0:0:0:0:
250,342,150966,1,2,0:0:0:0:
253,252,151138,2,0,B|312:262|312:262|343:324,2,118.999996368408,6|0|0,0:0|0:0|0:0,0:0:0:0:
160,224,152166,2,0,B|188:168|188:168|259:152,2,118.999996368408,2|0|0,0:0|0:0|0:0,0:0:0:0:
192,317,153195,6,0,P|82:281|86:158,1,237.999992736817,2|0,0:0|0:0,0:0:0:0:
163,37,154224,2,0,P|100:147|172:234,1,237.999992736817,2|0,0:0|0:0,0:0:0:0:
256,298,155252,6,0,P|264:192|281:79,1,208.249993644715,6|0,0:0|0:0,0:0:0:0:
278,91,155938,1,2,0:0:0:0:
231,21,156109,1,2,0:0:0:0:
158,77,156281,1,2,0:0:0:0:
342,19,156624,1,0,0:0:0:0:
452,164,156966,1,0,0:0:0:0:
358,262,157309,6,0,B|322:244|263:201|263:201|213:220|157:233,1,208.249993644715,6|0,0:0|0:0,0:0:0:0:
172,229,157995,1,2,0:0:0:0:
94,192,158166,1,2,0:0:0:0:
123,116,158338,1,2,0:0:0:0:
101,283,158681,1,0,0:0:0:0:
190,357,159024,5,2,0:0:0:0:
234,287,159195,1,2,0:0:0:0:
312,262,159366,1,6,0:0:0:0:
330,114,159709,1,0,0:0:0:0:
116,30,160052,1,0,0:0:0:0:
116,30,160224,1,0,0:0:0:0:
43,66,160395,1,6,0:0:0:0:
231,30,160738,1,0,0:0:0:0:
111,240,161081,1,0,0:0:0:0:
111,240,161252,1,0,0:0:0:0:
184,192,161410,5,6,0:0:0:0:
308,113,161773,1,2,0:0:0:0:
426,189,162173,1,2,0:0:0:0:
412,274,162601,1,2,0:0:0:0:
359,295,163122,1,2,0:0:0:0:
330,274,163722,1,2,0:0:0:0:
335,262,164411,6,0,P|338:229|342:193,1,59.4999981842042,14|0,1:2|0:0,0:0:0:0:
302,127,164753,2,0,P|269:124|233:120,1,59.4999981842042,2|0,0:0|0:0,0:0:0:0:
154,82,165096,2,0,P|151:115|147:151,1,59.4999981842042,8|8,0:2|0:2,0:0:0:0:
175,253,165438,2,0,P|200:231|228:209,1,59.4999981842042,2|0,0:0|0:0,0:0:0:0:
305,311,165782,2,0,P|299:278|293:242,1,59.4999981842042,2|0,0:0|0:0,0:0:0:0:
400,204,166125,2,0,P|368:192|335:179,1,59.4999981842042,8|8,0:2|0:2,0:0:0:0:
256,83,166468,6,0,P|286:93|319:103,1,59.4999981842042,2|0,0:0|0:0,0:0:0:0:
138,51,166811,2,0,P|108:41|75:31,1,59.4999981842042,2|0,0:0|0:0,0:0:0:0:
188,138,167153,2,0,P|188:169|190:204,1,59.4999981842042,8|8,0:0|0:0,0:0:0:0:
139,350,167496,1,2,0:0:0:0:
139,350,167668,1,0,0:0:0:0:
88,280,167839,1,2,0:0:0:0:
88,280,168011,1,0,0:0:0:0:
18,217,168182,1,2,0:0:0:0:
35,136,168353,1,2,0:0:0:0:
116,92,168525,5,2,0:0:0:0:
116,92,168696,1,0,0:0:0:0:
176,167,168868,1,2,0:0:0:0:
176,167,169039,1,0,0:0:0:0:
123,247,169211,2,0,L|133:320,1,59.4999981842042,8|8,0:0|0:0,0:0:0:0:
205,357,169553,1,2,0:0:0:0:
205,357,169725,1,0,0:0:0:0:
271,298,169896,1,2,0:0:0:0:
271,298,170068,1,0,0:0:0:0:
355,338,170239,2,0,L|413:330,1,59.4999981842042,8|8,0:0|0:0,0:0:0:0:
486,371,170582,6,0,P|494:304|372:259,1,212.5,14|0,1:2|0:0,0:0:0:0:
307,217,171611,2,0,P|298:283|420:328,1,212.5,14|2,1:2|0:0,0:0:0:0:
459,255,172639,6,0,P|453:222|449:184,1,59.4999981842042,14|0,1:2|0:0,0:0:0:0:
475,111,172982,2,0,P|479:82|485:53,1,59.4999981842042,2|0,0:0|0:0,0:0:0:0:
418,2,173325,1,8,0:0:0:0:
418,2,173496,1,8,0:0:0:0:
349,70,173668,2,0,L|269:61,1,59.4999981842042,14|0,1:2|0:0,0:0:0:0:
339,149,174011,2,0,L|259:140,1,59.4999981842042
329,235,174353,2,0,L|249:226,1,59.4999981842042,8|8,0:2|0:0,0:0:0:0:
196,23,174696,6,0,P|186:140|176:237,1,208.249993644715,2|0,0:0|0:0,0:0:0:0:
176,230,175382,1,8,0:0:0:0:
176,230,175553,1,8,0:0:0:0:
139,316,175725,2,2,P|114:297|85:275,1,59.4999981842042
225,325,176068,2,2,P|253:305|279:288,1,59.4999981842042
302,215,176411,1,2,1:2:0:0:
302,215,176582,1,2,1:2:0:0:
324,129,176753,6,0,P|376:168|391:234,1,118.999996368408,2|2,0:0|0:0,0:0:0:0:
391,217,177268,1,2,0:0:0:0:
416,316,177439,2,8,P|386:309|349:300,1,59.4999981842042
226,239,177782,2,0,P|216:185|201:106,1,118.999996368408,2|2,0:0|0:0,0:0:0:0:
204,122,178296,1,2,0:0:0:0:
133,49,178468,2,2,P|126:84|118:132,1,59.4999981842042
37,214,178811,2,0,P|136:190|256:161,1,208.249993644715,14|0,1:2|0:0,0:0:0:0:
247,179,179496,2,0,P|241:214|238:254,1,59.4999981842042,2|0,0:0|0:0,0:0:0:0:
186,339,179839,5,14,1:2:0:0:
271,322,180011,1,2,0:0:0:0:
122,295,180182,5,0,1:0:0:0:
350,338,180354,1,2,0:0:0:0:
57,347,180525,5,8,1:0:0:0:
32,325,180611,1,8,1:0:0:0:
43,294,180696,1,8,1:0:0:0:
25,266,180782,1,8,1:0:0:0:
34,234,180868,5,14,1:1:0:0:
157,125,181039,1,0,1:0:0:0:
41,118,181211,1,0,1:0:0:0:
139,225,181382,1,0,1:0:0:0:
244,134,181553,2,0,P|236:95|227:41,1,93.5000028533936,2|2,1:2|1:2,0:0:0:0:
227,41,181896,1,0,1:0:0:0:
326,30,182068,1,0,1:0:0:0:
431,123,182239,1,0,1:0:0:0:
339,112,182411,1,0,1:0:0:0:
435,32,182582,1,8,1:2:0:0:
446,29,182668,1,8,1:2:0:0:
456,26,182753,1,8,1:2:0:0:
465,23,182839,1,8,1:2:0:0:
474,18,182925,6,0,P|514:58|511:108,1,93.5000028533936,14|0,1:0|1:0,0:0:0:0:
512,204,183268,2,0,P|466:211|437:246,1,93.5000028533936,0|0,1:0|1:0,0:0:0:0:
431,352,183611,1,0,1:0:0:0:
331,329,183782,1,0,1:0:0:0:
222,350,183953,2,0,P|214:313|201:246,1,93.5000028533936,8|0,1:2|0:0,0:0:0:0:
24,237,184296,2,0,P|19:188|8:129,1,93.5000028533936,0|0,1:0|1:0,0:0:0:0:
52,63,184639,1,8,1:2:0:0:
153,130,184811,1,8,1:2:0:0:
109,248,184982,5,14,1:0:0:0:
67,326,185153,1,0,1:0:0:0:
196,294,185325,1,2,1:2:0:0:
118,258,185496,1,0,1:0:0:0:
180,190,185668,1,0,1:0:0:0:
180,190,185753,1,0,1:0:0:0:
180,190,185839,1,0,1:0:0:0:
69,157,186011,1,2,1:2:0:0:
128,88,186182,1,2,1:2:0:0:
228,97,186353,1,2,1:2:0:0:
138,103,186525,1,2,1:2:0:0:
293,38,186696,1,0,1:0:0:0:
293,38,186782,1,0,1:0:0:0:
293,38,186868,1,0,1:0:0:0:
376,68,187039,6,0,P|370:121|364:183,1,93.5000028533936,14|0,1:0|1:0,0:0:0:0:
512,241,187382,2,0,P|459:235|397:229,1,93.5000028533936,2|2,1:2|1:2,0:0:0:0:
336,369,187725,2,0,P|342:316|348:254,1,93.5000028533936,0|0,1:0|1:0,0:0:0:0:
194,192,188068,1,8,1:2:0:0:
217,194,188239,1,8,1:2:0:0:
240,197,188410,1,8,1:2:0:0:
263,199,188582,1,8,1:2:0:0:
286,201,188753,1,8,1:2:0:0:
286,185,188839,1,8,1:2:0:0:
284,169,188925,1,8,1:2:0:0:
281,151,189011,1,8,1:2:0:0:
277,135,189096,5,14,1:0:0:0:
186,102,189268,1,0,1:0:0:0:
89,69,189439,1,0,1:0:0:0:
125,163,189611,1,0,1:0:0:0:
171,244,189782,1,8,1:2:0:0:
171,244,189953,1,8,1:2:0:0:
146,364,190125,2,0,P|180:338|236:323,1,93.5000028533936,2|0,1:2|0:0,0:0:0:0:
10,248,190468,2,0,P|47:273|112:291,1,93.5000028533936,2|0,1:2|0:0,0:0:0:0:
325,375,190811,2,0,P|313:311|326:229,1,140.25000428009,8|8,1:2|1:2,0:0:0:0:
323,237,191153,6,0,P|375:231|425:225,1,93.5000028533936,14|0,1:0|1:0,0:0:0:0:
189,147,191496,2,0,P|137:153|87:159,1,93.5000028533936,2|2,1:2|1:2,0:0:0:0:
290,137,191839,1,0,1:0:0:0:
290,137,192011,1,0,1:0:0:0:
219,235,192182,2,0,P|190:302|207:375,1,140.25000428009,8|0,1:2|0:0,0:0:0:0:
202,366,192525,2,0,P|236:335|296:344,1,93.5000028533936,8|2,1:2|1:2,0:0:0:0:
500,371,192868,1,8,1:2:0:0:
500,371,193039,1,8,1:2:0:0:
416,329,193211,5,14,1:0:0:0:
392,238,193382,1,0,1:0:0:0:
402,145,193553,1,0,1:0:0:0:
471,82,193725,1,0,1:0:0:0:
471,82,193896,2,0,B|408:32|408:32|314:48,1,140.25000428009,2|2,1:2|1:2,0:0:0:0:
349,42,194239,1,0,1:0:0:0:
299,121,194411,1,0,1:0:0:0:
207,136,194582,1,0,1:0:0:0:
121,98,194753,1,0,1:0:0:0:
82,24,194925,1,8,1:2:0:0:
82,24,195011,1,8,1:2:0:0:
82,24,195096,1,8,1:2:0:0:
22,107,195268,6,0,P|37:163|48:228,1,93.5000028533936,14|0,1:0|0:0,0:0:0:0:
233,371,195611,2,0,P|217:314|207:250,1,93.5000028533936,2|0,1:2|0:0,0:0:0:0:
139,154,195953,2,0,P|132:227|120:314,1,140.25000428009,2|0,1:2|0:0,0:0:0:0:
123,293,196296,5,8,1:2:0:0:
209,270,196468,1,8,1:2:0:0:
46,266,196639,5,8,1:2:0:0:
287,304,196811,1,8,1:2:0:0:
254,191,196982,5,8,1:0:0:0:
254,191,197153,1,8,1:0:0:0:
293,108,197325,5,14,1:0:0:0:
336,177,197496,1,0,1:0:0:0:
211,267,197668,1,0,1:0:0:0:
168,198,197839,1,2,1:2:0:0:
168,198,197925,1,2,1:2:0:0:
168,198,198011,1,2,1:2:0:0:
301,263,198182,1,2,1:2:0:0:
204,116,198353,2,0,P|179:74|147:18,1,110.499994941712,8|8,1:2|1:2,0:0:0:0:
347,184,198696,2,0,P|396:184|461:184,1,110.499994941712,8|8,1:2|1:2,0:0:0:0:
219,268,199039,1,8,1:2:0:0:
191,345,199211,1,8,1:2:0:0:
251,188,199382,5,2,1:2:0:0:
308,260,199553,1,2,1:2:0:0:
308,260,199639,1,2,1:2:0:0:
308,260,199725,1,0,1:0:0:0:
192,123,199896,1,0,1:0:0:0:
366,316,200068,2,0,P|428:305|481:298,1,110.499994941712,0|0,1:0|0:0,0:0:0:0:
475,298,200411,1,8,1:2:0:0:
506,218,200582,1,8,1:2:0:0:
394,87,200753,1,8,1:2:0:0:
425,167,200924,1,8,1:2:0:0:
347,319,201096,1,8,1:2:0:0:
337,231,201268,1,8,1:2:0:0:
249,187,201439,5,14,1:0:0:0:
249,187,201611,1,0,1:0:0:0:
326,147,201782,1,0,1:0:0:0:
263,272,201953,1,0,1:0:0:0:
169,137,202125,2,0,P|93:106|10:76,1,165.749992412568,2|2,1:2|1:2,0:0:0:0:
14,77,202468,2,0,B|-9:133|-9:133|16:195,1,110.499994941712,2|0,1:2|0:0,0:0:0:0:
10,312,202811,2,0,B|61:285|61:285|118:293,1,110.499994941712,8|8,1:2|1:2,0:0:0:0:
277,362,203153,1,2,1:2:0:0:
262,274,203325,1,2,1:2:0:0:
249,187,203496,5,14,1:0:0:0:
346,68,203668,1,0,1:0:0:0:
272,105,203839,1,0,1:0:0:0:
430,84,204011,1,0,1:0:0:0:
271,15,204182,1,0,1:0:0:0:
271,15,204353,1,0,1:0:0:0:
187,133,204525,1,8,1:2:0:0:
187,133,204696,1,8,1:2:0:0:
187,133,204868,1,8,1:2:0:0:
187,133,205039,1,8,1:2:0:0:
187,133,205211,1,8,1:0:0:0:
200,150,205296,1,8,1:0:0:0:
216,168,205382,1,8,1:0:0:0:
229,183,205468,1,8,1:0:0:0:
240,196,205553,6,0,P|279:241|313:279,1,110.499994941712,14|0,1:0|1:0,0:0:0:0:
512,226,205896,2,0,P|485:279|462:325,1,110.499994941712,0|0,1:0|0:0,0:0:0:0:
377,368,206239,1,2,1:2:0:0:
397,280,206411,1,2,1:2:0:0:
417,198,206582,1,8,1:2:0:0:
417,198,206753,1,8,1:2:0:0:
414,88,206925,1,8,1:2:0:0:
414,88,207096,1,8,1:2:0:0:
308,47,207268,1,8,1:2:0:0:
238,107,207439,1,8,1:2:0:0:
261,194,207611,5,14,1:0:0:0:
175,180,207782,1,2,1:2:0:0:
175,180,207868,1,2,1:2:0:0:
175,180,207953,1,0,1:0:0:0:
329,122,208125,1,0,1:0:0:0:
320,307,208296,2,0,P|240:283|156:277,1,165.749992412568,2|2,1:2|1:2,0:0:0:0:
158,276,208639,2,0,P|157:337|153:387,1,110.499994941712,8|0,1:2|0:0,0:0:0:0:
111,187,208982,2,0,P|66:148|29:112,1,110.499994941712,8|0,1:2|0:0,0:0:0:0:
265,12,209325,2,0,P|260:70|259:135,1,110.499994941712,8|8,1:2|1:2,0:0:0:0:
255,204,209668,5,14,1:0:0:0:
333,164,209839,1,0,1:0:0:0:
345,71,210011,2,0,P|401:93|454:106,1,110.499994941712,0|0,1:0|1:0,0:0:0:0:
510,191,210353,2,0,P|432:215|439:306,1,165.749992412568,2|2,1:2|0:0,0:0:0:0:
426,289,210696,1,0,1:0:0:0:
510,321,210868,1,0,1:0:0:0:
306,325,211039,1,8,1:2:0:0:
337,241,211211,1,8,1:2:0:0:
421,99,211382,2,0,P|368:120|308:142,1,110.499994941712,8|8,1:0|1:0,0:0:0:0:
247,198,211725,5,12,1:0:0:0:
256,192,211811,12,8,213611,1:2:0:0:
16,173,213782,6,0,L|84:152,1,59.4999981842042,6|0,0:0|0:0,0:0:0:0:
128,84,214125,2,0,L|188:115,1,59.4999981842042,2|2,0:0|0:0,0:0:0:0:
218,187,214468,1,2,0:0:0:0:
218,187,214639,1,0,0:0:0:0:
279,245,214811,2,0,L|340:224,1,59.4999981842042,2|2,0:0|0:0,0:0:0:0:
269,95,215153,2,0,L|307:154,1,59.4999981842042,2|2,0:0|0:0,0:0:0:0:
420,250,215496,2,0,L|411:292,2,29.7499990921021,2|0|0,0:0|0:0|0:0,0:0:0:0:
475,173,215839,5,6,0:0:0:0:
476,113,216011,1,0,0:0:0:0:
426,80,216182,1,2,0:0:0:0:
368,95,216353,1,2,0:0:0:0:
329,57,216525,1,2,0:0:0:0:
329,57,216696,1,2,0:0:0:0:
236,24,216868,2,0,L|246:106,1,59.4999981842042,2|2,0:0|0:0,0:0:0:0:
263,280,217211,2,0,L|273:213,1,59.4999981842042,2|2,0:0|0:0,0:0:0:0:
311,152,217553,1,2,0:0:0:0:
311,152,217639,1,2,0:0:0:0:
311,152,217725,1,2,0:0:0:0:
182,202,217896,5,6,0:0:0:0:
122,197,218068,1,0,0:0:0:0:
123,137,218239,1,2,0:0:0:0:
182,143,218411,1,2,0:0:0:0:
94,283,218582,2,0,P|69:265|29:238,1,59.4999981842042,0|2,0:0|0:0,0:0:0:0:
7,166,218925,1,2,0:0:0:0:
7,166,219096,1,2,0:0:0:0:
34,88,219268,1,2,0:0:0:0:
34,88,219439,1,2,0:0:0:0:
115,56,219611,1,2,0:0:0:0:
115,56,219696,1,0,0:0:0:0:
115,56,219782,1,0,0:0:0:0:
200,73,219953,5,6,0:0:0:0:
200,73,220125,1,2,0:0:0:0:
178,128,220296,1,2,0:0:0:0:
206,171,220468,1,2,0:0:0:0:
265,184,220639,2,0,L|334:148,1,59.4999981842042,2|0,0:0|0:0,0:0:0:0:
438,77,220982,1,2,0:0:0:0:
408,105,221153,1,2,0:0:0:0:
465,218,221325,1,2,0:0:0:0:
435,190,221496,1,2,0:0:0:0:
325,67,221668,2,0,L|339:26,2,29.7499990921021,2|2|2,0:0|0:0|0:0,0:0:0:0:
194,146,222011,5,6,0:0:0:0:
194,146,222182,2,0,P|224:170|254:202,2,59.4999981842042,2|2|2,0:0|0:0|0:0,0:0:0:0:
345,170,222696,2,0,P|332:205|318:251,1,59.4999981842042,2|2,0:0|0:0,0:0:0:0:
280,372,223039,1,2,0:0:0:0:
268,313,223211,1,2,0:0:0:0:
209,301,223382,1,2,0:0:0:0:
167,259,223553,1,0,0:0:0:0:
190,205,223725,1,2,0:0:0:0:
190,205,223811,1,2,0:0:0:0:
190,205,223896,1,2,0:0:0:0:
228,118,224068,6,0,P|273:164|276:228,1,118.999996368408,6|2,0:0|0:0,0:0:0:0:
266,347,224582,2,0,P|211:325|155:342,1,118.999996368408,2|2,0:0|0:0,0:0:0:0:
41,367,225096,2,0,P|46:338|58:295,1,59.4999981842042,2|2,0:0|0:0,0:0:0:0:
6,221,225439,2,0,P|15:189|27:153,1,59.4999981842042,2|2,0:0|0:0,0:0:0:0:
91,116,225782,1,2,0:0:0:0:
91,116,225868,1,2,0:0:0:0:
91,116,225953,1,2,0:0:0:0:
91,116,226125,6,0,B|132:182|104:236|37:233|63:338|135:357|174:319,1,297.499990921021,6|2,0:0|0:0,0:0:0:0:
206,217,227153,2,0,B|240:258|277:293|277:293|264:338|258:391,1,178.499994552612,2|2,0:0|0:0,0:0:0:0:
361,339,227839,2,0,P|370:289|379:240,1,89.2499972763062,2|2,0:0|0:0,0:0:0:0:
377,251,228182,2,0,P|369:224|357:177,1,59.4999981842042,6|0,0:0|0:0,0:0:0:0:
267,87,228525,2,0,P|275:113|287:161,1,59.4999981842042,2|0,0:0|0:0,0:0:0:0:
246,271,228868,2,0,L|284:226,1,59.4999981842042,2|2,0:0|0:0,0:0:0:0:
364,110,229211,1,2,0:0:0:0:
364,110,229382,2,0,P|288:96|222:95,1,118.999996368408,2|0,0:0|0:0,0:0:0:0:
0,67,229896,2,0,P|34:80|57:87,1,59.4999981842042
156,93,230239,5,6,0:0:0:0:
130,119,230410,1,2,0:0:0:0:
114,152,230581,1,2,0:0:0:0:
110,189,230753,1,2,0:0:0:0:
127,220,230924,1,8,0:0:0:0:
127,220,231096,1,8,0:0:0:0:
127,307,231268,2,0,P|155:263|230:241,1,118.999996368408,6|2,0:0|0:0,0:0:0:0:
291,282,231782,2,0,P|328:285|366:288,2,59.4999981842042,2|8|8,0:0|0:0|0:0,0:0:0:0:
261,244,232296,5,6,0:0:0:0:
258,196,232468,1,0,0:0:0:0:
295,166,232639,1,2,0:0:0:0:
291,118,232811,1,0,0:0:0:0:
250,105,232982,1,8,0:0:0:0:
250,105,233153,1,8,0:0:0:0:
268,18,233325,2,0,L|348:44,1,59.4999981842042,6|0,0:0|0:0,0:0:0:0:
419,47,233668,2,0,L|403:116,1,59.4999981842042,0|2,0:0|0:0,0:0:0:0:
408,187,234011,1,8,0:0:0:0:
408,187,234182,1,8,0:0:0:0:
479,242,234353,6,0,P|427:278|358:254,1,118.999996368408,6|2,0:0|0:0,0:0:0:0:
315,167,234868,2,0,P|258:178|226:227,1,118.999996368408,2|8,0:0|0:0,0:0:0:0:
196,309,235382,2,0,L|202:373,5,59.4999981842042,6|2|2|2|8|8,0:0|0:0|0:0|0:0|0:0|0:0,0:0:0:0:
103,280,236411,6,0,P|162:223|284:346,1,297.499990921021,6|8,0:0|0:0,0:0:0:0:
284,345,237439,2,0,P|249:192|236:41,1,297.499990921021,6|8,0:0|0:0,0:0:0:0:
236,52,238468,6,0,L|288:25,1,59.4999981842042,2|2,0:0|0:0,0:0:0:0:
385,96,238811,2,0,L|375:30,1,59.4999981842042,2|2,0:0|0:0,0:0:0:0:
456,0,239153,1,8,0:0:0:0:
456,0,239325,1,8,0:0:0:0:
489,83,239496,2,0,L|480:157,1,59.4999981842042,2|2,0:0|0:0,0:0:0:0:
480,303,239839,2,0,L|463:227,1,59.4999981842042,2|2,0:0|0:0,0:0:0:0:
359,168,240182,1,8,0:0:0:0:
310,182,240353,1,8,0:0:0:0:
262,201,240525,5,2,0:0:0:0:
262,201,240696,1,0,0:0:0:0:
208,184,240868,1,2,0:0:0:0:
190,132,241039,1,0,0:0:0:0:
211,84,241211,1,6,0:0:0:0:
53,45,241553,1,2,0:0:0:0:
53,45,241725,1,2,0:0:0:0:
98,55,241896,1,2,0:0:0:0:
126,92,242068,1,2,0:0:0:0:
128,139,242239,1,10,0:0:0:0:
102,179,242411,1,6,0:0:0:0:
