osu file format v14

[General]
AudioFilename: audio.mp3
AudioLeadIn: 0
PreviewTime:84980
Countdown: 0
SampleSet: Normal
StackLeniency: 0.7
Mode: 0
LetterboxInBreaks: 0
WidescreenStoryboard: 1

[Editor]
Bookmarks: 94966
DistanceSpacing: 0.5
BeatDivisor: 4
GridSize: 4
TimelineZoom: 2.5

[Metadata]
Title:Aci-L
TitleUnicode:Aci-L
Artist:-45
ArtistUnicode:-45
Creator:Luscent
Version:Insane
Source:うみねこのなく頃に散
Tags:fa featured artist mappers guild mpg EvilElvis Jounzan Natteke desu Down Enon Umineko no Naku Koro ni chiru when the seagulls cry they visual novel 07th expansion Ryukishi07 video game electronic instrumental akito yoshikawa yoshikawa-45 dva d'va;;;;;;;;5 bms
BeatmapID:3767159
BeatmapSetID:1783108

[Difficulty]
HPDrainRate:6
CircleSize:4
OverallDifficulty:8
ApproachRate:8
SliderMultiplier:1.6
SliderTickRate:1

[Events]
//Background and Video events
0,0,"bg.jpg",0,0
//Break Periods
//Storyboard Layer 0 (Background)
//Storyboard Layer 1 (Fail)
//Storyboard Layer 2 (Pass)
//Storyboard Layer 3 (Foreground)
//Storyboard Layer 4 (Overlay)
//Storyboard Sound Samples

[TimingPoints]
2096,370.37037037037,4,2,0,100,1,0
25799,-200,4,2,0,100,0,0
37281,-200,4,1,0,100,0,0
38392,-100,4,1,0,100,0,0
49503,-90.9090909090909,4,1,0,100,0,0
85058,-83.3333333333333,4,1,0,100,0,0
96910,-133.333333333333,4,2,0,100,0,0
120614,-90.9090909090909,4,1,0,100,0,0

[Colours]
Combo1 : 0,128,255
Combo2 : 170,85,255
Combo3 : 137,186,245
Combo4 : 71,40,247

[HitObjects]
51,180,2096,5,2,0:0:0:0:
51,180,2188,1,0,0:0:0:0:
109,262,2373,1,2,0:0:0:0:
109,262,2466,1,0,0:0:0:0:
203,247,2651,1,2,0:0:0:0:
203,247,2744,1,0,0:0:0:0:
274,322,2929,1,2,0:0:0:0:
274,322,3021,1,0,0:0:0:0:
356,275,3207,6,0,P|400:282|462:290,2,80,2|0|0,0:0|0:0|0:0,0:0:0:0:
338,247,3670,1,2,0:0:0:0:
331,215,3762,1,0,0:0:0:0:
337,183,3855,1,0,0:0:0:0:
354,156,3947,1,2,0:0:0:0:
213,35,4133,1,0,0:0:0:0:
213,35,4225,2,0,P|224:75|229:114,1,80,2|0,0:0|0:0,0:0:0:0:
224,144,4503,1,2,0:0:0:0:
102,222,4688,1,2,0:0:0:0:
70,216,4781,1,0,0:0:0:0:
38,210,4873,1,2,0:0:0:0:
182,321,5058,5,2,0:0:0:0:
182,320,5151,2,0,P|219:306|259:304,1,80,0|2,0:0|0:0,0:0:0:0:
290,311,5429,1,0,0:0:0:0:
399,288,5614,1,2,0:0:0:0:
399,288,5707,1,0,0:0:0:0:
416,174,5892,1,2,0:0:0:0:
416,174,5984,1,0,0:0:0:0:
298,105,6170,1,2,0:0:0:0:
294,128,6262,1,0,0:0:0:0:
290,151,6355,1,0,0:0:0:0:
286,174,6447,1,2,0:0:0:0:
282,197,6540,6,0,L|224:192,2,40,0|2|0,0:0|0:0|0:0,0:0:0:0:
144,247,6910,1,2,0:0:0:0:
163,261,7003,1,0,0:0:0:0:
54,166,7188,1,2,0:0:0:0:
57,185,7281,1,0,0:0:0:0:
99,60,7466,1,2,0:0:0:0:
213,96,7651,1,2,0:0:0:0:
317,31,7836,1,2,0:0:0:0:
403,130,8021,5,2,0:0:0:0:
403,130,8114,2,0,P|395:184|390:226,1,80,0|2,0:0|0:0,0:0:0:0:
396,239,8392,1,0,0:0:0:0:
437,370,8577,1,2,0:0:0:0:
437,370,8670,1,0,0:0:0:0:
313,297,8855,1,2,0:0:0:0:
313,297,8947,1,0,0:0:0:0:
182,335,9133,1,2,0:0:0:0:
182,335,9225,1,0,0:0:0:0:
62,270,9410,1,2,0:0:0:0:
62,270,9503,6,0,L|67:214,2,40,0|2|0,0:0|0:0|0:0,0:0:0:0:
156,193,9873,1,2,0:0:0:0:
151,161,9966,1,0,0:0:0:0:
251,232,10151,1,2,0:0:0:0:
334,171,10336,1,0,0:0:0:0:
337,139,10429,1,2,0:0:0:0:
458,237,10614,1,0,0:0:0:0:
458,237,10707,1,2,0:0:0:0:
458,237,10799,1,0,0:0:0:0:
458,237,10892,1,2,0:0:0:0:
458,237,10984,6,0,P|451:262|446:293,2,40,0|2|0,0:0|0:0|0:0,0:0:0:0:
314,336,11355,1,2,0:0:0:0:
314,336,11447,2,0,P|256:313|210:309,1,80,0|2,0:0|0:0,0:0:0:0:
214,323,11725,2,0,P|198:286|194:246,1,80,0|2,0:0|0:0,0:0:0:0:
315,111,12095,2,0,P|309:159|283:202,1,80,2|2,0:0|0:0,0:0:0:0:
29,144,12466,5,2,0:0:0:0:
29,144,12558,2,0,P|64:161|104:163,1,80,0|2,0:0|0:0,0:0:0:0:
104,163,12836,1,0,0:0:0:0:
199,223,13021,1,2,0:0:0:0:
194,246,13114,1,0,0:0:0:0:
295,186,13299,1,2,0:0:0:0:
314,200,13392,1,0,0:0:0:0:
288,73,13577,1,2,0:0:0:0:
288,73,13670,1,0,0:0:0:0:
288,73,13762,1,2,0:0:0:0:
269,310,13947,5,4,0:2:0:0:
269,310,15244,5,0,1:0:0:0:
269,310,15429,1,0,1:0:0:0:
49,131,16725,5,0,1:0:0:0:
49,131,16910,1,0,1:0:0:0:
116,354,18207,5,0,1:0:0:0:
116,354,18392,1,0,1:0:0:0:
279,255,18762,1,0,1:0:0:0:
468,315,19133,1,0,1:0:0:0:
468,315,19318,1,0,1:0:0:0:
408,377,19688,5,0,1:0:0:0:
408,377,19781,1,0,1:0:0:0:
408,377,19873,1,0,1:0:0:0:
173,61,21170,5,0,1:0:0:0:
173,61,21355,1,0,1:0:0:0:
246,339,22651,5,0,1:0:0:0:
246,339,22836,1,0,1:0:0:0:
374,98,24133,5,0,1:0:0:0:
374,98,24318,1,4,1:2:0:0:
296,174,24688,1,0,1:0:0:0:
374,98,25058,5,4,1:2:0:0:
346,283,25244,1,0,1:0:0:0:
346,283,25336,1,2,0:0:0:0:
346,283,25429,1,0,1:0:0:0:
192,184,25614,1,0,1:0:0:0:
58,277,25799,6,0,P|197:281|287:395,1,280,4|0,0:2|0:0,0:0:0:0:
248,272,27281,2,0,B|288:114|184:175|224:1,1,280,2|0,0:0|0:0,0:0:0:0:
442,26,28762,2,0,P|412:126|249:132,1,280,2|0,0:0|0:0,0:0:0:0:
123,164,30244,6,0,P|120:127|112:94,2,60,2|2|2,0:0|0:0|0:0,0:0:0:0:
147,292,31170,1,2,0:0:0:0:
147,292,31355,1,2,0:0:0:0:
147,292,31540,1,2,0:0:0:0:
317,366,31725,6,0,B|363:215|243:259|303:82,1,280,2|0,0:0|0:0,0:0:0:0:
200,21,33207,2,0,P|59:44|62:183,1,280,2|0,0:0|0:0,0:0:0:0:
48,294,34688,2,0,B|161:313|128:247|251:269,1,200,2|0,0:0|0:0,0:0:0:0:
351,323,35799,1,2,0:0:0:0:
351,323,35984,1,0,0:0:0:0:
429,271,36170,6,0,P|426:209|430:159,1,80,4|0,1:2|1:0,0:0:0:0:
426,191,36910,1,4,1:2:0:0:
252,55,37095,1,0,1:0:0:0:
154,101,37281,1,4,1:2:0:0:
178,115,37373,1,0,1:0:0:0:
202,131,37466,1,0,1:0:0:0:
226,145,37558,1,0,0:0:0:0:
250,161,37651,5,4,0:2:0:0:
250,161,37744,1,0,0:0:0:0:
107,255,37929,1,0,0:0:0:0:
107,255,38021,1,8,0:0:0:0:
179,379,38207,1,0,0:0:0:0:
179,379,38299,1,0,0:0:0:0:
179,379,38392,2,0,P|183:336|191:285,1,80
315,254,38762,2,0,B|368:257|417:263,1,80,8|0,0:0|0:0,0:0:0:0:
421,242,39040,1,0,0:0:0:0:
447,223,39133,5,0,0:0:0:0:
461,194,39225,1,0,0:0:0:0:
466,162,39318,1,0,0:0:0:0:
460,130,39410,1,0,0:0:0:0:
440,104,39503,1,8,0:0:0:0:
262,8,39688,1,0,0:0:0:0:
262,8,39781,2,0,P|271:58|277:120,1,80
213,145,40058,2,0,P|257:160|302:181,2,80,0|8|0,0:0|0:0|0:0,0:0:0:0:
25,106,40614,5,0,0:0:0:0:
25,106,40707,2,0,P|33:164|36:208,1,80
34,185,40984,1,8,0:0:0:0:
0,316,41170,1,0,0:0:0:0:
0,316,41262,2,0,P|58:308|102:305,1,80
79,306,41540,1,0,0:0:0:0:
200,351,41725,1,8,0:0:0:0:
205,319,41818,1,0,0:0:0:0:
210,287,41910,1,0,0:0:0:0:
215,255,42003,1,0,0:0:0:0:
225,230,42095,5,0,0:0:0:0:
225,230,42188,1,0,0:0:0:0:
225,230,42281,1,0,0:0:0:0:
360,280,42466,1,8,0:0:0:0:
360,280,42558,2,0,B|410:284|469:296,1,80,0|8,0:0|0:0,0:0:0:0:
512,202,42929,1,0,0:0:0:0:
512,202,43021,1,8,0:0:0:0:
397,95,43207,2,0,P|388:143|389:196,1,80,8|8,0:0|0:0,0:0:0:0:
271,94,43577,5,0,0:0:0:0:
271,94,43670,1,0,0:0:0:0:
271,94,43762,1,0,0:0:0:0:
129,29,43947,1,8,0:0:0:0:
129,29,44040,2,0,P|140:83|144:132,1,80
33,278,44410,1,0,0:0:0:0:
33,278,44503,1,0,0:0:0:0:
132,253,44688,1,8,0:0:0:0:
132,253,44781,1,0,0:0:0:0:
208,318,44966,1,0,0:0:0:0:
239,311,45058,5,0,0:0:0:0:
270,304,45151,1,0,0:0:0:0:
301,297,45244,1,0,0:0:0:0:
404,343,45429,1,8,0:0:0:0:
404,343,45521,2,0,P|396:292|394:227,1,80
463,188,45892,1,0,0:0:0:0:
463,188,45984,1,0,0:0:0:0:
344,106,46170,1,8,0:0:0:0:
344,106,46262,1,0,0:0:0:0:
328,133,46355,1,0,0:0:0:0:
312,160,46447,1,0,0:0:0:0:
299,189,46540,5,0,0:0:0:0:
267,182,46633,1,0,0:0:0:0:
235,175,46725,1,0,0:0:0:0:
75,247,46910,1,8,0:0:0:0:
75,247,47003,2,0,P|124:238|189:236,1,80
117,146,47373,1,0,0:0:0:0:
117,146,47466,1,0,0:0:0:0:
78,155,47558,1,0,0:0:0:0:
38,145,47651,1,8,0:0:0:0:
8,117,47744,1,0,0:0:0:0:
1,77,47836,1,0,0:0:0:0:
216,17,48021,5,4,0:0:0:0:
216,17,48114,2,0,L|206:120,1,80
230,126,48392,2,0,L|220:229,1,80,8|0,0:0|0:0,0:0:0:0:
192,233,48670,2,0,L|261:223,1,40,8|4,0:0|0:0,0:0:0:0:
379,196,48947,1,8,0:0:0:0:
385,205,49040,1,0,0:0:0:0:
391,214,49133,2,0,L|385:244,6,20,12|0|0|0|8|0|0,0:0|0:0|0:0|0:0|0:0|0:0|0:0,0:0:0:0:
464,255,49503,6,0,P|454:300|450:357,1,88,4|0,0:2|0:0,0:0:0:0:
322,384,49873,1,8,0:0:0:0:
227,306,50058,1,0,0:0:0:0:
227,306,50151,1,0,0:0:0:0:
116,345,50336,1,0,0:0:0:0:
116,345,50429,1,0,0:0:0:0:
18,286,50614,1,8,0:0:0:0:
14,258,50707,1,0,0:0:0:0:
11,230,50799,1,0,0:0:0:0:
8,202,50892,1,0,0:0:0:0:
18,164,50984,6,0,P|43:161|78:155,2,44
191,210,51355,1,8,0:0:0:0:
191,210,51447,2,0,P|182:162|180:102,1,88
327,12,51818,1,0,0:0:0:0:
327,12,51910,1,0,0:0:0:0:
353,34,52003,1,0,0:0:0:0:
366,66,52095,1,8,0:0:0:0:
369,101,52188,1,0,0:0:0:0:
354,133,52281,1,0,0:0:0:0:
263,244,52466,5,0,0:0:0:0:
263,244,52558,2,0,P|317:235|370:232,1,88
350,232,52836,1,8,0:0:0:0:
475,185,53021,1,0,0:0:0:0:
475,185,53114,2,0,P|470:238|474:283,1,88
472,272,53392,1,0,0:0:0:0:
377,366,53577,1,8,0:0:0:0:
377,366,53670,1,0,0:0:0:0:
192,296,53855,1,0,0:0:0:0:
192,296,53947,5,0,0:0:0:0:
188,268,54040,1,0,0:0:0:0:
185,241,54133,1,0,0:0:0:0:
182,214,54225,1,0,0:0:0:0:
180,187,54318,1,8,0:0:0:0:
304,201,54503,1,0,0:0:0:0:
304,201,54595,1,8,0:0:0:0:
415,126,54781,1,8,0:0:0:0:
415,126,54873,2,0,P|418:76|425:29,2,88,0|8|8,0:0|0:0|0:0,0:0:0:0:
299,66,55429,5,0,0:0:0:0:
299,66,55521,2,0,P|238:76|177:75,1,88
183,55,55799,1,8,0:0:0:0:
60,6,55984,1,0,0:0:0:0:
60,6,56077,2,0,P|57:56|60:106,1,88
71,126,56355,1,0,0:0:0:0:
2,216,56540,1,8,0:0:0:0:
2,216,56633,1,0,0:0:0:0:
70,295,56818,1,0,0:0:0:0:
99,288,56910,5,0,0:0:0:0:
129,282,57003,1,0,0:0:0:0:
159,276,57095,1,0,0:0:0:0:
259,241,57281,1,8,0:0:0:0:
259,241,57373,2,0,P|266:289|268:331,1,88.000002685547
428,224,57744,1,0,0:0:0:0:
428,224,57836,1,0,0:0:0:0:
341,153,58021,1,8,0:0:0:0:
332,123,58114,1,0,0:0:0:0:
331,92,58207,1,0,0:0:0:0:
334,61,58299,1,0,0:0:0:0:
347,33,58392,6,0,P|375:25|396:17,2,44.0000013427735
242,98,58762,1,8,0:0:0:0:
242,98,58855,2,0,P|176:113|121:115,1,88.000002685547
17,231,59225,1,0,0:0:0:0:
17,231,59318,2,0,P|83:216|138:214,1,88.000002685547,0|8,0:0|0:0,0:0:0:0:
205,265,59688,1,0,0:0:0:0:
377,219,59873,6,0,P|421:244|458:280,1,88.000002685547
231,186,60244,2,0,P|223:122|225:48,1,132.00000402832,8|8,0:0|0:0,0:0:0:0:
245,18,60614,1,0,0:0:0:0:
120,109,60799,1,8,0:0:0:0:
120,109,60892,1,0,0:0:0:0:
120,109,60984,2,0,L|82:114,6,22.0000006713867,8|0|0|0|8|0|0,0:0|0:0|0:0|0:0|0:0|0:0|0:0,0:0:0:0:
60,84,61355,5,4,0:2:0:0:
0,314,61725,1,8,0:0:0:0:
0,314,61818,1,0,0:0:0:0:
81,278,62003,1,0,0:0:0:0:
143,343,62188,1,0,0:0:0:0:
143,343,62281,1,0,0:0:0:0:
228,311,62466,1,8,0:0:0:0:
228,311,62558,2,0,P|227:253|232:194,1,88.000002685547
222,171,62836,5,0,0:0:0:0:
242,193,62929,1,0,0:0:0:0:
268,207,63021,1,0,0:0:0:0:
297,216,63114,1,0,0:0:0:0:
327,219,63207,1,8,0:0:0:0:
405,304,63392,1,0,0:0:0:0:
405,304,63484,2,0,P|438:273|485:247,1,88.000002685547
503,222,63762,1,0,0:0:0:0:
384,158,63947,2,0,P|370:116|364:73,1,88.000002685547,8|0,0:0|0:0,0:0:0:0:
272,13,64318,5,0,0:0:0:0:
272,13,64410,1,0,0:0:0:0:
170,24,64595,1,0,0:0:0:0:
170,24,64687,1,8,0:0:0:0:
183,132,64873,1,0,0:0:0:0:
183,132,64965,1,0,0:0:0:0:
284,121,65150,1,0,0:0:0:0:
284,121,65244,1,0,0:0:0:0:
245,222,65429,1,8,0:0:0:0:
245,222,65521,1,0,0:0:0:0:
245,222,65614,1,0,0:0:0:0:
61,176,65799,5,0,0:0:0:0:
61,176,65892,2,0,P|74:225|78:280,1,88.000002685547
101,288,66170,1,8,0:0:0:0:
202,341,66355,1,0,0:0:0:0:
202,341,66447,2,0,P|268:324|319:320,1,88.000002685547,8|0,0:0|0:0,0:0:0:0:
319,343,66725,1,8,0:0:0:0:
396,269,66910,1,8,0:0:0:0:
396,269,67003,1,0,0:0:0:0:
396,269,67095,1,8,0:0:0:0:
237,170,67281,5,4,0:2:0:0:
237,170,67373,2,0,P|229:104|235:39,1,132.00000402832,0|8,0:0|0:0,0:0:0:0:
129,97,67836,1,0,0:0:0:0:
129,97,67929,1,0,0:0:0:0:
20,90,68114,1,0,0:0:0:0:
32,118,68207,1,0,0:0:0:0:
40,147,68299,1,0,0:0:0:0:
44,177,68392,1,8,0:0:0:0:
45,207,68484,1,0,0:0:0:0:
22,303,68670,1,0,0:0:0:0:
51,293,68762,5,4,0:2:0:0:
81,288,68855,1,0,0:0:0:0:
111,283,68947,1,0,0:0:0:0:
192,339,69133,1,8,0:0:0:0:
192,339,69225,1,0,0:0:0:0:
244,207,69410,2,0,P|241:148|243:68,1,132.00000402832
355,31,69873,1,8,0:0:0:0:
399,34,69966,1,0,0:0:0:0:
436,56,70058,1,0,0:0:0:0:
460,93,70151,1,8,0:0:0:0:
468,136,70244,6,0,P|460:182|459:235,1,88.000002685547,4|0,0:2|0:0,0:0:0:0:
379,347,70614,1,8,0:0:0:0:
347,315,70707,1,0,0:0:0:0:
307,295,70799,1,0,0:0:0:0:
264,282,70892,1,0,0:0:0:0:
220,287,70984,6,0,P|201:232|197:165,1,88.000002685547,4|0,0:2|0:0,0:0:0:0:
91,76,71355,1,8,0:0:0:0:
48,84,71447,1,0,0:0:0:0:
16,114,71540,1,0,0:0:0:0:
3,156,71633,1,0,0:0:0:0:
13,198,71725,1,4,0:2:0:0:
256,192,71818,12,12,72836,0:0:0:0:
73,100,73207,5,4,0:2:0:0:
73,100,73299,1,0,0:0:0:0:
137,174,73484,1,0,0:0:0:0:
137,174,73577,1,8,0:0:0:0:
219,138,73762,1,0,0:0:0:0:
324,196,73947,1,0,0:0:0:0:
316,226,74040,1,0,0:0:0:0:
310,256,74133,1,0,0:0:0:0:
306,286,74225,1,0,0:0:0:0:
276,295,74318,1,8,0:0:0:0:
298,316,74410,1,0,0:0:0:0:
316,340,74503,1,0,0:0:0:0:
326,368,74595,1,0,0:0:0:0:
457,334,74781,5,0,0:0:0:0:
416,211,74966,1,0,0:0:0:0:
416,211,75058,1,8,0:0:0:0:
239,219,75244,1,0,0:0:0:0:
239,219,75336,1,0,0:0:0:0:
239,219,75429,5,0,0:0:0:0:
210,208,75521,1,0,0:0:0:0:
179,201,75614,1,0,0:0:0:0:
148,197,75707,1,0,0:0:0:0:
117,197,75799,1,8,0:0:0:0:
86,201,75892,1,0,0:0:0:0:
56,209,75984,1,0,0:0:0:0:
28,223,76077,1,0,0:0:0:0:
126,121,76262,5,0,0:0:0:0:
42,62,76447,1,0,0:0:0:0:
42,62,76540,1,8,0:0:0:0:
219,0,76725,1,0,0:0:0:0:
219,0,76818,1,0,0:0:0:0:
219,0,76910,5,0,0:0:0:0:
208,29,77003,1,0,0:0:0:0:
203,59,77095,1,0,0:0:0:0:
210,89,77188,1,0,0:0:0:0:
222,117,77281,1,8,0:0:0:0:
225,147,77373,1,0,0:0:0:0:
223,177,77466,1,0,0:0:0:0:
210,205,77558,1,0,0:0:0:0:
138,285,77744,5,0,0:0:0:0:
215,356,77929,1,0,0:0:0:0:
215,356,78021,1,8,0:0:0:0:
306,315,78207,1,0,0:0:0:0:
306,315,78299,1,0,0:0:0:0:
306,315,78392,5,0,0:0:0:0:
317,286,78484,1,0,0:0:0:0:
320,255,78577,1,0,0:0:0:0:
315,224,78670,1,0,0:0:0:0:
303,195,78762,2,0,P|276:199|239:199,2,44.0000013427735,8|0|6,0:0|0:0|0:0,0:0:0:0:
420,221,79133,5,4,0:2:0:0:
420,221,79225,1,0,0:0:0:0:
437,112,79410,1,0,0:0:0:0:
437,112,79503,1,8,0:0:0:0:
320,91,79688,1,0,0:0:0:0:
320,91,79781,1,0,0:0:0:0:
320,91,79873,5,0,0:0:0:0:
291,103,79966,1,0,0:0:0:0:
260,108,80058,1,0,0:0:0:0:
229,104,80151,1,0,0:0:0:0:
200,92,80244,1,8,0:0:0:0:
172,79,80336,1,0,0:0:0:0:
142,70,80429,1,0,0:0:0:0:
111,75,80521,1,0,0:0:0:0:
29,151,80707,5,0,0:0:0:0:
117,207,80892,1,0,0:0:0:0:
117,207,80984,1,8,0:0:0:0:
48,279,81170,1,0,0:0:0:0:
48,279,81262,1,0,0:0:0:0:
48,279,81355,5,0,0:0:0:0:
51,309,81447,1,0,0:0:0:0:
55,339,81540,1,0,0:0:0:0:
58,369,81633,1,0,0:0:0:0:
88,363,81725,1,8,0:0:0:0:
118,358,81818,1,0,0:0:0:0:
148,355,81910,1,0,0:0:0:0:
178,353,82003,1,0,0:0:0:0:
258,267,82188,5,0,0:0:0:0:
356,328,82373,1,0,0:0:0:0:
356,328,82466,1,8,0:0:0:0:
454,273,82651,1,0,0:0:0:0:
454,273,82744,1,0,0:0:0:0:
454,273,82836,5,0,0:0:0:0:
464,243,82929,1,0,0:0:0:0:
468,212,83021,1,0,0:0:0:0:
465,181,83114,1,0,0:0:0:0:
450,153,83207,1,8,0:0:0:0:
435,125,83299,1,0,0:0:0:0:
429,94,83392,1,0,0:0:0:0:
433,63,83484,1,0,0:0:0:0:
325,111,83670,6,0,P|277:119|215:114,1,88.000002685547
210,148,83947,1,8,0:0:0:0:
94,63,84133,1,0,0:0:0:0:
94,63,84225,1,8,0:0:0:0:
94,63,84318,5,0,0:0:0:0:
75,87,84410,1,8,0:0:0:0:
65,116,84503,1,0,0:0:0:0:
64,146,84595,1,0,0:0:0:0:
73,175,84688,2,0,P|95:182|106:184,6,22.0000006713867,8|0|0|0|0|0|0,0:0|0:0|0:0|0:0|0:0|0:0|0:0,0:0:0:0:
0,222,85058,5,4,0:2:0:0:
0,222,85151,2,0,P|39:259|69:314,1,95.9999970703126
51,328,85429,2,0,P|94:334|153:355,1,95.9999970703126,8|0,0:0|0:0,0:0:0:0:
242,363,85799,1,0,0:0:0:0:
259,323,85892,1,0,0:0:0:0:
262,280,85984,1,0,0:0:0:0:
251,238,86077,1,0,0:0:0:0:
229,200,86170,1,8,0:0:0:0:
214,159,86262,1,0,0:0:0:0:
214,115,86355,1,0,0:0:0:0:
231,75,86447,6,0,P|287:85|344:80,1,95.9999970703126
429,35,86818,1,0,0:0:0:0:
429,35,86910,2,0,P|450:86|448:146,1,95.9999970703126,8|0,0:0|0:0,0:0:0:0:
424,159,87188,1,0,0:0:0:0:
411,200,87281,1,0,0:0:0:0:
409,242,87373,1,0,0:0:0:0:
430,279,87466,1,0,0:0:0:0:
444,319,87558,1,0,0:0:0:0:
438,362,87651,1,8,0:0:0:0:
399,381,87744,1,0,0:0:0:0:
356,374,87836,1,0,0:0:0:0:
333,336,87929,6,0,P|273:325|218:326,1,95.9999970703126
113,353,88300,1,0,0:0:0:0:
113,353,88392,2,0,P|97:292|104:234,1,95.9999970703126,8|0,0:0|0:0,0:0:0:0:
116,219,88670,1,0,0:0:0:0:
143,185,88762,1,0,0:0:0:0:
182,166,88855,1,0,0:0:0:0:
224,160,88947,1,0,0:0:0:0:
266,168,89040,1,0,0:0:0:0:
306,183,89133,1,8,0:0:0:0:
348,181,89225,1,0,0:0:0:0:
384,158,89318,1,0,0:0:0:0:
409,122,89410,6,0,P|414:75|407:27,1,95.9999970703126
271,75,89781,1,0,0:0:0:0:
271,75,89873,2,0,P|215:78|159:75,1,95.9999970703126,8|0,0:0|0:0,0:0:0:0:
144,46,90151,1,0,0:0:0:0:
103,29,90244,1,0,0:0:0:0:
60,32,90336,1,0,0:0:0:0:
22,54,90429,1,0,0:0:0:0:
6,93,90521,1,0,0:0:0:0:
3,136,90614,2,0,P|19:162|57:185,2,47.9999985351563,8|0|6,0:0|0:0|0:0,0:0:0:0:
0,276,90984,5,4,0:2:0:0:
0,276,91077,2,0,B|51:272|43:280|94:277,1,95.9999970703126
134,298,91355,2,0,P|140:237|136:175,1,95.9999970703126,8|0,0:0|0:0,0:0:0:0:
114,166,91633,1,0,0:0:0:0:
127,125,91725,1,0,0:0:0:0:
164,102,91818,1,0,0:0:0:0:
205,113,91910,1,0,0:0:0:0:
229,149,92003,1,0,0:0:0:0:
224,191,92095,1,8,0:0:0:0:
209,231,92188,1,0,0:0:0:0:
214,274,92281,1,0,0:0:0:0:
236,310,92373,6,0,P|289:305|324:309,1,47.9999985351563
359,267,92558,2,0,P|394:269|424:270,1,47.9999985351563
492,295,92744,1,0,0:0:0:0:
492,295,92836,2,0,P|488:232|495:166,1,95.9999970703126,8|0,0:0|0:0,0:0:0:0:
459,168,93114,1,0,0:0:0:0:
447,126,93207,1,0,0:0:0:0:
455,83,93299,1,0,0:0:0:0:
444,40,93392,1,0,0:0:0:0:
406,19,93484,1,0,0:0:0:0:
364,30,93577,1,8,0:0:0:0:
343,68,93670,1,0,0:0:0:0:
351,110,93762,1,0,0:0:0:0:
340,152,93855,6,0,P|303:153|279:152,1,47.9999985351563
213,112,94040,2,0,P|177:109|145:110,1,47.9999985351563
79,86,94225,1,0,0:0:0:0:
79,86,94318,2,0,P|75:126|80:188,1,95.9999970703126,8|0,0:0|0:0,0:0:0:0:
44,207,94595,1,0,0:0:0:0:
29,247,94688,1,0,0:0:0:0:
31,290,94781,1,0,0:0:0:0:
53,326,94873,1,0,0:0:0:0:
90,346,94966,1,0,0:0:0:0:
132,342,95058,1,8,0:0:0:0:
169,320,95151,1,0,0:0:0:0:
203,293,95244,1,0,0:0:0:0:
245,284,95336,6,0,P|274:281|304:282,1,47.9999985351563
205,179,95521,2,0,P|176:182|146:181,1,47.9999985351563
279,88,95707,1,0,0:0:0:0:
279,88,95799,2,0,P|308:85|338:86,1,47.9999985351563,12|0,0:0|0:0,0:0:0:0:
451,59,95984,5,0,0:0:0:0:
446,107,96077,1,0,0:0:0:0:
441,155,96170,1,0,0:0:0:0:
436,202,96262,1,8,0:0:0:0:
389,197,96355,1,0,0:0:0:0:
341,192,96448,1,0,0:0:0:0:
293,187,96541,5,8,0:0:0:0:
254,214,96633,1,0,0:0:0:0:
215,241,96725,1,8,0:0:0:0:
51,161,96910,6,0,B|25:245|25:245|54:340,1,180.000006866455,4|2,0:2|0:0,0:0:0:0:
237,372,98021,2,0,B|342:385|321:326|453:348,1,180.000006866455,2|2,0:0|0:0,0:0:0:0:
141,178,99133,1,2,0:0:0:0:
141,274,99503,1,2,0:0:0:0:
201,69,99873,6,0,P|254:141|357:124,1,180.000006866455,2|2,0:0|0:0,0:0:0:0:
476,234,100984,2,0,B|451:136|499:161|476:50,1,180.000006866455,2|2,0:0|0:0,0:0:0:0:
351,271,102095,1,2,0:0:0:0:
245,265,102466,1,2,0:0:0:0:
18,261,102836,6,0,P|112:280|114:390,2,180.000006866455,2|2|2,0:0|0:0|0:0,0:0:0:0:
217,230,104503,2,0,P|278:168|295:71,1,180.000006866455,2|2,0:0|0:0,0:0:0:0:
421,157,105429,1,2,0:0:0:0:
72,35,105799,5,2,0:0:0:0:
0,159,106355,1,2,0:0:0:0:
100,267,106910,1,2,0:0:0:0:
228,206,107466,1,2,0:0:0:0:
210,65,108021,1,2,0:0:0:0:
210,65,108392,1,2,0:0:0:0:
58,150,108762,5,4,1:2:0:0:
58,150,108855,2,0,P|49:200|57:258,1,90.0000034332277,2|2,0:0|0:0,0:0:0:0:
20,353,109318,1,0,0:0:0:0:
20,353,109410,2,0,P|71:334|124:334,1,90.0000034332277,2|2,0:0|0:0,0:0:0:0:
187,271,109873,2,0,P|216:279|246:283,1,60.0000022888184,2|0,0:0|1:0,0:0:0:0:
350,315,110244,5,0,1:2:0:0:
350,315,110336,2,0,P|355:247|365:199,1,90.0000034332277,2|2,0:0|0:0,0:0:0:0:
467,220,110799,1,0,0:0:0:0:
467,220,110892,2,0,P|454:161|451:111,1,90.0000034332277,2|2,0:0|0:0,0:0:0:0:
388,53,111355,1,2,0:0:0:0:
388,53,111540,1,2,1:2:0:0:
256,100,111725,5,2,1:2:0:0:
256,100,111818,2,0,P|201:106|142:100,1,90.0000034332277,2|0,0:0|0:0,0:0:0:0:
62,229,112281,1,2,0:0:0:0:
62,229,112374,2,0,P|117:223|176:229,1,90.0000034332277
250,322,112836,2,0,P|251:272|255:237,1,60.0000022888184,2|2,0:0|1:2,0:0:0:0:
322,187,113207,5,2,1:2:0:0:
470,198,113577,1,2,1:2:0:0:
456,350,113947,1,0,1:0:0:0:
456,350,114133,1,0,1:0:0:0:
141,369,114503,5,0,1:0:0:0:
141,369,114595,1,0,1:0:0:0:
141,369,114688,2,0,P|130:303|140:229,1,120.000004577637,0|2,1:0|0:0,0:0:0:0:
67,211,115244,2,0,P|138:201|197:165,1,120.000004577637,2|0,0:0|0:0,0:0:0:0:
244,105,115799,1,2,0:0:0:0:
244,105,115984,1,0,1:0:0:0:
354,24,116170,6,0,P|335:78|340:148,1,120.000004577637,0|2,1:0|0:0,0:0:0:0:
297,222,116725,1,0,0:0:0:0:
405,355,116910,2,0,P|424:301|419:231,1,120.000004577637,2|2,0:0|0:0,0:0:0:0:
236,288,117466,1,0,1:0:0:0:
236,288,117651,5,0,1:0:0:0:
264,28,118947,1,0,1:0:0:0:
264,28,119132,1,0,1:0:0:0:
162,95,119503,1,0,1:0:0:0:
53,59,119873,1,0,1:0:0:0:
0,146,120058,1,0,1:0:0:0:
4,175,120151,1,0,1:0:0:0:
8,204,120244,1,0,1:0:0:0:
12,233,120336,1,0,1:0:0:0:
17,262,120429,1,0,1:0:0:0:
102,357,120614,5,4,1:2:0:0:
102,356,120707,2,0,P|111:314|134:276,1,88.000002685547
156,250,120984,1,8,0:0:0:0:
259,314,121170,1,0,0:0:0:0:
259,314,121262,1,0,0:0:0:0:
259,314,121355,2,0,P|306:321|354:327,1,88.000002685547
447,290,121725,1,8,0:0:0:0:
477,258,121818,1,0,0:0:0:0:
490,216,121910,1,0,0:0:0:0:
485,172,122003,1,0,0:0:0:0:
346,198,122188,5,0,0:0:0:0:
346,198,122281,2,0,P|339:142|351:78,1,88.000002685547,0|8,0:0|0:0,0:0:0:0:
412,46,122651,1,0,0:0:0:0:
412,46,122744,1,8,0:0:0:0:
245,121,122929,1,8,0:0:0:0:
245,121,123021,2,0,P|185:112|134:106,2,88.000002685547,0|8|0,0:0|0:0|0:0,0:0:0:0:
33,48,123577,5,0,0:0:0:0:
48,79,123670,1,0,0:0:0:0:
60,113,123762,1,0,0:0:0:0:
68,147,123855,1,0,0:0:0:0:
73,182,123947,1,8,0:0:0:0:
52,305,124133,1,0,0:0:0:0:
52,305,124225,1,0,0:0:0:0:
172,206,124410,1,0,0:0:0:0:
172,206,124503,1,0,0:0:0:0:
259,272,124688,1,8,0:0:0:0:
356,238,124873,5,0,0:0:0:0:
356,238,124966,1,0,0:0:0:0:
356,238,125058,2,0,P|353:185|356:132,1,88.000002685547
434,89,125429,1,8,0:0:0:0:
485,241,125614,1,0,0:0:0:0:
485,241,125707,1,8,0:0:0:0:
485,241,125799,2,0,P|471:288|462:343,1,88.000002685547
345,345,126170,2,0,P|293:335|230:328,1,88.000002685547,8|8,0:0|0:0,0:0:0:0:
143,355,126540,5,0,0:0:0:0:
143,355,126633,2,0,P|129:304|129:239,1,88.000002685547
134,235,126910,1,8,0:0:0:0:
0,151,127095,1,0,0:0:0:0:
0,151,127188,2,0,P|14:202|14:267,1,88.000002685547
9,271,127465,1,0,0:0:0:0:
167,242,127651,1,8,0:0:0:0:
201,247,127744,1,0,0:0:0:0:
235,252,127836,1,0,0:0:0:0:
269,258,127929,1,0,0:0:0:0:
310,272,128021,5,0,0:0:0:0:
310,272,128114,1,0,0:0:0:0:
310,272,128207,1,0,0:0:0:0:
403,188,128392,1,8,0:0:0:0:
403,188,128484,2,0,P|401:132|406:70,1,88.000002685547
302,33,128855,1,0,0:0:0:0:
302,33,128947,1,0,0:0:0:0:
200,111,129133,1,8,0:0:0:0:
205,145,129225,1,0,0:0:0:0:
210,179,129318,1,0,0:0:0:0:
92,138,129503,6,0,P|18:160|12:253,1,176.000005371094,0|8,0:0|0:0,0:0:0:0:
129,362,130058,1,0,0:0:0:0:
129,362,130151,1,0,0:0:0:0:
129,362,130244,2,0,P|137:309|132:249,1,88.000002685547
257,247,130614,2,0,L|365:261,1,88.000002685547,8|0,0:0|0:0,0:0:0:0:
368,246,130892,1,0,0:0:0:0:
391,234,130984,1,0,0:0:0:0:
246,163,131170,5,0,0:0:0:0:
305,342,131355,1,8,0:0:0:0:
455,293,131540,1,0,0:0:0:0:
455,293,131633,1,8,0:0:0:0:
443,172,131818,1,0,0:0:0:0:
443,172,131910,2,0,L|439:136,8,22.0000006713867,8|0|0|0|12|0|0|0|0,0:0|0:0|0:0|0:0|0:0|0:0|0:0|0:0|0:0,0:0:0:0:
364,215,132466,5,4,0:2:0:0:
364,215,132558,1,0,0:0:0:0:
312,149,132744,1,0,0:0:0:0:
312,149,132836,1,8,0:0:0:0:
347,70,133021,1,0,0:0:0:0:
347,70,133113,1,0,0:0:0:0:
438,65,133299,1,0,0:0:0:0:
438,65,133391,1,0,0:0:0:0:
364,215,133577,5,8,0:0:0:0:
364,215,133669,1,0,0:0:0:0:
312,149,133855,1,0,0:0:0:0:
229,132,134041,1,0,0:0:0:0:
229,132,134133,1,0,0:0:0:0:
149,164,134318,1,8,0:0:0:0:
149,164,134410,1,0,0:0:0:0:
66,132,134595,1,8,0:0:0:0:
11,201,134781,1,0,0:0:0:0:
11,201,134873,2,0,P|7:252|-1:315,2,88.000002685547,8|8|8,0:0|0:0|0:0,0:0:0:0:
77,339,135429,5,0,0:0:0:0:
77,339,135521,1,0,0:0:0:0:
163,312,135707,1,0,0:0:0:0:
163,312,135799,1,8,0:0:0:0:
246,351,135984,1,0,0:0:0:0:
246,351,136076,1,0,0:0:0:0:
328,314,136262,1,0,0:0:0:0:
328,314,136354,1,0,0:0:0:0:
410,344,136540,5,8,0:0:0:0:
512,271,136725,1,0,0:0:0:0:
512,271,136818,1,0,0:0:0:0:
512,271,136910,2,0,P|510:221|516:162,1,88.000002685547
359,209,137281,2,0,P|312:205|237:196,1,88.000002685547,8|0,0:0|0:0,0:0:0:0:
271,200,137558,1,8,0:0:0:0:
271,200,137651,1,0,0:0:0:0:
194,133,137836,1,0,0:0:0:0:
279,60,138021,1,8,0:0:0:0:
279,60,138114,1,0,0:0:0:0:
279,60,138207,1,8,0:0:0:0:
114,94,138392,6,0,P|156:148|166:218,1,132.00000402832,4|0,0:2|0:0,0:0:0:0:
166,209,138762,1,8,0:0:0:0:
32,348,138947,2,0,P|76:335|131:326,1,88.000002685547
248,368,139318,1,0,0:0:0:0:
248,368,139410,1,0,0:0:0:0:
248,368,139503,1,8,0:0:0:0:
342,266,139688,1,0,0:0:0:0:
253,132,139873,6,0,P|243:174|244:218,1,88.000002685547,4|0,0:2|0:0,0:0:0:0:
284,57,140244,2,0,P|234:100|138:91,1,132.00000402832,8|0,0:0|0:0,0:0:0:0:
170,104,140614,1,0,0:0:0:0:
21,65,140799,1,0,0:0:0:0:
21,65,140892,1,0,0:0:0:0:
21,65,140984,2,0,P|32:110|38:162,1,88.000002685547,8|0,0:0|0:0,0:0:0:0:
0,272,141355,6,0,B|95:261|76:306|173:290,1,176.000005371094,4|8,0:2|0:0,0:0:0:0:
241,345,141910,1,0,0:0:0:0:
387,213,142095,1,4,0:2:0:0:
387,213,142188,1,0,0:0:0:0:
387,213,142281,2,0,P|393:261|384:313,1,88.000002685547,0|8,0:0|0:0,0:0:0:0:
266,220,142651,1,0,0:0:0:0:
90,167,142836,6,0,L|176:205,1,88.000002685547,4|0,0:2|0:0,0:0:0:0:
256,51,143207,2,0,L|292:150,1,88.000002685547,8|0,0:0|0:0,0:0:0:0:
473,116,143577,2,0,L|442:219,1,88.000002685547,4|0,0:2|0:0,0:0:0:0:
375,340,143947,1,4,0:2:0:0:
353,197,144133,1,0,0:0:0:0:
375,340,144318,1,6,0:0:0:0:
