osu file format v14

[General]
AudioFilename: audio.mp3
AudioLeadIn: 0
PreviewTime: 84980
Countdown: 0
SampleSet: Soft
StackLeniency: 0.7
Mode: 0
LetterboxInBreaks: 0
WidescreenStoryboard: 0

[Editor]
Bookmarks: 94969
DistanceSpacing: 1
BeatDivisor: 4
GridSize: 4
TimelineZoom: 2.5

[Metadata]
Title:Aci-L
TitleUnicode:Aci-L
Artist:-45
ArtistUnicode:-45
Creator:Luscent
Version:Collab Extra
Source:うみねこのなく頃に散
Tags:fa featured artist mappers guild mpg EvilElvis Jounzan Natteke desu Down Enon Umineko no Naku Koro ni chiru when the seagulls cry they visual novel 07th expansion Ryukishi07 video game electronic instrumental akito yoshikawa yoshikawa-45 dva d'va;;;;;;;;5 bms
BeatmapID:3651716
BeatmapSetID:1783108

[Difficulty]
HPDrainRate:6
CircleSize:5
OverallDifficulty:8
ApproachRate:8.5
SliderMultiplier:1.6
SliderTickRate:1

[Events]
//Background and Video events
0,0,"bg.jpg",0,0
//Break Periods
//Storyboard Layer 0 (Background)
//Storyboard Layer 1 (Fail)
//Storyboard Layer 2 (Pass)
//Storyboard Layer 3 (Foreground)
//Storyboard Layer 4 (Overlay)
//Storyboard Sound Samples

[TimingPoints]
2096,370.37037037037,4,1,0,100,1,0
2096,-100,4,2,0,100,0,0
25799,-200,4,2,0,100,0,0
37281,-100,4,1,0,100,0,0
96911,-166.666666666667,4,2,0,100,0,0
108762,-125,4,2,0,100,0,0
120614,-100,4,1,0,100,0,0
132466,-83.3333333333333,4,1,0,100,0,0

[Colours]
Combo1 : 0,128,255
Combo2 : 170,85,255
Combo3 : 137,186,245
Combo4 : 71,40,247

[HitObjects]
50,72,2096,5,2,0:0:0:0:
56,68,2188,1,0,0:0:0:0:
124,105,2374,1,2,0:0:0:0:
126,97,2466,1,0,0:0:0:0:
204,92,2651,1,2,0:0:0:0:
199,85,2744,1,0,0:0:0:0:
274,56,2929,1,2,0:0:0:0:
280,60,3021,1,0,0:0:0:0:
348,23,3207,1,2,0:0:0:0:
350,31,3299,1,0,0:0:0:0:
428,36,3484,1,2,0:0:0:0:
477,150,3670,5,2,0:0:0:0:
466,144,3762,1,0,0:0:0:0:
404,193,3948,1,2,0:0:0:0:
400,181,4040,1,0,0:0:0:0:
324,191,4225,1,2,0:0:0:0:
328,179,4318,1,0,0:0:0:0:
261,144,4503,1,2,0:0:0:0:
270,137,4596,1,0,0:0:0:0:
279,129,4688,1,2,0:0:0:0:
288,121,4781,1,0,0:0:0:0:
297,113,4874,1,2,0:0:0:0:
248,34,5059,5,2,0:0:0:0:
257,41,5151,1,0,0:0:0:0:
193,82,5336,1,2,0:0:0:0:
200,91,5429,1,0,0:0:0:0:
122,104,5614,1,2,0:0:0:0:
123,115,5707,1,0,0:0:0:0:
48,96,5892,1,2,0:0:0:0:
43,107,5985,1,0,0:0:0:0:
5,173,6170,1,2,0:0:0:0:
9,184,6262,1,0,0:0:0:0:
71,233,6448,1,2,0:0:0:0:
138,199,6633,5,2,0:0:0:0:
143,209,6725,1,0,0:0:0:0:
216,194,6911,1,2,0:0:0:0:
216,205,7003,1,0,0:0:0:0:
290,215,7188,1,2,0:0:0:0:
285,226,7281,1,0,0:0:0:0:
354,257,7466,1,2,0:0:0:0:
347,266,7559,1,0,0:0:0:0:
339,275,7651,1,2,0:0:0:0:
330,284,7744,1,0,0:0:0:0:
322,293,7836,1,2,0:0:0:0:
369,353,8022,5,2,0:0:0:0:
380,356,8114,1,0,0:0:0:0:
446,324,8299,1,2,0:0:0:0:
457,321,8392,1,0,0:0:0:0:
485,250,8577,1,2,0:0:0:0:
494,242,8670,1,0,0:0:0:0:
454,175,8855,1,2,0:0:0:0:
461,165,8948,1,0,0:0:0:0:
397,123,9133,1,2,0:0:0:0:
402,112,9225,1,0,0:0:0:0:
326,109,9411,1,2,0:0:0:0:
307,26,9596,5,2,0:0:0:0:
302,37,9688,1,0,0:0:0:0:
248,85,9873,1,2,0:0:0:0:
241,95,9966,1,0,0:0:0:0:
172,116,10151,1,2,0:0:0:0:
164,125,10243,1,0,0:0:0:0:
93,125,10428,1,2,0:0:0:0:
81,128,10521,1,0,0:0:0:0:
18,93,10707,1,2,0:0:0:0:
18,93,10892,1,2,0:0:0:0:
87,229,11077,5,2,0:0:0:0:
89,240,11170,1,0,0:0:0:0:
167,242,11355,1,2,0:0:0:0:
164,253,11447,1,0,0:0:0:0:
233,294,11633,1,2,0:0:0:0:
226,303,11725,1,0,0:0:0:0:
292,223,11910,5,2,0:0:0:0:
295,234,12003,1,0,0:0:0:0:
297,245,12096,1,2,0:0:0:0:
300,256,12188,1,0,0:0:0:0:
302,267,12281,1,2,0:0:0:0:
370,326,12466,5,2,0:0:0:0:
366,315,12559,1,0,0:0:0:0:
435,281,12744,1,2,0:0:0:0:
426,273,12836,1,0,0:0:0:0:
468,208,13022,1,2,0:0:0:0:
456,207,13114,1,0,0:0:0:0:
460,131,13299,1,2,0:0:0:0:
448,136,13392,1,0,0:0:0:0:
418,67,13577,1,2,0:0:0:0:
418,67,13762,1,2,0:0:0:0:
83,178,13948,5,4,0:2:0:0:
83,178,15059,1,2,0:0:0:0:
162,188,15244,1,0,1:0:0:0:
241,199,15429,1,0,1:0:0:0:
241,199,16725,5,0,1:0:0:0:
241,199,16911,1,0,1:0:0:0:
241,199,18207,5,0,1:0:0:0:
241,199,18393,1,0,1:0:0:0:
291,138,18762,1,0,1:0:0:0:
364,116,19133,5,0,1:0:0:0:
364,116,19318,1,0,1:0:0:0:
364,116,19503,1,2,0:0:0:0:
444,134,19688,1,0,1:0:0:0:
444,134,19781,1,0,1:0:0:0:
444,134,19874,1,0,1:0:0:0:
444,134,21170,5,0,1:0:0:0:
444,134,21355,1,0,1:0:0:0:
444,134,22651,1,0,1:0:0:0:
444,134,22836,1,0,1:0:0:0:
444,134,24133,1,0,1:0:0:0:
444,134,24318,1,4,1:2:0:0:
507,184,24688,1,0,1:0:0:0:
461,252,25059,5,4,1:2:0:0:
350,180,25244,1,0,1:0:0:0:
350,180,25336,1,2,0:0:0:0:
350,180,25429,1,0,1:0:0:0:
406,56,25614,1,0,1:0:0:0:
499,337,25799,6,0,B|325:350|395:263|223:261,1,280,4|0,0:2|0:0,0:0:0:0:
350,180,27281,2,0,P|299:233|112:207,1,280,2|0,0:0|0:0,0:0:0:0:
59,330,28762,2,0,B|40:174|126:242|112:62,1,280,2|0,0:0|0:0,0:0:0:0:
276,27,30244,6,0,P|303:34|343:36,2,60,2|2|2,0:0|0:0|0:0,0:0:0:0:
276,27,31170,1,2,0:0:0:0:
276,27,31355,1,2,0:0:0:0:
276,27,31540,1,2,0:0:0:0:
423,96,31725,6,0,P|288:140|252:273,1,280,2|0,0:0|0:0,0:0:0:0:
86,155,33207,2,0,P|202:193|244:339,1,280,2|0,0:0|0:0,0:0:0:0:
338,375,34688,2,0,P|274:351|52:382,1,280,2|0,0:0|0:0,0:0:0:0:
17,95,36170,5,4,1:2:0:0:
17,95,36540,1,0,1:0:0:0:
17,95,36911,1,4,1:2:0:0:
156,31,37096,1,0,1:0:0:0:
251,153,37281,1,4,1:2:0:0:
224,177,37374,1,0,1:0:0:0:
189,186,37466,1,0,1:0:0:0:
152,188,37559,1,0,0:0:0:0:
114,174,37651,6,0,L|113:91,1,80,4|0,0:2|0:0,0:0:0:0:
233,42,38022,1,8,0:0:0:0:
309,51,38207,1,0,0:0:0:0:
309,51,38299,1,0,0:0:0:0:
385,60,38485,1,0,0:0:0:0:
385,60,38577,1,0,0:0:0:0:
509,120,38762,5,8,0:0:0:0:
442,154,38948,1,0,0:0:0:0:
442,154,39040,1,0,0:0:0:0:
442,154,39133,2,0,P|447:200|448:244,1,80
410,299,39503,1,8,0:0:0:0:
410,299,39596,1,0,0:0:0:0:
344,337,39781,1,0,0:0:0:0:
344,337,39874,1,0,0:0:0:0:
272,357,40059,1,0,0:0:0:0:
272,357,40151,1,0,0:0:0:0:
272,357,40244,2,0,P|228:346|195:331,1,80,8|0,0:0|0:0,0:0:0:0:
166,224,40614,6,0,L|83:256,1,80
9,141,40985,1,8,0:0:0:0:
89,152,41170,1,0,0:0:0:0:
89,152,41262,1,0,0:0:0:0:
121,81,41448,1,0,0:0:0:0:
121,81,41540,1,0,0:0:0:0:
47,76,41725,1,8,0:0:0:0:
47,76,41818,1,0,0:0:0:0:
201,135,42003,5,0,0:0:0:0:
201,135,42096,2,0,P|246:117|291:111,1,80
357,14,42466,2,0,P|388:44|425:69,1,80,8|0,0:0|0:0,0:0:0:0:
418,65,42744,1,8,0:0:0:0:
418,65,42836,1,0,0:0:0:0:
494,94,43022,1,8,0:0:0:0:
473,273,43207,1,8,0:0:0:0:
473,273,43392,1,8,0:0:0:0:
394,243,43577,6,0,P|394:204|404:153,1,80
316,211,43948,2,0,P|306:148|285:97,1,120,8|0,0:0|0:0,0:0:0:0:
284,96,44318,2,0,L|196:135,1,80
84,91,44688,1,8,0:0:0:0:
84,91,44781,1,0,0:0:0:0:
28,156,44966,5,0,0:0:0:0:
28,156,45059,2,0,P|61:200|74:246,1,80
30,354,45429,2,0,P|80:327|166:312,1,120,8|0,0:0|0:0,0:0:0:0:
141,312,45799,2,0,P|142:270|157:212,1,80
256,83,46170,1,8,0:0:0:0:
256,83,46262,1,0,0:0:0:0:
337,140,46448,5,0,0:0:0:0:
337,140,46540,2,0,P|382:153|435:156,1,80
467,316,46911,1,8,0:0:0:0:
412,269,47096,1,0,0:0:0:0:
412,269,47188,2,0,P|374:257|319:254,1,80
301,260,47466,1,0,0:0:0:0:
223,304,47651,1,8,0:0:0:0:
177,374,47836,1,0,0:0:0:0:
15,141,48022,6,0,L|94:129,1,80,4|0,0:0|0:0,0:0:0:0:
277,21,48392,2,0,L|140:38,1,120,8|8,0:0|0:0,0:0:0:0:
141,22,48762,1,4,0:0:0:0:
258,120,48948,1,8,0:0:0:0:
255,147,49040,1,0,0:0:0:0:
252,175,49133,1,12,0:0:0:0:
249,202,49225,1,0,0:0:0:0:
247,230,49318,1,8,0:0:0:0:
159,274,49503,5,4,0:2:0:0:
159,274,49596,1,0,0:0:0:0:
367,182,49781,1,0,0:0:0:0:
367,182,49874,1,8,0:0:0:0:
143,149,50059,1,0,0:0:0:0:
143,149,50151,1,0,0:0:0:0:
313,297,50336,1,0,0:0:0:0:
313,297,50429,1,0,0:0:0:0:
258,78,50614,1,8,0:0:0:0:
258,78,50707,1,0,0:0:0:0:
183,255,50892,5,0,0:0:0:0:
194,280,50985,1,0,0:0:0:0:
205,305,51077,1,0,0:0:0:0:
215,330,51170,1,0,0:0:0:0:
236,202,51355,1,8,0:0:0:0:
259,217,51448,1,0,0:0:0:0:
237,122,51633,1,0,0:0:0:0:
264,120,51725,1,0,0:0:0:0:
216,41,51911,1,0,0:0:0:0:
242,32,52003,1,0,0:0:0:0:
268,24,52096,1,8,0:0:0:0:
341,6,52281,1,0,0:0:0:0:
489,150,52466,5,0,0:0:0:0:
489,150,52559,1,0,0:0:0:0:
316,277,52744,1,0,0:0:0:0:
316,277,52836,1,8,0:0:0:0:
412,318,53021,1,0,0:0:0:0:
412,318,53114,1,0,0:0:0:0:
401,97,53300,1,0,0:0:0:0:
401,97,53392,1,0,0:0:0:0:
382,200,53577,1,8,0:0:0:0:
406,213,53670,1,0,0:0:0:0:
430,226,53762,1,0,0:0:0:0:
454,240,53855,1,0,0:0:0:0:
479,252,53948,5,0,0:0:0:0:
479,252,54040,1,0,0:0:0:0:
356,183,54225,1,0,0:0:0:0:
356,183,54318,1,8,0:0:0:0:
348,331,54503,1,0,0:0:0:0:
348,331,54596,1,8,0:0:0:0:
481,106,54781,1,8,0:0:0:0:
481,106,54874,1,0,0:0:0:0:
443,174,55059,1,8,0:0:0:0:
481,106,55244,1,8,0:0:0:0:
259,27,55429,5,0,0:0:0:0:
274,50,55522,1,0,0:0:0:0:
228,148,55707,1,0,0:0:0:0:
253,135,55799,1,8,0:0:0:0:
356,183,55985,1,0,0:0:0:0:
339,160,56077,1,0,0:0:0:0:
381,57,56262,1,0,0:0:0:0:
358,73,56355,1,0,0:0:0:0:
85,212,56540,5,8,0:0:0:0:
85,212,56633,1,0,0:0:0:0:
154,180,56818,1,0,0:0:0:0:
116,284,57003,5,0,0:0:0:0:
116,284,57096,1,0,0:0:0:0:
48,320,57281,1,8,0:0:0:0:
48,320,57374,1,0,0:0:0:0:
96,127,57559,5,0,0:0:0:0:
165,92,57744,1,0,0:0:0:0:
165,92,57836,1,0,0:0:0:0:
234,57,58022,1,8,0:0:0:0:
234,57,58114,1,0,0:0:0:0:
301,19,58299,1,0,0:0:0:0:
496,107,58485,5,0,0:0:0:0:
489,125,58577,1,0,0:0:0:0:
395,108,58762,1,8,0:0:0:0:
403,126,58855,1,0,0:0:0:0:
311,162,59040,1,0,0:0:0:0:
326,174,59133,1,0,0:0:0:0:
274,248,59318,1,0,0:0:0:0:
274,248,59503,1,8,0:0:0:0:
274,248,59688,1,0,0:0:0:0:
137,213,59874,5,0,0:0:0:0:
156,214,59966,1,0,0:0:0:0:
169,308,60151,1,0,0:0:0:0:
183,295,60244,1,8,0:0:0:0:
246,371,60429,1,0,0:0:0:0:
253,353,60522,1,8,0:0:0:0:
259,334,60614,1,0,0:0:0:0:
212,71,60799,6,0,L|191:78,11,20,8|0|0|0|8|0|0|0|8|0|0|0,0:0|0:0|0:0|0:0|0:0|0:0|0:0|0:0|0:0|0:0|0:0|0:0,0:0:0:0:
236,61,61355,5,4,0:2:0:0:
246,83,61448,1,0,0:0:0:0:
349,144,61633,1,0,0:0:0:0:
337,121,61725,1,8,0:0:0:0:
305,223,61911,1,0,0:0:0:0:
317,246,62003,1,0,0:0:0:0:
80,355,62188,5,0,0:0:0:0:
90,333,62281,1,0,0:0:0:0:
193,272,62466,1,8,0:0:0:0:
181,295,62558,1,0,0:0:0:0:
150,180,62744,1,0,0:0:0:0:
92,92,62929,5,0,0:0:0:0:
92,92,63022,1,0,0:0:0:0:
192,99,63207,1,8,0:0:0:0:
192,99,63299,1,0,0:0:0:0:
48,193,63485,1,0,0:0:0:0:
48,193,63577,1,0,0:0:0:0:
32,15,63762,1,0,0:0:0:0:
32,15,63855,1,0,0:0:0:0:
32,15,63948,1,8,0:0:0:0:
92,92,64133,1,0,0:0:0:0:
154,242,64318,5,0,0:0:0:0:
147,260,64411,1,0,0:0:0:0:
226,249,64596,1,0,0:0:0:0:
228,269,64688,1,8,0:0:0:0:
292,222,64874,1,0,0:0:0:0:
300,240,64966,1,0,0:0:0:0:
354,188,65151,1,0,0:0:0:0:
349,169,65244,1,0,0:0:0:0:
426,191,65429,1,8,0:0:0:0:
431,172,65521,1,0,0:0:0:0:
489,214,65707,1,0,0:0:0:0:
336,352,65892,5,0,0:0:0:0:
336,352,65985,1,0,0:0:0:0:
190,145,66170,1,8,0:0:0:0:
190,145,66262,1,0,0:0:0:0:
269,255,66448,5,8,0:0:0:0:
269,255,66540,1,0,0:0:0:0:
102,25,66725,1,8,0:0:0:0:
102,25,66818,1,0,0:0:0:0:
102,25,66911,1,8,0:0:0:0:
145,84,67096,1,8,0:0:0:0:
122,214,67281,5,4,0:2:0:0:
110,217,67374,1,0,0:0:0:0:
22,171,67559,1,0,0:0:0:0:
33,167,67651,1,8,0:0:0:0:
211,178,67836,5,0,0:0:0:0:
222,174,67928,1,0,0:0:0:0:
311,221,68113,1,0,0:0:0:0:
299,224,68206,1,0,0:0:0:0:
219,274,68392,1,8,0:0:0:0:
230,271,68485,1,0,0:0:0:0:
310,319,68670,5,0,0:0:0:0:
320,314,68762,1,4,0:2:0:0:
331,309,68855,1,0,0:0:0:0:
342,305,68948,1,0,0:0:0:0:
427,350,69133,1,8,0:0:0:0:
427,350,69225,1,0,0:0:0:0:
475,272,69411,1,0,0:0:0:0:
475,272,69503,1,0,0:0:0:0:
388,244,69688,1,0,0:0:0:0:
388,244,69781,1,8,0:0:0:0:
302,209,69966,1,8,0:0:0:0:
308,198,70059,1,0,0:0:0:0:
313,187,70151,1,0,0:0:0:0:
319,176,70244,5,4,0:2:0:0:
308,171,70336,1,0,0:0:0:0:
310,76,70522,1,0,0:0:0:0:
299,82,70614,1,8,0:0:0:0:
234,16,70799,1,0,0:0:0:0:
229,27,70892,1,0,0:0:0:0:
223,37,70985,1,4,0:2:0:0:
147,16,71170,1,0,0:0:0:0:
147,16,71355,1,8,0:0:0:0:
147,16,71540,1,0,0:0:0:0:
34,195,71725,5,4,0:2:0:0:
40,176,71818,1,0,0:0:0:0:
161,212,72003,1,0,0:0:0:0:
154,192,72096,1,8,0:0:0:0:
266,130,72281,1,0,0:0:0:0:
248,119,72374,1,0,0:0:0:0:
231,107,72466,1,4,0:2:0:0:
312,25,72651,1,0,0:0:0:0:
312,25,72836,1,12,0:0:0:0:
312,25,73022,1,0,0:0:0:0:
511,216,73207,5,4,0:2:0:0:
491,219,73299,1,0,0:0:0:0:
253,365,73485,1,0,0:0:0:0:
273,362,73577,1,8,0:0:0:0:
416,205,73762,5,0,0:0:0:0:
382,189,73855,1,0,0:0:0:0:
345,189,73948,1,0,0:0:0:0:
311,200,74040,1,0,0:0:0:0:
282,223,74133,1,0,0:0:0:0:
256,247,74225,1,0,0:0:0:0:
228,270,74318,1,8,0:0:0:0:
193,281,74410,1,0,0:0:0:0:
156,282,74503,1,0,0:0:0:0:
123,266,74596,1,0,0:0:0:0:
97,240,74688,5,0,0:0:0:0:
97,240,74781,1,0,0:0:0:0:
401,284,74966,1,0,0:0:0:0:
401,284,75059,1,8,0:0:0:0:
508,296,75244,5,0,0:0:0:0:
504,258,75337,1,0,0:0:0:0:
486,226,75430,1,0,0:0:0:0:
459,202,75522,1,0,0:0:0:0:
425,188,75615,1,0,0:0:0:0:
391,178,75707,1,0,0:0:0:0:
357,165,75800,1,8,0:0:0:0:
330,140,75892,1,0,0:0:0:0:
311,109,75985,1,0,0:0:0:0:
308,72,76078,1,0,0:0:0:0:
318,37,76170,5,0,0:0:0:0:
353,42,76262,1,0,0:0:0:0:
288,249,76448,1,0,0:0:0:0:
253,244,76540,1,8,0:0:0:0:
20,353,76725,5,0,0:0:0:0:
24,315,76818,1,0,0:0:0:0:
42,283,76911,1,0,0:0:0:0:
69,259,77003,1,0,0:0:0:0:
103,245,77096,1,0,0:0:0:0:
137,235,77188,1,0,0:0:0:0:
171,222,77281,1,8,0:0:0:0:
198,197,77373,1,0,0:0:0:0:
217,166,77466,1,0,0:0:0:0:
220,129,77559,1,0,0:0:0:0:
210,94,77651,5,0,0:0:0:0:
210,94,77743,1,0,0:0:0:0:
45,39,77929,1,0,0:0:0:0:
45,39,78022,1,8,0:0:0:0:
280,235,78207,5,0,0:0:0:0:
307,219,78299,1,0,0:0:0:0:
338,211,78392,1,0,0:0:0:0:
370,210,78485,1,0,0:0:0:0:
401,216,78577,1,0,0:0:0:0:
430,229,78670,1,0,0:0:0:0:
452,251,78762,1,8,0:0:0:0:
447,261,78855,1,0,0:0:0:0:
440,271,78948,1,6,0:0:0:0:
164,352,79133,5,4,0:2:0:0:
144,356,79225,1,0,0:0:0:0:
408,138,79411,1,0,0:0:0:0:
428,142,79503,1,8,0:0:0:0:
73,89,79688,5,0,0:0:0:0:
72,85,79781,1,0,0:0:0:0:
71,81,79874,1,0,0:0:0:0:
77,116,79966,1,0,0:0:0:0:
83,151,80059,1,0,0:0:0:0:
88,186,80151,1,0,0:0:0:0:
123,182,80244,1,8,0:0:0:0:
117,217,80336,1,0,0:0:0:0:
111,252,80429,1,0,0:0:0:0:
106,287,80521,1,0,0:0:0:0:
101,321,80614,5,0,0:0:0:0:
101,321,80707,1,0,0:0:0:0:
294,365,80892,1,0,0:0:0:0:
294,365,80985,1,8,0:0:0:0:
216,200,81170,5,0,0:0:0:0:
207,165,81262,1,0,0:0:0:0:
198,129,81355,1,0,0:0:0:0:
188,94,81448,1,0,0:0:0:0:
177,59,81540,1,0,0:0:0:0:
172,23,81633,1,0,0:0:0:0:
199,45,81725,1,8,0:0:0:0:
227,67,81818,1,0,0:0:0:0:
256,88,81911,1,0,0:0:0:0:
283,111,82003,1,0,0:0:0:0:
311,133,82096,5,0,0:0:0:0:
290,162,82188,1,0,0:0:0:0:
405,374,82374,1,0,0:0:0:0:
426,345,82466,1,8,0:0:0:0:
451,104,82651,5,0,0:0:0:0:
451,104,82744,1,0,0:0:0:0:
451,104,82836,1,0,0:0:0:0:
413,119,82929,1,0,0:0:0:0:
390,152,83022,1,0,0:0:0:0:
387,191,83114,1,0,0:0:0:0:
403,227,83207,1,8,0:0:0:0:
364,217,83299,1,0,0:0:0:0:
324,225,83392,1,0,0:0:0:0:
292,250,83485,1,0,0:0:0:0:
283,288,83577,5,0,0:0:0:0:
283,288,83670,1,0,0:0:0:0:
74,190,83855,1,0,0:0:0:0:
74,190,83948,1,8,0:0:0:0:
196,20,84133,5,0,0:0:0:0:
231,24,84225,1,8,0:0:0:0:
262,41,84318,1,0,0:0:0:0:
282,70,84411,1,8,0:0:0:0:
292,104,84503,1,0,0:0:0:0:
289,140,84596,1,0,0:0:0:0:
274,172,84688,2,0,L|253:166,6,20,8|0|0|0|0|0|0,0:0|0:0|0:0|0:0|0:0|0:0|0:0,0:0:0:0:
264,207,85059,5,4,0:2:0:0:
270,230,85151,1,0,0:0:0:0:
497,344,85336,1,0,0:0:0:0:
506,322,85428,1,8,0:0:0:0:
201,303,85614,5,0,0:0:0:0:
229,325,85707,1,0,0:0:0:0:
264,331,85799,1,0,0:0:0:0:
300,328,85892,1,0,0:0:0:0:
331,309,85985,1,0,0:0:0:0:
353,281,86077,1,0,0:0:0:0:
380,257,86170,1,8,0:0:0:0:
414,246,86262,1,0,0:0:0:0:
450,244,86355,1,0,0:0:0:0:
484,253,86448,1,0,0:0:0:0:
507,279,86540,5,0,0:0:0:0:
507,279,86633,1,0,0:0:0:0:
420,38,86818,1,0,0:0:0:0:
420,38,86911,1,8,0:0:0:0:
146,134,87096,5,0,0:0:0:0:
146,134,87188,1,0,0:0:0:0:
146,134,87281,2,0,L|188:128,1,40
200,52,87466,1,0,0:0:0:0:
237,66,87559,1,0,0:0:0:0:
261,97,87651,1,8,0:0:0:0:
265,136,87744,1,0,0:0:0:0:
260,175,87836,1,0,0:0:0:0:
228,199,87929,1,0,0:0:0:0:
199,226,88022,5,0,0:0:0:0:
212,250,88114,1,0,0:0:0:0:
58,53,88299,1,0,0:0:0:0:
46,28,88391,1,8,0:0:0:0:
190,127,88577,5,0,0:0:0:0:
153,129,88670,1,0,0:0:0:0:
122,147,88762,1,0,0:0:0:0:
102,177,88855,1,0,0:0:0:0:
100,213,88948,1,0,0:0:0:0:
64,208,89040,5,0,0:0:0:0:
48,240,89133,1,8,0:0:0:0:
42,275,89225,1,0,0:0:0:0:
55,308,89318,1,0,0:0:0:0:
76,336,89411,1,0,0:0:0:0:
107,352,89503,5,0,0:0:0:0:
107,352,89596,1,0,0:0:0:0:
402,223,89781,1,0,0:0:0:0:
402,223,89874,1,8,0:0:0:0:
463,324,90059,5,0,0:0:0:0:
444,338,90151,1,0,0:0:0:0:
420,342,90244,2,0,P|399:337|370:314,1,40
307,267,90429,1,0,0:0:0:0:
288,253,90521,1,0,0:0:0:0:
264,249,90614,2,0,P|243:254|214:277,1,40,8|0,0:0|0:0,0:0:0:0:
153,315,90799,1,6,0:0:0:0:
28,163,90985,5,4,0:2:0:0:
21,137,91077,1,0,0:0:0:0:
330,41,91262,1,0,0:0:0:0:
336,63,91354,1,8,0:0:0:0:
71,236,91540,5,0,0:0:0:0:
71,236,91633,1,0,0:0:0:0:
71,236,91725,2,0,P|89:215|106:201,1,40
155,163,91911,1,0,0:0:0:0:
173,154,92003,1,0,0:0:0:0:
191,147,92096,2,0,P|217:139|239:139,1,40,8|0,0:0|0:0,0:0:0:0:
313,136,92281,1,0,0:0:0:0:
345,136,92374,1,0,0:0:0:0:
375,143,92466,5,0,0:0:0:0:
375,143,92559,1,0,0:0:0:0:
498,225,92744,1,0,0:0:0:0:
498,225,92836,1,8,0:0:0:0:
159,230,93022,5,0,0:0:0:0:
149,258,93114,1,0,0:0:0:0:
149,290,93207,2,0,P|151:310|169:351,1,40
337,363,93392,1,0,0:0:0:0:
347,335,93484,1,0,0:0:0:0:
347,303,93577,2,0,P|344:282|326:241,1,40,8|0,0:0|0:0,0:0:0:0:
258,203,93762,1,0,0:0:0:0:
254,171,93855,1,0,0:0:0:0:
248,139,93948,5,0,0:0:0:0:
270,146,94040,1,0,0:0:0:0:
506,31,94225,1,0,0:0:0:0:
484,24,94317,1,8,0:0:0:0:
247,64,94503,5,0,0:0:0:0:
218,61,94596,1,0,0:0:0:0:
190,66,94688,2,0,P|155:82|140:98,1,40
32,208,94874,1,0,0:0:0:0:
61,211,94967,1,0,0:0:0:0:
89,206,95059,2,0,P|124:190|139:174,1,40,8|0,0:0|0:0,0:0:0:0:
275,250,95244,1,0,0:0:0:0:
250,237,95336,1,0,0:0:0:0:
222,233,95429,5,0,0:0:0:0:
222,233,95522,1,0,0:0:0:0:
40,320,95706,1,0,0:0:0:0:
40,320,95799,1,12,0:0:0:0:
306,120,95985,5,0,0:0:0:0:
306,120,96077,1,0,0:0:0:0:
306,120,96170,2,0,P|303:154|306:173,1,40,0|8,0:0|0:0,0:0:0:0:
475,241,96355,2,0,P|478:207|475:188,1,40
275,336,96540,1,8,0:0:0:0:
275,336,96633,1,0,0:0:0:0:
275,336,96725,1,8,0:0:0:0:
0,218,96911,6,0,B|79:205|61:244|144:231,1,143.999995605469,4|2,0:2|0:0,0:0:0:0:
147,39,98022,2,0,P|172:103|239:121,1,143.999995605469,2|2,0:0|0:0,0:0:0:0:
450,242,99133,2,0,P|442:194|447:146,1,95.9999970703126,2|2,0:0|0:0,0:0:0:0:
188,318,99874,6,0,P|159:321|118:330,1,47.9999985351563,2|0,0:0|0:0,0:0:0:0:
260,271,100244,1,0,0:0:0:0:
260,271,100429,2,0,P|342:296|368:359,1,143.999995605469,2|2,0:0|0:0,0:0:0:0:
155,191,101355,1,0,0:0:0:0:
155,191,101540,2,0,P|149:132|158:74,1,95.9999970703126,2|0,0:0|0:0,0:0:0:0:
246,12,102096,2,0,P|248:52|243:82,1,47.9999985351563,2|0,0:0|0:0,0:0:0:0:
64,108,102466,1,2,0:0:0:0:
21,293,102836,6,0,P|91:294|141:343,1,143.999995605469,2|2,0:0|0:0,0:0:0:0:
364,156,103762,1,0,0:0:0:0:
364,156,103948,2,0,P|312:220|243:218,1,143.999995605469,2|2,0:0|0:0,0:0:0:0:
46,77,104874,1,0,0:0:0:0:
46,77,105059,2,0,P|90:108|137:110,1,95.9999970703126,2|2,0:0|0:0,0:0:0:0:
256,22,105799,5,2,0:0:0:0:
427,147,106170,1,0,0:0:0:0:
432,128,106355,1,2,0:0:0:0:
317,286,106725,1,0,0:0:0:0:
335,291,106911,1,2,0:0:0:0:
156,195,107281,1,0,0:0:0:0:
156,214,107466,1,2,0:0:0:0:
297,148,107836,1,0,0:0:0:0:
297,148,108022,1,2,0:0:0:0:
485,331,108392,1,2,0:0:0:0:
254,256,108762,5,4,1:2:0:0:
254,256,108855,2,0,P|252:220|254:198,2,32,2|0|0,0:0|0:0|0:0,0:0:0:0:
230,284,109133,2,0,P|233:327|232:372,1,64,2|0,0:0|0:0,0:0:0:0:
233,347,109411,1,2,0:0:0:0:
233,347,109503,1,2,0:0:0:0:
176,149,109688,1,2,0:0:0:0:
176,149,109780,1,0,0:0:0:0:
176,149,109874,1,2,0:0:0:0:
319,299,110059,1,0,1:0:0:0:
92,276,110244,5,0,1:2:0:0:
92,276,110336,2,0,P|40:286|9:295,1,64,2|0,0:0|0:0,0:0:0:0:
29,288,110614,2,0,P|18:233|-1:181,1,96,2|0,0:0|0:0,0:0:0:0:
5,195,110985,1,2,0:0:0:0:
137,93,111170,1,2,0:0:0:0:
259,211,111355,1,2,0:0:0:0:
143,319,111540,1,2,1:2:0:0:
222,116,111725,5,2,1:2:0:0:
216,131,111818,1,0,0:0:0:0:
305,118,112003,1,2,0:0:0:0:
310,133,112096,1,0,0:0:0:0:
376,68,112281,1,2,0:0:0:0:
388,78,112374,1,0,0:0:0:0:
498,205,112559,1,2,0:0:0:0:
493,236,112651,1,0,0:0:0:0:
488,267,112744,1,0,0:0:0:0:
483,298,112836,1,2,0:0:0:0:
402,373,113022,1,2,1:2:0:0:
228,327,113207,6,0,P|258:316|291:311,1,64,2|0,1:2|0:0,0:0:0:0:
405,187,113577,2,0,P|374:197|342:203,1,64,2|0,1:2|0:0,0:0:0:0:
193,152,113948,1,0,1:0:0:0:
208,242,114133,1,0,1:0:0:0:
208,242,114225,1,2,0:0:0:0:
26,29,114503,5,0,1:0:0:0:
26,29,114596,1,0,1:0:0:0:
26,29,114688,2,0,P|24:60|28:90,2,32,0|2|0,1:0|0:0|0:0,0:0:0:0:
114,135,115059,1,2,0:0:0:0:
114,135,115151,2,0,P|101:164|97:196,1,64,2|0,0:0|0:0,0:0:0:0:
75,214,115429,2,0,P|76:245|89:275,1,64,2|0,0:0|0:0,0:0:0:0:
114,295,115707,1,2,0:0:0:0:
213,371,115892,1,2,0:0:0:0:
242,358,115985,1,0,1:0:0:0:
272,350,116077,1,2,0:0:0:0:
276,321,116170,6,0,P|311:326|334:333,2,32,0|0|0,1:0|0:0|0:0,0:0:0:0:
197,187,116540,1,2,0:0:0:0:
197,187,116633,2,0,P|192:155|192:123,1,64,2|0,0:0|0:0,0:0:0:0:
203,92,116911,1,2,0:0:0:0:
340,169,117096,2,0,P|380:177|420:180,2,64,2|0|0,0:0|0:0|1:0,0:0:0:0:
145,267,117651,6,0,P|88:252|7:245,1,128,0|0,1:0|0:0,0:0:0:0:
19,245,118207,1,2,0:0:0:0:
279,230,118392,2,0,P|336:245|417:252,1,128,2|2,0:0|0:0,0:0:0:0:
405,252,118947,1,0,1:0:0:0:
335,100,119133,2,0,B|330:136|343:165,1,64,0|2,1:0|0:0,0:0:0:0:
502,313,119503,2,0,B|518:247|489:191,1,96,0|0,1:0|0:0,0:0:0:0:
488,193,119873,1,2,1:2:0:0:
361,363,120058,1,0,1:0:0:0:
329,357,120151,1,0,1:0:0:0:
296,352,120244,1,2,1:2:0:0:
264,347,120336,1,0,1:0:0:0:
231,343,120429,1,0,1:0:0:0:
76,264,120614,6,0,P|114:255|154:252,1,80,4|0,1:2|0:0,0:0:0:0:
258,262,120984,1,8,0:0:0:0:
258,262,121077,1,0,0:0:0:0:
302,180,121262,1,0,0:0:0:0:
302,180,121355,1,0,0:0:0:0:
231,116,121540,1,0,0:0:0:0:
231,116,121633,1,0,0:0:0:0:
231,116,121725,1,8,0:0:0:0:
158,178,121910,1,0,0:0:0:0:
39,61,122095,5,0,0:0:0:0:
39,61,122188,2,0,P|14:65|-21:68,2,40
83,5,122466,1,8,0:0:0:0:
17,138,122651,1,0,0:0:0:0:
20,157,122744,1,8,0:0:0:0:
89,216,122929,1,8,0:0:0:0:
92,235,123022,1,0,0:0:0:0:
45,305,123207,1,8,0:0:0:0:
111,360,123392,1,0,0:0:0:0:
268,282,123577,6,0,P|288:284|307:287,2,40
157,139,123947,1,8,0:0:0:0:
157,139,124040,2,0,P|168:184|170:231,1,80
170,217,124318,1,0,0:0:0:0:
368,167,124503,1,0,0:0:0:0:
368,167,124595,1,0,0:0:0:0:
368,167,124688,1,8,0:0:0:0:
234,107,124873,1,0,0:0:0:0:
286,252,125058,5,0,0:0:0:0:
289,267,125151,1,0,0:0:0:0:
393,285,125336,1,0,0:0:0:0:
388,300,125429,1,8,0:0:0:0:
448,376,125614,1,0,0:0:0:0:
434,384,125707,1,8,0:0:0:0:
457,246,125892,1,8,0:0:0:0:
460,214,125984,1,0,0:0:0:0:
465,182,126077,1,0,0:0:0:0:
476,152,126170,1,8,0:0:0:0:
325,323,126355,1,8,0:0:0:0:
142,290,126540,6,0,P|180:279|220:273,1,80
392,200,126910,1,8,0:0:0:0:
235,93,127095,1,0,0:0:0:0:
235,93,127188,2,0,P|225:142|231:188,1,80
234,199,127466,1,0,0:0:0:0:
99,161,127651,1,8,0:0:0:0:
95,134,127744,1,0,0:0:0:0:
0,250,127929,1,0,0:0:0:0:
23,276,128021,5,0,0:0:0:0:
42,306,128114,1,0,0:0:0:0:
48,341,128207,1,0,0:0:0:0:
141,247,128392,1,8,0:0:0:0:
164,231,128484,1,0,0:0:0:0:
254,308,128670,1,0,0:0:0:0:
281,314,128762,1,0,0:0:0:0:
392,255,128947,1,0,0:0:0:0:
392,255,129040,1,0,0:0:0:0:
392,254,129133,2,0,P|399:215|412:178,1,80,8|0,0:0|0:0,0:0:0:0:
165,17,129503,6,0,P|204:56|284:53,1,120
266,60,129873,2,0,P|244:95|234:134,1,80,8|0,0:0|0:0,0:0:0:0:
36,212,130244,1,0,0:0:0:0:
36,212,130336,2,0,P|90:225|139:250,1,80
112,234,130614,1,8,0:0:0:0:
249,357,130799,1,0,0:0:0:0:
249,357,130892,2,0,P|282:352|313:350,2,40
224,325,131170,5,0,0:0:0:0:
224,285,131262,1,0,0:0:0:0:
245,251,131355,1,8,0:0:0:0:
268,219,131447,1,0,0:0:0:0:
278,180,131540,1,0,0:0:0:0:
275,139,131633,1,8,0:0:0:0:
254,104,131725,1,0,0:0:0:0:
385,277,131910,5,8,0:0:0:0:
142,181,132095,2,0,L|119:185,6,20,12|0|0|0|0|0|0,0:0|0:0|0:0|0:0|0:0|0:0|0:0,0:0:0:0:
63,213,132466,5,4,0:2:0:0:
63,213,132558,2,0,P|120:227|164:255,1,95.9999970703126
152,245,132836,1,8,0:0:0:0:
343,195,133021,1,0,0:0:0:0:
348,161,133114,1,0,0:0:0:0:
244,30,133299,1,0,0:0:0:0:
203,45,133392,1,0,0:0:0:0:
176,78,133484,1,0,0:0:0:0:
176,121,133577,1,8,0:0:0:0:
199,157,133670,1,0,0:0:0:0:
225,289,133855,1,0,0:0:0:0:
225,289,133947,5,0,0:0:0:0:
256,259,134040,1,0,0:0:0:0:
297,247,134133,1,0,0:0:0:0:
94,229,134318,1,8,0:0:0:0:
94,229,134410,2,0,P|46:238|0:245,1,95.9999970703126,0|8,0:0|0:0,0:0:0:0:
301,339,134781,1,0,0:0:0:0:
301,339,134873,2,0,P|348:329|395:322,2,95.9999970703126,8|8|8,0:0|0:0|0:0,0:0:0:0:
66,242,135429,5,0,0:0:0:0:
55,265,135522,1,0,0:0:0:0:
161,250,135707,1,0,0:0:0:0:
163,276,135799,1,8,0:0:0:0:
249,213,135985,1,0,0:0:0:0:
260,237,136077,1,0,0:0:0:0:
331,168,136262,1,0,0:0:0:0:
325,143,136355,1,0,0:0:0:0:
428,172,136540,1,8,0:0:0:0:
435,147,136632,1,0,0:0:0:0:
512,204,136818,1,0,0:0:0:0:
256,129,137003,5,0,0:0:0:0:
256,129,137095,2,0,P|245:84|245:33,1,95.9999970703126,0|8,0:0|0:0,0:0:0:0:
184,240,137466,1,0,0:0:0:0:
176,270,137558,1,8,0:0:0:0:
16,227,137744,1,8,0:0:0:0:
5,187,137836,1,0,0:0:0:0:
15,147,137929,1,0,0:0:0:0:
45,121,138021,1,8,0:0:0:0:
84,109,138114,1,0,0:0:0:0:
121,123,138207,1,8,0:0:0:0:
0,318,138392,5,4,0:2:0:0:
34,297,138484,1,0,0:0:0:0:
72,288,138577,1,0,0:0:0:0:
112,286,138670,1,0,0:0:0:0:
149,294,138762,1,8,0:0:0:0:
184,313,138855,1,0,0:0:0:0:
218,332,138947,1,0,0:0:0:0:
257,344,139040,1,0,0:0:0:0:
296,345,139133,1,0,0:0:0:0:
334,335,139225,1,0,0:0:0:0:
370,320,139318,1,0,0:0:0:0:
410,313,139410,1,0,0:0:0:0:
385,284,139503,6,0,P|376:257|372:220,2,47.9999985351563,8|0|0,0:0|0:0|0:0,0:0:0:0:
389,40,139873,5,4,0:2:0:0:
432,33,139966,1,0,0:0:0:0:
468,53,140059,1,0,0:0:0:0:
487,89,140151,1,0,0:0:0:0:
492,132,140244,1,8,0:0:0:0:
480,173,140337,1,0,0:0:0:0:
449,202,140429,1,0,0:0:0:0:
406,210,140522,1,0,0:0:0:0:
364,202,140614,1,0,0:0:0:0:
326,181,140707,1,0,0:0:0:0:
288,157,140800,1,0,0:0:0:0:
246,143,140892,1,0,0:0:0:0:
276,120,140984,6,0,P|287:89|289:60,2,47.9999985351563,8|0|0,0:0|0:0|0:0,0:0:0:0:
20,56,141355,6,0,B|43:107|97:109,1,95.9999970703126,4|0,0:2|0:0,0:0:0:0:
96,149,141633,1,0,0:0:0:0:
143,155,141725,1,8,0:0:0:0:
178,187,141818,1,0,0:0:0:0:
197,230,141910,1,0,0:0:0:0:
188,277,142003,1,0,0:0:0:0:
169,310,142095,6,0,P|137:315|107:320,2,47.9999985351563,4|0|0,0:2|0:0|0:0,0:0:0:0:
212,326,142373,1,0,0:0:0:0:
251,352,142466,1,8,0:0:0:0:
284,384,142558,1,0,0:0:0:0:
320,353,142651,1,0,0:0:0:0:
359,326,142744,1,0,0:0:0:0:
401,305,142836,1,4,0:2:0:0:
219,43,143021,5,0,0:0:0:0:
209,54,143114,1,0,0:0:0:0:
203,67,143207,2,0,P|200:89|201:112,6,23.9999992675781,8|0|0|0|0|0|0,0:0|0:0|0:0|0:0|0:0|0:0|0:0,0:0:0:0:
42,120,143577,5,4,0:2:0:0:
182,161,143762,1,0,0:0:0:0:
356,244,143947,5,4,0:2:0:0:
261,268,144133,1,0,0:0:0:0:
106,379,144318,5,6,0:0:0:0:
