osu file format v14

[General]
AudioFilename: Aci-L120.mp3
AudioLeadIn: 0
PreviewTime: 59464
Countdown: 0
SampleSet: None
StackLeniency: 0.7
Mode: 3
LetterboxInBreaks: 0
SpecialStyle: 0
WidescreenStoryboard: 0

[Editor]
DistanceSpacing: 1
BeatDivisor: 4
GridSize: 8
TimelineZoom: 3.199999

[Metadata]
Title:A c i - L
TitleUnicode:A c i - L
Artist:-45
ArtistUnicode:-45
Creator:spoonguy
Version:1.2x
Source:Umineko no Naku Koro ni Chiru
Tags:
BeatmapID:2580752
BeatmapSetID:462539

[Difficulty]
HPDrainRate:8
CircleSize:7
OverallDifficulty:8
ApproachRate:5
SliderMultiplier:1.4
SliderTickRate:1

[Events]
//Background and Video events
0,0,"mcrRC.jpg",0,0
//Break Periods
//Storyboard Layer 0 (Background)
//Storyboard Layer 1 (Fail)
//Storyboard Layer 2 (Pass)
//Storyboard Layer 3 (Foreground)
//Storyboard Layer 4 (Overlay)
//Storyboard Sound Samples

[TimingPoints]
205,308.641975308642,4,2,0,30,1,0

[HitObjects]
468,192,205,5,0,0:0:0:0:
36,192,205,1,0,0:0:0:0:
324,192,282,1,0,0:0:0:0:
252,192,359,1,0,0:0:0:0:
36,192,436,1,0,0:0:0:0:
468,192,436,1,0,0:0:0:0:
324,192,513,1,0,0:0:0:0:
252,192,590,1,0,0:0:0:0:
36,192,667,1,0,0:0:0:0:
468,192,667,1,0,0:0:0:0:
324,192,745,1,0,0:0:0:0:
252,192,822,1,0,0:0:0:0:
36,192,899,1,0,0:0:0:0:
468,192,899,1,0,0:0:0:0:
324,192,976,1,0,0:0:0:0:
252,192,1053,1,0,0:0:0:0:
36,192,1130,1,0,0:0:0:0:
396,192,1130,1,0,0:0:0:0:
324,192,1208,1,0,0:0:0:0:
36,192,1285,1,0,0:0:0:0:
396,192,1285,1,0,0:0:0:0:
324,192,1362,1,0,0:0:0:0:
108,192,1439,1,0,0:0:0:0:
468,192,1439,1,0,0:0:0:0:
396,192,1516,1,0,0:0:0:0:
252,192,1593,1,0,0:0:0:0:
108,192,1671,1,0,0:0:0:0:
468,192,1671,1,0,0:0:0:0:
396,192,1748,1,0,0:0:0:0:
252,192,1825,1,0,0:0:0:0:
108,192,1902,1,0,0:0:0:0:
468,192,1902,1,0,0:0:0:0:
396,192,1979,1,0,0:0:0:0:
252,192,2056,1,0,0:0:0:0:
108,192,2134,1,0,0:0:0:0:
468,192,2134,1,0,0:0:0:0:
396,192,2211,1,0,0:0:0:0:
108,192,2288,1,0,0:0:0:0:
252,192,2288,1,0,0:0:0:0:
396,192,2365,1,0,0:0:0:0:
108,192,2442,1,0,0:0:0:0:
324,192,2442,1,0,0:0:0:0:
396,192,2519,1,0,0:0:0:0:
108,192,2596,1,0,0:0:0:0:
468,192,2596,1,0,0:0:0:0:
180,192,2674,1,0,0:0:0:0:
252,192,2674,1,0,0:0:0:0:
468,192,2751,1,0,0:0:0:0:
396,192,2828,1,0,0:0:0:0:
180,192,2905,1,0,0:0:0:0:
252,192,2905,1,0,0:0:0:0:
468,192,2982,1,0,0:0:0:0:
396,192,3059,1,0,0:0:0:0:
180,192,3137,1,0,0:0:0:0:
252,192,3137,1,0,0:0:0:0:
468,192,3214,1,0,0:0:0:0:
396,192,3291,1,0,0:0:0:0:
180,192,3368,1,0,0:0:0:0:
252,192,3368,1,0,0:0:0:0:
468,192,3445,1,0,0:0:0:0:
396,192,3522,1,0,0:0:0:0:
180,192,3600,1,0,0:0:0:0:
252,192,3600,1,0,0:0:0:0:
468,192,3677,1,0,0:0:0:0:
180,192,3754,1,0,0:0:0:0:
252,192,3754,1,0,0:0:0:0:
468,192,3831,1,0,0:0:0:0:
36,192,3908,1,0,0:0:0:0:
396,192,3908,1,0,0:0:0:0:
324,192,3985,1,0,0:0:0:0:
252,192,4063,1,0,0:0:0:0:
36,192,4140,1,0,0:0:0:0:
396,192,4140,1,0,0:0:0:0:
324,192,4217,1,0,0:0:0:0:
252,192,4294,1,0,0:0:0:0:
36,192,4371,1,0,0:0:0:0:
396,192,4371,1,0,0:0:0:0:
324,192,4448,1,0,0:0:0:0:
252,192,4525,1,0,0:0:0:0:
36,192,4603,1,0,0:0:0:0:
396,192,4603,1,0,0:0:0:0:
324,192,4680,1,0,0:0:0:0:
36,192,4757,1,0,0:0:0:0:
396,192,4757,1,0,0:0:0:0:
252,192,4834,1,0,0:0:0:0:
36,192,4911,1,0,0:0:0:0:
396,192,4911,1,0,0:0:0:0:
468,192,4988,1,0,0:0:0:0:
36,192,5066,1,0,0:0:0:0:
324,192,5066,1,0,0:0:0:0:
108,192,5143,1,0,0:0:0:0:
396,192,5143,1,0,0:0:0:0:
252,192,5220,1,0,0:0:0:0:
468,192,5297,1,0,0:0:0:0:
108,192,5374,1,0,0:0:0:0:
396,192,5374,1,0,0:0:0:0:
252,192,5451,1,0,0:0:0:0:
468,192,5529,1,0,0:0:0:0:
108,192,5606,1,0,0:0:0:0:
396,192,5606,1,0,0:0:0:0:
252,192,5683,1,0,0:0:0:0:
468,192,5760,1,0,0:0:0:0:
108,192,5837,1,0,0:0:0:0:
396,192,5837,1,0,0:0:0:0:
252,192,5914,1,0,0:0:0:0:
468,192,5992,1,0,0:0:0:0:
108,192,6069,1,0,0:0:0:0:
396,192,6069,1,0,0:0:0:0:
324,192,6146,1,0,0:0:0:0:
108,192,6223,1,0,0:0:0:0:
396,192,6223,1,0,0:0:0:0:
324,192,6300,1,0,0:0:0:0:
180,192,6377,1,0,0:0:0:0:
468,192,6377,1,0,0:0:0:0:
252,192,6455,1,0,0:0:0:0:
396,192,6532,1,0,0:0:0:0:
180,192,6609,1,0,0:0:0:0:
468,192,6609,1,0,0:0:0:0:
252,192,6686,1,0,0:0:0:0:
396,192,6763,1,0,0:0:0:0:
180,192,6840,1,0,0:0:0:0:
468,192,6840,1,0,0:0:0:0:
252,192,6917,1,0,0:0:0:0:
396,192,6995,1,0,0:0:0:0:
180,192,7072,1,0,0:0:0:0:
468,192,7072,1,0,0:0:0:0:
252,192,7149,1,0,0:0:0:0:
396,192,7226,1,0,0:0:0:0:
180,192,7303,1,0,0:0:0:0:
468,192,7303,1,0,0:0:0:0:
324,192,7380,1,0,0:0:0:0:
180,192,7458,1,0,0:0:0:0:
468,192,7458,1,0,0:0:0:0:
324,192,7535,1,0,0:0:0:0:
36,192,7612,1,0,0:0:0:0:
396,192,7612,1,0,0:0:0:0:
252,192,7689,1,0,0:0:0:0:
468,192,7766,1,0,0:0:0:0:
36,192,7843,1,0,0:0:0:0:
324,192,7843,1,0,0:0:0:0:
252,192,7921,1,0,0:0:0:0:
468,192,7998,1,0,0:0:0:0:
36,192,8075,1,0,0:0:0:0:
396,192,8075,1,0,0:0:0:0:
252,192,8152,1,0,0:0:0:0:
468,192,8229,1,0,0:0:0:0:
36,192,8306,1,0,0:0:0:0:
324,192,8306,1,0,0:0:0:0:
396,192,8384,1,0,0:0:0:0:
36,192,8461,1,0,0:0:0:0:
324,192,8461,1,0,0:0:0:0:
252,192,8538,1,0,0:0:0:0:
36,192,8615,1,0,0:0:0:0:
324,192,8615,1,0,0:0:0:0:
396,192,8692,1,0,0:0:0:0:
36,192,8769,1,0,0:0:0:0:
324,192,8769,1,0,0:0:0:0:
180,192,8846,1,0,0:0:0:0:
468,192,8846,1,0,0:0:0:0:
396,192,8924,1,0,0:0:0:0:
324,192,9001,1,0,0:0:0:0:
180,192,9078,1,0,0:0:0:0:
468,192,9078,1,0,0:0:0:0:
396,192,9155,1,0,0:0:0:0:
324,192,9232,1,0,0:0:0:0:
180,192,9309,1,0,0:0:0:0:
468,192,9309,1,0,0:0:0:0:
396,192,9387,1,0,0:0:0:0:
324,192,9464,1,0,0:0:0:0:
180,192,9541,1,0,0:0:0:0:
468,192,9541,1,0,0:0:0:0:
252,192,9618,1,0,0:0:0:0:
180,192,9695,1,0,0:0:0:0:
468,192,9695,1,0,0:0:0:0:
324,192,9772,1,0,0:0:0:0:
180,192,9850,1,0,0:0:0:0:
468,192,9850,1,0,0:0:0:0:
396,192,9927,1,0,0:0:0:0:
180,192,10004,1,0,0:0:0:0:
252,192,10004,1,0,0:0:0:0:
108,192,10081,1,0,0:0:0:0:
468,192,10081,1,0,0:0:0:0:
36,192,10081,1,0,0:0:0:0:
396,192,10081,1,0,0:0:0:0:
324,192,10158,1,0,0:0:0:0:
252,192,10235,1,0,0:0:0:0:
36,192,10313,1,0,0:0:0:0:
468,192,10313,1,0,0:0:0:0:
324,192,10390,1,0,0:0:0:0:
252,192,10467,1,0,0:0:0:0:
36,192,10544,1,0,0:0:0:0:
468,192,10544,1,0,0:0:0:0:
324,192,10621,1,0,0:0:0:0:
252,192,10698,1,0,0:0:0:0:
36,192,10775,1,0,0:0:0:0:
468,192,10775,1,0,0:0:0:0:
324,192,10853,1,0,0:0:0:0:
252,192,10930,1,0,0:0:0:0:
36,192,11007,1,0,0:0:0:0:
396,192,11007,1,0,0:0:0:0:
324,192,11084,1,0,0:0:0:0:
36,192,11161,1,0,0:0:0:0:
396,192,11161,1,0,0:0:0:0:
324,192,11238,1,0,0:0:0:0:
108,192,11316,1,0,0:0:0:0:
468,192,11316,1,0,0:0:0:0:
396,192,11393,1,0,0:0:0:0:
252,192,11470,1,0,0:0:0:0:
108,192,11547,1,0,0:0:0:0:
468,192,11547,1,0,0:0:0:0:
396,192,11624,1,0,0:0:0:0:
252,192,11701,1,0,0:0:0:0:
108,192,11779,1,0,0:0:0:0:
468,192,11779,1,0,0:0:0:0:
396,192,11856,1,0,0:0:0:0:
252,192,11933,1,0,0:0:0:0:
108,192,12010,1,0,0:0:0:0:
468,192,12010,1,0,0:0:0:0:
396,192,12087,1,0,0:0:0:0:
108,192,12164,1,0,0:0:0:0:
252,192,12164,1,0,0:0:0:0:
396,192,12242,1,0,0:0:0:0:
108,192,12319,1,0,0:0:0:0:
324,192,12319,1,0,0:0:0:0:
396,192,12396,1,0,0:0:0:0:
108,192,12473,1,0,0:0:0:0:
468,192,12473,1,0,0:0:0:0:
180,192,12550,1,0,0:0:0:0:
252,192,12550,1,0,0:0:0:0:
468,192,12627,1,0,0:0:0:0:
396,192,12705,1,0,0:0:0:0:
180,192,12782,1,0,0:0:0:0:
252,192,12782,1,0,0:0:0:0:
468,192,12859,1,0,0:0:0:0:
396,192,12936,1,0,0:0:0:0:
180,192,13013,1,0,0:0:0:0:
252,192,13013,1,0,0:0:0:0:
468,192,13090,1,0,0:0:0:0:
396,192,13167,1,0,0:0:0:0:
180,192,13245,1,0,0:0:0:0:
252,192,13245,1,0,0:0:0:0:
468,192,13322,1,0,0:0:0:0:
396,192,13399,1,0,0:0:0:0:
180,192,13476,1,0,0:0:0:0:
252,192,13476,1,0,0:0:0:0:
468,192,13553,1,0,0:0:0:0:
180,192,13630,1,0,0:0:0:0:
252,192,13630,1,0,0:0:0:0:
468,192,13708,1,0,0:0:0:0:
36,192,13785,1,0,0:0:0:0:
396,192,13785,1,0,0:0:0:0:
324,192,13862,1,0,0:0:0:0:
252,192,13939,1,0,0:0:0:0:
36,192,14016,1,0,0:0:0:0:
396,192,14016,1,0,0:0:0:0:
324,192,14093,1,0,0:0:0:0:
252,192,14171,1,0,0:0:0:0:
36,192,14248,1,0,0:0:0:0:
396,192,14248,1,0,0:0:0:0:
324,192,14325,1,0,0:0:0:0:
252,192,14402,1,0,0:0:0:0:
36,192,14479,1,0,0:0:0:0:
396,192,14479,1,0,0:0:0:0:
324,192,14556,1,0,0:0:0:0:
36,192,14634,1,0,0:0:0:0:
396,192,14634,1,0,0:0:0:0:
252,192,14711,1,0,0:0:0:0:
36,192,14788,1,0,0:0:0:0:
396,192,14788,1,0,0:0:0:0:
468,192,14865,1,0,0:0:0:0:
36,192,14942,1,0,0:0:0:0:
324,192,14942,1,0,0:0:0:0:
108,192,15019,1,0,0:0:0:0:
396,192,15019,1,0,0:0:0:0:
252,192,15096,1,0,0:0:0:0:
468,192,15174,1,0,0:0:0:0:
108,192,15251,1,0,0:0:0:0:
396,192,15251,1,0,0:0:0:0:
252,192,15328,1,0,0:0:0:0:
468,192,15405,1,0,0:0:0:0:
108,192,15482,1,0,0:0:0:0:
396,192,15482,1,0,0:0:0:0:
252,192,15559,1,0,0:0:0:0:
468,192,15637,1,0,0:0:0:0:
108,192,15714,1,0,0:0:0:0:
396,192,15714,1,0,0:0:0:0:
252,192,15791,1,0,0:0:0:0:
468,192,15868,1,0,0:0:0:0:
108,192,15945,1,0,0:0:0:0:
396,192,15945,1,0,0:0:0:0:
324,192,16022,1,0,0:0:0:0:
108,192,16100,1,0,0:0:0:0:
396,192,16100,1,0,0:0:0:0:
324,192,16177,1,0,0:0:0:0:
180,192,16254,1,0,0:0:0:0:
468,192,16254,1,0,0:0:0:0:
252,192,16331,1,0,0:0:0:0:
396,192,16408,1,0,0:0:0:0:
180,192,16485,1,0,0:0:0:0:
468,192,16485,1,0,0:0:0:0:
252,192,16563,1,0,0:0:0:0:
396,192,16640,1,0,0:0:0:0:
180,192,16717,1,0,0:0:0:0:
468,192,16717,1,0,0:0:0:0:
252,192,16794,1,0,0:0:0:0:
396,192,16871,1,0,0:0:0:0:
180,192,16948,1,0,0:0:0:0:
468,192,16948,1,0,0:0:0:0:
252,192,17025,1,0,0:0:0:0:
396,192,17103,1,0,0:0:0:0:
180,192,17180,1,0,0:0:0:0:
468,192,17180,1,0,0:0:0:0:
324,192,17257,1,0,0:0:0:0:
180,192,17334,1,0,0:0:0:0:
468,192,17334,1,0,0:0:0:0:
324,192,17411,1,0,0:0:0:0:
36,192,17488,1,0,0:0:0:0:
396,192,17488,1,0,0:0:0:0:
252,192,17566,1,0,0:0:0:0:
468,192,17643,1,0,0:0:0:0:
36,192,17720,1,0,0:0:0:0:
324,192,17720,1,0,0:0:0:0:
252,192,17797,1,0,0:0:0:0:
468,192,17874,1,0,0:0:0:0:
36,192,17951,1,0,0:0:0:0:
396,192,17951,1,0,0:0:0:0:
252,192,18029,1,0,0:0:0:0:
468,192,18106,1,0,0:0:0:0:
36,192,18183,1,0,0:0:0:0:
324,192,18183,1,0,0:0:0:0:
396,192,18260,1,0,0:0:0:0:
36,192,18337,1,0,0:0:0:0:
324,192,18337,1,0,0:0:0:0:
252,192,18414,1,0,0:0:0:0:
36,192,18492,1,0,0:0:0:0:
324,192,18492,1,0,0:0:0:0:
396,192,18569,1,0,0:0:0:0:
36,192,18646,1,0,0:0:0:0:
324,192,18646,1,0,0:0:0:0:
180,192,18723,1,0,0:0:0:0:
468,192,18723,1,0,0:0:0:0:
396,192,18800,1,0,0:0:0:0:
324,192,18877,1,0,0:0:0:0:
180,192,18955,1,0,0:0:0:0:
468,192,18955,1,0,0:0:0:0:
396,192,19032,1,0,0:0:0:0:
324,192,19109,1,0,0:0:0:0:
180,192,19186,1,0,0:0:0:0:
468,192,19186,1,0,0:0:0:0:
396,192,19263,1,0,0:0:0:0:
324,192,19340,1,0,0:0:0:0:
180,192,19417,1,0,0:0:0:0:
468,192,19417,1,0,0:0:0:0:
252,192,19495,1,0,0:0:0:0:
180,192,19572,1,0,0:0:0:0:
468,192,19572,1,0,0:0:0:0:
324,192,19649,1,0,0:0:0:0:
180,192,19726,1,0,0:0:0:0:
468,192,19726,1,0,0:0:0:0:
396,192,19803,1,0,0:0:0:0:
468,192,19880,1,0,0:0:0:0:
180,192,19880,1,0,0:0:0:0:
396,192,19958,1,0,0:0:0:0:
108,192,19958,1,0,0:0:0:0:
36,192,19958,128,0,21192:0:0:0:0:
252,192,19958,1,0,0:0:0:0:
324,192,20035,1,0,0:0:0:0:
180,192,20112,1,0,0:0:0:0:
396,192,20189,1,0,0:0:0:0:
324,192,20266,1,0,0:0:0:0:
180,192,20343,1,0,0:0:0:0:
396,192,20421,1,0,0:0:0:0:
324,192,20498,1,0,0:0:0:0:
180,192,20575,1,0,0:0:0:0:
396,192,20652,1,0,0:0:0:0:
324,192,20729,1,0,0:0:0:0:
180,192,20806,1,0,0:0:0:0:
396,192,20884,1,0,0:0:0:0:
252,192,20961,1,0,0:0:0:0:
396,192,21038,1,0,0:0:0:0:
252,192,21115,1,0,0:0:0:0:
468,192,21192,1,0,0:0:0:0:
108,192,21192,128,0,22427:0:0:0:0:
324,192,21269,1,0,0:0:0:0:
180,192,21346,1,0,0:0:0:0:
468,192,21424,1,0,0:0:0:0:
324,192,21501,1,0,0:0:0:0:
180,192,21578,1,0,0:0:0:0:
468,192,21655,1,0,0:0:0:0:
324,192,21732,1,0,0:0:0:0:
180,192,21809,1,0,0:0:0:0:
468,192,21887,1,0,0:0:0:0:
324,192,21964,1,0,0:0:0:0:
252,192,22041,1,0,0:0:0:0:
324,192,22118,1,0,0:0:0:0:
396,192,22195,1,0,0:0:0:0:
324,192,22272,1,0,0:0:0:0:
180,192,22350,1,0,0:0:0:0:
396,192,22427,128,0,23661:0:0:0:0:
252,192,22427,1,0,0:0:0:0:
108,192,22504,1,0,0:0:0:0:
468,192,22581,1,0,0:0:0:0:
252,192,22658,1,0,0:0:0:0:
108,192,22735,1,0,0:0:0:0:
468,192,22813,1,0,0:0:0:0:
252,192,22890,1,0,0:0:0:0:
108,192,22967,1,0,0:0:0:0:
468,192,23044,1,0,0:0:0:0:
252,192,23121,1,0,0:0:0:0:
108,192,23198,1,0,0:0:0:0:
468,192,23275,1,0,0:0:0:0:
252,192,23353,1,0,0:0:0:0:
324,192,23430,1,0,0:0:0:0:
252,192,23507,1,0,0:0:0:0:
324,192,23584,1,0,0:0:0:0:
180,192,23661,128,0,24896:0:0:0:0:
468,192,23661,1,0,0:0:0:0:
252,192,23738,1,0,0:0:0:0:
108,192,23816,1,0,0:0:0:0:
468,192,23893,1,0,0:0:0:0:
252,192,23970,1,0,0:0:0:0:
108,192,24047,1,0,0:0:0:0:
468,192,24124,1,0,0:0:0:0:
252,192,24201,1,0,0:0:0:0:
108,192,24279,1,0,0:0:0:0:
468,192,24356,1,0,0:0:0:0:
252,192,24433,1,0,0:0:0:0:
396,192,24510,1,0,0:0:0:0:
252,192,24587,1,0,0:0:0:0:
108,192,24664,1,0,0:0:0:0:
252,192,24742,1,0,0:0:0:0:
324,192,24819,1,0,0:0:0:0:
252,192,24896,128,0,26130:0:0:0:0:
468,192,24896,1,0,0:0:0:0:
396,192,24973,1,0,0:0:0:0:
108,192,25050,1,0,0:0:0:0:
468,192,25127,1,0,0:0:0:0:
396,192,25205,1,0,0:0:0:0:
108,192,25282,1,0,0:0:0:0:
468,192,25359,1,0,0:0:0:0:
396,192,25436,1,0,0:0:0:0:
108,192,25513,1,0,0:0:0:0:
468,192,25590,1,0,0:0:0:0:
396,192,25667,1,0,0:0:0:0:
108,192,25745,1,0,0:0:0:0:
468,192,25822,1,0,0:0:0:0:
180,192,25899,1,0,0:0:0:0:
468,192,25976,1,0,0:0:0:0:
180,192,26053,1,0,0:0:0:0:
324,192,26130,128,0,27365:0:0:0:0:
396,192,26130,1,0,0:0:0:0:
108,192,26208,1,0,0:0:0:0:
36,192,26285,1,0,0:0:0:0:
396,192,26362,1,0,0:0:0:0:
108,192,26439,1,0,0:0:0:0:
36,192,26516,1,0,0:0:0:0:
396,192,26593,1,0,0:0:0:0:
108,192,26671,1,0,0:0:0:0:
36,192,26748,1,0,0:0:0:0:
396,192,26825,1,0,0:0:0:0:
108,192,26902,1,0,0:0:0:0:
36,192,26979,1,0,0:0:0:0:
396,192,27056,1,0,0:0:0:0:
180,192,27134,1,0,0:0:0:0:
396,192,27211,1,0,0:0:0:0:
180,192,27288,1,0,0:0:0:0:
396,192,27365,128,0,28600:0:0:0:0:
252,192,27365,1,0,0:0:0:0:
324,192,27442,1,0,0:0:0:0:
36,192,27519,1,0,0:0:0:0:
252,192,27596,1,0,0:0:0:0:
324,192,27674,1,0,0:0:0:0:
36,192,27751,1,0,0:0:0:0:
252,192,27828,1,0,0:0:0:0:
324,192,27905,1,0,0:0:0:0:
36,192,27982,1,0,0:0:0:0:
252,192,28059,1,0,0:0:0:0:
324,192,28137,1,0,0:0:0:0:
180,192,28214,1,0,0:0:0:0:
324,192,28291,1,0,0:0:0:0:
108,192,28368,1,0,0:0:0:0:
324,192,28445,1,0,0:0:0:0:
252,192,28522,1,0,0:0:0:0:
180,192,28600,1,0,0:0:0:0:
468,192,28600,128,0,29757:0:0:0:0:
324,192,28600,1,0,0:0:0:0:
36,192,28600,1,0,0:0:0:0:
108,192,28677,1,0,0:0:0:0:
396,192,28754,1,0,0:0:0:0:
324,192,28831,1,0,0:0:0:0:
108,192,28908,1,0,0:0:0:0:
396,192,28985,1,0,0:0:0:0:
324,192,29063,1,0,0:0:0:0:
108,192,29140,1,0,0:0:0:0:
396,192,29217,1,0,0:0:0:0:
180,192,29217,1,0,0:0:0:0:
36,192,29217,1,0,0:0:0:0:
324,192,29294,1,0,0:0:0:0:
108,192,29371,1,0,0:0:0:0:
252,192,29448,1,0,0:0:0:0:
108,192,29525,1,0,0:0:0:0:
36,192,29525,1,0,0:0:0:0:
180,192,29525,1,0,0:0:0:0:
396,192,29603,1,0,0:0:0:0:
108,192,29680,1,0,0:0:0:0:
324,192,29757,1,0,0:0:0:0:
468,192,29834,1,0,0:0:0:0:
36,192,29834,1,0,0:0:0:0:
396,192,29834,1,0,0:0:0:0:
324,192,29911,1,0,0:0:0:0:
252,192,29988,1,0,0:0:0:0:
108,192,29988,1,0,0:0:0:0:
468,192,30066,1,0,0:0:0:0:
324,192,30143,1,0,0:0:0:0:
180,192,30143,1,0,0:0:0:0:
252,192,30220,1,0,0:0:0:0:
108,192,30297,1,0,0:0:0:0:
468,192,30297,1,0,0:0:0:0:
324,192,30374,1,0,0:0:0:0:
36,192,30451,1,0,0:0:0:0:
252,192,30451,1,0,0:0:0:0:
468,192,30529,1,0,0:0:0:0:
108,192,30606,1,0,0:0:0:0:
324,192,30606,1,0,0:0:0:0:
252,192,30683,1,0,0:0:0:0:
396,192,30760,1,0,0:0:0:0:
180,192,30760,1,0,0:0:0:0:
324,192,30837,1,0,0:0:0:0:
396,192,30914,1,0,0:0:0:0:
108,192,30914,1,0,0:0:0:0:
324,192,30992,1,0,0:0:0:0:
468,192,31069,1,0,0:0:0:0:
36,192,31069,1,0,0:0:0:0:
396,192,31146,1,0,0:0:0:0:
180,192,31223,1,0,0:0:0:0:
252,192,31223,1,0,0:0:0:0:
468,192,31300,1,0,0:0:0:0:
108,192,31377,1,0,0:0:0:0:
396,192,31377,1,0,0:0:0:0:
252,192,31455,1,0,0:0:0:0:
468,192,31532,1,0,0:0:0:0:
180,192,31532,1,0,0:0:0:0:
396,192,31609,1,0,0:0:0:0:
252,192,31686,1,0,0:0:0:0:
36,192,31686,1,0,0:0:0:0:
468,192,31763,1,0,0:0:0:0:
396,192,31840,1,0,0:0:0:0:
180,192,31840,1,0,0:0:0:0:
252,192,31917,1,0,0:0:0:0:
108,192,31995,1,0,0:0:0:0:
396,192,31995,1,0,0:0:0:0:
324,192,32072,1,0,0:0:0:0:
180,192,32149,1,0,0:0:0:0:
396,192,32149,1,0,0:0:0:0:
468,192,32226,1,0,0:0:0:0:
252,192,32303,1,0,0:0:0:0:
36,192,32303,1,0,0:0:0:0:
468,192,32380,1,0,0:0:0:0:
396,192,32458,1,0,0:0:0:0:
108,192,32458,1,0,0:0:0:0:
252,192,32535,1,0,0:0:0:0:
468,192,32612,1,0,0:0:0:0:
180,192,32612,1,0,0:0:0:0:
396,192,32689,1,0,0:0:0:0:
108,192,32766,1,0,0:0:0:0:
252,192,32766,1,0,0:0:0:0:
468,192,32843,1,0,0:0:0:0:
36,192,32921,1,0,0:0:0:0:
396,192,32921,1,0,0:0:0:0:
252,192,32998,1,0,0:0:0:0:
108,192,33075,1,0,0:0:0:0:
468,192,33075,1,0,0:0:0:0:
396,192,33152,1,0,0:0:0:0:
252,192,33229,1,0,0:0:0:0:
180,192,33229,1,0,0:0:0:0:
468,192,33306,1,0,0:0:0:0:
252,192,33384,1,0,0:0:0:0:
108,192,33384,1,0,0:0:0:0:
468,192,33461,1,0,0:0:0:0:
396,192,33538,1,0,0:0:0:0:
36,192,33538,1,0,0:0:0:0:
324,192,33615,1,0,0:0:0:0:
180,192,33692,1,0,0:0:0:0:
252,192,33692,1,0,0:0:0:0:
396,192,33769,1,0,0:0:0:0:
108,192,33846,1,0,0:0:0:0:
324,192,33846,1,0,0:0:0:0:
252,192,33924,1,0,0:0:0:0:
396,192,34001,1,0,0:0:0:0:
108,192,34078,1,0,0:0:0:0:
324,192,34078,1,0,0:0:0:0:
252,192,34155,1,0,0:0:0:0:
108,192,34232,1,0,0:0:0:0:
396,192,34232,1,0,0:0:0:0:
324,192,34309,1,0,0:0:0:0:
36,192,34309,1,0,0:0:0:0:
396,192,34387,1,0,0:0:0:0:
108,192,34464,1,0,0:0:0:0:
252,192,34464,1,0,0:0:0:0:
396,192,34541,1,0,0:0:0:0:
180,192,34541,1,0,0:0:0:0:
108,192,34618,1,0,0:0:0:0:
468,192,34618,1,0,0:0:0:0:
324,192,34695,1,0,0:0:0:0:
180,192,34695,1,0,0:0:0:0:
36,192,34772,1,0,0:0:0:0:
396,192,34772,1,0,0:0:0:0:
252,192,34850,1,0,0:0:0:0:
468,192,34927,1,0,0:0:0:0:
108,192,34927,1,0,0:0:0:0:
180,192,35004,1,0,0:0:0:0:
396,192,35004,1,0,0:0:0:0:
252,192,35081,1,0,0:0:0:0:
36,192,35081,1,0,0:0:0:0:
468,192,35158,1,0,0:0:0:0:
396,192,35235,1,0,0:0:0:0:
108,192,35235,1,0,0:0:0:0:
252,192,35313,1,0,0:0:0:0:
180,192,35313,1,0,0:0:0:0:
36,192,35390,1,0,0:0:0:0:
468,192,35390,1,0,0:0:0:0:
396,192,35467,1,0,0:0:0:0:
180,192,35544,1,0,0:0:0:0:
252,192,35544,1,0,0:0:0:0:
468,192,35621,1,0,0:0:0:0:
108,192,35621,1,0,0:0:0:0:
396,192,35698,1,0,0:0:0:0:
36,192,35698,1,0,0:0:0:0:
324,192,35775,1,0,0:0:0:0:
396,192,35853,1,0,0:0:0:0:
180,192,35853,1,0,0:0:0:0:
108,192,35930,1,0,0:0:0:0:
324,192,35930,1,0,0:0:0:0:
468,192,36007,1,0,0:0:0:0:
36,192,36007,1,0,0:0:0:0:
252,192,36084,1,0,0:0:0:0:
180,192,36161,1,0,0:0:0:0:
396,192,36161,1,0,0:0:0:0:
468,192,36238,1,0,0:0:0:0:
36,192,36238,1,0,0:0:0:0:
108,192,36316,1,0,0:0:0:0:
252,192,36316,1,0,0:0:0:0:
396,192,36393,1,0,0:0:0:0:
468,192,36470,1,0,0:0:0:0:
180,192,36470,1,0,0:0:0:0:
36,192,36547,1,0,0:0:0:0:
252,192,36547,1,0,0:0:0:0:
396,192,36624,1,0,0:0:0:0:
108,192,36624,1,0,0:0:0:0:
468,192,36701,1,0,0:0:0:0:
252,192,36779,1,0,0:0:0:0:
36,192,36779,1,0,0:0:0:0:
108,192,36856,1,0,0:0:0:0:
396,192,36856,1,0,0:0:0:0:
180,192,36933,1,0,0:0:0:0:
468,192,36933,1,0,0:0:0:0:
324,192,37010,1,0,0:0:0:0:
36,192,37087,1,0,0:0:0:0:
468,192,37087,1,0,0:0:0:0:
324,192,37164,1,0,0:0:0:0:
108,192,37164,1,0,0:0:0:0:
180,192,37242,1,0,0:0:0:0:
396,192,37242,1,0,0:0:0:0:
252,192,37319,1,0,0:0:0:0:
468,192,37396,1,0,0:0:0:0:
108,192,37396,1,0,0:0:0:0:
180,192,37473,1,0,0:0:0:0:
324,192,37473,1,0,0:0:0:0:
252,192,37550,1,0,0:0:0:0:
36,192,37550,1,0,0:0:0:0:
468,192,37627,1,0,0:0:0:0:
396,192,37705,1,0,0:0:0:0:
108,192,37705,1,0,0:0:0:0:
252,192,37782,1,0,0:0:0:0:
180,192,37782,1,0,0:0:0:0:
36,192,37859,1,0,0:0:0:0:
468,192,37859,1,0,0:0:0:0:
324,192,37936,1,0,0:0:0:0:
180,192,38013,1,0,0:0:0:0:
396,192,38013,1,0,0:0:0:0:
324,192,38090,1,0,0:0:0:0:
108,192,38090,1,0,0:0:0:0:
252,192,38167,1,0,0:0:0:0:
36,192,38167,1,0,0:0:0:0:
324,192,38245,1,0,0:0:0:0:
396,192,38322,1,0,0:0:0:0:
180,192,38322,1,0,0:0:0:0:
108,192,38399,1,0,0:0:0:0:
324,192,38399,1,0,0:0:0:0:
468,192,38476,1,0,0:0:0:0:
36,192,38476,1,0,0:0:0:0:
396,192,38553,1,0,0:0:0:0:
108,192,38630,1,0,0:0:0:0:
324,192,38630,1,0,0:0:0:0:
468,192,38708,1,0,0:0:0:0:
36,192,38708,1,0,0:0:0:0:
180,192,38785,1,0,0:0:0:0:
396,192,38785,1,0,0:0:0:0:
324,192,38862,1,0,0:0:0:0:
108,192,38939,1,0,0:0:0:0:
468,192,38939,1,0,0:0:0:0:
36,192,39016,1,0,0:0:0:0:
396,192,39016,1,0,0:0:0:0:
324,192,39093,1,0,0:0:0:0:
180,192,39093,1,0,0:0:0:0:
468,192,39171,1,0,0:0:0:0:
252,192,39248,1,0,0:0:0:0:
36,192,39248,1,0,0:0:0:0:
180,192,39299,1,0,0:0:0:0:
468,192,39325,1,0,0:0:0:0:
36,192,39351,1,0,0:0:0:0:
324,192,39402,1,0,0:0:0:0:
180,192,39402,1,0,0:0:0:0:
36,192,39453,1,0,0:0:0:0:
468,192,39479,1,0,0:0:0:0:
180,192,39505,1,0,0:0:0:0:
36,192,39556,1,0,0:0:0:0:
396,192,39556,1,0,0:0:0:0:
180,192,39608,1,0,0:0:0:0:
252,192,39634,1,0,0:0:0:0:
36,192,39659,1,0,0:0:0:0:
108,192,39711,1,0,0:0:0:0:
396,192,39711,1,0,0:0:0:0:
468,192,39711,1,0,0:0:0:0:
324,192,39788,1,0,0:0:0:0:
108,192,39788,1,0,0:0:0:0:
252,192,39865,1,0,0:0:0:0:
36,192,39865,1,0,0:0:0:0:
468,192,39942,1,0,0:0:0:0:
324,192,40019,1,0,0:0:0:0:
108,192,40019,1,0,0:0:0:0:
252,192,40096,1,0,0:0:0:0:
108,192,40096,1,0,0:0:0:0:
468,192,40174,1,0,0:0:0:0:
36,192,40174,1,0,0:0:0:0:
324,192,40251,1,0,0:0:0:0:
252,192,40328,1,0,0:0:0:0:
108,192,40328,1,0,0:0:0:0:
468,192,40405,1,0,0:0:0:0:
108,192,40405,1,0,0:0:0:0:
324,192,40482,1,0,0:0:0:0:
36,192,40482,1,0,0:0:0:0:
252,192,40559,1,0,0:0:0:0:
396,192,40637,1,0,0:0:0:0:
108,192,40637,1,0,0:0:0:0:
324,192,40714,1,0,0:0:0:0:
108,192,40714,1,0,0:0:0:0:
396,192,40791,1,0,0:0:0:0:
36,192,40791,1,0,0:0:0:0:
324,192,40868,1,0,0:0:0:0:
36,192,40868,1,0,0:0:0:0:
468,192,40945,1,0,0:0:0:0:
180,192,40945,1,0,0:0:0:0:
396,192,41022,1,0,0:0:0:0:
180,192,41022,1,0,0:0:0:0:
252,192,41100,1,0,0:0:0:0:
36,192,41100,1,0,0:0:0:0:
468,192,41177,1,0,0:0:0:0:
396,192,41254,1,0,0:0:0:0:
180,192,41254,1,0,0:0:0:0:
252,192,41331,1,0,0:0:0:0:
180,192,41331,1,0,0:0:0:0:
468,192,41408,1,0,0:0:0:0:
36,192,41408,1,0,0:0:0:0:
396,192,41485,1,0,0:0:0:0:
252,192,41563,1,0,0:0:0:0:
180,192,41563,1,0,0:0:0:0:
468,192,41640,1,0,0:0:0:0:
180,192,41640,1,0,0:0:0:0:
396,192,41717,1,0,0:0:0:0:
36,192,41717,1,0,0:0:0:0:
252,192,41794,1,0,0:0:0:0:
396,192,41871,1,0,0:0:0:0:
180,192,41871,1,0,0:0:0:0:
324,192,41948,1,0,0:0:0:0:
180,192,41948,1,0,0:0:0:0:
396,192,42025,1,0,0:0:0:0:
36,192,42025,1,0,0:0:0:0:
468,192,42103,1,0,0:0:0:0:
36,192,42103,1,0,0:0:0:0:
252,192,42180,1,0,0:0:0:0:
108,192,42180,1,0,0:0:0:0:
468,192,42257,1,0,0:0:0:0:
108,192,42257,1,0,0:0:0:0:
396,192,42334,1,0,0:0:0:0:
180,192,42334,1,0,0:0:0:0:
252,192,42411,1,0,0:0:0:0:
468,192,42488,1,0,0:0:0:0:
108,192,42488,1,0,0:0:0:0:
396,192,42566,1,0,0:0:0:0:
108,192,42566,1,0,0:0:0:0:
252,192,42643,1,0,0:0:0:0:
180,192,42643,1,0,0:0:0:0:
468,192,42720,1,0,0:0:0:0:
396,192,42797,1,0,0:0:0:0:
108,192,42797,1,0,0:0:0:0:
252,192,42874,1,0,0:0:0:0:
108,192,42874,1,0,0:0:0:0:
468,192,42951,1,0,0:0:0:0:
180,192,42951,1,0,0:0:0:0:
396,192,43029,1,0,0:0:0:0:
252,192,43106,1,0,0:0:0:0:
108,192,43106,1,0,0:0:0:0:
468,192,43183,1,0,0:0:0:0:
108,192,43183,1,0,0:0:0:0:
252,192,43260,1,0,0:0:0:0:
180,192,43260,1,0,0:0:0:0:
468,192,43337,1,0,0:0:0:0:
180,192,43337,1,0,0:0:0:0:
396,192,43414,1,0,0:0:0:0:
36,192,43414,1,0,0:0:0:0:
324,192,43492,1,0,0:0:0:0:
36,192,43492,1,0,0:0:0:0:
252,192,43569,1,0,0:0:0:0:
108,192,43569,1,0,0:0:0:0:
396,192,43646,1,0,0:0:0:0:
324,192,43723,1,0,0:0:0:0:
36,192,43723,1,0,0:0:0:0:
252,192,43800,1,0,0:0:0:0:
36,192,43800,1,0,0:0:0:0:
396,192,43877,1,0,0:0:0:0:
108,192,43877,1,0,0:0:0:0:
324,192,43955,1,0,0:0:0:0:
252,192,44032,1,0,0:0:0:0:
36,192,44032,1,0,0:0:0:0:
396,192,44109,1,0,0:0:0:0:
36,192,44109,1,0,0:0:0:0:
324,192,44186,1,0,0:0:0:0:
108,192,44186,1,0,0:0:0:0:
396,192,44263,1,0,0:0:0:0:
252,192,44340,1,0,0:0:0:0:
36,192,44340,1,0,0:0:0:0:
396,192,44417,1,0,0:0:0:0:
36,192,44417,1,0,0:0:0:0:
468,192,44495,1,0,0:0:0:0:
108,192,44495,1,0,0:0:0:0:
324,192,44572,1,0,0:0:0:0:
108,192,44572,1,0,0:0:0:0:
396,192,44649,1,0,0:0:0:0:
36,192,44649,1,0,0:0:0:0:
252,192,44726,1,0,0:0:0:0:
36,192,44726,1,0,0:0:0:0:
468,192,44803,1,0,0:0:0:0:
180,192,44803,1,0,0:0:0:0:
396,192,44880,1,0,0:0:0:0:
252,192,44958,1,0,0:0:0:0:
36,192,44958,1,0,0:0:0:0:
468,192,45035,1,0,0:0:0:0:
36,192,45035,1,0,0:0:0:0:
396,192,45112,1,0,0:0:0:0:
180,192,45112,1,0,0:0:0:0:
252,192,45189,1,0,0:0:0:0:
468,192,45266,1,0,0:0:0:0:
36,192,45266,1,0,0:0:0:0:
396,192,45343,1,0,0:0:0:0:
36,192,45343,1,0,0:0:0:0:
252,192,45421,1,0,0:0:0:0:
180,192,45421,1,0,0:0:0:0:
468,192,45498,1,0,0:0:0:0:
396,192,45575,1,0,0:0:0:0:
36,192,45575,1,0,0:0:0:0:
324,192,45652,1,0,0:0:0:0:
36,192,45652,1,0,0:0:0:0:
396,192,45729,1,0,0:0:0:0:
180,192,45729,1,0,0:0:0:0:
324,192,45806,1,0,0:0:0:0:
180,192,45806,1,0,0:0:0:0:
468,192,45884,1,0,0:0:0:0:
108,192,45884,1,0,0:0:0:0:
252,192,45961,1,0,0:0:0:0:
108,192,45961,1,0,0:0:0:0:
396,192,46038,1,0,0:0:0:0:
36,192,46038,1,0,0:0:0:0:
468,192,46115,1,0,0:0:0:0:
252,192,46192,1,0,0:0:0:0:
108,192,46192,1,0,0:0:0:0:
396,192,46269,1,0,0:0:0:0:
108,192,46269,1,0,0:0:0:0:
468,192,46346,1,0,0:0:0:0:
36,192,46346,1,0,0:0:0:0:
252,192,46424,1,0,0:0:0:0:
396,192,46501,1,0,0:0:0:0:
108,192,46501,1,0,0:0:0:0:
468,192,46578,1,0,0:0:0:0:
108,192,46578,1,0,0:0:0:0:
252,192,46655,1,0,0:0:0:0:
36,192,46655,1,0,0:0:0:0:
396,192,46732,1,0,0:0:0:0:
468,192,46809,1,0,0:0:0:0:
108,192,46809,1,0,0:0:0:0:
324,192,46887,1,0,0:0:0:0:
108,192,46887,1,0,0:0:0:0:
468,192,46964,1,0,0:0:0:0:
36,192,46964,1,0,0:0:0:0:
324,192,47041,1,0,0:0:0:0:
36,192,47041,1,0,0:0:0:0:
396,192,47118,1,0,0:0:0:0:
180,192,47118,1,0,0:0:0:0:
252,192,47195,1,0,0:0:0:0:
180,192,47195,1,0,0:0:0:0:
468,192,47272,1,0,0:0:0:0:
108,192,47272,1,0,0:0:0:0:
324,192,47350,1,0,0:0:0:0:
252,192,47427,1,0,0:0:0:0:
180,192,47427,1,0,0:0:0:0:
468,192,47504,1,0,0:0:0:0:
180,192,47504,1,0,0:0:0:0:
396,192,47581,1,0,0:0:0:0:
108,192,47581,1,0,0:0:0:0:
252,192,47658,1,0,0:0:0:0:
468,192,47735,1,0,0:0:0:0:
180,192,47735,1,0,0:0:0:0:
324,192,47813,1,0,0:0:0:0:
180,192,47813,1,0,0:0:0:0:
396,192,47890,1,0,0:0:0:0:
108,192,47890,1,0,0:0:0:0:
324,192,47967,1,0,0:0:0:0:
252,192,48044,1,0,0:0:0:0:
180,192,48044,1,0,0:0:0:0:
324,192,48121,1,0,0:0:0:0:
180,192,48121,1,0,0:0:0:0:
396,192,48198,1,0,0:0:0:0:
108,192,48198,1,0,0:0:0:0:
324,192,48275,1,0,0:0:0:0:
108,192,48275,1,0,0:0:0:0:
468,192,48353,1,0,0:0:0:0:
180,192,48353,1,0,0:0:0:0:
396,192,48430,1,0,0:0:0:0:
180,192,48430,1,0,0:0:0:0:
324,192,48507,1,0,0:0:0:0:
36,192,48507,1,0,0:0:0:0:
468,192,48584,1,0,0:0:0:0:
396,192,48661,1,0,0:0:0:0:
180,192,48661,1,0,0:0:0:0:
324,192,48738,1,0,0:0:0:0:
180,192,48738,1,0,0:0:0:0:
468,192,48816,1,0,0:0:0:0:
36,192,48816,1,0,0:0:0:0:
396,192,48893,1,0,0:0:0:0:
324,192,48970,1,0,0:0:0:0:
180,192,48970,1,0,0:0:0:0:
468,192,49047,1,0,0:0:0:0:
180,192,49047,1,0,0:0:0:0:
252,192,49124,1,0,0:0:0:0:
36,192,49124,1,0,0:0:0:0:
468,192,49201,1,0,0:0:0:0:
324,192,49279,1,0,0:0:0:0:
180,192,49279,1,0,0:0:0:0:
468,192,49356,1,0,0:0:0:0:
180,192,49356,1,0,0:0:0:0:
396,192,49433,1,0,0:0:0:0:
36,192,49433,1,0,0:0:0:0:
36,192,49510,1,0,0:0:0:0:
252,192,49510,1,0,0:0:0:0:
36,192,49587,1,0,0:0:0:0:
402,192,49587,1,0,0:0:0:0:
182,192,49664,1,0,0:0:0:0:
402,192,49664,1,0,0:0:0:0:
256,192,49742,1,0,0:0:0:0:
475,192,49742,1,0,0:0:0:0:
36,192,49819,1,0,0:0:0:0:
182,192,49896,1,0,0:0:0:0:
402,192,49896,1,0,0:0:0:0:
256,192,49973,1,0,0:0:0:0:
402,192,49973,1,0,0:0:0:0:
36,192,50050,1,0,0:0:0:0:
475,192,50050,1,0,0:0:0:0:
182,192,50127,1,0,0:0:0:0:
256,192,50205,1,0,0:0:0:0:
402,192,50205,1,0,0:0:0:0:
36,192,50282,1,0,0:0:0:0:
402,192,50282,1,0,0:0:0:0:
182,192,50359,1,0,0:0:0:0:
475,192,50359,1,0,0:0:0:0:
256,192,50436,1,0,0:0:0:0:
109,192,50513,1,0,0:0:0:0:
402,192,50513,1,0,0:0:0:0:
182,192,50590,1,0,0:0:0:0:
402,192,50590,1,0,0:0:0:0:
109,192,50667,1,0,0:0:0:0:
475,192,50667,1,0,0:0:0:0:
182,192,50745,1,0,0:0:0:0:
475,192,50745,1,0,0:0:0:0:
36,192,50822,1,0,0:0:0:0:
329,192,50822,1,0,0:0:0:0:
109,192,50899,1,0,0:0:0:0:
329,192,50899,1,0,0:0:0:0:
256,192,50976,1,0,0:0:0:0:
475,192,50976,1,0,0:0:0:0:
36,192,51053,1,0,0:0:0:0:
109,192,51130,1,0,0:0:0:0:
329,192,51130,1,0,0:0:0:0:
256,192,51208,1,0,0:0:0:0:
329,192,51208,1,0,0:0:0:0:
36,192,51285,1,0,0:0:0:0:
475,192,51285,1,0,0:0:0:0:
109,192,51362,1,0,0:0:0:0:
256,192,51439,1,0,0:0:0:0:
329,192,51439,1,0,0:0:0:0:
36,192,51516,1,0,0:0:0:0:
329,192,51516,1,0,0:0:0:0:
109,192,51593,1,0,0:0:0:0:
475,192,51593,1,0,0:0:0:0:
256,192,51671,1,0,0:0:0:0:
109,192,51748,1,0,0:0:0:0:
329,192,51748,1,0,0:0:0:0:
182,192,51825,1,0,0:0:0:0:
329,192,51825,1,0,0:0:0:0:
109,192,51902,1,0,0:0:0:0:
475,192,51902,1,0,0:0:0:0:
36,192,51979,1,0,0:0:0:0:
475,192,51979,1,0,0:0:0:0:
256,192,52056,1,0,0:0:0:0:
402,192,52056,1,0,0:0:0:0:
36,192,52134,1,0,0:0:0:0:
402,192,52134,1,0,0:0:0:0:
109,192,52211,1,0,0:0:0:0:
329,192,52211,1,0,0:0:0:0:
256,192,52288,1,0,0:0:0:0:
36,192,52365,1,0,0:0:0:0:
402,192,52365,1,0,0:0:0:0:
109,192,52442,1,0,0:0:0:0:
402,192,52442,1,0,0:0:0:0:
256,192,52519,1,0,0:0:0:0:
329,192,52519,1,0,0:0:0:0:
36,192,52596,1,0,0:0:0:0:
109,192,52674,1,0,0:0:0:0:
402,192,52674,1,0,0:0:0:0:
256,192,52751,1,0,0:0:0:0:
402,192,52751,1,0,0:0:0:0:
36,192,52828,1,0,0:0:0:0:
329,192,52828,1,0,0:0:0:0:
109,192,52905,1,0,0:0:0:0:
256,192,52982,1,0,0:0:0:0:
402,192,52982,1,0,0:0:0:0:
36,192,53059,1,0,0:0:0:0:
402,192,53059,1,0,0:0:0:0:
256,192,53137,1,0,0:0:0:0:
329,192,53137,1,0,0:0:0:0:
36,192,53214,1,0,0:0:0:0:
329,192,53214,1,0,0:0:0:0:
109,192,53291,1,0,0:0:0:0:
475,192,53291,1,0,0:0:0:0:
182,192,53368,1,0,0:0:0:0:
475,192,53368,1,0,0:0:0:0:
256,192,53445,1,0,0:0:0:0:
402,192,53445,1,0,0:0:0:0:
109,192,53522,1,0,0:0:0:0:
182,192,53600,1,0,0:0:0:0:
475,192,53600,1,0,0:0:0:0:
256,192,53677,1,0,0:0:0:0:
475,192,53677,1,0,0:0:0:0:
109,192,53754,1,0,0:0:0:0:
402,192,53754,1,0,0:0:0:0:
182,192,53831,1,0,0:0:0:0:
256,192,53908,1,0,0:0:0:0:
475,192,53908,1,0,0:0:0:0:
109,192,53985,1,0,0:0:0:0:
475,192,53985,1,0,0:0:0:0:
182,192,54063,1,0,0:0:0:0:
402,192,54063,1,0,0:0:0:0:
109,192,54140,1,0,0:0:0:0:
256,192,54217,1,0,0:0:0:0:
475,192,54217,1,0,0:0:0:0:
109,192,54294,1,0,0:0:0:0:
475,192,54294,1,0,0:0:0:0:
36,192,54371,1,0,0:0:0:0:
402,192,54371,1,0,0:0:0:0:
182,192,54448,1,0,0:0:0:0:
402,192,54448,1,0,0:0:0:0:
475,192,54525,1,0,0:0:0:0:
109,192,54525,128,0,54603:0:0:0:0:
256,192,54603,1,0,0:0:0:0:
475,192,54603,1,0,0:0:0:0:
36,192,54680,1,0,0:0:0:0:
329,192,54680,1,0,0:0:0:0:
109,192,54757,1,0,0:0:0:0:
256,192,54834,1,0,0:0:0:0:
475,192,54834,1,0,0:0:0:0:
36,192,54911,1,0,0:0:0:0:
475,192,54911,1,0,0:0:0:0:
109,192,54988,1,0,0:0:0:0:
329,192,54988,1,0,0:0:0:0:
256,192,55066,1,0,0:0:0:0:
36,192,55143,1,0,0:0:0:0:
475,192,55143,1,0,0:0:0:0:
109,192,55220,1,0,0:0:0:0:
475,192,55220,1,0,0:0:0:0:
256,192,55297,1,0,0:0:0:0:
329,192,55297,1,0,0:0:0:0:
36,192,55374,1,0,0:0:0:0:
109,192,55451,1,0,0:0:0:0:
475,192,55451,1,0,0:0:0:0:
182,192,55529,1,0,0:0:0:0:
475,192,55529,1,0,0:0:0:0:
109,192,55606,1,0,0:0:0:0:
329,192,55606,1,0,0:0:0:0:
182,192,55683,1,0,0:0:0:0:
329,192,55683,1,0,0:0:0:0:
402,192,55760,1,0,0:0:0:0:
36,192,55760,128,0,55837:0:0:0:0:
256,192,55837,1,0,0:0:0:0:
402,192,55837,1,0,0:0:0:0:
109,192,55914,1,0,0:0:0:0:
475,192,55914,1,0,0:0:0:0:
36,192,55992,1,0,0:0:0:0:
256,192,56069,1,0,0:0:0:0:
402,192,56069,1,0,0:0:0:0:
109,192,56146,1,0,0:0:0:0:
402,192,56146,1,0,0:0:0:0:
36,192,56223,1,0,0:0:0:0:
475,192,56223,1,0,0:0:0:0:
256,192,56300,1,0,0:0:0:0:
109,192,56377,1,0,0:0:0:0:
402,192,56377,1,0,0:0:0:0:
36,192,56455,1,0,0:0:0:0:
402,192,56455,1,0,0:0:0:0:
256,192,56532,1,0,0:0:0:0:
475,192,56532,1,0,0:0:0:0:
109,192,56609,1,0,0:0:0:0:
36,192,56686,1,0,0:0:0:0:
402,192,56686,1,0,0:0:0:0:
182,192,56763,1,0,0:0:0:0:
402,192,56763,1,0,0:0:0:0:
36,192,56840,1,0,0:0:0:0:
475,192,56840,1,0,0:0:0:0:
182,192,56917,1,0,0:0:0:0:
475,192,56917,1,0,0:0:0:0:
329,192,56995,1,0,0:0:0:0:
109,192,56995,128,0,57072:0:0:0:0:
256,192,57072,1,0,0:0:0:0:
329,192,57072,1,0,0:0:0:0:
36,192,57149,1,0,0:0:0:0:
402,192,57149,1,0,0:0:0:0:
182,192,57226,1,0,0:0:0:0:
256,192,57303,1,0,0:0:0:0:
329,192,57303,1,0,0:0:0:0:
36,192,57380,1,0,0:0:0:0:
329,192,57380,1,0,0:0:0:0:
109,192,57458,1,0,0:0:0:0:
402,192,57458,1,0,0:0:0:0:
256,192,57535,1,0,0:0:0:0:
329,192,57612,1,0,0:0:0:0:
36,192,57612,128,0,57689:0:0:0:0:
182,192,57689,1,0,0:0:0:0:
329,192,57689,1,0,0:0:0:0:
109,192,57766,1,0,0:0:0:0:
402,192,57766,1,0,0:0:0:0:
182,192,57843,1,0,0:0:0:0:
256,192,57921,1,0,0:0:0:0:
329,192,57921,1,0,0:0:0:0:
182,192,57998,1,0,0:0:0:0:
329,192,57998,1,0,0:0:0:0:
109,192,58075,1,0,0:0:0:0:
402,192,58075,1,0,0:0:0:0:
182,192,58152,1,0,0:0:0:0:
402,192,58152,1,0,0:0:0:0:
329,192,58229,1,0,0:0:0:0:
36,192,58229,128,0,58306:0:0:0:0:
109,192,58306,1,0,0:0:0:0:
329,192,58306,1,0,0:0:0:0:
182,192,58384,1,0,0:0:0:0:
475,192,58384,1,0,0:0:0:0:
36,192,58461,1,0,0:0:0:0:
109,192,58538,1,0,0:0:0:0:
329,192,58538,1,0,0:0:0:0:
182,192,58615,1,0,0:0:0:0:
329,192,58615,1,0,0:0:0:0:
36,192,58692,1,0,0:0:0:0:
475,192,58692,1,0,0:0:0:0:
109,192,58769,1,0,0:0:0:0:
182,192,58846,128,0,58924:0:0:0:0:
329,192,58846,1,0,0:0:0:0:
36,192,58924,1,0,0:0:0:0:
329,192,58924,1,0,0:0:0:0:
256,192,59001,1,0,0:0:0:0:
475,192,59001,1,0,0:0:0:0:
36,192,59078,1,0,0:0:0:0:
329,192,59155,1,0,0:0:0:0:
182,192,59155,128,0,59232:0:0:0:0:
36,192,59232,1,0,0:0:0:0:
329,192,59232,1,0,0:0:0:0:
402,192,59309,1,0,0:0:0:0:
109,192,59309,1,0,0:0:0:0:
402,192,59387,1,0,0:0:0:0:
256,192,59387,1,0,0:0:0:0:
475,192,59464,1,0,0:0:0:0:
108,192,59464,1,0,0:0:0:0:
180,192,59541,1,0,0:0:0:0:
180,192,59695,1,0,0:0:0:0:
468,192,59772,1,0,0:0:0:0:
252,192,59772,1,0,0:0:0:0:
252,192,59927,1,0,0:0:0:0:
324,192,60004,1,0,0:0:0:0:
468,192,60081,1,0,0:0:0:0:
324,192,60158,1,0,0:0:0:0:
396,192,60235,1,0,0:0:0:0:
324,192,60313,1,0,0:0:0:0:
468,192,60390,1,0,0:0:0:0:
252,192,60390,1,0,0:0:0:0:
180,192,60467,1,0,0:0:0:0:
108,192,60544,1,0,0:0:0:0:
180,192,60621,1,0,0:0:0:0:
468,192,60698,1,0,0:0:0:0:
180,192,60775,1,0,0:0:0:0:
180,192,60930,1,0,0:0:0:0:
468,192,61007,1,0,0:0:0:0:
252,192,61007,1,0,0:0:0:0:
252,192,61161,1,0,0:0:0:0:
324,192,61238,1,0,0:0:0:0:
468,192,61316,1,0,0:0:0:0:
396,192,61393,1,0,0:0:0:0:
252,192,61470,1,0,0:0:0:0:
324,192,61547,1,0,0:0:0:0:
468,192,61624,1,0,0:0:0:0:
252,192,61624,1,0,0:0:0:0:
180,192,61701,1,0,0:0:0:0:
108,192,61779,1,0,0:0:0:0:
180,192,61856,1,0,0:0:0:0:
468,192,61933,1,0,0:0:0:0:
180,192,62010,1,0,0:0:0:0:
180,192,62164,1,0,0:0:0:0:
468,192,62242,1,0,0:0:0:0:
252,192,62242,1,0,0:0:0:0:
252,192,62396,1,0,0:0:0:0:
324,192,62473,1,0,0:0:0:0:
468,192,62550,1,0,0:0:0:0:
324,192,62627,1,0,0:0:0:0:
396,192,62705,1,0,0:0:0:0:
324,192,62782,1,0,0:0:0:0:
468,192,62859,1,0,0:0:0:0:
252,192,62859,1,0,0:0:0:0:
180,192,62936,1,0,0:0:0:0:
108,192,63013,1,0,0:0:0:0:
180,192,63090,1,0,0:0:0:0:
468,192,63167,1,0,0:0:0:0:
180,192,63245,1,0,0:0:0:0:
180,192,63399,1,0,0:0:0:0:
468,192,63476,1,0,0:0:0:0:
252,192,63476,1,0,0:0:0:0:
252,192,63630,1,0,0:0:0:0:
324,192,63708,1,0,0:0:0:0:
468,192,63785,1,0,0:0:0:0:
252,192,63862,1,0,0:0:0:0:
180,192,63939,1,0,0:0:0:0:
108,192,64016,1,0,0:0:0:0:
468,192,64093,1,0,0:0:0:0:
180,192,64093,1,0,0:0:0:0:
252,192,64171,1,0,0:0:0:0:
324,192,64248,1,0,0:0:0:0:
324,192,64325,1,0,0:0:0:0:
468,192,64402,1,0,0:0:0:0:
108,192,64402,1,0,0:0:0:0:
180,192,64479,1,0,0:0:0:0:
180,192,64634,1,0,0:0:0:0:
468,192,64711,1,0,0:0:0:0:
252,192,64711,1,0,0:0:0:0:
252,192,64865,1,0,0:0:0:0:
324,192,64942,1,0,0:0:0:0:
468,192,65019,1,0,0:0:0:0:
324,192,65096,1,0,0:0:0:0:
396,192,65174,1,0,0:0:0:0:
324,192,65251,1,0,0:0:0:0:
468,192,65328,1,0,0:0:0:0:
252,192,65328,1,0,0:0:0:0:
180,192,65405,1,0,0:0:0:0:
108,192,65482,1,0,0:0:0:0:
180,192,65559,1,0,0:0:0:0:
468,192,65637,1,0,0:0:0:0:
180,192,65714,1,0,0:0:0:0:
180,192,65868,1,0,0:0:0:0:
468,192,65945,1,0,0:0:0:0:
252,192,65945,1,0,0:0:0:0:
252,192,66100,1,0,0:0:0:0:
324,192,66177,1,0,0:0:0:0:
468,192,66254,1,0,0:0:0:0:
396,192,66331,1,0,0:0:0:0:
252,192,66408,1,0,0:0:0:0:
324,192,66485,1,0,0:0:0:0:
468,192,66563,1,0,0:0:0:0:
252,192,66563,1,0,0:0:0:0:
180,192,66640,1,0,0:0:0:0:
108,192,66717,1,0,0:0:0:0:
180,192,66794,1,0,0:0:0:0:
468,192,66871,1,0,0:0:0:0:
180,192,66948,1,0,0:0:0:0:
180,192,67103,1,0,0:0:0:0:
468,192,67180,1,0,0:0:0:0:
252,192,67180,1,0,0:0:0:0:
252,192,67334,1,0,0:0:0:0:
324,192,67411,1,0,0:0:0:0:
468,192,67488,1,0,0:0:0:0:
324,192,67566,1,0,0:0:0:0:
396,192,67643,1,0,0:0:0:0:
324,192,67720,1,0,0:0:0:0:
468,192,67797,1,0,0:0:0:0:
252,192,67797,1,0,0:0:0:0:
180,192,67874,1,0,0:0:0:0:
108,192,67951,1,0,0:0:0:0:
180,192,68029,1,0,0:0:0:0:
468,192,68106,1,0,0:0:0:0:
180,192,68183,1,0,0:0:0:0:
180,192,68337,1,0,0:0:0:0:
468,192,68414,1,0,0:0:0:0:
252,192,68414,1,0,0:0:0:0:
252,192,68569,1,0,0:0:0:0:
324,192,68646,1,0,0:0:0:0:
468,192,68723,1,0,0:0:0:0:
252,192,68800,1,0,0:0:0:0:
396,192,68877,1,0,0:0:0:0:
180,192,68877,1,0,0:0:0:0:
324,192,68929,1,0,0:0:0:0:
108,192,68955,1,0,0:0:0:0:
396,192,68980,1,0,0:0:0:0:
324,192,69032,1,0,0:0:0:0:
180,192,69032,1,0,0:0:0:0:
396,192,69083,1,0,0:0:0:0:
252,192,69109,1,0,0:0:0:0:
324,192,69135,1,0,0:0:0:0:
468,192,69186,1,0,0:0:0:0:
36,192,69186,1,0,0:0:0:0:
36,192,69263,1,0,0:0:0:0:
468,192,69340,1,0,0:0:0:0:
108,192,69340,1,0,0:0:0:0:
252,192,69340,1,0,0:0:0:0:
180,192,69417,1,0,0:0:0:0:
324,192,69417,1,0,0:0:0:0:
180,192,69572,1,0,0:0:0:0:
324,192,69572,1,0,0:0:0:0:
396,192,69649,1,0,0:0:0:0:
252,192,69649,1,0,0:0:0:0:
468,192,69649,1,0,0:0:0:0:
396,192,69803,1,0,0:0:0:0:
252,192,69803,1,0,0:0:0:0:
324,192,69880,1,0,0:0:0:0:
180,192,69880,1,0,0:0:0:0:
468,192,69958,1,0,0:0:0:0:
324,192,70035,1,0,0:0:0:0:
180,192,70035,1,0,0:0:0:0:
396,192,70112,1,0,0:0:0:0:
252,192,70112,1,0,0:0:0:0:
180,192,70189,1,0,0:0:0:0:
324,192,70189,1,0,0:0:0:0:
468,192,70266,1,0,0:0:0:0:
252,192,70266,1,0,0:0:0:0:
108,192,70266,1,0,0:0:0:0:
180,192,70343,1,0,0:0:0:0:
36,192,70343,1,0,0:0:0:0:
108,192,70421,1,0,0:0:0:0:
252,192,70421,1,0,0:0:0:0:
180,192,70498,1,0,0:0:0:0:
324,192,70498,1,0,0:0:0:0:
468,192,70575,1,0,0:0:0:0:
180,192,70652,1,0,0:0:0:0:
324,192,70652,1,0,0:0:0:0:
180,192,70806,1,0,0:0:0:0:
324,192,70806,1,0,0:0:0:0:
468,192,70884,1,0,0:0:0:0:
252,192,70884,1,0,0:0:0:0:
396,192,70884,1,0,0:0:0:0:
252,192,71038,1,0,0:0:0:0:
396,192,71038,1,0,0:0:0:0:
324,192,71115,1,0,0:0:0:0:
180,192,71115,1,0,0:0:0:0:
468,192,71192,1,0,0:0:0:0:
180,192,71269,1,0,0:0:0:0:
324,192,71269,1,0,0:0:0:0:
108,192,71346,1,0,0:0:0:0:
252,192,71346,1,0,0:0:0:0:
324,192,71424,1,0,0:0:0:0:
180,192,71424,1,0,0:0:0:0:
468,192,71501,1,0,0:0:0:0:
252,192,71501,1,0,0:0:0:0:
108,192,71501,1,0,0:0:0:0:
180,192,71578,1,0,0:0:0:0:
36,192,71578,1,0,0:0:0:0:
108,192,71655,1,0,0:0:0:0:
252,192,71655,1,0,0:0:0:0:
180,192,71732,1,0,0:0:0:0:
324,192,71732,1,0,0:0:0:0:
468,192,71809,1,0,0:0:0:0:
180,192,71887,1,0,0:0:0:0:
324,192,71887,1,0,0:0:0:0:
180,192,72041,1,0,0:0:0:0:
324,192,72041,1,0,0:0:0:0:
468,192,72118,1,0,0:0:0:0:
252,192,72118,1,0,0:0:0:0:
396,192,72118,1,0,0:0:0:0:
396,192,72272,1,0,0:0:0:0:
252,192,72272,1,0,0:0:0:0:
324,192,72350,1,0,0:0:0:0:
180,192,72350,1,0,0:0:0:0:
468,192,72427,1,0,0:0:0:0:
324,192,72504,1,0,0:0:0:0:
180,192,72504,1,0,0:0:0:0:
396,192,72581,1,0,0:0:0:0:
252,192,72581,1,0,0:0:0:0:
180,192,72658,1,0,0:0:0:0:
324,192,72658,1,0,0:0:0:0:
468,192,72735,1,0,0:0:0:0:
252,192,72735,1,0,0:0:0:0:
108,192,72735,1,0,0:0:0:0:
180,192,72813,1,0,0:0:0:0:
36,192,72813,1,0,0:0:0:0:
108,192,72890,1,0,0:0:0:0:
252,192,72890,1,0,0:0:0:0:
180,192,72967,1,0,0:0:0:0:
324,192,72967,1,0,0:0:0:0:
468,192,73044,1,0,0:0:0:0:
180,192,73121,1,0,0:0:0:0:
324,192,73121,1,0,0:0:0:0:
180,192,73275,1,0,0:0:0:0:
324,192,73275,1,0,0:0:0:0:
396,192,73353,1,0,0:0:0:0:
252,192,73353,1,0,0:0:0:0:
468,192,73353,1,0,0:0:0:0:
252,192,73507,1,0,0:0:0:0:
396,192,73507,1,0,0:0:0:0:
324,192,73584,1,0,0:0:0:0:
180,192,73584,1,0,0:0:0:0:
468,192,73661,1,0,0:0:0:0:
252,192,73738,1,0,0:0:0:0:
396,192,73738,1,0,0:0:0:0:
180,192,73816,1,0,0:0:0:0:
324,192,73816,1,0,0:0:0:0:
108,192,73893,1,0,0:0:0:0:
252,192,73893,1,0,0:0:0:0:
468,192,73970,1,0,0:0:0:0:
180,192,73970,1,0,0:0:0:0:
324,192,73970,1,0,0:0:0:0:
252,192,74047,1,0,0:0:0:0:
396,192,74047,1,0,0:0:0:0:
324,192,74124,1,0,0:0:0:0:
180,192,74124,1,0,0:0:0:0:
180,192,74201,1,0,0:0:0:0:
324,192,74201,1,0,0:0:0:0:
252,192,74279,1,0,0:0:0:0:
108,192,74279,1,0,0:0:0:0:
468,192,74279,1,0,0:0:0:0:
324,192,74356,1,0,0:0:0:0:
180,192,74356,1,0,0:0:0:0:
180,192,74510,1,0,0:0:0:0:
324,192,74510,1,0,0:0:0:0:
468,192,74587,1,0,0:0:0:0:
252,192,74587,1,0,0:0:0:0:
396,192,74587,1,0,0:0:0:0:
396,192,74742,1,0,0:0:0:0:
252,192,74742,1,0,0:0:0:0:
324,192,74819,1,0,0:0:0:0:
180,192,74819,1,0,0:0:0:0:
468,192,74896,1,0,0:0:0:0:
324,192,74973,1,0,0:0:0:0:
180,192,74973,1,0,0:0:0:0:
396,192,75050,1,0,0:0:0:0:
252,192,75050,1,0,0:0:0:0:
180,192,75127,1,0,0:0:0:0:
324,192,75127,1,0,0:0:0:0:
468,192,75205,1,0,0:0:0:0:
252,192,75205,1,0,0:0:0:0:
108,192,75205,1,0,0:0:0:0:
180,192,75282,1,0,0:0:0:0:
36,192,75282,1,0,0:0:0:0:
108,192,75359,1,0,0:0:0:0:
252,192,75359,1,0,0:0:0:0:
180,192,75436,1,0,0:0:0:0:
324,192,75436,1,0,0:0:0:0:
468,192,75513,1,0,0:0:0:0:
180,192,75590,1,0,0:0:0:0:
324,192,75590,1,0,0:0:0:0:
180,192,75745,1,0,0:0:0:0:
324,192,75745,1,0,0:0:0:0:
396,192,75822,1,0,0:0:0:0:
252,192,75822,1,0,0:0:0:0:
468,192,75822,1,0,0:0:0:0:
252,192,75976,1,0,0:0:0:0:
396,192,75976,1,0,0:0:0:0:
324,192,76053,1,0,0:0:0:0:
180,192,76053,1,0,0:0:0:0:
468,192,76130,1,0,0:0:0:0:
396,192,76208,1,0,0:0:0:0:
180,192,76208,1,0,0:0:0:0:
108,192,76285,1,0,0:0:0:0:
252,192,76285,1,0,0:0:0:0:
324,192,76362,1,0,0:0:0:0:
180,192,76362,1,0,0:0:0:0:
108,192,76439,1,0,0:0:0:0:
468,192,76439,1,0,0:0:0:0:
252,192,76439,1,0,0:0:0:0:
180,192,76516,1,0,0:0:0:0:
36,192,76516,1,0,0:0:0:0:
108,192,76593,1,0,0:0:0:0:
252,192,76593,1,0,0:0:0:0:
180,192,76671,1,0,0:0:0:0:
324,192,76671,1,0,0:0:0:0:
468,192,76748,1,0,0:0:0:0:
324,192,76825,1,0,0:0:0:0:
180,192,76825,1,0,0:0:0:0:
180,192,76979,1,0,0:0:0:0:
324,192,76979,1,0,0:0:0:0:
396,192,77056,1,0,0:0:0:0:
252,192,77056,1,0,0:0:0:0:
468,192,77056,1,0,0:0:0:0:
396,192,77211,1,0,0:0:0:0:
252,192,77211,1,0,0:0:0:0:
324,192,77288,1,0,0:0:0:0:
180,192,77288,1,0,0:0:0:0:
468,192,77365,1,0,0:0:0:0:
324,192,77442,1,0,0:0:0:0:
180,192,77442,1,0,0:0:0:0:
396,192,77519,1,0,0:0:0:0:
252,192,77519,1,0,0:0:0:0:
180,192,77596,1,0,0:0:0:0:
324,192,77596,1,0,0:0:0:0:
468,192,77674,1,0,0:0:0:0:
252,192,77674,1,0,0:0:0:0:
108,192,77674,1,0,0:0:0:0:
180,192,77751,1,0,0:0:0:0:
36,192,77751,1,0,0:0:0:0:
108,192,77828,1,0,0:0:0:0:
252,192,77828,1,0,0:0:0:0:
180,192,77905,1,0,0:0:0:0:
324,192,77905,1,0,0:0:0:0:
468,192,77982,1,0,0:0:0:0:
180,192,78059,1,0,0:0:0:0:
324,192,78059,1,0,0:0:0:0:
180,192,78214,1,0,0:0:0:0:
324,192,78214,1,0,0:0:0:0:
468,192,78291,1,0,0:0:0:0:
252,192,78291,1,0,0:0:0:0:
396,192,78291,1,0,0:0:0:0:
252,192,78445,1,0,0:0:0:0:
396,192,78445,1,0,0:0:0:0:
180,192,78522,1,0,0:0:0:0:
324,192,78522,1,0,0:0:0:0:
468,192,78600,1,0,0:0:0:0:
108,192,78677,1,0,0:0:0:0:
252,192,78677,1,0,0:0:0:0:
36,192,78754,1,0,0:0:0:0:
180,192,78754,1,0,0:0:0:0:
108,192,78831,1,0,0:0:0:0:
252,192,78831,1,0,0:0:0:0:
180,192,78908,1,0,0:0:0:0:
324,192,78908,1,0,0:0:0:0:
252,192,78985,1,0,0:0:0:0:
396,192,78985,1,0,0:0:0:0:
468,192,79063,1,0,0:0:0:0:
324,192,79063,1,0,0:0:0:0:
468,192,79140,1,0,0:0:0:0:
324,192,79140,1,0,0:0:0:0:
36,192,79217,1,0,0:0:0:0:
396,192,79217,1,0,0:0:0:0:
108,192,79217,1,0,0:0:0:0:
180,192,79217,1,0,0:0:0:0:
324,192,79680,1,0,0:0:0:0:
252,192,80143,1,0,0:0:0:0:
396,192,80606,1,0,0:0:0:0:
108,192,81069,1,0,0:0:0:0:
252,192,81377,1,0,0:0:0:0:
180,192,81686,1,0,0:0:0:0:
252,192,82149,1,0,0:0:0:0:
324,192,82612,1,0,0:0:0:0:
252,192,83075,1,0,0:0:0:0:
108,192,83538,1,0,0:0:0:0:
396,192,83846,1,0,0:0:0:0:
252,192,84155,1,0,0:0:0:0:
468,192,84618,1,0,0:0:0:0:
396,192,85081,1,0,0:0:0:0:
324,192,85544,1,0,0:0:0:0:
108,192,86007,1,0,0:0:0:0:
180,192,86316,1,0,0:0:0:0:
324,192,86624,1,0,0:0:0:0:
252,192,87087,1,0,0:0:0:0:
468,192,87550,1,0,0:0:0:0:
324,192,88013,1,0,0:0:0:0:
396,192,88476,1,0,0:0:0:0:
252,192,88785,1,0,0:0:0:0:
396,192,89093,1,0,0:0:0:0:
252,192,89093,1,0,0:0:0:0:
36,192,89093,1,0,0:0:0:0:
108,192,89093,1,0,0:0:0:0:
324,192,89171,1,0,0:0:0:0:
180,192,89248,1,0,0:0:0:0:
396,192,89325,1,0,0:0:0:0:
324,192,89402,1,0,0:0:0:0:
180,192,89479,1,0,0:0:0:0:
396,192,89556,1,0,0:0:0:0:
324,192,89634,1,0,0:0:0:0:
180,192,89711,1,0,0:0:0:0:
396,192,89788,1,0,0:0:0:0:
324,192,89865,1,0,0:0:0:0:
180,192,89942,1,0,0:0:0:0:
396,192,90019,1,0,0:0:0:0:
252,192,90096,1,0,0:0:0:0:
396,192,90174,1,0,0:0:0:0:
36,192,90174,1,0,0:0:0:0:
252,192,90251,1,0,0:0:0:0:
468,192,90328,1,0,0:0:0:0:
36,192,90328,1,0,0:0:0:0:
324,192,90405,1,0,0:0:0:0:
180,192,90482,1,0,0:0:0:0:
468,192,90559,1,0,0:0:0:0:
324,192,90637,1,0,0:0:0:0:
180,192,90714,1,0,0:0:0:0:
468,192,90791,1,0,0:0:0:0:
324,192,90868,1,0,0:0:0:0:
180,192,90945,1,0,0:0:0:0:
468,192,91022,1,0,0:0:0:0:
324,192,91100,1,0,0:0:0:0:
252,192,91177,1,0,0:0:0:0:
324,192,91254,1,0,0:0:0:0:
396,192,91331,1,0,0:0:0:0:
324,192,91408,1,0,0:0:0:0:
36,192,91408,1,0,0:0:0:0:
180,192,91485,1,0,0:0:0:0:
252,192,91563,1,0,0:0:0:0:
36,192,91563,1,0,0:0:0:0:
108,192,91640,1,0,0:0:0:0:
468,192,91717,1,0,0:0:0:0:
252,192,91794,1,0,0:0:0:0:
108,192,91871,1,0,0:0:0:0:
468,192,91948,1,0,0:0:0:0:
252,192,92025,1,0,0:0:0:0:
108,192,92103,1,0,0:0:0:0:
468,192,92180,1,0,0:0:0:0:
252,192,92257,1,0,0:0:0:0:
108,192,92334,1,0,0:0:0:0:
468,192,92411,1,0,0:0:0:0:
252,192,92488,1,0,0:0:0:0:
324,192,92566,1,0,0:0:0:0:
252,192,92643,1,0,0:0:0:0:
36,192,92643,1,0,0:0:0:0:
324,192,92720,1,0,0:0:0:0:
468,192,92797,1,0,0:0:0:0:
36,192,92797,1,0,0:0:0:0:
252,192,92874,1,0,0:0:0:0:
108,192,92951,1,0,0:0:0:0:
468,192,93029,1,0,0:0:0:0:
36,192,93106,1,0,0:0:0:0:
252,192,93106,1,0,0:0:0:0:
108,192,93183,1,0,0:0:0:0:
468,192,93260,1,0,0:0:0:0:
252,192,93337,1,0,0:0:0:0:
108,192,93414,1,0,0:0:0:0:
36,192,93414,1,0,0:0:0:0:
468,192,93492,1,0,0:0:0:0:
252,192,93569,1,0,0:0:0:0:
36,192,93569,1,0,0:0:0:0:
396,192,93646,1,0,0:0:0:0:
252,192,93723,1,0,0:0:0:0:
108,192,93800,1,0,0:0:0:0:
252,192,93877,1,0,0:0:0:0:
36,192,93877,1,0,0:0:0:0:
324,192,93955,1,0,0:0:0:0:
180,192,93955,1,0,0:0:0:0:
468,192,94032,1,0,0:0:0:0:
36,192,94032,1,0,0:0:0:0:
396,192,94109,1,0,0:0:0:0:
108,192,94186,1,0,0:0:0:0:
468,192,94263,1,0,0:0:0:0:
396,192,94340,1,0,0:0:0:0:
108,192,94417,1,0,0:0:0:0:
468,192,94495,1,0,0:0:0:0:
396,192,94572,1,0,0:0:0:0:
108,192,94649,1,0,0:0:0:0:
468,192,94726,1,0,0:0:0:0:
396,192,94803,1,0,0:0:0:0:
108,192,94880,1,0,0:0:0:0:
468,192,94958,1,0,0:0:0:0:
180,192,95035,1,0,0:0:0:0:
468,192,95112,1,0,0:0:0:0:
36,192,95112,1,0,0:0:0:0:
180,192,95189,1,0,0:0:0:0:
396,192,95266,1,0,0:0:0:0:
36,192,95266,1,0,0:0:0:0:
108,192,95343,1,0,0:0:0:0:
36,192,95421,1,0,0:0:0:0:
396,192,95498,1,0,0:0:0:0:
108,192,95575,1,0,0:0:0:0:
36,192,95652,1,0,0:0:0:0:
396,192,95729,1,0,0:0:0:0:
108,192,95806,1,0,0:0:0:0:
36,192,95884,1,0,0:0:0:0:
396,192,95961,1,0,0:0:0:0:
108,192,96038,1,0,0:0:0:0:
36,192,96115,1,0,0:0:0:0:
396,192,96192,1,0,0:0:0:0:
180,192,96269,1,0,0:0:0:0:
396,192,96346,1,0,0:0:0:0:
468,192,96346,1,0,0:0:0:0:
180,192,96424,1,0,0:0:0:0:
252,192,96501,1,0,0:0:0:0:
468,192,96501,1,0,0:0:0:0:
324,192,96578,1,0,0:0:0:0:
36,192,96655,1,0,0:0:0:0:
252,192,96732,1,0,0:0:0:0:
324,192,96809,1,0,0:0:0:0:
36,192,96887,1,0,0:0:0:0:
252,192,96964,1,0,0:0:0:0:
324,192,97041,1,0,0:0:0:0:
36,192,97118,1,0,0:0:0:0:
252,192,97195,1,0,0:0:0:0:
324,192,97272,1,0,0:0:0:0:
180,192,97350,1,0,0:0:0:0:
324,192,97427,1,0,0:0:0:0:
108,192,97504,1,0,0:0:0:0:
324,192,97581,1,0,0:0:0:0:
36,192,97581,1,0,0:0:0:0:
252,192,97658,1,0,0:0:0:0:
324,192,97735,1,0,0:0:0:0:
36,192,97735,1,0,0:0:0:0:
108,192,97813,1,0,0:0:0:0:
396,192,97890,1,0,0:0:0:0:
324,192,97967,1,0,0:0:0:0:
108,192,98044,1,0,0:0:0:0:
36,192,98044,1,0,0:0:0:0:
396,192,98121,1,0,0:0:0:0:
324,192,98198,1,0,0:0:0:0:
108,192,98275,1,0,0:0:0:0:
396,192,98353,1,0,0:0:0:0:
36,192,98353,1,0,0:0:0:0:
324,192,98430,1,0,0:0:0:0:
108,192,98507,1,0,0:0:0:0:
36,192,98507,1,0,0:0:0:0:
252,192,98584,1,0,0:0:0:0:
108,192,98661,1,0,0:0:0:0:
36,192,98661,1,0,0:0:0:0:
396,192,98738,1,0,0:0:0:0:
108,192,98816,1,0,0:0:0:0:
36,192,98816,1,0,0:0:0:0:
324,192,98893,1,0,0:0:0:0:
180,192,98893,1,0,0:0:0:0:
468,192,98970,1,0,0:0:0:0:
36,192,98970,1,0,0:0:0:0:
324,192,99047,1,0,0:0:0:0:
252,192,99124,1,0,0:0:0:0:
108,192,99124,1,0,0:0:0:0:
468,192,99201,1,0,0:0:0:0:
180,192,99201,1,0,0:0:0:0:
324,192,99279,1,0,0:0:0:0:
36,192,99279,1,0,0:0:0:0:
252,192,99356,1,0,0:0:0:0:
468,192,99433,1,0,0:0:0:0:
108,192,99433,1,0,0:0:0:0:
324,192,99510,1,0,0:0:0:0:
180,192,99510,1,0,0:0:0:0:
252,192,99587,1,0,0:0:0:0:
36,192,99587,1,0,0:0:0:0:
468,192,99664,1,0,0:0:0:0:
324,192,99742,1,0,0:0:0:0:
180,192,99742,1,0,0:0:0:0:
252,192,99819,1,0,0:0:0:0:
108,192,99819,1,0,0:0:0:0:
396,192,99896,1,0,0:0:0:0:
36,192,99896,1,0,0:0:0:0:
324,192,99973,1,0,0:0:0:0:
396,192,100050,1,0,0:0:0:0:
180,192,100050,1,0,0:0:0:0:
324,192,100127,1,0,0:0:0:0:
108,192,100127,1,0,0:0:0:0:
468,192,100205,1,0,0:0:0:0:
36,192,100205,1,0,0:0:0:0:
396,192,100282,1,0,0:0:0:0:
252,192,100359,1,0,0:0:0:0:
180,192,100359,1,0,0:0:0:0:
468,192,100436,1,0,0:0:0:0:
36,192,100436,1,0,0:0:0:0:
396,192,100513,1,0,0:0:0:0:
108,192,100513,1,0,0:0:0:0:
252,192,100590,1,0,0:0:0:0:
468,192,100667,1,0,0:0:0:0:
180,192,100667,1,0,0:0:0:0:
396,192,100745,1,0,0:0:0:0:
36,192,100745,1,0,0:0:0:0:
252,192,100822,1,0,0:0:0:0:
108,192,100822,1,0,0:0:0:0:
468,192,100899,1,0,0:0:0:0:
396,192,100976,1,0,0:0:0:0:
36,192,100976,1,0,0:0:0:0:
252,192,101053,1,0,0:0:0:0:
108,192,101053,1,0,0:0:0:0:
396,192,101130,1,0,0:0:0:0:
180,192,101130,1,0,0:0:0:0:
324,192,101208,1,0,0:0:0:0:
396,192,101285,1,0,0:0:0:0:
36,192,101285,1,0,0:0:0:0:
468,192,101362,1,0,0:0:0:0:
108,192,101362,1,0,0:0:0:0:
252,192,101439,1,0,0:0:0:0:
180,192,101439,1,0,0:0:0:0:
468,192,101516,1,0,0:0:0:0:
396,192,101593,1,0,0:0:0:0:
108,192,101593,1,0,0:0:0:0:
252,192,101671,1,0,0:0:0:0:
180,192,101671,1,0,0:0:0:0:
468,192,101748,1,0,0:0:0:0:
36,192,101748,1,0,0:0:0:0:
396,192,101825,1,0,0:0:0:0:
252,192,101902,1,0,0:0:0:0:
108,192,101902,1,0,0:0:0:0:
468,192,101979,1,0,0:0:0:0:
180,192,101979,1,0,0:0:0:0:
396,192,102056,1,0,0:0:0:0:
36,192,102056,1,0,0:0:0:0:
252,192,102134,1,0,0:0:0:0:
468,192,102211,1,0,0:0:0:0:
180,192,102211,1,0,0:0:0:0:
396,192,102288,1,0,0:0:0:0:
108,192,102288,1,0,0:0:0:0:
252,192,102365,1,0,0:0:0:0:
36,192,102365,1,0,0:0:0:0:
468,192,102442,1,0,0:0:0:0:
252,192,102519,1,0,0:0:0:0:
180,192,102519,1,0,0:0:0:0:
468,192,102596,1,0,0:0:0:0:
108,192,102596,1,0,0:0:0:0:
396,192,102674,1,0,0:0:0:0:
36,192,102674,1,0,0:0:0:0:
324,192,102751,1,0,0:0:0:0:
252,192,102828,1,0,0:0:0:0:
108,192,102828,1,0,0:0:0:0:
396,192,102905,1,0,0:0:0:0:
36,192,102905,1,0,0:0:0:0:
324,192,102982,1,0,0:0:0:0:
180,192,102982,1,0,0:0:0:0:
252,192,103059,1,0,0:0:0:0:
396,192,103137,1,0,0:0:0:0:
108,192,103137,1,0,0:0:0:0:
324,192,103214,1,0,0:0:0:0:
36,192,103214,1,0,0:0:0:0:
252,192,103291,1,0,0:0:0:0:
180,192,103291,1,0,0:0:0:0:
396,192,103368,1,0,0:0:0:0:
324,192,103445,1,0,0:0:0:0:
36,192,103445,1,0,0:0:0:0:
180,192,103522,1,0,0:0:0:0:
396,192,103522,1,0,0:0:0:0:
108,192,103600,1,0,0:0:0:0:
252,192,103600,1,0,0:0:0:0:
396,192,103677,1,0,0:0:0:0:
180,192,103754,1,0,0:0:0:0:
468,192,103754,1,0,0:0:0:0:
324,192,103831,1,0,0:0:0:0:
108,192,103831,1,0,0:0:0:0:
396,192,103908,1,0,0:0:0:0:
36,192,103908,1,0,0:0:0:0:
252,192,103985,1,0,0:0:0:0:
468,192,104063,1,0,0:0:0:0:
108,192,104063,1,0,0:0:0:0:
180,192,104140,1,0,0:0:0:0:
396,192,104140,1,0,0:0:0:0:
252,192,104217,1,0,0:0:0:0:
36,192,104217,1,0,0:0:0:0:
468,192,104294,1,0,0:0:0:0:
396,192,104371,1,0,0:0:0:0:
108,192,104371,1,0,0:0:0:0:
252,192,104448,1,0,0:0:0:0:
180,192,104448,1,0,0:0:0:0:
36,192,104525,1,0,0:0:0:0:
468,192,104525,1,0,0:0:0:0:
396,192,104603,1,0,0:0:0:0:
180,192,104680,1,0,0:0:0:0:
252,192,104680,1,0,0:0:0:0:
468,192,104757,1,0,0:0:0:0:
108,192,104757,1,0,0:0:0:0:
396,192,104834,1,0,0:0:0:0:
36,192,104834,1,0,0:0:0:0:
324,192,104911,1,0,0:0:0:0:
396,192,104988,1,0,0:0:0:0:
180,192,104988,1,0,0:0:0:0:
108,192,105066,1,0,0:0:0:0:
324,192,105066,1,0,0:0:0:0:
468,192,105143,1,0,0:0:0:0:
36,192,105143,1,0,0:0:0:0:
252,192,105220,1,0,0:0:0:0:
180,192,105297,1,0,0:0:0:0:
396,192,105297,1,0,0:0:0:0:
468,192,105374,1,0,0:0:0:0:
36,192,105374,1,0,0:0:0:0:
108,192,105451,1,0,0:0:0:0:
252,192,105451,1,0,0:0:0:0:
396,192,105529,1,0,0:0:0:0:
468,192,105606,1,0,0:0:0:0:
180,192,105606,1,0,0:0:0:0:
36,192,105683,1,0,0:0:0:0:
252,192,105683,1,0,0:0:0:0:
396,192,105760,1,0,0:0:0:0:
108,192,105760,1,0,0:0:0:0:
468,192,105837,1,0,0:0:0:0:
252,192,105914,1,0,0:0:0:0:
36,192,105914,1,0,0:0:0:0:
108,192,105992,1,0,0:0:0:0:
396,192,105992,1,0,0:0:0:0:
180,192,106069,1,0,0:0:0:0:
468,192,106069,1,0,0:0:0:0:
324,192,106146,1,0,0:0:0:0:
36,192,106223,1,0,0:0:0:0:
468,192,106223,1,0,0:0:0:0:
324,192,106300,1,0,0:0:0:0:
108,192,106300,1,0,0:0:0:0:
180,192,106377,1,0,0:0:0:0:
396,192,106377,1,0,0:0:0:0:
252,192,106455,1,0,0:0:0:0:
468,192,106532,1,0,0:0:0:0:
108,192,106532,1,0,0:0:0:0:
180,192,106609,1,0,0:0:0:0:
324,192,106609,1,0,0:0:0:0:
252,192,106686,1,0,0:0:0:0:
36,192,106686,1,0,0:0:0:0:
468,192,106763,1,0,0:0:0:0:
396,192,106840,1,0,0:0:0:0:
108,192,106840,1,0,0:0:0:0:
252,192,106917,1,0,0:0:0:0:
180,192,106917,1,0,0:0:0:0:
36,192,106995,1,0,0:0:0:0:
468,192,106995,1,0,0:0:0:0:
324,192,107072,1,0,0:0:0:0:
180,192,107149,1,0,0:0:0:0:
396,192,107149,1,0,0:0:0:0:
324,192,107226,1,0,0:0:0:0:
108,192,107226,1,0,0:0:0:0:
252,192,107303,1,0,0:0:0:0:
36,192,107303,1,0,0:0:0:0:
324,192,107380,1,0,0:0:0:0:
396,192,107458,1,0,0:0:0:0:
180,192,107458,1,0,0:0:0:0:
108,192,107535,1,0,0:0:0:0:
324,192,107535,1,0,0:0:0:0:
468,192,107612,1,0,0:0:0:0:
36,192,107612,1,0,0:0:0:0:
396,192,107689,1,0,0:0:0:0:
108,192,107766,1,0,0:0:0:0:
324,192,107766,1,0,0:0:0:0:
468,192,107843,1,0,0:0:0:0:
36,192,107843,1,0,0:0:0:0:
180,192,107921,1,0,0:0:0:0:
396,192,107921,1,0,0:0:0:0:
324,192,107998,1,0,0:0:0:0:
108,192,108075,1,0,0:0:0:0:
468,192,108075,1,0,0:0:0:0:
36,192,108152,1,0,0:0:0:0:
396,192,108152,1,0,0:0:0:0:
324,192,108229,1,0,0:0:0:0:
180,192,108229,1,0,0:0:0:0:
468,192,108306,1,0,0:0:0:0:
252,192,108384,1,0,0:0:0:0:
36,192,108384,1,0,0:0:0:0:
180,192,108435,1,0,0:0:0:0:
468,192,108461,1,0,0:0:0:0:
36,192,108486,1,0,0:0:0:0:
324,192,108538,1,0,0:0:0:0:
180,192,108538,1,0,0:0:0:0:
36,192,108589,1,0,0:0:0:0:
468,192,108615,1,0,0:0:0:0:
180,192,108641,1,0,0:0:0:0:
36,192,108692,1,0,0:0:0:0:
396,192,108692,1,0,0:0:0:0:
180,192,108744,1,0,0:0:0:0:
252,192,108769,1,0,0:0:0:0:
36,192,108795,1,0,0:0:0:0:
109,192,108846,1,0,0:0:0:0:
402,192,108846,1,0,0:0:0:0:
329,192,108846,1,0,0:0:0:0:
402,192,108924,1,0,0:0:0:0:
182,192,108924,1,0,0:0:0:0:
256,192,109001,1,0,0:0:0:0:
475,192,109001,1,0,0:0:0:0:
36,192,109078,1,0,0:0:0:0:
182,192,109155,1,0,0:0:0:0:
402,192,109155,1,0,0:0:0:0:
402,192,109232,1,0,0:0:0:0:
256,192,109232,1,0,0:0:0:0:
475,192,109309,1,0,0:0:0:0:
36,192,109309,1,0,0:0:0:0:
182,192,109387,1,0,0:0:0:0:
402,192,109464,1,0,0:0:0:0:
256,192,109464,1,0,0:0:0:0:
36,192,109541,1,0,0:0:0:0:
402,192,109541,1,0,0:0:0:0:
475,192,109618,1,0,0:0:0:0:
182,192,109618,1,0,0:0:0:0:
256,192,109695,1,0,0:0:0:0:
109,192,109772,1,0,0:0:0:0:
402,192,109772,1,0,0:0:0:0:
402,192,109850,1,0,0:0:0:0:
182,192,109850,1,0,0:0:0:0:
109,192,109927,1,0,0:0:0:0:
475,192,109927,1,0,0:0:0:0:
475,192,110004,1,0,0:0:0:0:
182,192,110004,1,0,0:0:0:0:
36,192,110081,1,0,0:0:0:0:
329,192,110081,1,0,0:0:0:0:
329,192,110158,1,0,0:0:0:0:
109,192,110158,1,0,0:0:0:0:
475,192,110235,1,0,0:0:0:0:
256,192,110235,1,0,0:0:0:0:
36,192,110313,1,0,0:0:0:0:
329,192,110390,1,0,0:0:0:0:
109,192,110390,1,0,0:0:0:0:
256,192,110467,1,0,0:0:0:0:
329,192,110467,1,0,0:0:0:0:
475,192,110544,1,0,0:0:0:0:
36,192,110544,1,0,0:0:0:0:
109,192,110621,1,0,0:0:0:0:
256,192,110698,1,0,0:0:0:0:
329,192,110698,1,0,0:0:0:0:
329,192,110775,1,0,0:0:0:0:
36,192,110775,1,0,0:0:0:0:
109,192,110853,1,0,0:0:0:0:
475,192,110853,1,0,0:0:0:0:
256,192,110930,1,0,0:0:0:0:
329,192,111007,1,0,0:0:0:0:
109,192,111007,1,0,0:0:0:0:
182,192,111084,1,0,0:0:0:0:
329,192,111084,1,0,0:0:0:0:
475,192,111161,1,0,0:0:0:0:
109,192,111161,1,0,0:0:0:0:
36,192,111238,1,0,0:0:0:0:
475,192,111238,1,0,0:0:0:0:
402,192,111316,1,0,0:0:0:0:
256,192,111316,1,0,0:0:0:0:
402,192,111393,1,0,0:0:0:0:
36,192,111393,1,0,0:0:0:0:
109,192,111470,1,0,0:0:0:0:
329,192,111470,1,0,0:0:0:0:
256,192,111547,1,0,0:0:0:0:
36,192,111624,1,0,0:0:0:0:
402,192,111624,1,0,0:0:0:0:
402,192,111701,1,0,0:0:0:0:
109,192,111701,1,0,0:0:0:0:
329,192,111779,1,0,0:0:0:0:
256,192,111779,1,0,0:0:0:0:
36,192,111856,1,0,0:0:0:0:
402,192,111933,1,0,0:0:0:0:
109,192,111933,1,0,0:0:0:0:
256,192,112010,1,0,0:0:0:0:
402,192,112010,1,0,0:0:0:0:
329,192,112087,1,0,0:0:0:0:
36,192,112087,1,0,0:0:0:0:
109,192,112164,1,0,0:0:0:0:
402,192,112242,1,0,0:0:0:0:
256,192,112242,1,0,0:0:0:0:
402,192,112319,1,0,0:0:0:0:
36,192,112319,1,0,0:0:0:0:
256,192,112396,1,0,0:0:0:0:
329,192,112396,1,0,0:0:0:0:
329,192,112473,1,0,0:0:0:0:
36,192,112473,1,0,0:0:0:0:
109,192,112550,1,0,0:0:0:0:
475,192,112550,1,0,0:0:0:0:
475,192,112627,1,0,0:0:0:0:
182,192,112627,1,0,0:0:0:0:
402,192,112705,1,0,0:0:0:0:
256,192,112705,1,0,0:0:0:0:
109,192,112782,1,0,0:0:0:0:
475,192,112859,1,0,0:0:0:0:
182,192,112859,1,0,0:0:0:0:
256,192,112936,1,0,0:0:0:0:
475,192,112936,1,0,0:0:0:0:
402,192,113013,1,0,0:0:0:0:
109,192,113013,1,0,0:0:0:0:
182,192,113090,1,0,0:0:0:0:
256,192,113167,1,0,0:0:0:0:
475,192,113167,1,0,0:0:0:0:
475,192,113245,1,0,0:0:0:0:
109,192,113245,1,0,0:0:0:0:
182,192,113322,1,0,0:0:0:0:
402,192,113322,1,0,0:0:0:0:
109,192,113399,1,0,0:0:0:0:
475,192,113476,1,0,0:0:0:0:
256,192,113476,1,0,0:0:0:0:
109,192,113553,1,0,0:0:0:0:
475,192,113553,1,0,0:0:0:0:
402,192,113630,1,0,0:0:0:0:
36,192,113630,1,0,0:0:0:0:
182,192,113708,1,0,0:0:0:0:
402,192,113708,1,0,0:0:0:0:
36,192,113785,1,0,0:0:0:0:
109,192,113785,1,0,0:0:0:0:
329,192,113785,1,0,0:0:0:0:
36,192,113862,1,0,0:0:0:0:
252,192,113862,1,0,0:0:0:0:
468,192,113939,1,0,0:0:0:0:
180,192,113939,1,0,0:0:0:0:
396,192,114016,1,0,0:0:0:0:
252,192,114093,1,0,0:0:0:0:
36,192,114093,1,0,0:0:0:0:
36,192,114171,1,0,0:0:0:0:
468,192,114171,1,0,0:0:0:0:
396,192,114248,1,0,0:0:0:0:
180,192,114248,1,0,0:0:0:0:
252,192,114325,1,0,0:0:0:0:
36,192,114402,1,0,0:0:0:0:
468,192,114402,1,0,0:0:0:0:
396,192,114479,1,0,0:0:0:0:
36,192,114479,1,0,0:0:0:0:
180,192,114556,1,0,0:0:0:0:
252,192,114556,1,0,0:0:0:0:
468,192,114634,1,0,0:0:0:0:
36,192,114711,1,0,0:0:0:0:
396,192,114711,1,0,0:0:0:0:
36,192,114788,1,0,0:0:0:0:
324,192,114788,1,0,0:0:0:0:
396,192,114865,1,0,0:0:0:0:
180,192,114865,1,0,0:0:0:0:
180,192,114942,1,0,0:0:0:0:
324,192,114942,1,0,0:0:0:0:
468,192,115019,1,0,0:0:0:0:
108,192,115019,1,0,0:0:0:0:
396,192,115019,1,0,0:0:0:0:
108,192,115096,1,0,0:0:0:0:
252,192,115096,1,0,0:0:0:0:
36,192,115174,1,0,0:0:0:0:
396,192,115174,1,0,0:0:0:0:
468,192,115251,1,0,0:0:0:0:
108,192,115328,1,0,0:0:0:0:
252,192,115328,1,0,0:0:0:0:
396,192,115405,1,0,0:0:0:0:
108,192,115405,1,0,0:0:0:0:
36,192,115482,1,0,0:0:0:0:
468,192,115482,1,0,0:0:0:0:
252,192,115559,1,0,0:0:0:0:
396,192,115637,1,0,0:0:0:0:
108,192,115637,1,0,0:0:0:0:
108,192,115714,1,0,0:0:0:0:
468,192,115714,1,0,0:0:0:0:
252,192,115791,1,0,0:0:0:0:
36,192,115791,1,0,0:0:0:0:
396,192,115868,1,0,0:0:0:0:
108,192,115945,1,0,0:0:0:0:
468,192,115945,1,0,0:0:0:0:
324,192,116022,1,0,0:0:0:0:
108,192,116022,1,0,0:0:0:0:
36,192,116100,1,0,0:0:0:0:
468,192,116100,1,0,0:0:0:0:
324,192,116177,1,0,0:0:0:0:
36,192,116177,1,0,0:0:0:0:
180,192,116254,1,0,0:0:0:0:
108,192,116254,1,0,0:0:0:0:
396,192,116254,1,0,0:0:0:0:
252,192,116331,1,0,0:0:0:0:
180,192,116331,1,0,0:0:0:0:
108,192,116408,1,0,0:0:0:0:
468,192,116408,1,0,0:0:0:0:
324,192,116485,1,0,0:0:0:0:
252,192,116563,1,0,0:0:0:0:
180,192,116563,1,0,0:0:0:0:
180,192,116640,1,0,0:0:0:0:
468,192,116640,1,0,0:0:0:0:
396,192,116717,1,0,0:0:0:0:
108,192,116717,1,0,0:0:0:0:
252,192,116794,1,0,0:0:0:0:
180,192,116871,1,0,0:0:0:0:
36,192,116871,1,0,0:0:0:0:
468,192,116871,1,0,0:0:0:0:
324,192,116948,1,0,0:0:0:0:
180,192,116948,1,0,0:0:0:0:
108,192,117025,1,0,0:0:0:0:
396,192,117025,1,0,0:0:0:0:
324,192,117103,1,0,0:0:0:0:
180,192,117180,1,0,0:0:0:0:
252,192,117180,1,0,0:0:0:0:
180,192,117257,1,0,0:0:0:0:
324,192,117257,1,0,0:0:0:0:
396,192,117334,1,0,0:0:0:0:
108,192,117334,1,0,0:0:0:0:
108,192,117411,1,0,0:0:0:0:
324,192,117411,1,0,0:0:0:0:
468,192,117488,1,0,0:0:0:0:
180,192,117488,1,0,0:0:0:0:
252,192,117488,1,0,0:0:0:0:
180,192,117566,1,0,0:0:0:0:
396,192,117566,1,0,0:0:0:0:
36,192,117643,1,0,0:0:0:0:
324,192,117643,1,0,0:0:0:0:
468,192,117720,1,0,0:0:0:0:
180,192,117797,1,0,0:0:0:0:
396,192,117797,1,0,0:0:0:0:
324,192,117874,1,0,0:0:0:0:
180,192,117874,1,0,0:0:0:0:
36,192,117951,1,0,0:0:0:0:
468,192,117951,1,0,0:0:0:0:
396,192,118029,1,0,0:0:0:0:
108,192,118106,1,0,0:0:0:0:
324,192,118106,1,0,0:0:0:0:
180,192,118106,1,0,0:0:0:0:
180,192,118183,1,0,0:0:0:0:
468,192,118183,1,0,0:0:0:0:
252,192,118260,1,0,0:0:0:0:
36,192,118260,1,0,0:0:0:0:
468,192,118337,1,0,0:0:0:0:
324,192,118414,1,0,0:0:0:0:
180,192,118414,1,0,0:0:0:0:
108,192,118414,1,0,0:0:0:0:
180,192,118492,1,0,0:0:0:0:
468,192,118492,1,0,0:0:0:0:
36,192,118569,1,0,0:0:0:0:
396,192,118569,1,0,0:0:0:0:
468,192,118646,1,0,0:0:0:0:
36,192,118646,1,0,0:0:0:0:
252,192,118723,128,0,121192:0:0:0:0:
