osu file format v14

[General]
AudioFilename: audio.mp3
AudioLeadIn: 0
PreviewTime: 13657
Countdown: 0
SampleSet: Soft
StackLeniency: 0.7
Mode: 3
LetterboxInBreaks: 0
SpecialStyle: 0
WidescreenStoryboard: 0

[Editor]
DistanceSpacing: 1.4
BeatDivisor: 4
GridSize: 16
TimelineZoom: 1

[Metadata]
Title:44river (cut)
TitleUnicode:44river (cut)
Artist:-45
ArtistUnicode:-45
Creator:Jinjin
Version:Delayanother
Source:BMS
Tags:
BeatmapID:1675866
BeatmapSetID:798021

[Difficulty]
HPDrainRate:8
CircleSize:7
OverallDifficulty:8
ApproachRate:5
SliderMultiplier:1.4
SliderTickRate:1

[Events]
//Background and Video events
0,0,"Planet-explosion-galaxy_1280x800.jpg",0,0
//Break Periods
//Storyboard Layer 0 (Background)
//Storyboard Layer 1 (Fail)
//Storyboard Layer 2 (Pass)
//Storyboard Layer 3 (Foreground)
//Storyboard Sound Samples

[TimingPoints]
136,422.535211267606,4,2,0,0,1,0

[HitObjects]
182,192,13657,5,0,0:0:0:1:
475,192,13657,1,0,0:0:0:1:
329,192,13657,1,0,0:0:0:1:
36,192,13657,1,0,0:0:0:1:
256,192,13762,1,0,0:0:0:1:
182,192,13868,1,0,0:0:0:1:
402,192,13868,1,0,0:0:0:1:
329,192,13974,1,0,0:0:0:1:
256,192,14079,1,0,0:0:0:1:
475,192,14079,1,0,0:0:0:1:
109,192,14150,1,0,0:0:0:1:
182,192,14220,1,0,0:0:0:1:
402,192,14290,1,0,0:0:0:1:
36,192,14290,1,0,0:0:0:1:
329,192,14361,1,0,0:0:0:1:
256,192,14431,1,0,0:0:0:1:
182,192,14502,1,0,0:0:0:1:
402,192,14502,1,0,0:0:0:1:
475,192,14502,1,0,0:0:0:1:
109,192,14607,1,0,0:0:0:1:
182,192,14713,1,0,0:0:0:1:
402,192,14713,1,0,0:0:0:1:
329,192,14819,1,0,0:0:0:1:
256,192,14924,1,0,0:0:0:1:
475,192,14924,1,0,0:0:0:1:
109,192,14995,1,0,0:0:0:1:
182,192,15065,1,0,0:0:0:1:
402,192,15136,1,0,0:0:0:1:
36,192,15136,1,0,0:0:0:1:
329,192,15206,1,0,0:0:0:1:
256,192,15276,1,0,0:0:0:1:
182,192,15347,1,0,0:0:0:1:
36,192,15347,1,0,0:0:0:1:
475,192,15347,1,0,0:0:0:1:
329,192,15452,1,0,0:0:0:1:
109,192,15558,1,0,0:0:0:1:
402,192,15558,1,0,0:0:0:1:
329,192,15664,1,0,0:0:0:1:
182,192,15769,1,0,0:0:0:1:
36,192,15769,1,0,0:0:0:1:
475,192,15769,1,0,0:0:0:1:
402,192,15840,1,0,0:0:0:1:
329,192,15910,1,0,0:0:0:1:
256,192,15981,1,0,0:0:0:1:
36,192,15981,1,0,0:0:0:1:
109,192,16051,1,0,0:0:0:1:
402,192,16121,1,0,0:0:0:1:
182,192,16192,1,0,0:0:0:1:
36,192,16192,1,0,0:0:0:1:
475,192,16192,1,0,0:0:0:1:
329,192,16297,1,0,0:0:0:1:
109,192,16403,1,0,0:0:0:1:
402,192,16403,1,0,0:0:0:1:
329,192,16509,1,0,0:0:0:1:
182,192,16614,1,0,0:0:0:1:
36,192,16614,1,0,0:0:0:1:
475,192,16614,1,0,0:0:0:1:
402,192,16685,1,0,0:0:0:1:
329,192,16755,1,0,0:0:0:1:
182,192,16826,1,0,0:0:0:1:
109,192,16826,1,0,0:0:0:1:
256,192,16896,1,0,0:0:0:1:
329,192,16966,1,0,0:0:0:1:
402,192,17037,1,0,0:0:0:1:
182,192,17037,1,0,0:0:0:1:
256,192,17143,1,0,0:0:0:1:
109,192,17248,1,0,0:0:0:1:
329,192,17248,1,0,0:0:0:1:
182,192,17354,1,0,0:0:0:1:
256,192,17459,1,0,0:0:0:1:
36,192,17459,1,0,0:0:0:1:
402,192,17530,1,0,0:0:0:1:
329,192,17600,1,0,0:0:0:1:
109,192,17671,1,0,0:0:0:1:
475,192,17671,1,0,0:0:0:1:
182,192,17741,1,0,0:0:0:1:
329,192,17812,1,0,0:0:0:1:
36,192,17882,1,0,0:0:0:1:
256,192,17882,1,0,0:0:0:1:
402,192,17988,1,0,0:0:0:1:
109,192,18093,1,0,0:0:0:1:
329,192,18093,1,0,0:0:0:1:
182,192,18199,1,0,0:0:0:1:
256,192,18305,1,0,0:0:0:1:
36,192,18305,1,0,0:0:0:1:
329,192,18375,1,0,0:0:0:1:
402,192,18445,1,0,0:0:0:1:
182,192,18516,1,0,0:0:0:1:
475,192,18516,1,0,0:0:0:1:
256,192,18586,1,0,0:0:0:1:
109,192,18657,1,0,0:0:0:1:
329,192,18727,1,0,0:0:0:1:
36,192,18727,1,0,0:0:0:1:
475,192,18727,1,0,0:0:0:1:
182,192,18833,1,0,0:0:0:1:
109,192,18938,1,0,0:0:0:1:
402,192,18938,1,0,0:0:0:1:
182,192,19044,1,0,0:0:0:1:
256,192,19150,1,0,0:0:0:1:
329,192,19150,1,0,0:0:0:1:
36,192,19150,1,0,0:0:0:1:
402,192,19220,1,0,0:0:0:1:
109,192,19290,1,0,0:0:0:0:
182,192,19361,1,0,0:0:0:1:
256,192,19361,1,0,0:0:0:1:
475,192,19361,1,0,0:0:0:1:
329,192,19431,1,0,0:0:0:0:
109,192,19502,1,0,0:0:0:0:
36,192,19572,1,0,0:0:0:1:
475,192,19572,1,0,0:0:0:1:
402,192,19572,1,0,0:0:0:0:
182,192,19678,1,0,0:0:0:1:
109,192,19783,1,0,0:0:0:1:
402,192,19783,1,0,0:0:0:1:
182,192,19889,1,0,0:0:0:1:
256,192,19995,1,0,0:0:0:1:
36,192,19995,1,0,0:0:0:1:
329,192,20065,1,0,0:0:0:0:
109,192,20136,1,0,0:0:0:0:
182,192,20206,1,0,0:0:0:1:
402,192,20206,1,0,0:0:0:1:
475,192,20206,1,0,0:0:0:1:
256,192,20276,1,0,0:0:0:0:
36,192,20312,1,0,0:0:0:1:
329,192,20347,1,0,0:0:0:0:
182,192,20417,1,0,0:0:0:1:
475,192,20417,1,0,0:0:0:1:
256,192,20523,1,0,0:0:0:1:
109,192,20628,1,0,0:0:0:1:
329,192,20628,1,0,0:0:0:1:
182,192,20734,1,0,0:0:0:1:
256,192,20840,1,0,0:0:0:1:
36,192,20840,1,0,0:0:0:1:
475,192,20840,1,0,0:0:0:0:
329,192,20910,1,0,0:0:0:0:
182,192,20981,1,0,0:0:0:0:
109,192,21051,1,0,0:0:0:1:
402,192,21051,1,0,0:0:0:1:
475,192,21051,1,0,0:0:0:1:
256,192,21121,1,0,0:0:0:0:
329,192,21192,1,0,0:0:0:0:
182,192,21262,1,0,0:0:0:1:
36,192,21262,1,0,0:0:0:1:
475,192,21262,1,0,0:0:0:0:
402,192,21368,1,0,0:0:0:1:
109,192,21474,1,0,0:0:0:1:
329,192,21474,1,0,0:0:0:1:
182,192,21579,1,0,0:0:0:1:
256,192,21685,1,0,0:0:0:1:
36,192,21685,1,0,0:0:0:1:
475,192,21685,1,0,0:0:0:0:
329,192,21755,1,0,0:0:0:0:
182,192,21826,1,0,0:0:0:0:
109,192,21896,1,0,0:0:0:1:
402,192,21896,1,0,0:0:0:1:
475,192,21896,1,0,0:0:0:1:
256,192,21966,1,0,0:0:0:0:
182,192,22037,1,0,0:0:0:0:
329,192,22107,1,0,0:0:0:1:
36,192,22107,1,0,0:0:0:1:
475,192,22107,1,0,0:0:0:1:
182,192,22213,1,0,0:0:0:1:
109,192,22319,1,0,0:0:0:1:
402,192,22319,1,0,0:0:0:1:
182,192,22424,1,0,0:0:0:1:
256,192,22530,1,0,0:0:0:1:
36,192,22530,1,0,0:0:0:1:
329,192,22600,1,0,0:0:0:0:
109,192,22671,1,0,0:0:0:0:
402,192,22741,1,0,0:0:0:1:
475,192,22741,1,0,0:0:0:1:
182,192,22741,1,0,0:0:0:0:
256,192,22812,1,0,0:0:0:0:
109,192,22882,1,0,0:0:0:0:
329,192,22952,1,0,0:0:0:1:
36,192,22952,1,0,0:0:0:1:
475,192,22952,1,0,0:0:0:1:
182,192,23058,1,0,0:0:0:1:
109,192,23164,1,0,0:0:0:1:
402,192,23164,1,0,0:0:0:1:
182,192,23269,1,0,0:0:0:1:
256,192,23375,1,0,0:0:0:1:
36,192,23375,1,0,0:0:0:1:
329,192,23445,1,0,0:0:0:0:
109,192,23516,1,0,0:0:0:0:
256,192,23586,1,0,0:0:0:1:
475,192,23586,1,0,0:0:0:1:
402,192,23657,1,0,0:0:0:0:
182,192,23727,1,0,0:0:0:0:
329,192,23797,1,0,0:0:0:1:
36,192,23797,1,0,0:0:0:1:
475,192,23797,1,0,0:0:0:1:
256,192,23903,1,0,0:0:0:1:
182,192,24009,1,0,0:0:0:1:
402,192,24009,1,0,0:0:0:1:
329,192,24114,1,0,0:0:0:1:
109,192,24220,1,0,0:0:0:1:
256,192,24220,1,0,0:0:0:1:
475,192,24220,1,0,0:0:0:1:
329,192,24290,1,0,0:0:0:0:
182,192,24361,1,0,0:0:0:0:
109,192,24431,1,0,0:0:0:1:
402,192,24431,1,0,0:0:0:1:
36,192,24431,1,0,0:0:0:1:
329,192,24502,1,0,0:0:0:0:
182,192,24572,1,0,0:0:0:0:
475,192,24643,1,0,0:0:0:1:
256,192,24643,1,0,0:0:0:0:
402,192,24643,1,0,0:0:0:0:
109,192,24748,1,0,0:0:0:1:
182,192,24854,1,0,0:0:0:1:
402,192,24854,1,0,0:0:0:1:
329,192,24959,1,0,0:0:0:1:
256,192,25065,1,0,0:0:0:1:
475,192,25065,1,0,0:0:0:1:
109,192,25136,1,0,0:0:0:0:
182,192,25206,1,0,0:0:0:0:
402,192,25276,1,0,0:0:0:1:
36,192,25276,1,0,0:0:0:1:
329,192,25347,1,0,0:0:0:0:
256,192,25417,1,0,0:0:0:0:
182,192,25488,1,0,0:0:0:1:
36,192,25488,1,0,0:0:0:1:
475,192,25488,1,0,0:0:0:1:
329,192,25593,1,0,0:0:0:1:
109,192,25699,1,0,0:0:0:1:
402,192,25699,1,0,0:0:0:1:
329,192,25805,1,0,0:0:0:1:
182,192,25910,1,0,0:0:0:1:
475,192,25910,1,0,0:0:0:1:
36,192,25910,1,0,0:0:0:0:
402,192,25981,1,0,0:0:0:0:
329,192,26051,1,0,0:0:0:0:
109,192,26121,1,0,0:0:0:1:
256,192,26121,1,0,0:0:0:1:
36,192,26121,1,0,0:0:0:1:
475,192,26192,1,0,0:0:0:0:
402,192,26262,1,0,0:0:0:0:
182,192,26333,1,0,0:0:0:1:
36,192,26333,1,0,0:0:0:1:
256,192,26333,1,0,0:0:0:0:
329,192,26438,1,0,0:0:0:1:
109,192,26544,1,0,0:0:0:1:
402,192,26544,1,0,0:0:0:1:
329,192,26650,1,0,0:0:0:1:
182,192,26755,1,0,0:0:0:1:
256,192,26755,1,0,0:0:0:1:
475,192,26755,1,0,0:0:0:1:
402,192,26861,1,0,0:0:0:1:
109,192,26966,1,0,0:0:0:1:
256,192,26966,1,0,0:0:0:1:
329,192,26966,1,0,0:0:0:1:
36,192,26966,1,0,0:0:0:1:
475,192,27072,1,0,0:0:0:1:
109,192,27178,1,0,0:0:0:1:
256,192,27178,1,0,0:0:0:1:
329,192,27178,1,0,0:0:0:1:
402,192,27178,1,0,0:0:0:1:
36,192,27178,1,0,0:0:0:1:
182,192,27231,1,0,0:0:0:1:
475,192,27283,1,0,0:0:0:1:
256,192,27336,1,0,0:0:0:1:
329,192,27389,1,0,0:0:0:1:
109,192,27442,1,0,0:0:0:1:
402,192,27495,1,0,0:0:0:1:
182,192,27600,1,0,0:0:0:1:
329,192,27653,1,0,0:0:0:1:
475,192,27706,1,0,0:0:0:1:
109,192,27759,1,0,0:0:0:1:
402,192,27812,1,0,0:0:0:1:
256,192,27864,1,0,0:0:0:1:
36,192,27917,1,0,0:0:0:1:
329,192,27970,1,0,0:0:0:1:
475,192,28023,1,0,0:0:0:1:
182,192,28076,1,0,0:0:0:1:
256,192,28128,1,0,0:0:0:1:
402,192,28181,1,0,0:0:0:1:
109,192,28234,1,0,0:0:0:1:
329,192,28287,1,0,0:0:0:1:
182,192,28340,1,0,0:0:0:1:
475,192,28393,1,0,0:0:0:1:
256,192,28445,1,0,0:0:0:1:
36,192,28498,1,0,0:0:0:1:
182,192,28551,1,0,0:0:0:1:
402,192,28604,1,0,0:0:0:1:
109,192,28657,1,0,0:0:0:1:
329,192,28709,1,0,0:0:0:1:
256,192,28762,1,0,0:0:0:1:
475,192,28815,1,0,0:0:0:1:
182,192,28868,1,0,0:0:0:1:
36,192,28921,1,0,0:0:0:1:
329,192,28974,1,0,0:0:0:1:
402,192,29026,1,0,0:0:0:1:
109,192,29079,1,0,0:0:0:1:
256,192,29132,1,0,0:0:0:1:
475,192,29185,1,0,0:0:0:1:
182,192,29238,1,0,0:0:0:1:
36,192,29290,1,0,0:0:0:1:
329,192,29343,1,0,0:0:0:1:
109,192,29396,1,0,0:0:0:1:
256,192,29449,1,0,0:0:0:1:
402,192,29502,1,0,0:0:0:1:
36,192,29555,1,0,0:0:0:1:
329,192,29607,1,0,0:0:0:1:
182,192,29660,1,0,0:0:0:1:
475,192,29713,1,0,0:0:0:1:
402,192,29766,1,0,0:0:0:1:
256,192,29819,1,0,0:0:0:1:
109,192,29871,1,0,0:0:0:1:
329,192,29924,1,0,0:0:0:1:
36,192,29977,1,0,0:0:0:1:
182,192,30030,1,0,0:0:0:1:
475,192,30083,1,0,0:0:0:1:
256,192,30136,1,0,0:0:0:1:
402,192,30188,1,0,0:0:0:1:
109,192,30241,1,0,0:0:0:1:
182,192,30294,1,0,0:0:0:1:
475,192,30347,1,0,0:0:0:1:
36,192,30400,1,0,0:0:0:1:
329,192,30452,1,0,0:0:0:1:
256,192,30505,1,0,0:0:0:1:
109,192,30558,1,0,0:0:0:1:
402,192,30558,1,0,0:0:0:1:
182,192,30611,1,0,0:0:0:1:
475,192,30664,1,0,0:0:0:1:
256,192,30716,1,0,0:0:0:1:
329,192,30769,1,0,0:0:0:1:
109,192,30822,1,0,0:0:0:1:
402,192,30875,1,0,0:0:0:1:
182,192,30981,1,0,0:0:0:1:
329,192,31033,1,0,0:0:0:1:
475,192,31086,1,0,0:0:0:1:
109,192,31139,1,0,0:0:0:1:
402,192,31192,1,0,0:0:0:1:
256,192,31245,1,0,0:0:0:1:
36,192,31297,1,0,0:0:0:1:
329,192,31350,1,0,0:0:0:1:
475,192,31403,1,0,0:0:0:1:
182,192,31456,1,0,0:0:0:1:
256,192,31509,1,0,0:0:0:1:
402,192,31562,1,0,0:0:0:1:
109,192,31614,1,0,0:0:0:1:
329,192,31667,1,0,0:0:0:1:
182,192,31720,1,0,0:0:0:1:
475,192,31773,1,0,0:0:0:1:
256,192,31826,1,0,0:0:0:1:
36,192,31878,1,0,0:0:0:1:
182,192,31931,1,0,0:0:0:1:
402,192,31984,1,0,0:0:0:1:
109,192,32037,1,0,0:0:0:1:
329,192,32090,1,0,0:0:0:1:
256,192,32143,1,0,0:0:0:1:
475,192,32195,1,0,0:0:0:1:
182,192,32248,1,0,0:0:0:1:
36,192,32301,1,0,0:0:0:1:
329,192,32354,1,0,0:0:0:1:
402,192,32407,1,0,0:0:0:1:
109,192,32459,1,0,0:0:0:1:
256,192,32512,1,0,0:0:0:1:
475,192,32565,1,0,0:0:0:1:
182,192,32618,1,0,0:0:0:1:
36,192,32671,1,0,0:0:0:1:
329,192,32724,1,0,0:0:0:1:
109,192,32776,1,0,0:0:0:1:
256,192,32829,1,0,0:0:0:1:
402,192,32882,1,0,0:0:0:1:
36,192,32935,1,0,0:0:0:1:
329,192,32988,1,0,0:0:0:1:
182,192,33040,1,0,0:0:0:1:
475,192,33093,1,0,0:0:0:1:
402,192,33146,1,0,0:0:0:1:
256,192,33199,1,0,0:0:0:1:
109,192,33252,1,0,0:0:0:1:
329,192,33305,1,0,0:0:0:1:
36,192,33357,1,0,0:0:0:1:
182,192,33410,1,0,0:0:0:1:
475,192,33463,1,0,0:0:0:1:
256,192,33516,1,0,0:0:0:1:
402,192,33569,1,0,0:0:0:1:
109,192,33621,1,0,0:0:0:1:
182,192,33674,1,0,0:0:0:1:
475,192,33727,1,0,0:0:0:1:
36,192,33780,1,0,0:0:0:1:
329,192,33833,1,0,0:0:0:1:
256,192,33886,1,0,0:0:0:1:
109,192,33938,1,0,0:0:0:1:
402,192,33938,1,0,0:0:0:1:
182,192,33991,1,0,0:0:0:1:
475,192,34044,1,0,0:0:0:1:
256,192,34097,1,0,0:0:0:1:
329,192,34150,1,0,0:0:0:1:
109,192,34202,1,0,0:0:0:1:
402,192,34255,1,0,0:0:0:1:
182,192,34361,1,0,0:0:0:1:
329,192,34414,1,0,0:0:0:1:
475,192,34466,1,0,0:0:0:1:
109,192,34519,1,0,0:0:0:1:
402,192,34572,1,0,0:0:0:1:
256,192,34625,1,0,0:0:0:1:
36,192,34678,1,0,0:0:0:1:
329,192,34731,1,0,0:0:0:1:
475,192,34783,1,0,0:0:0:1:
182,192,34836,1,0,0:0:0:1:
256,192,34889,1,0,0:0:0:1:
402,192,34942,1,0,0:0:0:1:
109,192,34995,1,0,0:0:0:1:
329,192,35047,1,0,0:0:0:1:
182,192,35100,1,0,0:0:0:1:
475,192,35153,1,0,0:0:0:1:
256,192,35206,1,0,0:0:0:1:
36,192,35259,1,0,0:0:0:1:
182,192,35312,1,0,0:0:0:1:
402,192,35364,1,0,0:0:0:1:
109,192,35417,1,0,0:0:0:1:
329,192,35470,1,0,0:0:0:1:
256,192,35523,1,0,0:0:0:1:
475,192,35576,1,0,0:0:0:1:
182,192,35628,1,0,0:0:0:1:
36,192,35681,1,0,0:0:0:1:
329,192,35734,1,0,0:0:0:1:
402,192,35787,1,0,0:0:0:1:
109,192,35840,1,0,0:0:0:1:
256,192,35893,1,0,0:0:0:1:
475,192,35945,1,0,0:0:0:1:
182,192,35998,1,0,0:0:0:1:
36,192,36051,1,0,0:0:0:1:
329,192,36104,1,0,0:0:0:1:
109,192,36157,1,0,0:0:0:1:
256,192,36209,1,0,0:0:0:1:
402,192,36262,1,0,0:0:0:1:
36,192,36315,1,0,0:0:0:1:
329,192,36368,1,0,0:0:0:1:
182,192,36421,1,0,0:0:0:1:
475,192,36474,1,0,0:0:0:1:
402,192,36526,1,0,0:0:0:1:
256,192,36579,1,0,0:0:0:1:
109,192,36632,1,0,0:0:0:1:
329,192,36685,1,0,0:0:0:1:
36,192,36738,1,0,0:0:0:1:
182,192,36790,1,0,0:0:0:1:
475,192,36843,1,0,0:0:0:1:
256,192,36896,1,0,0:0:0:1:
402,192,36949,1,0,0:0:0:1:
109,192,37002,1,0,0:0:0:1:
182,192,37055,1,0,0:0:0:1:
475,192,37107,1,0,0:0:0:1:
36,192,37160,1,0,0:0:0:1:
329,192,37213,1,0,0:0:0:1:
256,192,37266,1,0,0:0:0:1:
109,192,37319,1,0,0:0:0:1:
402,192,37319,1,0,0:0:0:1:
182,192,37371,1,0,0:0:0:1:
475,192,37424,1,0,0:0:0:1:
256,192,37477,1,0,0:0:0:1:
329,192,37530,1,0,0:0:0:1:
109,192,37583,1,0,0:0:0:1:
402,192,37636,1,0,0:0:0:1:
182,192,37741,1,0,0:0:0:1:
329,192,37794,1,0,0:0:0:1:
475,192,37847,1,0,0:0:0:1:
109,192,37900,1,0,0:0:0:1:
402,192,37952,1,0,0:0:0:1:
256,192,38005,1,0,0:0:0:1:
36,192,38058,1,0,0:0:0:1:
329,192,38111,1,0,0:0:0:1:
475,192,38164,1,0,0:0:0:1:
182,192,38216,1,0,0:0:0:1:
256,192,38269,1,0,0:0:0:1:
402,192,38322,1,0,0:0:0:1:
109,192,38375,1,0,0:0:0:1:
329,192,38428,1,0,0:0:0:1:
182,192,38481,1,0,0:0:0:1:
475,192,38533,1,0,0:0:0:1:
256,192,38586,1,0,0:0:0:1:
36,192,38639,1,0,0:0:0:1:
182,192,38692,1,0,0:0:0:1:
402,192,38745,1,0,0:0:0:1:
109,192,38797,1,0,0:0:0:1:
329,192,38850,1,0,0:0:0:1:
256,192,38903,1,0,0:0:0:1:
475,192,38956,1,0,0:0:0:1:
182,192,39009,1,0,0:0:0:1:
36,192,39062,1,0,0:0:0:1:
329,192,39114,1,0,0:0:0:1:
402,192,39167,1,0,0:0:0:1:
109,192,39220,1,0,0:0:0:1:
256,192,39273,1,0,0:0:0:1:
475,192,39326,1,0,0:0:0:1:
182,192,39378,1,0,0:0:0:1:
36,192,39431,1,0,0:0:0:1:
329,192,39484,1,0,0:0:0:1:
109,192,39537,1,0,0:0:0:1:
256,192,39590,1,0,0:0:0:1:
402,192,39643,1,0,0:0:0:1:
36,192,39695,1,0,0:0:0:1:
329,192,39748,1,0,0:0:0:1:
182,192,39801,1,0,0:0:0:1:
475,192,39854,1,0,0:0:0:1:
402,192,39907,1,0,0:0:0:1:
256,192,39959,1,0,0:0:0:1:
109,192,40012,1,0,0:0:0:1:
329,192,40065,1,0,0:0:0:1:
36,192,40118,1,0,0:0:0:1:
182,192,40171,1,0,0:0:0:1:
475,192,40224,1,0,0:0:0:1:
256,192,40276,1,0,0:0:0:1:
402,192,40329,1,0,0:0:0:1:
109,192,40382,1,0,0:0:0:1:
182,192,40435,1,0,0:0:0:1:
329,192,40488,1,0,0:0:0:1:
36,192,40540,1,0,0:0:0:1:
256,192,40593,1,0,0:0:0:1:
329,192,40646,1,0,0:0:0:1:
182,192,40699,1,0,0:0:0:1:
402,192,40699,1,0,0:0:0:1:
475,192,40699,1,0,0:0:0:1:
109,192,40752,1,0,0:0:0:1:
256,192,40805,1,0,0:0:0:1:
329,192,40857,1,0,0:0:0:1:
36,192,40910,1,0,0:0:0:1:
182,192,40963,1,0,0:0:0:1:
402,192,41016,1,0,0:0:0:1:
256,192,41069,1,0,0:0:0:1:
109,192,41121,1,0,0:0:0:1:
329,192,41174,1,0,0:0:0:1:
182,192,41227,1,0,0:0:0:1:
475,192,41227,1,0,0:0:0:1:
402,192,41280,1,0,0:0:0:1:
256,192,41333,1,0,0:0:0:1:
36,192,41386,1,0,0:0:0:1:
109,192,41438,1,0,0:0:0:1:
182,192,41491,1,0,0:0:0:1:
256,192,41544,1,0,0:0:0:1:
329,192,41597,1,0,0:0:0:1:
109,192,41650,1,0,0:0:0:1:
402,192,41702,1,0,0:0:0:1:
256,192,41755,1,0,0:0:0:1:
36,192,41808,1,0,0:0:0:1:
182,192,41861,1,0,0:0:0:1:
475,192,41861,1,0,0:0:0:1:
329,192,41914,1,0,0:0:0:1:
256,192,41966,1,0,0:0:0:1:
109,192,42019,1,0,0:0:0:1:
402,192,42072,1,0,0:0:0:1:
182,192,42125,1,0,0:0:0:1:
36,192,42178,1,0,0:0:0:1:
329,192,42231,1,0,0:0:0:1:
256,192,42283,1,0,0:0:0:1:
109,192,42336,1,0,0:0:0:1:
182,192,42389,1,0,0:0:0:1:
329,192,42442,1,0,0:0:0:1:
36,192,42495,1,0,0:0:0:1:
475,192,42495,1,0,0:0:0:1:
109,192,42547,1,0,0:0:0:1:
182,192,42600,1,0,0:0:0:1:
402,192,42653,1,0,0:0:0:1:
256,192,42706,1,0,0:0:0:1:
36,192,42759,1,0,0:0:0:1:
329,192,42812,1,0,0:0:0:1:
182,192,42864,1,0,0:0:0:1:
109,192,42917,1,0,0:0:0:1:
402,192,42970,1,0,0:0:0:1:
329,192,43023,1,0,0:0:0:1:
256,192,43076,1,0,0:0:0:1:
182,192,43128,1,0,0:0:0:1:
475,192,43128,1,0,0:0:0:1:
402,192,43181,1,0,0:0:0:1:
36,192,43234,1,0,0:0:0:1:
329,192,43287,1,0,0:0:0:1:
109,192,43340,1,0,0:0:0:1:
256,192,43393,1,0,0:0:0:1:
475,192,43445,1,0,0:0:0:1:
402,192,43498,1,0,0:0:0:1:
36,192,43551,1,0,0:0:0:1:
256,192,43604,1,0,0:0:0:1:
329,192,43657,1,0,0:0:0:1:
109,192,43709,1,0,0:0:0:1:
402,192,43762,1,0,0:0:0:1:
182,192,43815,1,0,0:0:0:1:
329,192,43868,1,0,0:0:0:1:
256,192,43921,1,0,0:0:0:1:
475,192,43974,1,0,0:0:0:1:
402,192,44026,1,0,0:0:0:1:
109,192,44079,1,0,0:0:0:1:
36,192,44079,1,0,0:0:0:0:
329,192,44132,1,0,0:0:0:1:
256,192,44185,1,0,0:0:0:1:
182,192,44238,1,0,0:0:0:1:
475,192,44290,1,0,0:0:0:1:
329,192,44343,1,0,0:0:0:1:
109,192,44396,1,0,0:0:0:1:
256,192,44449,1,0,0:0:0:1:
402,192,44502,1,0,0:0:0:1:
182,192,44555,1,0,0:0:0:1:
329,192,44607,1,0,0:0:0:1:
36,192,44607,1,0,0:0:0:1:
109,192,44660,1,0,0:0:0:1:
256,192,44713,1,0,0:0:0:1:
475,192,44766,1,0,0:0:0:1:
402,192,44819,1,0,0:0:0:1:
329,192,44871,1,0,0:0:0:1:
36,192,44924,1,0,0:0:0:1:
182,192,44977,1,0,0:0:0:1:
402,192,45030,1,0,0:0:0:1:
109,192,45083,1,0,0:0:0:1:
256,192,45136,1,0,0:0:0:1:
475,192,45188,1,0,0:0:0:1:
329,192,45241,1,0,0:0:0:1:
36,192,45241,1,0,0:0:0:1:
182,192,45294,1,0,0:0:0:1:
256,192,45347,1,0,0:0:0:1:
402,192,45400,1,0,0:0:0:1:
109,192,45452,1,0,0:0:0:1:
329,192,45505,1,0,0:0:0:1:
475,192,45558,1,0,0:0:0:1:
182,192,45611,1,0,0:0:0:1:
256,192,45664,1,0,0:0:0:1:
402,192,45716,1,0,0:0:0:1:
329,192,45769,1,0,0:0:0:1:
182,192,45822,1,0,0:0:0:1:
36,192,45875,1,0,0:0:0:1:
475,192,45875,1,0,0:0:0:1:
402,192,45928,1,0,0:0:0:1:
329,192,45981,1,0,0:0:0:1:
109,192,46033,1,0,0:0:0:1:
256,192,46086,1,0,0:0:0:1:
475,192,46139,1,0,0:0:0:1:
182,192,46192,1,0,0:0:0:1:
329,192,46245,1,0,0:0:0:1:
402,192,46297,1,0,0:0:0:1:
109,192,46350,1,0,0:0:0:1:
182,192,46403,1,0,0:0:0:1:
256,192,46456,1,0,0:0:0:1:
329,192,46509,1,0,0:0:0:1:
36,192,46509,1,0,0:0:0:1:
109,192,46562,1,0,0:0:0:1:
475,192,46614,1,0,0:0:0:1:
182,192,46667,1,0,0:0:0:1:
402,192,46720,1,0,0:0:0:1:
256,192,46773,1,0,0:0:0:1:
329,192,46826,1,0,0:0:0:1:
36,192,46826,1,0,0:0:0:1:
109,192,46878,1,0,0:0:0:1:
475,192,46931,1,0,0:0:0:1:
256,192,46984,1,0,0:0:0:1:
182,192,47037,1,0,0:0:0:1:
402,192,47090,1,0,0:0:0:1:
109,192,47143,1,0,0:0:0:1:
329,192,47195,1,0,0:0:0:1:
182,192,47248,1,0,0:0:0:1:
256,192,47301,1,0,0:0:0:1:
36,192,47354,1,0,0:0:0:1:
109,192,47407,1,0,0:0:0:1:
402,192,47459,1,0,0:0:0:1:
475,192,47459,1,0,0:0:0:1:
182,192,47512,1,0,0:0:0:0:
256,192,47565,1,0,0:0:0:1:
329,192,47618,1,0,0:0:0:1:
36,192,47671,1,0,0:0:0:1:
182,192,47724,1,0,0:0:0:1:
402,192,47776,1,0,0:0:0:1:
256,192,47829,1,0,0:0:0:1:
109,192,47882,1,0,0:0:0:1:
329,192,47935,1,0,0:0:0:1:
182,192,47988,1,0,0:0:0:1:
475,192,47988,1,0,0:0:0:1:
402,192,48040,1,0,0:0:0:1:
256,192,48093,1,0,0:0:0:1:
36,192,48146,1,0,0:0:0:1:
109,192,48199,1,0,0:0:0:1:
182,192,48252,1,0,0:0:0:1:
475,192,48305,1,0,0:0:0:1:
329,192,48357,1,0,0:0:0:1:
109,192,48410,1,0,0:0:0:1:
402,192,48463,1,0,0:0:0:1:
256,192,48516,1,0,0:0:0:1:
36,192,48569,1,0,0:0:0:1:
182,192,48621,1,0,0:0:0:1:
475,192,48621,1,0,0:0:0:1:
329,192,48674,1,0,0:0:0:1:
256,192,48727,1,0,0:0:0:1:
109,192,48780,1,0,0:0:0:1:
402,192,48833,1,0,0:0:0:1:
182,192,48886,1,0,0:0:0:1:
36,192,48938,1,0,0:0:0:1:
475,192,48938,1,0,0:0:0:1:
329,192,48991,1,0,0:0:0:1:
256,192,49044,1,0,0:0:0:1:
109,192,49097,1,0,0:0:0:1:
182,192,49150,1,0,0:0:0:1:
329,192,49202,1,0,0:0:0:1:
36,192,49255,1,0,0:0:0:1:
475,192,49255,1,0,0:0:0:1:
109,192,49308,1,0,0:0:0:1:
182,192,49361,1,0,0:0:0:1:
402,192,49414,1,0,0:0:0:1:
256,192,49466,1,0,0:0:0:1:
36,192,49519,1,0,0:0:0:1:
329,192,49572,1,0,0:0:0:1:
182,192,49625,1,0,0:0:0:1:
109,192,49678,1,0,0:0:0:1:
402,192,49731,1,0,0:0:0:1:
329,192,49783,1,0,0:0:0:1:
256,192,49836,1,0,0:0:0:1:
182,192,49889,1,0,0:0:0:1:
475,192,49889,1,0,0:0:0:1:
402,192,49942,1,0,0:0:0:1:
36,192,49995,1,0,0:0:0:1:
329,192,50047,1,0,0:0:0:1:
109,192,50100,1,0,0:0:0:1:
256,192,50153,1,0,0:0:0:1:
475,192,50206,1,0,0:0:0:1:
402,192,50259,1,0,0:0:0:1:
36,192,50312,1,0,0:0:0:1:
256,192,50364,1,0,0:0:0:1:
329,192,50417,1,0,0:0:0:1:
109,192,50470,1,0,0:0:0:1:
402,192,50523,1,0,0:0:0:1:
182,192,50576,1,0,0:0:0:1:
329,192,50628,1,0,0:0:0:1:
256,192,50681,1,0,0:0:0:1:
475,192,50734,1,0,0:0:0:1:
402,192,50787,1,0,0:0:0:1:
109,192,50840,1,0,0:0:0:1:
36,192,50840,1,0,0:0:0:1:
329,192,50893,1,0,0:0:0:1:
256,192,50945,1,0,0:0:0:1:
182,192,50998,1,0,0:0:0:1:
475,192,51051,1,0,0:0:0:1:
329,192,51104,1,0,0:0:0:1:
109,192,51157,1,0,0:0:0:1:
256,192,51209,1,0,0:0:0:1:
402,192,51262,1,0,0:0:0:1:
182,192,51315,1,0,0:0:0:1:
329,192,51368,1,0,0:0:0:1:
36,192,51368,1,0,0:0:0:1:
109,192,51421,1,0,0:0:0:1:
256,192,51474,1,0,0:0:0:1:
475,192,51526,1,0,0:0:0:1:
402,192,51579,1,0,0:0:0:1:
329,192,51632,1,0,0:0:0:1:
36,192,51685,1,0,0:0:0:1:
182,192,51738,1,0,0:0:0:1:
402,192,51790,1,0,0:0:0:1:
109,192,51843,1,0,0:0:0:1:
256,192,51896,1,0,0:0:0:1:
475,192,51949,1,0,0:0:0:1:
329,192,52002,1,0,0:0:0:1:
36,192,52002,1,0,0:0:0:1:
182,192,52055,1,0,0:0:0:1:
256,192,52107,1,0,0:0:0:1:
402,192,52160,1,0,0:0:0:1:
109,192,52213,1,0,0:0:0:1:
329,192,52266,1,0,0:0:0:1:
475,192,52319,1,0,0:0:0:1:
182,192,52371,1,0,0:0:0:1:
256,192,52424,1,0,0:0:0:1:
402,192,52477,1,0,0:0:0:1:
329,192,52530,1,0,0:0:0:1:
182,192,52583,1,0,0:0:0:1:
36,192,52636,1,0,0:0:0:1:
475,192,52636,1,0,0:0:0:1:
402,192,52688,1,0,0:0:0:1:
329,192,52741,1,0,0:0:0:1:
109,192,52794,1,0,0:0:0:1:
256,192,52847,1,0,0:0:0:1:
475,192,52900,1,0,0:0:0:1:
182,192,52952,1,0,0:0:0:1:
329,192,53005,1,0,0:0:0:1:
402,192,53058,1,0,0:0:0:1:
109,192,53111,1,0,0:0:0:1:
182,192,53164,1,0,0:0:0:1:
256,192,53216,1,0,0:0:0:1:
36,192,53269,1,0,0:0:0:1:
109,192,53322,1,0,0:0:0:1:
475,192,53375,1,0,0:0:0:1:
182,192,53428,1,0,0:0:0:1:
402,192,53481,1,0,0:0:0:1:
256,192,53533,1,0,0:0:0:1:
329,192,53586,1,0,0:0:0:1:
109,192,53639,1,0,0:0:0:1:
475,192,53692,1,0,0:0:0:1:
256,192,53745,1,0,0:0:0:1:
182,192,53797,1,0,0:0:0:1:
402,192,53850,1,0,0:0:0:1:
109,192,53903,1,0,0:0:0:1:
329,192,53956,1,0,0:0:0:1:
182,192,54009,1,0,0:0:0:1:
256,192,54062,1,0,0:0:0:1:
36,192,54114,1,0,0:0:0:1:
109,192,54167,1,0,0:0:0:1:
182,192,54220,1,0,0:0:0:1:
475,192,54220,1,0,0:0:0:1:
329,192,54220,1,0,0:0:0:1:
402,192,54273,1,0,0:0:0:1:
256,192,54326,1,0,0:0:0:1:
182,192,54378,1,0,0:0:0:1:
475,192,54431,1,0,0:0:0:1:
329,192,54484,1,0,0:0:0:1:
109,192,54537,1,0,0:0:0:1:
256,192,54590,1,0,0:0:0:1:
402,192,54643,1,0,0:0:0:1:
182,192,54695,1,0,0:0:0:1:
329,192,54748,1,0,0:0:0:1:
36,192,54748,1,0,0:0:0:1:
109,192,54801,1,0,0:0:0:1:
256,192,54854,1,0,0:0:0:1:
475,192,54907,1,0,0:0:0:1:
402,192,54959,1,0,0:0:0:1:
329,192,55012,1,0,0:0:0:1:
256,192,55065,1,0,0:0:0:1:
182,192,55118,1,0,0:0:0:1:
402,192,55171,1,0,0:0:0:1:
109,192,55224,1,0,0:0:0:1:
256,192,55276,1,0,0:0:0:1:
475,192,55329,1,0,0:0:0:1:
329,192,55382,1,0,0:0:0:1:
36,192,55382,1,0,0:0:0:1:
182,192,55435,1,0,0:0:0:1:
256,192,55488,1,0,0:0:0:1:
402,192,55540,1,0,0:0:0:1:
109,192,55593,1,0,0:0:0:1:
329,192,55646,1,0,0:0:0:1:
475,192,55699,1,0,0:0:0:1:
182,192,55752,1,0,0:0:0:1:
256,192,55805,1,0,0:0:0:1:
402,192,55857,1,0,0:0:0:1:
329,192,55910,1,0,0:0:0:1:
182,192,55963,1,0,0:0:0:1:
475,192,56016,1,0,0:0:0:1:
36,192,56016,1,0,0:0:0:1:
402,192,56069,1,0,0:0:0:1:
329,192,56121,1,0,0:0:0:1:
109,192,56174,1,0,0:0:0:1:
256,192,56227,1,0,0:0:0:1:
475,192,56280,1,0,0:0:0:1:
182,192,56333,1,0,0:0:0:1:
329,192,56386,1,0,0:0:0:1:
402,192,56438,1,0,0:0:0:1:
109,192,56491,1,0,0:0:0:1:
182,192,56544,1,0,0:0:0:1:
256,192,56597,1,0,0:0:0:1:
329,192,56650,1,0,0:0:0:1:
36,192,56650,1,0,0:0:0:1:
109,192,56702,1,0,0:0:0:1:
475,192,56755,1,0,0:0:0:1:
182,192,56808,1,0,0:0:0:1:
402,192,56861,1,0,0:0:0:1:
256,192,56914,1,0,0:0:0:1:
36,192,56966,1,0,0:0:0:1:
109,192,57019,1,0,0:0:0:1:
475,192,57072,1,0,0:0:0:1:
256,192,57125,1,0,0:0:0:1:
182,192,57178,1,0,0:0:0:1:
402,192,57231,1,0,0:0:0:1:
109,192,57283,1,0,0:0:0:1:
329,192,57336,1,0,0:0:0:1:
182,192,57389,1,0,0:0:0:1:
256,192,57442,1,0,0:0:0:1:
36,192,57495,1,0,0:0:0:1:
109,192,57547,1,0,0:0:0:1:
402,192,57600,1,0,0:0:0:1:
475,192,57600,1,0,0:0:0:0:
182,192,57653,1,0,0:0:0:1:
256,192,57706,1,0,0:0:0:1:
329,192,57759,1,0,0:0:0:1:
36,192,57812,1,0,0:0:0:1:
182,192,57864,1,0,0:0:0:1:
402,192,57917,1,0,0:0:0:1:
256,192,57970,1,0,0:0:0:1:
109,192,58023,1,0,0:0:0:1:
329,192,58076,1,0,0:0:0:1:
182,192,58128,1,0,0:0:0:1:
475,192,58128,1,0,0:0:0:1:
402,192,58181,1,0,0:0:0:1:
256,192,58234,1,0,0:0:0:1:
36,192,58287,1,0,0:0:0:1:
109,192,58340,1,0,0:0:0:1:
182,192,58393,1,0,0:0:0:1:
475,192,58445,1,0,0:0:0:1:
329,192,58498,1,0,0:0:0:1:
109,192,58551,1,0,0:0:0:1:
402,192,58604,1,0,0:0:0:1:
256,192,58657,1,0,0:0:0:1:
36,192,58709,1,0,0:0:0:1:
182,192,58762,1,0,0:0:0:1:
475,192,58762,1,0,0:0:0:1:
329,192,58815,1,0,0:0:0:1:
256,192,58868,1,0,0:0:0:1:
109,192,58921,1,0,0:0:0:1:
402,192,58974,1,0,0:0:0:1:
182,192,59026,1,0,0:0:0:1:
36,192,59079,1,0,0:0:0:1:
329,192,59132,1,0,0:0:0:1:
256,192,59185,1,0,0:0:0:1:
109,192,59238,1,0,0:0:0:1:
182,192,59290,1,0,0:0:0:1:
329,192,59343,1,0,0:0:0:1:
475,192,59396,1,0,0:0:0:1:
36,192,59396,1,0,0:0:0:1:
109,192,59449,1,0,0:0:0:1:
182,192,59502,1,0,0:0:0:1:
402,192,59555,1,0,0:0:0:1:
256,192,59607,1,0,0:0:0:1:
36,192,59660,1,0,0:0:0:1:
329,192,59713,1,0,0:0:0:1:
182,192,59766,1,0,0:0:0:1:
109,192,59819,1,0,0:0:0:1:
402,192,59871,1,0,0:0:0:1:
329,192,59924,1,0,0:0:0:1:
256,192,59977,1,0,0:0:0:1:
182,192,60030,1,0,0:0:0:1:
475,192,60030,1,0,0:0:0:1:
402,192,60083,1,0,0:0:0:1:
36,192,60136,1,0,0:0:0:1:
329,192,60188,1,0,0:0:0:1:
109,192,60241,1,0,0:0:0:1:
256,192,60294,1,0,0:0:0:1:
182,192,60347,1,0,0:0:0:1:
475,192,60347,1,0,0:0:0:1:
402,192,60400,1,0,0:0:0:1:
36,192,60452,1,0,0:0:0:1:
256,192,60505,1,0,0:0:0:1:
329,192,60558,1,0,0:0:0:1:
109,192,60611,1,0,0:0:0:1:
402,192,60664,1,0,0:0:0:1:
182,192,60716,1,0,0:0:0:1:
329,192,60769,1,0,0:0:0:1:
256,192,60822,1,0,0:0:0:1:
475,192,60875,1,0,0:0:0:1:
402,192,60928,1,0,0:0:0:1:
109,192,60981,1,0,0:0:0:1:
36,192,60981,1,0,0:0:0:1:
329,192,61033,1,0,0:0:0:0:
256,192,61086,1,0,0:0:0:1:
182,192,61139,1,0,0:0:0:1:
475,192,61192,1,0,0:0:0:1:
329,192,61245,1,0,0:0:0:1:
402,192,61297,1,0,0:0:0:1:
256,192,61350,1,0,0:0:0:1:
36,192,61403,1,0,0:0:0:0:
109,192,61403,1,0,0:0:0:0:
182,192,61456,1,0,0:0:0:1:
329,192,61509,1,0,0:0:0:1:
402,192,61562,1,0,0:0:0:1:
256,192,61614,1,0,0:0:0:1:
182,192,61667,1,0,0:0:0:1:
402,192,61720,1,0,0:0:0:1:
329,192,61773,1,0,0:0:0:1:
36,192,61826,1,0,0:0:0:1:
109,192,61826,1,0,0:0:0:0:
256,192,61878,1,0,0:0:0:1:
475,192,61931,1,0,0:0:0:1:
182,192,61984,1,0,0:0:0:1:
329,192,62037,1,0,0:0:0:1:
402,192,62090,1,0,0:0:0:1:
256,192,62143,1,0,0:0:0:1:
475,192,62195,1,0,0:0:0:1:
109,192,62248,1,0,0:0:0:0:
36,192,62248,1,0,0:0:0:0:
329,192,62301,1,0,0:0:0:1:
182,192,62354,1,0,0:0:0:1:
402,192,62407,1,0,0:0:0:1:
475,192,62459,1,0,0:0:0:1:
256,192,62512,1,0,0:0:0:1:
182,192,62565,1,0,0:0:0:1:
402,192,62618,1,0,0:0:0:1:
329,192,62671,1,0,0:0:0:1:
109,192,62671,1,0,0:0:0:0:
36,192,62671,1,0,0:0:0:0:
182,192,62724,1,0,0:0:0:1:
475,192,62776,1,0,0:0:0:1:
402,192,62829,1,0,0:0:0:1:
329,192,62882,1,0,0:0:0:1:
256,192,62935,1,0,0:0:0:1:
182,192,62988,1,0,0:0:0:1:
402,192,63040,1,0,0:0:0:1:
36,192,63093,1,0,0:0:0:0:
109,192,63093,1,0,0:0:0:0:
256,192,63146,1,0,0:0:0:1:
329,192,63199,1,0,0:0:0:1:
182,192,63252,1,0,0:0:0:0:
402,192,63305,1,0,0:0:0:0:
256,192,63357,1,0,0:0:0:1:
329,192,63410,1,0,0:0:0:1:
475,192,63463,1,0,0:0:0:0:
36,192,63516,1,0,0:0:0:0:
109,192,63516,1,0,0:0:0:0:
402,192,63569,1,0,0:0:0:0:
256,192,63621,1,0,0:0:0:0:
329,192,63674,1,0,0:0:0:0:
475,192,63727,1,0,0:0:0:0:
402,192,63780,1,0,0:0:0:0:
182,192,63833,1,0,0:0:0:0:
256,192,63886,1,0,0:0:0:1:
109,192,63938,1,0,0:0:0:0:
36,192,63938,1,0,0:0:0:0:
402,192,63991,1,0,0:0:0:1:
329,192,64044,1,0,0:0:0:0:
256,192,64097,1,0,0:0:0:0:
182,192,64150,1,0,0:0:0:0:
36,192,64202,1,0,0:0:0:0:
109,192,64255,1,0,0:0:0:0:
256,192,64308,1,0,0:0:0:0:
402,192,64361,1,0,0:0:0:1:
475,192,64361,1,0,0:0:0:1:
182,192,64414,1,0,0:0:0:1:
109,192,64466,1,0,0:0:0:0:
329,192,64519,1,0,0:0:0:1:
36,192,64572,1,0,0:0:0:1:
182,192,64625,1,0,0:0:0:1:
256,192,64678,1,0,0:0:0:0:
329,192,64731,1,0,0:0:0:0:
402,192,64783,1,0,0:0:0:0:
475,192,64783,1,0,0:0:0:0:
109,192,64836,1,0,0:0:0:0:
182,192,64889,1,0,0:0:0:1:
329,192,64942,1,0,0:0:0:0:
256,192,64995,1,0,0:0:0:0:
109,192,65047,1,0,0:0:0:0:
36,192,65100,1,0,0:0:0:0:
182,192,65153,1,0,0:0:0:1:
402,192,65206,1,0,0:0:0:0:
475,192,65206,1,0,0:0:0:0:
329,192,65259,1,0,0:0:0:0:
109,192,65312,1,0,0:0:0:1:
256,192,65364,1,0,0:0:0:0:
182,192,65417,1,0,0:0:0:0:
36,192,65470,1,0,0:0:0:1:
109,192,65523,1,0,0:0:0:0:
256,192,65576,1,0,0:0:0:0:
402,192,65628,1,0,0:0:0:0:
475,192,65628,1,0,0:0:0:0:
182,192,65681,1,0,0:0:0:0:
329,192,65734,1,0,0:0:0:0:
256,192,65787,1,0,0:0:0:0:
109,192,65840,1,0,0:0:0:0:
36,192,65893,1,0,0:0:0:0:
182,192,65945,1,0,0:0:0:0:
256,192,65998,1,0,0:0:0:0:
402,192,66051,1,0,0:0:0:0:
475,192,66051,1,0,0:0:0:0:
329,192,66104,1,0,0:0:0:0:
36,192,66157,1,0,0:0:0:0:
109,192,66209,1,0,0:0:0:1:
182,192,66262,1,0,0:0:0:1:
256,192,66315,1,0,0:0:0:0:
329,192,66368,1,0,0:0:0:0:
109,192,66421,1,0,0:0:0:0:
402,192,66474,1,0,0:0:0:0:
475,192,66474,1,0,0:0:0:0:
256,192,66526,1,0,0:0:0:0:
182,192,66579,5,0,0:0:0:0:
36,192,66632,1,0,0:0:0:0:
329,192,66685,1,0,0:0:0:1:
109,192,66738,1,0,0:0:0:0:
256,192,66790,1,0,0:0:0:0:
182,192,66843,1,0,0:0:0:0:
402,192,66896,1,0,0:0:0:0:
475,192,66896,1,0,0:0:0:0:
329,192,66949,1,0,0:0:0:1:
109,192,67002,1,0,0:0:0:1:
256,192,67055,1,0,0:0:0:1:
182,192,67107,1,0,0:0:0:1:
36,192,67160,1,0,0:0:0:0:
109,192,67213,1,0,0:0:0:0:
256,192,67266,1,0,0:0:0:1:
402,192,67319,1,0,0:0:0:0:
475,192,67319,1,0,0:0:0:0:
109,192,67371,1,0,0:0:0:1:
329,192,67424,1,0,0:0:0:0:
182,192,67477,1,0,0:0:0:1:
36,192,67530,1,0,0:0:0:0:
256,192,67583,1,0,0:0:0:1:
402,192,67636,1,0,0:0:0:0:
475,192,67688,1,0,0:0:0:0:
182,192,67741,5,0,0:0:0:1:
36,192,67741,1,0,0:0:0:1:
329,192,67741,1,0,0:0:0:1:
402,192,67847,1,0,0:0:0:1:
109,192,67952,1,0,0:0:0:1:
329,192,67952,1,0,0:0:0:1:
256,192,68058,1,0,0:0:0:1:
182,192,68164,1,0,0:0:0:1:
402,192,68164,1,0,0:0:0:1:
36,192,68164,1,0,0:0:0:1:
475,192,68269,1,0,0:0:0:1:
109,192,68375,1,0,0:0:0:1:
329,192,68375,1,0,0:0:0:1:
256,192,68481,1,0,0:0:0:1:
182,192,68586,1,0,0:0:0:1:
402,192,68586,1,0,0:0:0:1:
36,192,68586,1,0,0:0:0:1:
475,192,68692,1,0,0:0:0:1:
109,192,68797,1,0,0:0:0:1:
329,192,68797,1,0,0:0:0:1:
256,192,68903,1,0,0:0:0:1:
182,192,69009,1,0,0:0:0:1:
402,192,69009,1,0,0:0:0:1:
36,192,69009,1,0,0:0:0:1:
475,192,69114,1,0,0:0:0:1:
109,192,69220,1,0,0:0:0:1:
329,192,69220,1,0,0:0:0:1:
256,192,69326,1,0,0:0:0:1:
109,192,69431,1,0,0:0:0:1:
402,192,69431,1,0,0:0:0:1:
36,192,69431,1,0,0:0:0:1:
329,192,69537,1,0,0:0:0:1:
182,192,69643,1,0,0:0:0:1:
475,192,69643,1,0,0:0:0:1:
256,192,69748,1,0,0:0:0:1:
109,192,69854,1,0,0:0:0:1:
402,192,69854,1,0,0:0:0:1:
36,192,69854,1,0,0:0:0:1:
329,192,69959,1,0,0:0:0:1:
182,192,70065,1,0,0:0:0:1:
475,192,70065,1,0,0:0:0:1:
256,192,70171,1,0,0:0:0:1:
109,192,70276,1,0,0:0:0:1:
402,192,70276,1,0,0:0:0:1:
36,192,70276,1,0,0:0:0:1:
329,192,70382,1,0,0:0:0:1:
182,192,70488,1,0,0:0:0:1:
475,192,70488,1,0,0:0:0:1:
256,192,70593,1,0,0:0:0:1:
109,192,70699,1,0,0:0:0:1:
402,192,70699,1,0,0:0:0:1:
36,192,70699,1,0,0:0:0:1:
329,192,70805,1,0,0:0:0:1:
182,192,70910,1,0,0:0:0:1:
402,192,70910,1,0,0:0:0:1:
256,192,71016,1,0,0:0:0:1:
109,192,71121,1,0,0:0:0:1:
329,192,71121,1,0,0:0:0:1:
475,192,71121,1,0,0:0:0:1:
36,192,71227,1,0,0:0:0:1:
182,192,71333,1,0,0:0:0:1:
402,192,71333,1,0,0:0:0:1:
256,192,71438,1,0,0:0:0:1:
109,192,71544,1,0,0:0:0:1:
329,192,71544,1,0,0:0:0:1:
475,192,71544,1,0,0:0:0:1:
36,192,71650,1,0,0:0:0:1:
182,192,71755,1,0,0:0:0:1:
402,192,71755,1,0,0:0:0:1:
256,192,71861,1,0,0:0:0:1:
109,192,71966,1,0,0:0:0:1:
329,192,71966,1,0,0:0:0:1:
475,192,71966,1,0,0:0:0:1:
36,192,72072,1,0,0:0:0:1:
182,192,72178,1,0,0:0:0:1:
402,192,72178,1,0,0:0:0:1:
256,192,72283,1,0,0:0:0:1:
109,192,72389,1,0,0:0:0:1:
329,192,72389,1,0,0:0:0:1:
475,192,72389,1,0,0:0:0:1:
36,192,72495,1,0,0:0:0:1:
182,192,72600,1,0,0:0:0:1:
402,192,72600,1,0,0:0:0:1:
256,192,72706,1,0,0:0:0:1:
109,192,72812,1,0,0:0:0:1:
402,192,72812,1,0,0:0:0:1:
475,192,72812,1,0,0:0:0:1:
182,192,72917,1,0,0:0:0:1:
329,192,73023,1,0,0:0:0:1:
36,192,73023,1,0,0:0:0:1:
256,192,73128,1,0,0:0:0:1:
109,192,73234,1,0,0:0:0:1:
402,192,73234,1,0,0:0:0:1:
475,192,73234,1,0,0:0:0:1:
182,192,73340,1,0,0:0:0:1:
329,192,73445,1,0,0:0:0:1:
36,192,73445,1,0,0:0:0:1:
256,192,73551,1,0,0:0:0:1:
109,192,73657,1,0,0:0:0:1:
402,192,73657,1,0,0:0:0:1:
475,192,73657,1,0,0:0:0:1:
182,192,73762,1,0,0:0:0:1:
329,192,73868,1,0,0:0:0:1:
36,192,73868,1,0,0:0:0:1:
256,192,73974,1,0,0:0:0:1:
109,192,74079,1,0,0:0:0:1:
402,192,74079,1,0,0:0:0:1:
475,192,74079,1,0,0:0:0:1:
182,192,74185,1,0,0:0:0:1:
109,192,74290,1,0,0:0:0:1:
329,192,74290,1,0,0:0:0:1:
256,192,74396,1,0,0:0:0:1:
182,192,74502,1,0,0:0:0:1:
402,192,74502,1,0,0:0:0:1:
36,192,74502,1,0,0:0:0:1:
475,192,74502,1,0,0:0:0:1:
256,192,74607,1,0,0:0:0:1:
109,192,74713,1,0,0:0:0:1:
329,192,74713,1,0,0:0:0:1:
182,192,74819,1,0,0:0:0:1:
256,192,74924,1,0,0:0:0:1:
402,192,74924,1,0,0:0:0:1:
36,192,74924,1,0,0:0:0:1:
329,192,75030,1,0,0:0:0:1:
109,192,75136,1,0,0:0:0:1:
182,192,75136,1,0,0:0:0:1:
402,192,75136,1,0,0:0:0:1:
475,192,75136,1,0,0:0:0:1:
256,192,75241,1,0,0:0:0:1:
182,192,75347,1,0,0:0:0:1:
329,192,75347,1,0,0:0:0:1:
36,192,75347,1,0,0:0:0:1:
402,192,75452,1,0,0:0:0:1:
109,192,75558,1,0,0:0:0:1:
329,192,75558,1,0,0:0:0:1:
182,192,75664,1,0,0:0:0:1:
256,192,75769,1,0,0:0:0:1:
402,192,75769,1,0,0:0:0:1:
36,192,75769,1,0,0:0:0:1:
329,192,75875,1,0,0:0:0:1:
109,192,75981,1,0,0:0:0:1:
182,192,75981,1,0,0:0:0:1:
402,192,75981,1,0,0:0:0:1:
475,192,75981,1,0,0:0:0:1:
256,192,76086,1,0,0:0:0:1:
329,192,76192,1,0,0:0:0:1:
36,192,76192,1,0,0:0:0:1:
475,192,76192,1,0,0:0:0:1:
182,192,76297,1,0,0:0:0:1:
109,192,76403,1,0,0:0:0:1:
402,192,76403,1,0,0:0:0:1:
182,192,76509,1,0,0:0:0:1:
256,192,76614,1,0,0:0:0:1:
329,192,76614,1,0,0:0:0:1:
36,192,76614,1,0,0:0:0:1:
109,192,76720,1,0,0:0:0:1:
182,192,76826,1,0,0:0:0:1:
256,192,76826,1,0,0:0:0:1:
402,192,76826,1,0,0:0:0:1:
475,192,76826,1,0,0:0:0:1:
109,192,76931,1,0,0:0:0:1:
329,192,77037,1,0,0:0:0:1:
36,192,77037,1,0,0:0:0:1:
475,192,77037,1,0,0:0:0:1:
182,192,77143,1,0,0:0:0:1:
109,192,77248,1,0,0:0:0:1:
402,192,77248,1,0,0:0:0:1:
182,192,77354,1,0,0:0:0:1:
256,192,77459,1,0,0:0:0:1:
329,192,77459,1,0,0:0:0:1:
36,192,77459,1,0,0:0:0:1:
109,192,77565,1,0,0:0:0:1:
182,192,77671,1,0,0:0:0:1:
256,192,77671,1,0,0:0:0:1:
402,192,77671,1,0,0:0:0:1:
475,192,77671,1,0,0:0:0:1:
109,192,77776,1,0,0:0:0:1:
329,192,77882,1,0,0:0:0:1:
36,192,77882,1,0,0:0:0:1:
475,192,77882,1,0,0:0:0:1:
256,192,77988,1,0,0:0:0:1:
182,192,78093,1,0,0:0:0:1:
402,192,78093,1,0,0:0:0:1:
329,192,78199,1,0,0:0:0:1:
109,192,78305,1,0,0:0:0:1:
256,192,78305,1,0,0:0:0:1:
475,192,78305,1,0,0:0:0:1:
182,192,78410,1,0,0:0:0:1:
109,192,78516,1,0,0:0:0:1:
329,192,78516,1,0,0:0:0:1:
402,192,78516,1,0,0:0:0:1:
36,192,78516,1,0,0:0:0:1:
256,192,78621,1,0,0:0:0:1:
182,192,78727,1,0,0:0:0:1:
329,192,78727,1,0,0:0:0:1:
475,192,78727,1,0,0:0:0:1:
109,192,78833,1,0,0:0:0:1:
182,192,78938,1,0,0:0:0:1:
402,192,78938,1,0,0:0:0:1:
329,192,79044,1,0,0:0:0:1:
109,192,79150,1,0,0:0:0:1:
256,192,79150,1,0,0:0:0:1:
475,192,79150,1,0,0:0:0:1:
182,192,79255,1,0,0:0:0:1:
109,192,79361,1,0,0:0:0:1:
329,192,79361,1,0,0:0:0:1:
402,192,79361,1,0,0:0:0:1:
36,192,79361,1,0,0:0:0:1:
256,192,79466,1,0,0:0:0:1:
182,192,79572,1,0,0:0:0:1:
36,192,79572,1,0,0:0:0:1:
475,192,79572,1,0,0:0:0:1:
329,192,79678,1,0,0:0:0:1:
109,192,79783,1,0,0:0:0:1:
402,192,79783,1,0,0:0:0:1:
329,192,79889,1,0,0:0:0:1:
182,192,79995,1,0,0:0:0:1:
256,192,79995,1,0,0:0:0:1:
475,192,79995,1,0,0:0:0:1:
402,192,80100,1,0,0:0:0:1:
109,192,80206,1,0,0:0:0:1:
256,192,80206,1,0,0:0:0:1:
329,192,80206,1,0,0:0:0:1:
36,192,80206,1,0,0:0:0:1:
402,192,80312,1,0,0:0:0:1:
182,192,80417,1,0,0:0:0:1:
36,192,80417,1,0,0:0:0:1:
475,192,80417,1,0,0:0:0:1:
329,192,80523,1,0,0:0:0:1:
109,192,80628,1,0,0:0:0:1:
402,192,80628,1,0,0:0:0:1:
329,192,80734,1,0,0:0:0:1:
182,192,80840,1,0,0:0:0:1:
256,192,80840,1,0,0:0:0:1:
475,192,80840,1,0,0:0:0:1:
402,192,80945,1,0,0:0:0:1:
109,192,81051,1,0,0:0:0:1:
256,192,81051,1,0,0:0:0:1:
329,192,81051,1,0,0:0:0:1:
36,192,81051,1,0,0:0:0:1:
475,192,81157,1,0,0:0:0:1:
109,192,81262,1,0,0:0:0:1:
256,192,81262,1,0,0:0:0:1:
329,192,81262,1,0,0:0:0:1:
402,192,81262,1,0,0:0:0:1:
36,192,81262,1,0,0:0:0:1:
182,192,81368,1,0,0:0:0:1:
329,192,81474,1,0,0:0:0:1:
182,192,81685,1,0,0:0:0:1:
329,192,81790,1,0,0:0:0:1:
182,192,82002,1,0,0:0:0:1:
329,192,82107,1,0,0:0:0:1:
182,192,82319,1,0,0:0:0:1:
329,192,82424,1,0,0:0:0:1:
182,192,82636,1,0,0:0:0:1:
329,192,82741,1,0,0:0:0:1:
182,192,82952,1,0,0:0:0:1:
329,192,83058,1,0,0:0:0:1:
182,192,83269,1,0,0:0:0:1:
329,192,83375,1,0,0:0:0:1:
109,192,83586,1,0,0:0:0:1:
256,192,83692,1,0,0:0:0:1:
109,192,83903,1,0,0:0:0:1:
256,192,84009,1,0,0:0:0:1:
109,192,84220,1,0,0:0:0:1:
256,192,84326,1,0,0:0:0:1:
109,192,84431,1,0,0:0:0:1:
402,192,84643,1,0,0:0:0:1:
475,192,84748,1,0,0:0:0:1:
329,192,84854,1,0,0:0:0:1:
475,192,85065,1,0,0:0:0:1:
329,192,85171,1,0,0:0:0:1:
475,192,85382,1,0,0:0:0:1:
329,192,85488,1,0,0:0:0:1:
475,192,85699,1,0,0:0:0:1:
402,192,85805,1,0,0:0:0:1:
109,192,86016,1,0,0:0:0:1:
256,192,86121,1,0,0:0:0:1:
109,192,86333,1,0,0:0:0:1:
256,192,86438,1,0,0:0:0:1:
109,192,86650,1,0,0:0:0:1:
256,192,86755,1,0,0:0:0:1:
109,192,86966,1,0,0:0:0:1:
256,192,87072,1,0,0:0:0:1:
182,192,87283,1,0,0:0:0:1:
329,192,87389,1,0,0:0:0:1:
256,192,87600,1,0,0:0:0:1:
402,192,87706,1,0,0:0:0:1:
256,192,87812,1,0,0:0:0:1:
109,192,88023,1,0,0:0:0:1:
182,192,88023,1,0,0:0:0:1:
402,192,88023,1,0,0:0:0:1:
36,192,88023,1,0,0:0:0:1:
475,192,88023,1,0,0:0:0:1:
329,192,88128,1,0,0:0:0:1:
182,192,88234,1,0,0:0:0:1:
329,192,88445,1,0,0:0:0:1:
182,192,88551,1,0,0:0:0:1:
329,192,88762,1,0,0:0:0:1:
182,192,88868,1,0,0:0:0:1:
329,192,89079,1,0,0:0:0:1:
182,192,89185,1,0,0:0:0:1:
329,192,89396,1,0,0:0:0:1:
182,192,89502,1,0,0:0:0:1:
329,192,89713,1,0,0:0:0:1:
182,192,89819,1,0,0:0:0:1:
329,192,90030,1,0,0:0:0:1:
182,192,90136,1,0,0:0:0:1:
329,192,90347,1,0,0:0:0:1:
182,192,90452,1,0,0:0:0:1:
402,192,90664,1,0,0:0:0:1:
256,192,90769,1,0,0:0:0:1:
475,192,90981,1,0,0:0:0:1:
329,192,91086,1,0,0:0:0:1:
475,192,91192,1,0,0:0:0:1:
182,192,91403,1,0,0:0:0:1:
36,192,91509,1,0,0:0:0:1:
182,192,91614,1,0,0:0:0:1:
36,192,91826,1,0,0:0:0:1:
182,192,91931,1,0,0:0:0:1:
36,192,92143,1,0,0:0:0:1:
182,192,92248,1,0,0:0:0:1:
36,192,92459,1,0,0:0:0:1:
182,192,92565,1,0,0:0:0:1:
36,192,92776,1,0,0:0:0:1:
182,192,92882,1,0,0:0:0:1:
475,192,93093,1,0,0:0:0:1:
329,192,93199,1,0,0:0:0:1:
402,192,93410,1,0,0:0:0:1:
256,192,93516,1,0,0:0:0:1:
329,192,93727,1,0,0:0:0:1:
182,192,93833,1,0,0:0:0:1:
256,192,94044,1,0,0:0:0:1:
109,192,94150,1,0,0:0:0:1:
182,192,94361,1,0,0:0:0:1:
36,192,94466,1,0,0:0:0:1:
182,192,94572,1,0,0:0:0:1:
109,192,94783,1,0,0:0:0:1:
329,192,94783,1,0,0:0:0:1:
36,192,94783,1,0,0:0:0:1:
475,192,94783,1,0,0:0:0:1:
256,192,94836,1,0,0:0:0:1:
182,192,94889,1,0,0:0:0:1:
402,192,94942,1,0,0:0:0:1:
329,192,94995,1,0,0:0:0:1:
36,192,94995,1,0,0:0:0:1:
109,192,95047,1,0,0:0:0:1:
256,192,95100,1,0,0:0:0:1:
475,192,95153,1,0,0:0:0:1:
182,192,95206,1,0,0:0:0:1:
36,192,95206,1,0,0:0:0:1:
329,192,95259,1,0,0:0:0:1:
256,192,95312,1,0,0:0:0:1:
475,192,95364,1,0,0:0:0:1:
109,192,95417,1,0,0:0:0:1:
329,192,95417,1,0,0:0:0:1:
182,192,95470,1,0,0:0:0:1:
402,192,95523,1,0,0:0:0:1:
36,192,95576,1,0,0:0:0:1:
109,192,95628,1,0,0:0:0:1:
256,192,95628,1,0,0:0:0:1:
329,192,95681,1,0,0:0:0:1:
182,192,95734,1,0,0:0:0:1:
402,192,95787,1,0,0:0:0:1:
109,192,95840,1,0,0:0:0:1:
475,192,95840,1,0,0:0:0:1:
256,192,95893,1,0,0:0:0:1:
329,192,95945,1,0,0:0:0:1:
182,192,95998,1,0,0:0:0:1:
402,192,96051,1,0,0:0:0:1:
36,192,96051,1,0,0:0:0:1:
256,192,96104,1,0,0:0:0:1:
329,192,96157,1,0,0:0:0:1:
182,192,96209,1,0,0:0:0:1:
36,192,96262,1,0,0:0:0:1:
475,192,96262,1,0,0:0:0:1:
402,192,96315,1,0,0:0:0:1:
329,192,96368,1,0,0:0:0:1:
182,192,96421,1,0,0:0:0:1:
109,192,96474,1,0,0:0:0:1:
475,192,96474,1,0,0:0:0:1:
256,192,96526,1,0,0:0:0:1:
36,192,96579,1,0,0:0:0:1:
329,192,96632,1,0,0:0:0:1:
109,192,96685,1,0,0:0:0:1:
402,192,96685,1,0,0:0:0:1:
256,192,96738,1,0,0:0:0:1:
182,192,96790,1,0,0:0:0:1:
329,192,96896,1,0,0:0:0:1:
475,192,96896,1,0,0:0:0:1:
256,192,96949,1,0,0:0:0:1:
109,192,97002,1,0,0:0:0:1:
402,192,97055,1,0,0:0:0:1:
182,192,97107,1,0,0:0:0:1:
475,192,97107,1,0,0:0:0:1:
256,192,97160,1,0,0:0:0:1:
36,192,97213,1,0,0:0:0:1:
329,192,97266,1,0,0:0:0:1:
182,192,97319,1,0,0:0:0:1:
402,192,97319,1,0,0:0:0:1:
475,192,97371,1,0,0:0:0:1:
256,192,97424,1,0,0:0:0:1:
36,192,97477,1,0,0:0:0:1:
109,192,97530,1,0,0:0:0:1:
329,192,97530,1,0,0:0:0:1:
402,192,97583,1,0,0:0:0:1:
182,192,97636,1,0,0:0:0:1:
256,192,97688,1,0,0:0:0:1:
329,192,97741,1,0,0:0:0:0:
36,192,97741,1,0,0:0:0:1:
182,192,97794,1,0,0:0:0:1:
402,192,97847,1,0,0:0:0:1:
256,192,97900,1,0,0:0:0:1:
109,192,97952,1,0,0:0:0:1:
475,192,97952,1,0,0:0:0:1:
182,192,98005,1,0,0:0:0:1:
329,192,98058,1,0,0:0:0:1:
402,192,98111,1,0,0:0:0:1:
36,192,98164,1,0,0:0:0:1:
475,192,98164,1,0,0:0:0:1:
182,192,98216,1,0,0:0:0:1:
329,192,98269,1,0,0:0:0:1:
109,192,98322,1,0,0:0:0:1:
182,192,98375,1,0,0:0:0:1:
475,192,98375,1,0,0:0:0:1:
402,192,98428,1,0,0:0:0:1:
256,192,98481,1,0,0:0:0:1:
36,192,98533,1,0,0:0:0:1:
109,192,98586,1,0,0:0:0:1:
329,192,98586,1,0,0:0:0:1:
182,192,98639,1,0,0:0:0:1:
256,192,98692,1,0,0:0:0:1:
36,192,98745,1,0,0:0:0:1:
182,192,98797,1,0,0:0:0:1:
402,192,98797,1,0,0:0:0:1:
329,192,98850,1,0,0:0:0:1:
109,192,98903,1,0,0:0:0:1:
475,192,98956,1,0,0:0:0:1:
256,192,99009,1,0,0:0:0:1:
402,192,99009,1,0,0:0:0:1:
182,192,99062,1,0,0:0:0:1:
329,192,99114,1,0,0:0:0:1:
109,192,99167,1,0,0:0:0:1:
402,192,99220,1,0,0:0:0:1:
36,192,99220,1,0,0:0:0:1:
256,192,99273,1,0,0:0:0:1:
182,192,99326,1,0,0:0:0:1:
329,192,99378,1,0,0:0:0:1:
109,192,99431,1,0,0:0:0:1:
475,192,99431,1,0,0:0:0:1:
256,192,99484,1,0,0:0:0:1:
182,192,99537,1,0,0:0:0:1:
329,192,99590,1,0,0:0:0:1:
36,192,99643,1,0,0:0:0:1:
475,192,99643,1,0,0:0:0:1:
109,192,99695,1,0,0:0:0:1:
256,192,99748,1,0,0:0:0:1:
182,192,99801,1,0,0:0:0:1:
402,192,99854,1,0,0:0:0:1:
36,192,99854,1,0,0:0:0:1:
329,192,99907,1,0,0:0:0:0:
475,192,99959,1,0,0:0:0:1:
182,192,100012,1,0,0:0:0:1:
109,192,100065,1,0,0:0:0:1:
402,192,100065,1,0,0:0:0:1:
256,192,100118,1,0,0:0:0:1:
329,192,100171,1,0,0:0:0:1:
36,192,100276,1,0,0:0:0:1:
475,192,100276,1,0,0:0:0:1:
182,192,100329,1,0,0:0:0:0:
402,192,100382,1,0,0:0:0:1:
109,192,100435,1,0,0:0:0:1:
329,192,100488,1,0,0:0:0:1:
36,192,100488,1,0,0:0:0:1:
256,192,100540,1,0,0:0:0:1:
475,192,100593,1,0,0:0:0:1:
182,192,100646,1,0,0:0:0:1:
109,192,100699,1,0,0:0:0:1:
329,192,100699,1,0,0:0:0:1:
36,192,100752,1,0,0:0:0:1:
256,192,100805,1,0,0:0:0:1:
475,192,100857,1,0,0:0:0:1:
182,192,100910,1,0,0:0:0:1:
402,192,100910,1,0,0:0:0:1:
109,192,100963,1,0,0:0:0:1:
329,192,101016,1,0,0:0:0:1:
256,192,101069,1,0,0:0:0:1:
182,192,101121,1,0,0:0:0:1:
36,192,101121,1,0,0:0:0:1:
475,192,101174,1,0,0:0:0:0:
109,192,101227,1,0,0:0:0:1:
256,192,101280,1,0,0:0:0:1:
402,192,101333,1,0,0:0:0:1:
36,192,101333,1,0,0:0:0:1:
329,192,101386,1,0,0:0:0:1:
182,192,101438,1,0,0:0:0:1:
109,192,101491,1,0,0:0:0:1:
36,192,101544,1,0,0:0:0:1:
475,192,101544,1,0,0:0:0:1:
256,192,101597,1,0,0:0:0:0:
182,192,101650,1,0,0:0:0:1:
402,192,101702,1,0,0:0:0:1:
329,192,101755,1,0,0:0:0:1:
36,192,101755,1,0,0:0:0:1:
109,192,101808,1,0,0:0:0:1:
256,192,101861,1,0,0:0:0:1:
475,192,101914,1,0,0:0:0:1:
182,192,101966,1,0,0:0:0:1:
36,192,101966,1,0,0:0:0:1:
402,192,102019,1,0,0:0:0:0:
256,192,102072,1,0,0:0:0:1:
475,192,102125,1,0,0:0:0:1:
109,192,102178,1,0,0:0:0:1:
329,192,102178,1,0,0:0:0:1:
182,192,102231,1,0,0:0:0:1:
402,192,102283,1,0,0:0:0:1:
36,192,102336,1,0,0:0:0:1:
109,192,102389,1,0,0:0:0:1:
256,192,102389,1,0,0:0:0:1:
329,192,102442,1,0,0:0:0:1:
182,192,102495,1,0,0:0:0:1:
402,192,102547,1,0,0:0:0:1:
109,192,102600,1,0,0:0:0:1:
475,192,102600,1,0,0:0:0:1:
256,192,102653,1,0,0:0:0:1:
329,192,102706,1,0,0:0:0:1:
182,192,102759,1,0,0:0:0:0:
475,192,102812,1,0,0:0:0:0:
36,192,102812,1,0,0:0:0:1:
402,192,102864,1,0,0:0:0:0:
256,192,102917,1,0,0:0:0:0:
182,192,102970,1,0,0:0:0:1:
109,192,103023,1,0,0:0:0:1:
475,192,103023,1,0,0:0:0:1:
402,192,103076,1,0,0:0:0:1:
256,192,103128,1,0,0:0:0:1:
329,192,103181,1,0,0:0:0:1:
109,192,103234,1,0,0:0:0:1:
475,192,103234,1,0,0:0:0:1:
182,192,103287,1,0,0:0:0:0:
36,192,103340,1,0,0:0:0:1:
329,192,103393,1,0,0:0:0:1:
109,192,103445,1,0,0:0:0:1:
402,192,103445,1,0,0:0:0:1:
256,192,103498,1,0,0:0:0:1:
182,192,103551,1,0,0:0:0:1:
329,192,103657,1,0,0:0:0:1:
36,192,103657,1,0,0:0:0:1:
256,192,103709,1,0,0:0:0:1:
109,192,103762,1,0,0:0:0:1:
402,192,103815,1,0,0:0:0:1:
182,192,103868,1,0,0:0:0:1:
475,192,103868,1,0,0:0:0:1:
256,192,103921,1,0,0:0:0:1:
36,192,103974,1,0,0:0:0:1:
329,192,104026,1,0,0:0:0:1:
109,192,104079,1,0,0:0:0:1:
402,192,104079,1,0,0:0:0:1:
475,192,104132,1,0,0:0:0:1:
256,192,104185,1,0,0:0:0:1:
36,192,104238,1,0,0:0:0:1:
109,192,104290,1,0,0:0:0:1:
329,192,104290,1,0,0:0:0:1:
402,192,104343,1,0,0:0:0:1:
182,192,104396,1,0,0:0:0:1:
256,192,104449,1,0,0:0:0:1:
329,192,104502,1,0,0:0:0:0:
36,192,104502,1,0,0:0:0:1:
109,192,104555,1,0,0:0:0:0:
402,192,104607,1,0,0:0:0:1:
256,192,104660,1,0,0:0:0:1:
36,192,104713,1,0,0:0:0:0:
475,192,104713,1,0,0:0:0:1:
182,192,104766,1,0,0:0:0:1:
329,192,104819,1,0,0:0:0:1:
402,192,104871,1,0,0:0:0:1:
475,192,104924,1,0,0:0:0:0:
36,192,104924,1,0,0:0:0:1:
109,192,104977,1,0,0:0:0:1:
182,192,105030,1,0,0:0:0:1:
402,192,105083,1,0,0:0:0:0:
329,192,105136,1,0,0:0:0:0:
36,192,105136,1,0,0:0:0:1:
256,192,105188,1,0,0:0:0:0:
109,192,105241,1,0,0:0:0:1:
182,192,105294,1,0,0:0:0:1:
402,192,105347,1,0,0:0:0:1:
475,192,105347,1,0,0:0:0:1:
329,192,105400,1,0,0:0:0:1:
256,192,105452,1,0,0:0:0:1:
36,192,105505,1,0,0:0:0:1:
109,192,105558,1,0,0:0:0:1:
182,192,105558,1,0,0:0:0:1:
329,192,105611,1,0,0:0:0:1:
402,192,105664,1,0,0:0:0:1:
475,192,105716,1,0,0:0:0:1:
182,192,105769,1,0,0:0:0:1:
36,192,105769,1,0,0:0:0:1:
256,192,105822,1,0,0:0:0:1:
329,192,105875,1,0,0:0:0:1:
475,192,105928,1,0,0:0:0:1:
109,192,105981,1,0,0:0:0:1:
36,192,105981,1,0,0:0:0:1:
402,192,106033,1,0,0:0:0:1:
329,192,106086,1,0,0:0:0:1:
182,192,106139,1,0,0:0:0:1:
109,192,106192,1,0,0:0:0:1:
475,192,106192,1,0,0:0:0:1:
36,192,106245,1,0,0:0:0:1:
402,192,106297,1,0,0:0:0:1:
256,192,106350,1,0,0:0:0:1:
109,192,106403,1,0,0:0:0:0:
182,192,106403,1,0,0:0:0:1:
475,192,106456,1,0,0:0:0:1:
329,192,106509,1,0,0:0:0:1:
256,192,106562,1,0,0:0:0:1:
36,192,106614,1,0,0:0:0:0:
182,192,106614,1,0,0:0:0:1:
402,192,106667,1,0,0:0:0:0:
109,192,106720,1,0,0:0:0:1:
256,192,106773,1,0,0:0:0:1:
36,192,106826,1,0,0:0:0:1:
475,192,106826,1,0,0:0:0:1:
329,192,106878,1,0,0:0:0:1:
182,192,106931,1,0,0:0:0:1:
402,192,106984,1,0,0:0:0:1:
109,192,107037,1,0,0:0:0:1:
256,192,107037,1,0,0:0:0:1:
329,192,107090,1,0,0:0:0:1:
475,192,107143,1,0,0:0:0:1:
36,192,107195,1,0,0:0:0:1:
182,192,107248,1,0,0:0:0:1:
256,192,107248,1,0,0:0:0:1:
402,192,107301,1,0,0:0:0:1:
475,192,107354,1,0,0:0:0:1:
36,192,107407,1,0,0:0:0:1:
109,192,107459,1,0,0:0:0:1:
256,192,107459,1,0,0:0:0:1:
402,192,107512,1,0,0:0:0:1:
475,192,107565,1,0,0:0:0:1:
329,192,107618,1,0,0:0:0:1:
182,192,107671,1,0,0:0:0:1:
36,192,107671,1,0,0:0:0:1:
256,192,107724,1,0,0:0:0:1:
402,192,107776,1,0,0:0:0:1:
475,192,107829,1,0,0:0:0:1:
109,192,107882,1,0,0:0:0:0:
182,192,107882,1,0,0:0:0:1:
329,192,107935,1,0,0:0:0:1:
475,192,107988,1,0,0:0:0:1:
36,192,108040,1,0,0:0:0:1:
402,192,108093,1,0,0:0:0:0:
109,192,108093,1,0,0:0:0:1:
182,192,108146,1,0,0:0:0:1:
256,192,108199,1,0,0:0:0:1:
36,192,108252,1,0,0:0:0:1:
402,192,108305,1,0,0:0:0:1:
475,192,108305,1,0,0:0:0:1:
109,192,108357,1,0,0:0:0:1:
329,192,108410,1,0,0:0:0:1:
256,192,108463,1,0,0:0:0:1:
182,192,108516,1,0,0:0:0:1:
475,192,108516,1,0,0:0:0:1:
109,192,108569,1,0,0:0:0:1:
402,192,108621,1,0,0:0:0:1:
329,192,108674,1,0,0:0:0:1:
256,192,108727,1,0,0:0:0:1:
36,192,108727,1,0,0:0:0:1:
182,192,108780,1,0,0:0:0:1:
109,192,108833,1,0,0:0:0:1:
475,192,108886,1,0,0:0:0:1:
256,192,108938,1,0,0:0:0:1:
402,192,108938,1,0,0:0:0:1:
182,192,108991,1,0,0:0:0:1:
36,192,109044,1,0,0:0:0:1:
329,192,109097,1,0,0:0:0:1:
109,192,109150,1,0,0:0:0:1:
256,192,109150,1,0,0:0:0:1:
402,192,109202,1,0,0:0:0:1:
182,192,109255,1,0,0:0:0:1:
36,192,109308,1,0,0:0:0:1:
329,192,109361,1,0,0:0:0:1:
475,192,109361,1,0,0:0:0:1:
256,192,109414,1,0,0:0:0:1:
109,192,109466,1,0,0:0:0:1:
182,192,109519,1,0,0:0:0:1:
475,192,109572,1,0,0:0:0:1:
402,192,109572,1,0,0:0:0:1:
329,192,109625,1,0,0:0:0:1:
256,192,109678,1,0,0:0:0:1:
109,192,109731,1,0,0:0:0:1:
475,192,109783,1,0,0:0:0:1:
36,192,109783,1,0,0:0:0:1:
329,192,109836,1,0,0:0:0:1:
182,192,109889,1,0,0:0:0:1:
256,192,109942,1,0,0:0:0:1:
36,192,109995,1,0,0:0:0:1:
329,192,109995,1,0,0:0:0:1:
109,192,110047,1,0,0:0:0:1:
182,192,110100,1,0,0:0:0:1:
256,192,110153,1,0,0:0:0:1:
36,192,110206,1,0,0:0:0:1:
475,192,110206,1,0,0:0:0:1:
402,192,110259,1,0,0:0:0:1:
329,192,110312,1,0,0:0:0:1:
182,192,110364,1,0,0:0:0:1:
109,192,110417,1,0,0:0:0:1:
475,192,110417,1,0,0:0:0:1:
256,192,110470,1,0,0:0:0:1:
402,192,110523,1,0,0:0:0:1:
36,192,110576,1,0,0:0:0:1:
182,192,110628,1,0,0:0:0:1:
329,192,110628,1,0,0:0:0:1:
475,192,110681,1,0,0:0:0:1:
109,192,110734,1,0,0:0:0:1:
256,192,110787,1,0,0:0:0:1:
402,192,110840,1,0,0:0:0:1:
329,192,110840,1,0,0:0:0:1:
182,192,110893,1,0,0:0:0:1:
36,192,110945,1,0,0:0:0:1:
475,192,110998,1,0,0:0:0:1:
402,192,111051,1,0,0:0:0:1:
109,192,111051,1,0,0:0:0:1:
329,192,111104,1,0,0:0:0:1:
256,192,111157,1,0,0:0:0:1:
36,192,111209,1,0,0:0:0:1:
182,192,111262,1,0,0:0:0:1:
475,192,111262,1,0,0:0:0:1:
329,192,111315,1,0,0:0:0:1:
109,192,111368,5,0,0:0:0:1:
256,192,111421,1,0,0:0:0:1:
182,192,111474,1,0,0:0:0:1:
36,192,111474,1,0,0:0:0:1:
329,192,111526,1,0,0:0:0:1:
402,192,111579,1,0,0:0:0:1:
109,192,111579,1,0,0:0:0:1:
475,192,111632,1,0,0:0:0:1:
36,192,111685,1,0,0:0:0:1:
182,192,111685,1,0,0:0:0:1:
256,192,111738,1,0,0:0:0:1:
329,192,111790,1,0,0:0:0:1:
109,192,111843,1,0,0:0:0:1:
182,192,111896,1,0,0:0:0:1:
475,192,111896,1,0,0:0:0:1:
256,192,111949,1,0,0:0:0:1:
402,192,112002,1,0,0:0:0:1:
329,192,112055,1,0,0:0:0:1:
182,192,112107,1,0,0:0:0:1:
36,192,112107,1,0,0:0:0:1:
475,192,112160,1,0,0:0:0:1:
109,192,112213,1,0,0:0:0:1:
402,192,112266,1,0,0:0:0:1:
256,192,112319,1,0,0:0:0:1:
329,192,112319,1,0,0:0:0:1:
182,192,112371,1,0,0:0:0:1:
475,192,112424,1,0,0:0:0:1:
402,192,112477,1,0,0:0:0:1:
36,192,112530,1,0,0:0:0:1:
109,192,112530,1,0,0:0:0:1:
256,192,112583,1,0,0:0:0:1:
329,192,112636,1,0,0:0:0:1:
182,192,112688,1,0,0:0:0:1:
402,192,112741,1,0,0:0:0:1:
475,192,112741,1,0,0:0:0:1:
36,192,112794,1,0,0:0:0:1:
109,192,112847,1,0,0:0:0:0:
182,192,112900,1,0,0:0:0:0:
475,192,112952,1,0,0:0:0:0:
402,192,112952,1,0,0:0:0:1:
329,192,113005,1,0,0:0:0:1:
256,192,113058,1,0,0:0:0:1:
182,192,113111,1,0,0:0:0:1:
109,192,113164,1,0,0:0:0:1:
36,192,113164,1,0,0:0:0:1:
475,192,113216,1,0,0:0:0:1:
402,192,113269,1,0,0:0:0:1:
256,192,113322,1,0,0:0:0:1:
182,192,113375,1,0,0:0:0:1:
36,192,113375,1,0,0:0:0:1:
475,192,113428,1,0,0:0:0:1:
329,192,113481,1,0,0:0:0:1:
182,192,113533,1,0,0:0:0:1:
36,192,113586,1,0,0:0:0:1:
109,192,113586,1,0,0:0:0:1:
402,192,113639,1,0,0:0:0:1:
256,192,113692,1,0,0:0:0:1:
182,192,113745,1,0,0:0:0:1:
475,192,113797,1,0,0:0:0:1:
36,192,113797,1,0,0:0:0:1:
329,192,113850,1,0,0:0:0:1:
109,192,113903,1,0,0:0:0:1:
182,192,113956,1,0,0:0:0:0:
256,192,114009,1,0,0:0:0:0:
402,192,114009,1,0,0:0:0:1:
36,192,114062,1,0,0:0:0:1:
109,192,114114,1,0,0:0:0:1:
182,192,114167,1,0,0:0:0:1:
329,192,114220,1,0,0:0:0:1:
475,192,114220,1,0,0:0:0:1:
36,192,114273,1,0,0:0:0:1:
256,192,114326,1,0,0:0:0:1:
182,192,114378,1,0,0:0:0:1:
402,192,114431,1,0,0:0:0:1:
109,192,114431,1,0,0:0:0:1:
329,192,114484,1,0,0:0:0:1:
256,192,114537,1,0,0:0:0:1:
36,192,114590,1,0,0:0:0:1:
109,192,114643,1,0,0:0:0:1:
475,192,114643,1,0,0:0:0:1:
329,192,114695,1,0,0:0:0:1:
182,192,114748,1,0,0:0:0:1:
36,192,114801,1,0,0:0:0:1:
256,192,114854,1,0,0:0:0:1:
402,192,114854,1,0,0:0:0:1:
109,192,114907,1,0,0:0:0:1:
329,192,114959,1,0,0:0:0:1:
475,192,115012,1,0,0:0:0:1:
182,192,115065,1,0,0:0:0:1:
36,192,115065,1,0,0:0:0:1:
402,192,115118,1,0,0:0:0:1:
109,192,115171,1,0,0:0:0:1:
256,192,115224,1,0,0:0:0:1:
329,192,115276,1,0,0:0:0:1:
182,192,115276,1,0,0:0:0:1:
402,192,115329,1,0,0:0:0:1:
36,192,115382,1,0,0:0:0:1:
109,192,115435,1,0,0:0:0:1:
329,192,115488,1,0,0:0:0:0:
182,192,115488,1,0,0:0:0:1:
475,192,115540,1,0,0:0:0:1:
256,192,115593,1,0,0:0:0:1:
109,192,115646,1,0,0:0:0:0:
329,192,115699,1,0,0:0:0:0:
182,192,115699,1,0,0:0:0:0:
475,192,115752,1,0,0:0:0:0:
36,192,115805,1,0,0:0:0:1:
182,192,115857,1,0,0:0:0:1:
256,192,115910,1,0,0:0:0:1:
402,192,115910,1,0,0:0:0:1:
109,192,115963,1,0,0:0:0:1:
329,192,116016,1,0,0:0:0:1:
475,192,116069,1,0,0:0:0:1:
182,192,116121,1,0,0:0:0:1:
36,192,116121,1,0,0:0:0:1:
402,192,116174,1,0,0:0:0:1:
329,192,116227,1,0,0:0:0:1:
256,192,116280,1,0,0:0:0:1:
475,192,116333,1,0,0:0:0:0:
109,192,116333,1,0,0:0:0:1:
36,192,116386,1,0,0:0:0:1:
329,192,116438,1,0,0:0:0:0:
256,192,116491,1,0,0:0:0:1:
109,192,116544,1,0,0:0:0:1:
182,192,116544,1,0,0:0:0:1:
402,192,116597,1,0,0:0:0:0:
36,192,116650,1,0,0:0:0:1:
256,192,116702,1,0,0:0:0:1:
182,192,116755,1,0,0:0:0:1:
402,192,116755,1,0,0:0:0:1:
329,192,116808,1,0,0:0:0:1:
109,192,116861,1,0,0:0:0:1:
256,192,116914,1,0,0:0:0:1:
36,192,116966,1,0,0:0:0:1:
475,192,116966,1,0,0:0:0:1:
329,192,117019,1,0,0:0:0:1:
182,192,117072,1,0,0:0:0:1:
402,192,117125,1,0,0:0:0:1:
109,192,117178,1,0,0:0:0:1:
256,192,117178,1,0,0:0:0:1:
329,192,117231,1,0,0:0:0:1:
36,192,117283,1,0,0:0:0:1:
182,192,117336,1,0,0:0:0:1:
256,192,117389,1,0,0:0:0:1:
402,192,117389,1,0,0:0:0:1:
475,192,117442,1,0,0:0:0:1:
329,192,117495,1,0,0:0:0:1:
36,192,117547,1,0,0:0:0:1:
182,192,117600,1,0,0:0:0:1:
256,192,117600,1,0,0:0:0:1:
402,192,117653,1,0,0:0:0:1:
109,192,117706,1,0,0:0:0:1:
329,192,117759,1,0,0:0:0:1:
182,192,117812,1,0,0:0:0:1:
475,192,117812,1,0,0:0:0:1:
256,192,117864,1,0,0:0:0:1:
36,192,117917,1,0,0:0:0:1:
402,192,117970,1,0,0:0:0:1:
109,192,118023,1,0,0:0:0:1:
329,192,118023,1,0,0:0:0:1:
256,192,118076,1,0,0:0:0:1:
475,192,118128,1,0,0:0:0:1:
36,192,118181,1,0,0:0:0:1:
109,192,118234,1,0,0:0:0:1:
402,192,118234,1,0,0:0:0:1:
182,192,118287,1,0,0:0:0:1:
256,192,118340,1,0,0:0:0:1:
36,192,118393,1,0,0:0:0:1:
109,192,118445,1,0,0:0:0:1:
329,192,118445,1,0,0:0:0:1:
475,192,118445,1,0,0:0:0:1:
182,192,118498,1,0,0:0:0:1:
402,192,118551,1,0,0:0:0:1:
256,192,118604,1,0,0:0:0:1:
36,192,118657,1,0,0:0:0:1:
475,192,118657,1,0,0:0:0:1:
109,192,118709,1,0,0:0:0:1:
329,192,118762,1,0,0:0:0:1:
402,192,118815,1,0,0:0:0:1:
182,192,118868,1,0,0:0:0:1:
36,192,118868,1,0,0:0:0:1:
475,192,118921,1,0,0:0:0:1:
109,192,118974,1,0,0:0:0:1:
329,192,119026,1,0,0:0:0:1:
256,192,119079,1,0,0:0:0:1:
36,192,119079,1,0,0:0:0:1:
182,192,119132,1,0,0:0:0:1:
475,192,119185,1,0,0:0:0:1:
329,192,119238,1,0,0:0:0:1:
109,192,119290,1,0,0:0:0:1:
256,192,119290,1,0,0:0:0:1:
402,192,119343,1,0,0:0:0:1:
182,192,119396,1,0,0:0:0:1:
36,192,119449,1,0,0:0:0:1:
329,192,119502,1,0,0:0:0:1:
475,192,119502,1,0,0:0:0:1:
109,192,119555,1,0,0:0:0:1:
182,192,119607,1,0,0:0:0:1:
256,192,119660,1,0,0:0:0:1:
402,192,119713,1,0,0:0:0:1:
36,192,119713,1,0,0:0:0:1:
475,192,119766,1,0,0:0:0:1:
109,192,119819,1,0,0:0:0:1:
256,192,119871,1,0,0:0:0:1:
329,192,119924,1,0,0:0:0:1:
402,192,119924,1,0,0:0:0:1:
182,192,119977,1,0,0:0:0:0:
36,192,120030,1,0,0:0:0:0:
256,192,120083,1,0,0:0:0:1:
109,192,120136,1,0,0:0:0:1:
329,192,120136,1,0,0:0:0:1:
182,192,120188,1,0,0:0:0:1:
402,192,120241,1,0,0:0:0:1:
256,192,120294,1,0,0:0:0:1:
36,192,120347,1,0,0:0:0:1:
475,192,120347,1,0,0:0:0:1:
182,192,120400,1,0,0:0:0:1:
329,192,120452,1,0,0:0:0:1:
109,192,120505,1,0,0:0:0:1:
256,192,120558,1,0,0:0:0:1:
402,192,120558,1,0,0:0:0:1:
36,192,120611,1,0,0:0:0:0:
475,192,120664,1,0,0:0:0:1:
329,192,120716,1,0,0:0:0:1:
256,192,120769,1,0,0:0:0:0:
109,192,120769,1,0,0:0:0:1:
36,192,120822,1,0,0:0:0:1:
182,192,120875,1,0,0:0:0:1:
475,192,120928,1,0,0:0:0:1:
256,192,120981,1,0,0:0:0:1:
329,192,120981,1,0,0:0:0:1:
109,192,121033,1,0,0:0:0:1:
402,192,121086,1,0,0:0:0:1:
182,192,121139,1,0,0:0:0:1:
329,192,121192,1,0,0:0:0:1:
36,192,121192,1,0,0:0:0:1:
256,192,121245,1,0,0:0:0:1:
475,192,121297,1,0,0:0:0:1:
109,192,121350,1,0,0:0:0:1:
182,192,121403,1,0,0:0:0:1:
402,192,121403,1,0,0:0:0:1:
256,192,121456,1,0,0:0:0:1:
36,192,121509,1,0,0:0:0:1:
475,192,121562,1,0,0:0:0:1:
109,192,121614,1,0,0:0:0:1:
402,192,121614,1,0,0:0:0:1:
329,192,121667,1,0,0:0:0:1:
256,192,121720,1,0,0:0:0:1:
36,192,121720,1,0,0:0:0:1:
475,192,121773,1,0,0:0:0:1:
182,192,121826,1,0,0:0:0:1:
109,192,121826,1,0,0:0:0:1:
256,192,121931,1,0,0:0:0:1:
109,192,122037,1,0,0:0:0:1:
329,192,122037,1,0,0:0:0:1:
475,192,122037,1,0,0:0:0:1:
182,192,122143,1,0,0:0:0:1:
109,192,122248,1,0,0:0:0:1:
402,192,122248,1,0,0:0:0:1:
329,192,122248,1,0,0:0:0:1:
36,192,122248,1,0,0:0:0:1:
182,192,122354,1,0,0:0:0:1:
475,192,122459,1,0,0:0:0:1:
256,192,122459,1,0,0:0:0:1:
329,192,122459,1,0,0:0:0:1:
402,192,122459,1,0,0:0:0:1:
182,192,122565,1,0,0:0:0:1:
109,192,122671,1,0,0:0:0:1:
329,192,122671,1,0,0:0:0:1:
475,192,122671,1,0,0:0:0:1:
256,192,122776,1,0,0:0:0:1:
182,192,122882,1,0,0:0:0:1:
36,192,122882,1,0,0:0:0:1:
402,192,122882,1,0,0:0:0:1:
256,192,122988,1,0,0:0:0:1:
109,192,123093,1,0,0:0:0:1:
329,192,123093,1,0,0:0:0:1:
36,192,123093,1,0,0:0:0:1:
256,192,123199,1,0,0:0:0:1:
182,192,123305,1,0,0:0:0:1:
402,192,123305,1,0,0:0:0:1:
109,192,123305,1,0,0:0:0:1:
475,192,123305,1,0,0:0:0:1:
329,192,123410,1,0,0:0:0:1:
256,192,123516,1,0,0:0:0:1:
475,192,123516,1,0,0:0:0:1:
182,192,123586,1,0,0:0:0:0:
36,192,123657,1,0,0:0:0:0:
329,192,123727,1,0,0:0:0:0:
475,192,123727,1,0,0:0:0:0:
109,192,123797,1,0,0:0:0:0:
256,192,123868,1,0,0:0:0:0:
402,192,123938,1,0,0:0:0:0:
36,192,123938,1,0,0:0:0:0:
182,192,124009,1,0,0:0:0:0:
329,192,124079,1,0,0:0:0:0:
36,192,124150,1,0,0:0:0:0:
475,192,124150,1,0,0:0:0:0:
256,192,124150,1,0,0:0:0:0:
109,192,124220,1,0,0:0:0:0:
182,192,124290,1,0,0:0:0:0:
329,192,124361,1,0,0:0:0:0:
475,192,124361,1,0,0:0:0:0:
256,192,124431,1,0,0:0:0:0:
109,192,124502,1,0,0:0:0:0:
36,192,124572,1,0,0:0:0:0:
402,192,124572,1,0,0:0:0:0:
182,192,124643,1,0,0:0:0:0:
329,192,124713,1,0,0:0:0:0:
36,192,124783,1,0,0:0:0:0:
109,192,124783,1,0,0:0:0:0:
256,192,124854,1,0,0:0:0:0:
182,192,124924,1,0,0:0:0:0:
329,192,124995,1,0,0:0:0:0:
475,192,124995,1,0,0:0:0:0:
36,192,124995,1,0,0:0:0:0:
256,192,125065,1,0,0:0:0:0:
109,192,125136,1,0,0:0:0:0:
36,192,125206,1,0,0:0:0:0:
402,192,125206,1,0,0:0:0:0:
475,192,125206,1,0,0:0:0:0:
182,192,125259,1,0,0:0:0:0:
329,192,125312,1,0,0:0:0:0:
109,192,125364,1,0,0:0:0:0:
256,192,125417,1,0,0:0:0:0:
402,192,125470,1,0,0:0:0:0:
182,192,125523,1,0,0:0:0:0:
36,192,125576,1,0,0:0:0:0:
329,192,125628,1,0,0:0:0:0:
475,192,125628,1,0,0:0:0:0:
109,192,125681,1,0,0:0:0:0:
256,192,125734,1,0,0:0:0:0:
402,192,125840,1,0,0:0:0:0:
475,192,125840,1,0,0:0:0:0:
182,192,125840,1,0,0:0:0:0:
36,192,125893,1,0,0:0:0:0:
256,192,125945,1,0,0:0:0:0:
109,192,125998,1,0,0:0:0:0:
329,192,126051,1,0,0:0:0:0:
475,192,126104,1,0,0:0:0:0:
182,192,126157,1,0,0:0:0:0:
402,192,126209,1,0,0:0:0:0:
36,192,126262,1,0,0:0:0:0:
256,192,126315,1,0,0:0:0:0:
109,192,126368,1,0,0:0:0:0:
329,192,126421,1,0,0:0:0:0:
475,192,126474,1,0,0:0:0:0:
182,192,126474,1,0,0:0:0:0:
36,192,126526,1,0,0:0:0:0:
256,192,126579,1,0,0:0:0:0:
109,192,126632,1,0,0:0:0:0:
329,192,126685,1,0,0:0:0:0:
402,192,126685,1,0,0:0:0:0:
475,192,126685,1,0,0:0:0:0:
182,192,126738,1,0,0:0:0:0:
36,192,126790,1,0,0:0:0:0:
256,192,126843,1,0,0:0:0:0:
402,192,126896,1,0,0:0:0:0:
475,192,126896,1,0,0:0:0:0:
182,192,126949,1,0,0:0:0:0:
36,192,127002,1,0,0:0:0:0:
329,192,127055,1,0,0:0:0:0:
109,192,127107,1,0,0:0:0:0:
256,192,127160,1,0,0:0:0:0:
475,192,127213,1,0,0:0:0:0:
182,192,127266,1,0,0:0:0:0:
36,192,127319,1,0,0:0:0:0:
329,192,127319,1,0,0:0:0:0:
402,192,127371,1,0,0:0:0:0:
256,192,127424,1,0,0:0:0:0:
109,192,127477,1,0,0:0:0:0:
182,192,127530,1,0,0:0:0:0:
329,192,127530,1,0,0:0:0:0:
475,192,127530,1,0,0:0:0:0:
36,192,127583,1,0,0:0:0:0:
256,192,127636,1,0,0:0:0:0:
109,192,127688,1,0,0:0:0:0:
402,192,127741,1,0,0:0:0:0:
475,192,127741,1,0,0:0:0:0:
329,192,127794,1,0,0:0:0:0:
182,192,127847,1,0,0:0:0:0:
36,192,127900,1,0,0:0:0:0:
256,192,127952,1,0,0:0:0:0:
402,192,128005,1,0,0:0:0:0:
475,192,128058,1,0,0:0:0:0:
109,192,128111,1,0,0:0:0:0:
182,192,128164,1,0,0:0:0:0:
329,192,128164,1,0,0:0:0:0:
36,192,128216,1,0,0:0:0:0:
256,192,128269,1,0,0:0:0:0:
402,192,128322,1,0,0:0:0:0:
109,192,128375,1,0,0:0:0:0:
182,192,128375,1,0,0:0:0:0:
329,192,128375,1,0,0:0:0:0:
475,192,128428,1,0,0:0:0:0:
256,192,128516,1,0,0:0:0:0:
36,192,128586,1,0,0:0:0:0:
109,192,128586,1,0,0:0:0:0:
329,192,128586,1,0,0:0:0:0:
475,192,128657,1,0,0:0:0:0:
182,192,128727,1,0,0:0:0:0:
402,192,128797,1,0,0:0:0:0:
256,192,128868,1,0,0:0:0:0:
109,192,128938,1,0,0:0:0:0:
36,192,129009,1,0,0:0:0:0:
329,192,129009,1,0,0:0:0:0:
182,192,129079,1,0,0:0:0:0:
256,192,129150,1,0,0:0:0:0:
109,192,129220,1,0,0:0:0:0:
402,192,129220,1,0,0:0:0:0:
475,192,129220,1,0,0:0:0:0:
329,192,129290,1,0,0:0:0:0:
182,192,129361,1,0,0:0:0:0:
36,192,129431,1,0,0:0:0:0:
256,192,129431,1,0,0:0:0:0:
402,192,129502,1,0,0:0:0:0:
109,192,129572,1,0,0:0:0:0:
182,192,129643,1,0,0:0:0:0:
329,192,129713,1,0,0:0:0:0:
475,192,129783,1,0,0:0:0:0:
36,192,129854,1,0,0:0:0:0:
109,192,129854,1,0,0:0:0:0:
256,192,129924,1,0,0:0:0:0:
182,192,129995,1,0,0:0:0:0:
329,192,130065,1,0,0:0:0:0:
475,192,130065,1,0,0:0:0:0:
402,192,130065,1,0,0:0:0:0:
109,192,130136,1,0,0:0:0:0:
36,192,130206,1,0,0:0:0:0:
182,192,130276,1,0,0:0:0:1:
256,192,130276,1,0,0:0:0:1:
475,192,130276,1,0,0:0:0:1:
402,192,130382,1,0,0:0:0:1:
36,192,130382,1,0,0:0:0:1:
109,192,130488,1,0,0:0:0:1:
329,192,130488,1,0,0:0:0:1:
182,192,130558,1,0,0:0:0:1:
475,192,130593,1,0,0:0:0:1:
256,192,130628,1,0,0:0:0:1:
109,192,130699,1,0,0:0:0:1:
329,192,130699,1,0,0:0:0:1:
402,192,130699,1,0,0:0:0:1:
36,192,130699,1,0,0:0:0:1:
182,192,130805,1,0,0:0:0:1:
256,192,130805,1,0,0:0:0:1:
109,192,130910,1,0,0:0:0:1:
475,192,130910,1,0,0:0:0:1:
36,192,130910,1,0,0:0:0:1:
402,192,130981,1,0,0:0:0:1:
182,192,131016,1,0,0:0:0:1:
329,192,131051,1,0,0:0:0:1:
109,192,131121,1,0,0:0:0:1:
256,192,131121,1,0,0:0:0:1:
475,192,131121,1,0,0:0:0:1:
329,192,131227,1,0,0:0:0:1:
36,192,131227,1,0,0:0:0:1:
182,192,131333,1,0,0:0:0:1:
256,192,131333,1,0,0:0:0:1:
402,192,131333,1,0,0:0:0:1:
109,192,131438,1,0,0:0:0:1:
182,192,131544,1,0,0:0:0:1:
402,192,131544,1,0,0:0:0:1:
36,192,131544,1,0,0:0:0:1:
475,192,131544,1,0,0:0:0:1:
256,192,131614,1,0,0:0:0:1:
109,192,131650,1,0,0:0:0:1:
329,192,131685,1,0,0:0:0:1:
182,192,131755,1,0,0:0:0:1:
36,192,131755,1,0,0:0:0:1:
402,192,131755,1,0,0:0:0:1:
256,192,131826,1,0,0:0:0:1:
329,192,131896,1,0,0:0:0:1:
109,192,131966,1,0,0:0:0:1:
182,192,131966,1,0,0:0:0:1:
402,192,131966,1,0,0:0:0:1:
256,192,132072,1,0,0:0:0:1:
36,192,132072,1,0,0:0:0:1:
109,192,132178,1,0,0:0:0:1:
329,192,132178,1,0,0:0:0:1:
475,192,132178,1,0,0:0:0:1:
182,192,132283,1,0,0:0:0:1:
402,192,132283,1,0,0:0:0:1:
256,192,132389,1,0,0:0:0:1:
36,192,132389,1,0,0:0:0:1:
329,192,132389,1,0,0:0:0:1:
109,192,132459,1,0,0:0:0:1:
475,192,132495,1,0,0:0:0:1:
182,192,132530,1,0,0:0:0:1:
36,192,132600,1,0,0:0:0:1:
402,192,132600,1,0,0:0:0:1:
329,192,132600,1,0,0:0:0:1:
256,192,132671,1,0,0:0:0:1:
182,192,132741,1,0,0:0:0:1:
109,192,132812,1,0,0:0:0:1:
329,192,132812,1,0,0:0:0:1:
475,192,132812,1,0,0:0:0:1:
256,192,132917,1,0,0:0:0:1:
402,192,132917,1,0,0:0:0:1:
182,192,133023,1,0,0:0:0:1:
329,192,133023,1,0,0:0:0:1:
36,192,133023,1,0,0:0:0:1:
109,192,133128,1,0,0:0:0:1:
256,192,133128,1,0,0:0:0:1:
182,192,133234,1,0,0:0:0:1:
475,192,133234,1,0,0:0:0:1:
402,192,133234,1,0,0:0:0:1:
329,192,133305,1,0,0:0:0:1:
109,192,133340,1,0,0:0:0:1:
256,192,133375,1,0,0:0:0:1:
182,192,133445,1,0,0:0:0:1:
475,192,133445,1,0,0:0:0:1:
36,192,133445,1,0,0:0:0:1:
402,192,133516,1,0,0:0:0:1:
109,192,133551,1,0,0:0:0:1:
329,192,133586,1,0,0:0:0:1:
182,192,133657,1,0,0:0:0:1:
256,192,133657,1,0,0:0:0:1:
475,192,133657,1,0,0:0:0:1:
402,192,133762,1,0,0:0:0:1:
36,192,133762,1,0,0:0:0:1:
109,192,133868,1,0,0:0:0:1:
182,192,133868,1,0,0:0:0:1:
329,192,133868,1,0,0:0:0:1:
256,192,133974,1,0,0:0:0:1:
475,192,133974,1,0,0:0:0:1:
109,192,134079,1,0,0:0:0:1:
36,192,134079,1,0,0:0:0:1:
402,192,134079,1,0,0:0:0:1:
329,192,134150,1,0,0:0:0:1:
182,192,134185,1,0,0:0:0:1:
256,192,134220,1,0,0:0:0:1:
402,192,134290,1,0,0:0:0:1:
475,192,134290,1,0,0:0:0:1:
36,192,134290,1,0,0:0:0:1:
109,192,134361,1,0,0:0:0:1:
329,192,134396,1,0,0:0:0:1:
182,192,134431,1,0,0:0:0:1:
36,192,134502,1,0,0:0:0:1:
256,192,134502,1,0,0:0:0:1:
475,192,134502,1,0,0:0:0:1:
329,192,134607,1,0,0:0:0:1:
109,192,134607,1,0,0:0:0:1:
182,192,134713,1,0,0:0:0:1:
256,192,134713,1,0,0:0:0:1:
402,192,134713,1,0,0:0:0:1:
109,192,134819,1,0,0:0:0:1:
182,192,134924,1,0,0:0:0:1:
475,192,134924,1,0,0:0:0:1:
36,192,134924,1,0,0:0:0:1:
329,192,134977,1,0,0:0:0:1:
256,192,135030,1,0,0:0:0:1:
109,192,135083,1,0,0:0:0:1:
329,192,135136,1,0,0:0:0:1:
36,192,135136,1,0,0:0:0:1:
182,192,135188,1,0,0:0:0:1:
402,192,135188,1,0,0:0:0:1:
256,192,135241,1,0,0:0:0:1:
475,192,135294,1,0,0:0:0:1:
109,192,135347,1,0,0:0:0:1:
182,192,135347,1,0,0:0:0:1:
329,192,135347,1,0,0:0:0:1:
402,192,135347,1,0,0:0:0:1:
36,192,135347,1,0,0:0:0:1:
