osu file format v14

[General]
AudioFilename: audio.mp3
AudioLeadIn: 0
PreviewTime: 76520
Countdown: 0
SampleSet: Normal
StackLeniency: 0.7
Mode: 3
LetterboxInBreaks: 0
SpecialStyle: 0
WidescreenStoryboard: 1

[Editor]
DistanceSpacing: 0.8
BeatDivisor: 4
GridSize: 32
TimelineZoom: 1.7

[Metadata]
Title:Hanshoku-ki (Cut Ver.)
TitleUnicode:繁殖期 (Cut Ver.)
Artist:-.- --- .-. .- .. ..
ArtistUnicode:-.- --- .-. .- .. ..
Creator:-mint-
Version:7K Easy
Source:
Tags:010000101101111 koraii tomboy hanshokuki breeding season the cable cult qqqant elekton experimental electronic instrumental
BeatmapID:3260527
BeatmapSetID:1558101

[Difficulty]
HPDrainRate:7
CircleSize:7
OverallDifficulty:7
ApproachRate:5
SliderMultiplier:1.4
SliderTickRate:1

[Events]
//Background and Video events
0,0,"bg.jpg",0,0
//Break Periods
//Storyboard Layer 0 (Background)
//Storyboard Layer 1 (Fail)
//Storyboard Layer 2 (Pass)
//Storyboard Layer 3 (Foreground)
//Storyboard Layer 4 (Overlay)
//Storyboard Sound Samples

[TimingPoints]
3020,375,4,1,1,50,1,0
76520,-100,4,1,1,50,0,1
88520,-100,4,1,1,50,0,0
103501,375,4,1,1,50,1,0
127501,-100,4,1,1,50,0,1
151126,-100,4,1,1,50,0,0
151501,394.736842105263,4,1,1,50,1,0
151501,-95.2380952380952,4,1,1,50,0,0
151895,416.666666666667,4,1,1,50,1,8
151895,-90.0900900900901,4,1,1,50,0,0
152311,441.176470588235,4,1,1,50,1,8
152311,-84.7457627118644,4,1,1,50,0,0
152752,461.538461538462,4,1,1,50,1,8
152752,-81.3008130081301,4,1,1,50,0,0
152982,483.870967741935,4,1,1,50,1,8
152982,-77.5193798449612,4,1,1,50,0,0
153223,508.474576271186,4,1,1,50,1,0
153223,-73.5294117647059,4,1,1,50,0,0
153477,535.714285714286,4,1,1,50,1,8
153477,-69.9300699300699,4,1,1,50,0,0
153744,566.037735849057,4,1,1,50,1,8
153744,-66.2251655629139,4,1,1,50,0,0
154310,612.244897959184,4,1,1,50,1,8
154310,-61.3496932515337,4,1,1,50,0,0
154616,666.666666666667,4,1,1,50,1,8
154616,-56.1797752808989,4,1,1,50,0,0
154949,697.674418604651,4,1,1,50,1,8
154949,-53.763440860215,4,1,1,50,0,0
155297,731.707317073171,4,1,1,50,1,8
155297,-51.2820512820513,4,1,1,50,0,0
155662,750,4,1,1,50,1,0
155662,-50,4,1,1,50,0,0
156224,882.352941176471,4,1,1,50,1,8
156224,-42.5531914893617,4,1,1,50,0,8
156885,967.741935483871,4,1,1,50,1,8
156885,-38.7596899224806,4,1,1,50,0,8
157610,1071.42857142857,4,1,1,50,1,8
157610,-34.965034965035,4,1,1,50,0,8
157877,1200,4,1,1,50,1,8
157877,-31.25,4,1,1,50,0,8
158177,1578.94736842105,4,1,1,50,1,8
158177,-23.7529691211401,4,1,1,50,0,8
158571,1578.94736842105,4,1,1,50,1,0
158571,-23.7529691211401,4,1,1,50,0,0

[HitObjects]
329,192,1051,5,0,0:0:0:0:
182,192,1332,1,0,0:0:0:0:
329,192,1520,1,0,0:0:0:0:
402,192,3020,1,0,0:0:0:0:
109,192,3770,1,0,0:0:0:0:
402,192,4520,1,0,0:0:0:0:
256,192,5082,1,0,0:0:0:0:
109,192,5270,1,0,0:0:0:0:
402,192,6020,1,0,0:0:0:0:
109,192,6770,1,0,0:0:0:0:
402,192,7520,1,0,0:0:0:0:
256,192,8082,1,0,0:0:0:0:
109,192,8270,1,0,0:0:0:0:
402,192,9020,1,0,0:0:0:0:
109,192,9770,1,0,0:0:0:0:
402,192,10520,1,0,0:0:0:0:
256,192,11082,1,0,0:0:0:0:
109,192,11270,1,0,0:0:0:0:
402,192,12020,1,0,0:0:0:0:
64,192,12770,1,0,0:0:0:0:
182,192,13520,1,0,0:0:0:0:
402,192,14270,1,0,0:0:0:0:
64,192,16520,1,2,0:0:0:0:
320,192,16801,1,2,0:0:0:0:
64,192,17270,1,2,0:0:0:0:
320,192,17551,1,2,0:0:0:0:
64,192,18113,1,2,0:0:0:0:
320,192,18395,1,2,0:0:0:0:
448,192,18863,1,2,0:0:0:0:
192,192,19145,1,2,0:0:0:0:
64,192,19520,1,2,0:0:0:0:
320,192,19801,1,2,0:0:0:0:
64,192,20270,1,2,0:0:0:0:
320,192,20551,1,2,0:0:0:0:
64,192,21113,1,2,0:0:0:0:
320,192,21395,1,2,0:0:0:0:
448,192,21863,1,2,0:0:0:0:
192,192,22145,1,2,0:0:0:0:
64,192,22520,1,2,0:0:0:0:
320,192,22801,1,2,0:0:0:0:
64,192,23270,1,2,0:0:0:0:
320,192,23551,1,2,0:0:0:0:
64,192,24113,1,2,0:0:0:0:
320,192,24395,1,2,0:0:0:0:
448,192,24863,1,2,0:0:0:0:
192,192,25145,1,2,0:0:0:0:
64,192,25520,1,2,0:0:0:0:
320,192,25801,1,2,0:0:0:0:
64,192,26270,1,2,0:0:0:0:
320,192,26551,1,2,0:0:0:0:
64,192,27113,1,2,0:0:0:0:
320,192,27395,1,2,0:0:0:0:
448,192,27863,1,2,0:0:0:0:
192,192,28145,1,2,0:0:0:0:
64,192,28520,1,2,0:0:0:0:
256,192,28895,1,8,0:0:0:0:
402,192,28895,1,0,0:0:0:0:
64,192,29270,1,0,0:0:0:0:
256,192,29645,1,8,0:0:0:0:
402,192,29645,1,0,0:0:0:0:
64,192,30113,1,0,0:0:0:0:
256,192,30395,1,8,0:0:0:0:
402,192,30395,1,0,0:0:0:0:
448,192,30863,1,0,0:0:0:0:
109,192,31145,1,8,0:0:0:0:
256,192,31145,1,0,0:0:0:0:
64,192,31520,1,0,0:0:0:0:
256,192,31895,1,8,0:0:0:0:
402,192,31895,1,0,0:0:0:0:
64,192,32270,1,0,0:0:0:0:
256,192,32645,128,8,33020:0:0:0:0:
402,192,32645,1,0,0:0:0:0:
64,192,33113,1,0,0:0:0:0:
256,192,33395,1,8,0:0:0:0:
402,192,33395,1,0,0:0:0:0:
475,192,33863,1,0,0:0:0:0:
109,192,34145,1,8,0:0:0:0:
256,192,34145,1,0,0:0:0:0:
64,192,34520,1,2,0:0:0:0:
256,192,34895,1,8,0:0:0:0:
402,192,34895,1,0,0:0:0:0:
64,192,35270,1,0,0:0:0:0:
256,192,35645,1,8,0:0:0:0:
402,192,35645,1,0,0:0:0:0:
64,192,36113,1,0,0:0:0:0:
256,192,36395,1,8,0:0:0:0:
402,192,36395,1,0,0:0:0:0:
448,192,36863,1,0,0:0:0:0:
109,192,37145,1,8,0:0:0:0:
256,192,37145,1,0,0:0:0:0:
64,192,37520,1,0,0:0:0:0:
256,192,37895,1,8,0:0:0:0:
402,192,37895,1,0,0:0:0:0:
64,192,38270,1,0,0:0:0:0:
256,192,38645,1,8,0:0:0:0:
402,192,38645,1,0,0:0:0:0:
64,192,39113,1,0,0:0:0:0:
256,192,39395,1,8,0:0:0:0:
402,192,39395,1,0,0:0:0:0:
448,192,39863,1,0,0:0:0:0:
109,192,40145,1,8,0:0:0:0:
256,192,40145,1,0,0:0:0:0:
320,192,40332,1,0,0:0:0:0:
64,192,40520,1,2,0:0:0:0:
182,192,40895,1,8,0:0:0:0:
402,192,41270,1,0,0:0:0:0:
256,192,41551,1,0,0:0:0:0:
109,192,41832,1,0,0:0:0:0:
320,192,42020,1,0,0:0:0:0:
448,192,42395,1,8,0:0:0:0:
109,192,42770,1,0,0:0:0:0:
402,192,43051,1,0,0:0:0:0:
256,192,43332,1,0,0:0:0:0:
64,192,43520,1,0,0:0:0:0:
192,192,43895,1,8,0:0:0:0:
402,192,44270,1,0,0:0:0:0:
256,192,44551,1,0,0:0:0:0:
109,192,44832,1,0,0:0:0:0:
320,192,45207,1,0,0:0:0:0:
192,192,45676,1,0,0:0:0:0:
329,192,45863,1,0,0:0:0:0:
475,192,46145,1,8,0:0:0:0:
64,192,46520,1,2,0:0:0:0:
192,192,46895,1,8,0:0:0:0:
402,192,47270,1,0,0:0:0:0:
256,192,47551,1,0,0:0:0:0:
109,192,47832,1,0,0:0:0:0:
320,192,48020,1,0,0:0:0:0:
448,192,48395,1,8,0:0:0:0:
109,192,48770,1,0,0:0:0:0:
402,192,49051,1,0,0:0:0:0:
256,192,49332,1,0,0:0:0:0:
64,192,49520,1,0,0:0:0:0:
192,192,49895,1,8,0:0:0:0:
402,192,50270,1,0,0:0:0:0:
256,192,50551,1,0,0:0:0:0:
109,192,50832,1,0,0:0:0:0:
320,192,51207,1,0,0:0:0:0:
192,192,51676,1,0,0:0:0:0:
329,192,51863,1,0,0:0:0:0:
448,192,52145,1,8,0:0:0:0:
64,192,52520,1,2,0:0:0:0:
192,192,52895,1,8,0:0:0:0:
402,192,53270,1,0,0:0:0:0:
256,192,53551,1,0,0:0:0:0:
109,192,53832,1,0,0:0:0:0:
320,192,54020,1,0,0:0:0:0:
448,192,54395,1,8,0:0:0:0:
109,192,54770,1,0,0:0:0:0:
402,192,55051,1,0,0:0:0:0:
256,192,55332,1,0,0:0:0:0:
64,192,55520,1,0,0:0:0:0:
192,192,55895,1,8,0:0:0:0:
402,192,56270,1,0,0:0:0:0:
256,192,56551,1,0,0:0:0:0:
109,192,56832,1,0,0:0:0:0:
320,192,57207,1,0,0:0:0:0:
192,192,57676,1,0,0:0:0:0:
329,192,57863,1,0,0:0:0:0:
448,192,58145,1,8,0:0:0:0:
64,192,58520,1,2,0:0:0:0:
192,192,58895,1,8,0:0:0:0:
402,192,59270,1,0,0:0:0:0:
256,192,59551,1,0,0:0:0:0:
109,192,59832,1,0,0:0:0:0:
320,192,60020,1,0,0:0:0:0:
448,192,60395,1,8,0:0:0:0:
109,192,60770,1,0,0:0:0:0:
402,192,61051,1,0,0:0:0:0:
256,192,61332,1,0,0:0:0:0:
64,192,61520,1,0,0:0:0:0:
192,192,61895,1,8,0:0:0:0:
402,192,62270,1,0,0:0:0:0:
256,192,62551,1,0,0:0:0:0:
109,192,62832,1,0,0:0:0:0:
320,192,63207,1,0,0:0:0:0:
192,192,63676,1,0,0:0:0:0:
475,192,63863,1,0,0:0:0:0:
36,192,64145,1,0,0:0:0:0:
192,192,64520,1,2,0:0:0:0:
402,192,64895,1,8,0:0:0:0:
64,192,65270,1,0,0:0:0:0:
402,192,65645,1,8,0:0:0:0:
448,192,66020,1,0,0:0:0:0:
109,192,66395,1,8,0:0:0:0:
320,192,66770,1,0,0:0:0:0:
109,192,67145,1,8,0:0:0:0:
192,192,67520,1,0,0:0:0:0:
402,192,67895,1,8,0:0:0:0:
64,192,68270,1,0,0:0:0:0:
402,192,68645,1,8,0:0:0:0:
448,192,69020,1,0,0:0:0:0:
109,192,69395,1,8,0:0:0:0:
256,192,69770,128,0,70145:0:0:0:0:
448,192,70145,1,0,0:0:0:0:
192,192,70520,1,0,0:0:0:0:
402,192,70895,1,8,0:0:0:0:
64,192,71270,1,0,0:0:0:0:
402,192,71645,1,8,0:0:0:0:
448,192,72020,1,0,0:0:0:0:
109,192,72395,1,8,0:0:0:0:
320,192,72770,1,0,0:0:0:0:
109,192,73145,1,8,0:0:0:0:
192,192,73520,1,0,0:0:0:0:
402,192,73895,1,8,0:0:0:0:
64,192,74270,1,0,0:0:0:0:
402,192,74645,1,8,0:0:0:0:
448,192,75020,1,0,0:0:0:0:
109,192,75395,1,8,0:0:0:0:
320,192,75770,1,0,0:0:0:0:
256,192,76145,1,8,0:0:0:0:
109,192,76520,128,2,76895:0:0:0:0:
320,192,76895,1,8,0:0:0:0:
109,192,77270,128,0,77645:0:0:0:0:
320,192,77645,1,8,0:0:0:0:
109,192,78113,128,0,78395:0:0:0:0:
320,192,78395,1,8,0:0:0:0:
109,192,78863,128,0,79145:0:0:0:0:
320,192,79145,1,8,0:0:0:0:
192,192,79520,128,0,79895:0:0:0:0:
320,192,79895,1,8,0:0:0:0:
192,192,80270,128,0,80645:0:0:0:0:
320,192,80645,1,8,0:0:0:0:
402,192,81113,128,0,81395:0:0:0:0:
192,192,81395,1,8,0:0:0:0:
320,192,81770,128,0,82145:0:0:0:0:
402,192,82145,128,8,82520:0:0:0:0:
109,192,82520,128,0,82895:0:0:0:0:
320,192,82895,1,8,0:0:0:0:
109,192,83270,128,0,83645:0:0:0:0:
109,192,84113,128,0,84395:0:0:0:0:
320,192,84395,1,8,0:0:0:0:
109,192,84863,128,0,85145:0:0:0:0:
320,192,85145,1,8,0:0:0:0:
192,192,85520,128,0,85895:0:0:0:0:
402,192,85707,1,0,0:0:0:0:
320,192,85895,1,8,0:0:0:0:
192,192,86270,128,0,86645:0:0:0:0:
448,192,86457,1,0,0:0:0:0:
320,192,86645,1,8,0:0:0:0:
109,192,86832,1,0,0:0:0:0:
402,192,87113,128,0,87395:0:0:0:0:
192,192,87395,1,8,0:0:0:0:
320,192,87770,128,0,88145:0:0:0:0:
402,192,88145,128,8,88520:0:0:0:0:
109,192,88520,1,0,0:0:0:0:
109,192,89270,1,0,0:0:0:0:
109,192,90113,1,0,0:0:0:0:
109,192,90863,1,0,0:0:0:0:
192,192,91520,1,0,0:0:0:0:
192,192,92270,1,0,0:0:0:0:
402,192,93113,1,0,0:0:0:0:
320,192,93770,1,0,0:0:0:0:
402,192,94145,1,0,0:0:0:0:
109,192,94520,1,0,0:0:0:0:
109,192,95270,1,0,0:0:0:0:
109,192,96113,1,0,0:0:0:0:
109,192,96863,1,0,0:0:0:0:
192,192,97520,1,0,0:0:0:0:
192,192,98270,1,0,0:0:0:0:
448,192,99020,1,2,0:0:0:0:
448,192,99395,1,2,0:0:0:0:
64,192,99770,1,2,0:0:0:0:
64,192,100145,1,2,0:0:0:0:
256,192,100520,1,2,0:0:0:0:
320,192,103501,1,2,0:0:0:0:
256,192,103876,1,2,0:0:0:0:
402,192,104063,1,0,0:0:0:0:
64,192,104344,1,0,0:0:0:0:
256,192,104626,1,2,0:0:0:0:
109,192,104813,1,0,0:0:0:0:
448,192,105094,1,0,0:0:0:0:
256,192,105376,1,2,0:0:0:0:
448,192,105657,1,0,0:0:0:0:
64,192,105844,1,0,0:0:0:0:
256,192,106126,1,2,0:0:0:0:
109,192,106313,1,0,0:0:0:0:
329,192,106501,1,2,0:0:0:0:
256,192,106876,1,2,0:0:0:0:
448,192,107063,1,0,0:0:0:0:
64,192,107344,1,0,0:0:0:0:
256,192,107626,1,2,0:0:0:0:
192,192,107813,1,0,0:0:0:0:
448,192,108094,1,0,0:0:0:0:
256,192,108376,1,2,0:0:0:0:
448,192,108657,1,0,0:0:0:0:
64,192,108844,1,0,0:0:0:0:
256,192,109126,1,2,0:0:0:0:
192,192,109501,1,2,0:0:0:0:
256,192,109876,1,2,0:0:0:0:
402,192,110063,1,0,0:0:0:0:
64,192,110344,1,0,0:0:0:0:
256,192,110626,1,2,0:0:0:0:
109,192,110813,1,0,0:0:0:0:
448,192,111094,1,0,0:0:0:0:
256,192,111376,1,2,0:0:0:0:
448,192,111657,1,0,0:0:0:0:
64,192,111844,1,0,0:0:0:0:
256,192,112126,1,2,0:0:0:0:
109,192,112313,1,0,0:0:0:0:
402,192,112594,1,0,0:0:0:0:
192,192,112876,1,2,0:0:0:0:
320,192,113157,1,0,0:0:0:0:
36,192,113344,1,0,0:0:0:0:
448,192,113626,1,2,0:0:0:0:
256,192,113907,1,0,0:0:0:0:
402,192,114094,1,0,0:0:0:0:
64,192,114376,128,2,115126:0:0:0:0:
256,192,115126,1,2,0:0:0:0:
448,192,115501,1,2,0:0:0:0:
256,192,115876,1,2,0:0:0:0:
448,192,116063,1,0,0:0:0:0:
64,192,116344,1,0,0:0:0:0:
256,192,116626,1,2,0:0:0:0:
192,192,116813,1,0,0:0:0:0:
448,192,117094,1,0,0:0:0:0:
256,192,117376,1,2,0:0:0:0:
448,192,117657,1,0,0:0:0:0:
64,192,117844,1,0,0:0:0:0:
256,192,118126,1,2,0:0:0:0:
329,192,118501,1,2,0:0:0:0:
256,192,118876,1,2,0:0:0:0:
448,192,119063,1,0,0:0:0:0:
64,192,119344,1,0,0:0:0:0:
256,192,119626,1,2,0:0:0:0:
329,192,119813,1,0,0:0:0:0:
109,192,120001,1,0,0:0:0:0:
402,192,120188,1,0,0:0:0:0:
256,192,120376,1,2,0:0:0:0:
448,192,120657,1,0,0:0:0:0:
64,192,120844,1,0,0:0:0:0:
256,192,121126,1,2,0:0:0:0:
192,192,121501,1,2,0:0:0:0:
256,192,121876,1,2,0:0:0:0:
448,192,122063,1,0,0:0:0:0:
64,192,122344,1,0,0:0:0:0:
256,192,122626,1,2,0:0:0:0:
192,192,122813,1,0,0:0:0:0:
448,192,123094,1,0,0:0:0:0:
256,192,123376,1,2,0:0:0:0:
448,192,123657,1,0,0:0:0:0:
64,192,123844,1,0,0:0:0:0:
256,192,124126,1,2,0:0:0:0:
448,192,124501,1,2,0:0:0:0:
64,192,124876,1,2,0:0:0:0:
402,192,125251,1,2,0:0:0:0:
109,192,125626,1,2,0:0:0:0:
320,192,126001,1,2,0:0:0:0:
192,192,126376,1,2,0:0:0:0:
256,192,126751,1,2,0:0:0:0:
64,192,127501,1,2,0:0:0:0:
402,192,127876,1,2,0:0:0:0:
64,192,128251,1,2,0:0:0:0:
402,192,128626,1,2,0:0:0:0:
109,192,129001,1,2,0:0:0:0:
448,192,129376,1,2,0:0:0:0:
109,192,129751,1,2,0:0:0:0:
256,192,130126,128,2,130501:0:0:0:0:
320,192,130501,1,2,0:0:0:0:
36,192,130876,1,2,0:0:0:0:
320,192,131251,1,2,0:0:0:0:
36,192,131626,1,2,0:0:0:0:
256,192,132001,1,2,0:0:0:0:
448,192,132376,1,2,0:0:0:0:
109,192,132751,1,2,0:0:0:0:
329,192,133126,1,2,0:0:0:0:
64,192,133501,1,2,0:0:0:0:
402,192,133876,1,2,0:0:0:0:
64,192,134251,1,2,0:0:0:0:
402,192,134626,1,2,0:0:0:0:
448,192,135001,1,2,0:0:0:0:
109,192,135376,1,2,0:0:0:0:
448,192,135751,1,2,0:0:0:0:
109,192,136126,1,2,0:0:0:0:
320,192,136501,1,2,0:0:0:0:
36,192,136876,1,2,0:0:0:0:
320,192,137251,1,2,0:0:0:0:
36,192,137626,1,2,0:0:0:0:
182,192,138001,1,2,0:0:0:0:
402,192,138376,1,2,0:0:0:0:
256,192,138751,1,2,0:0:0:0:
475,192,139126,1,2,0:0:0:0:
64,192,139501,1,2,0:0:0:0:
402,192,139876,1,2,0:0:0:0:
64,192,140251,1,2,0:0:0:0:
402,192,140626,1,2,0:0:0:0:
109,192,141001,1,2,0:0:0:0:
448,192,141376,1,2,0:0:0:0:
109,192,141751,1,2,0:0:0:0:
256,192,142126,128,2,142501:0:0:0:0:
320,192,142501,1,2,0:0:0:0:
36,192,142876,1,2,0:0:0:0:
320,192,143251,1,2,0:0:0:0:
36,192,143626,1,2,0:0:0:0:
182,192,144001,1,2,0:0:0:0:
402,192,144376,1,2,0:0:0:0:
109,192,144751,1,2,0:0:0:0:
320,192,145126,1,2,0:0:0:0:
64,192,145501,1,2,0:0:0:0:
402,192,145876,1,2,0:0:0:0:
64,192,146251,1,2,0:0:0:0:
402,192,146626,1,2,0:0:0:0:
448,192,147001,1,2,0:0:0:0:
192,192,147376,1,2,0:0:0:0:
448,192,147751,1,2,0:0:0:0:
192,192,148126,1,2,0:0:0:0:
320,192,148501,1,2,0:0:0:0:
36,192,148876,1,2,0:0:0:0:
320,192,149251,1,2,0:0:0:0:
36,192,149626,1,2,0:0:0:0:
182,192,150001,1,2,0:0:0:0:
402,192,150376,1,2,0:0:0:0:
256,192,150751,1,2,0:0:0:0:
36,192,151126,1,2,0:0:0:0:
448,192,151501,128,0,151895:0:0:0:0:
320,192,151895,128,0,152311:0:0:0:0:
192,192,152311,128,0,152752:0:0:0:0:
64,192,152752,128,0,153223:0:0:0:0:
448,192,153223,128,0,153744:0:0:0:0:
192,192,153744,128,0,154310:0:0:0:0:
320,192,154310,128,0,154949:0:0:0:0:
64,192,154949,128,0,155662:0:0:0:0:
448,192,155662,128,0,156224:0:0:0:0:
402,192,156224,128,0,156885:0:0:0:0:
256,192,156885,128,0,157610:0:0:0:0:
109,192,157610,128,0,158571:0:0:0:0:
36,192,158571,1,0,0:0:0:0:
