osu file format v14

[General]
AudioFilename: audio.mp3
AudioLeadIn: 0
PreviewTime: 76520
Countdown: 0
SampleSet: Normal
StackLeniency: 0.7
Mode: 3
LetterboxInBreaks: 0
SpecialStyle: 0
WidescreenStoryboard: 1

[Editor]
DistanceSpacing: 0.8
BeatDivisor: 8
GridSize: 32
TimelineZoom: 1.7

[Metadata]
Title:Hanshoku-ki (Cut Ver.)
TitleUnicode:繁殖期 (Cut Ver.)
Artist:-.- --- .-. .- .. ..
ArtistUnicode:-.- --- .-. .- .. ..
Creator:-mint-
Version:4K Advanced
Source:
Tags:010000101101111 koraii tomboy hanshokuki breeding season the cable cult qqqant elekton experimental electronic instrumental
BeatmapID:3182824
BeatmapSetID:1558101

[Difficulty]
HPDrainRate:8
CircleSize:4
OverallDifficulty:8
ApproachRate:5
SliderMultiplier:1.4
SliderTickRate:1

[Events]
//Background and Video events
0,0,"bg.jpg",0,0
//Break Periods
//Storyboard Layer 0 (Background)
//Storyboard Layer 1 (Fail)
//Storyboard Layer 2 (Pass)
//Storyboard Layer 3 (Foreground)
//Storyboard Layer 4 (Overlay)
//Storyboard Sound Samples
Sample,87770,0,"B6S_s.wav",70
Sample,88145,0,"D7S_s.wav",70
Sample,93395,0,"A6S_s.wav",70
Sample,93723,0,"A#6S_Bb6S_s.wav",70
Sample,93957,0,"F#6S_Gb6S_s.wav",70
Sample,94238,0,"G7S_s.wav",70
Sample,145501,0,"G7S_s.wav",70
Sample,145876,0,"D#7S_Eb7S_s.wav",70
Sample,146251,0,"B6S_s.wav",70
Sample,146626,0,"G6S_s.wav",70
Sample,147001,0,"C7S_s.wav",70
Sample,147313,0,"D#7S_Eb7S_s.wav",70
Sample,147751,0,"E7S_s.wav",70
Sample,148126,0,"C7S_s.wav",70
Sample,148501,0,"A#7S_Bb7S_s.wav",70
Sample,148876,0,"A#6S_Bb6S_s.wav",70
Sample,148969,0,"B5S_s.wav",70
Sample,149344,0,"G7S_s.wav",70
Sample,149532,0,"F#7S_Gb7S_s.wav",70
Sample,149672,0,"A#6S_Bb6S_s.wav",70
Sample,149766,0,"F6S_s.wav",70
Sample,149876,0,"F#6S_Gb6S_s.wav",70
Sample,149938,0,"A#6S_Bb6S_s.wav",70
Sample,150376,0,"G#7S_Ab7S_s.wav",70

[TimingPoints]
3020,375,4,1,1,50,1,0
76520,-100,4,1,1,50,0,1
88520,-100,4,1,1,50,0,0
103501,375,4,1,1,50,1,0
127501,-100,4,1,1,50,0,1
151126,-100,4,1,1,50,0,0
151501,394.736842105263,4,1,1,50,1,0
151501,-95.2380952380952,4,1,1,50,0,0
151895,416.666666666667,4,1,1,50,1,8
151895,-90.0900900900901,4,1,1,50,0,0
152311,441.176470588235,4,1,1,50,1,8
152311,-84.7457627118644,4,1,1,50,0,0
152752,461.538461538462,4,1,1,50,1,8
152752,-81.3008130081301,4,1,1,50,0,0
152982,483.870967741935,4,1,1,50,1,8
152982,-77.5193798449612,4,1,1,50,0,0
153223,508.474576271186,4,1,1,50,1,0
153223,-73.5294117647059,4,1,1,50,0,0
153477,535.714285714286,4,1,1,50,1,8
153477,-69.9300699300699,4,1,1,50,0,0
153744,566.037735849057,4,1,1,50,1,8
153744,-66.2251655629139,4,1,1,50,0,0
154310,612.244897959184,4,1,1,50,1,8
154310,-61.3496932515337,4,1,1,50,0,0
154616,666.666666666667,4,1,1,50,1,8
154616,-56.1797752808989,4,1,1,50,0,0
154949,697.674418604651,4,1,1,50,1,8
154949,-53.763440860215,4,1,1,50,0,0
155297,731.707317073171,4,1,1,50,1,8
155297,-51.2820512820513,4,1,1,50,0,0
155662,750,4,1,1,50,1,0
155662,-50,4,1,1,50,0,0
156224,882.352941176471,4,1,1,50,1,8
156224,-42.5531914893617,4,1,1,50,0,8
156885,967.741935483871,4,1,1,50,1,8
156885,-38.7596899224806,4,1,1,50,0,8
157610,1071.42857142857,4,1,1,50,1,8
157610,-34.965034965035,4,1,1,50,0,8
157877,1200,4,1,1,50,1,8
157877,-31.25,4,1,1,50,0,8
158177,1578.94736842105,4,1,1,50,1,8
158177,-23.7529691211401,4,1,1,50,0,8
158571,1578.94736842105,4,1,1,50,1,0
158571,-23.7529691211401,4,1,1,50,0,0

[HitObjects]
448,192,1051,5,0,0:0:0:0:
448,192,1332,1,0,0:0:0:0:
448,192,1520,1,0,0:0:0:0:
192,192,3020,1,0,0:0:0:0:
448,192,3113,1,0,0:0:0:0:
448,192,3301,1,0,0:0:0:0:
192,192,3395,1,0,0:0:0:0:
320,192,3770,1,0,0:0:0:0:
64,192,3863,1,0,0:0:0:0:
64,192,4051,1,0,0:0:0:0:
448,192,4145,1,0,0:0:0:0:
64,192,4332,1,0,0:0:0:0:
192,192,4520,1,0,0:0:0:0:
448,192,4613,1,0,0:0:0:0:
448,192,4801,1,0,0:0:0:0:
192,192,4895,1,0,0:0:0:0:
320,192,5082,1,0,0:0:0:0:
320,192,5270,1,0,0:0:0:0:
64,192,5363,1,0,0:0:0:0:
64,192,5551,1,0,0:0:0:0:
448,192,5645,1,0,0:0:0:0:
192,192,6020,1,0,0:0:0:0:
448,192,6113,1,0,0:0:0:0:
448,192,6301,1,0,0:0:0:0:
192,192,6395,1,0,0:0:0:0:
320,192,6770,1,0,0:0:0:0:
64,192,6863,1,0,0:0:0:0:
64,192,7051,1,0,0:0:0:0:
448,192,7145,1,0,0:0:0:0:
64,192,7332,1,0,0:0:0:0:
192,192,7520,1,0,0:0:0:0:
448,192,7613,1,0,0:0:0:0:
448,192,7801,1,0,0:0:0:0:
192,192,7895,1,0,0:0:0:0:
320,192,8082,1,0,0:0:0:0:
320,192,8270,1,0,0:0:0:0:
64,192,8363,1,0,0:0:0:0:
64,192,8551,1,0,0:0:0:0:
448,192,8645,1,0,0:0:0:0:
192,192,9020,1,0,0:0:0:0:
448,192,9113,1,0,0:0:0:0:
448,192,9301,1,0,0:0:0:0:
192,192,9395,1,0,0:0:0:0:
320,192,9770,1,0,0:0:0:0:
64,192,9863,1,0,0:0:0:0:
64,192,10051,1,0,0:0:0:0:
448,192,10145,1,0,0:0:0:0:
64,192,10332,1,0,0:0:0:0:
192,192,10520,1,0,0:0:0:0:
448,192,10613,1,0,0:0:0:0:
448,192,10801,1,0,0:0:0:0:
192,192,10895,1,0,0:0:0:0:
320,192,11082,1,0,0:0:0:0:
320,192,11270,1,0,0:0:0:0:
64,192,11363,1,0,0:0:0:0:
64,192,11551,1,0,0:0:0:0:
448,192,11645,1,0,0:0:0:0:
192,192,12020,1,0,0:0:0:0:
448,192,12113,1,0,0:0:0:0:
448,192,12301,1,0,0:0:0:0:
192,192,12395,1,0,0:0:0:0:
320,192,12770,1,0,0:0:0:0:
64,192,12863,1,0,0:0:0:0:
192,192,13051,1,0,0:0:0:0:
448,192,13145,1,0,0:0:0:0:
192,192,13332,1,0,0:0:0:0:
320,192,13520,1,0,0:0:0:0:
64,192,13613,1,0,0:0:0:0:
448,192,13801,1,0,0:0:0:0:
192,192,13895,1,0,0:0:0:0:
64,192,14082,1,0,0:0:0:0:
192,192,14270,1,0,0:0:0:0:
320,192,14363,1,0,0:0:0:0:
448,192,14551,1,0,0:0:0:0:
64,192,16520,1,2,0:0:0:0:
320,192,16707,1,0,0:0:0:0:
192,192,16801,128,2,16988:0:0:0:0:
64,192,17270,1,2,0:0:0:0:
320,192,17457,1,0,0:0:0:0:
192,192,17551,128,2,17738:0:0:0:0:
64,192,18113,1,2,0:0:0:0:
320,192,18301,1,0,0:0:0:0:
192,192,18395,128,2,18582:0:0:0:0:
448,192,18863,128,2,19051:0:0:0:0:
192,192,19051,1,0,0:0:0:0:
320,192,19145,128,2,19332:0:0:0:0:
64,192,19520,1,2,0:0:0:0:
320,192,19707,1,0,0:0:0:0:
192,192,19801,128,2,19988:0:0:0:0:
64,192,20270,1,2,0:0:0:0:
320,192,20457,1,0,0:0:0:0:
192,192,20551,128,2,20738:0:0:0:0:
64,192,21113,1,2,0:0:0:0:
320,192,21301,1,0,0:0:0:0:
192,192,21395,128,2,21582:0:0:0:0:
448,192,21863,128,2,22051:0:0:0:0:
192,192,22051,1,0,0:0:0:0:
320,192,22145,128,2,22332:0:0:0:0:
64,192,22520,1,2,0:0:0:0:
320,192,22707,1,0,0:0:0:0:
192,192,22801,128,2,22988:0:0:0:0:
64,192,23270,1,2,0:0:0:0:
320,192,23457,1,0,0:0:0:0:
192,192,23551,128,2,23738:0:0:0:0:
448,192,23926,1,0,0:0:0:0:
192,192,24020,1,0,0:0:0:0:
64,192,24113,1,2,0:0:0:0:
320,192,24301,1,0,0:0:0:0:
192,192,24395,128,2,24582:0:0:0:0:
64,192,24770,1,0,0:0:0:0:
448,192,24863,128,2,25051:0:0:0:0:
192,192,25051,1,0,0:0:0:0:
320,192,25145,128,2,25332:0:0:0:0:
64,192,25520,1,2,0:0:0:0:
320,192,25707,1,0,0:0:0:0:
192,192,25801,128,2,25988:0:0:0:0:
64,192,26270,1,2,0:0:0:0:
320,192,26457,1,0,0:0:0:0:
192,192,26551,1,2,0:0:0:0:
320,192,26645,128,0,27020:0:0:0:0:
64,192,27113,1,2,0:0:0:0:
320,192,27301,1,0,0:0:0:0:
192,192,27395,128,2,27582:0:0:0:0:
64,192,27770,1,0,0:0:0:0:
448,192,27863,128,2,28051:0:0:0:0:
192,192,28051,1,0,0:0:0:0:
320,192,28145,128,2,28332:0:0:0:0:
64,192,28520,128,2,28707:0:0:0:0:
320,192,28707,1,0,0:0:0:0:
448,192,28801,1,2,0:0:0:0:
320,192,28895,128,0,29082:0:0:0:0:
64,192,28895,1,8,0:0:0:0:
64,192,29270,1,2,0:0:0:0:
448,192,29457,1,0,0:0:0:0:
192,192,29551,1,2,0:0:0:0:
320,192,29645,128,0,29832:0:0:0:0:
64,192,29645,1,8,0:0:0:0:
64,192,30113,1,2,0:0:0:0:
320,192,30301,1,0,0:0:0:0:
448,192,30395,1,2,0:0:0:0:
192,192,30395,128,8,30582:0:0:0:0:
64,192,30770,1,0,0:0:0:0:
448,192,30863,128,2,31051:0:0:0:0:
192,192,31051,1,0,0:0:0:0:
320,192,31145,128,8,31332:0:0:0:0:
64,192,31145,1,2,0:0:0:0:
64,192,31520,1,2,0:0:0:0:
448,192,31707,1,0,0:0:0:0:
192,192,31801,1,2,0:0:0:0:
320,192,31895,128,0,32082:0:0:0:0:
64,192,31895,1,8,0:0:0:0:
64,192,32270,1,2,0:0:0:0:
448,192,32457,1,0,0:0:0:0:
192,192,32551,1,2,0:0:0:0:
320,192,32645,128,0,33020:0:0:0:0:
64,192,32645,1,8,0:0:0:0:
64,192,33113,1,2,0:0:0:0:
320,192,33301,1,0,0:0:0:0:
448,192,33395,1,2,0:0:0:0:
192,192,33395,128,8,33582:0:0:0:0:
64,192,33770,1,0,0:0:0:0:
448,192,33863,128,2,34051:0:0:0:0:
192,192,34051,1,0,0:0:0:0:
320,192,34145,128,8,34332:0:0:0:0:
64,192,34145,1,2,0:0:0:0:
64,192,34520,128,2,34707:0:0:0:0:
320,192,34707,1,0,0:0:0:0:
448,192,34801,1,2,0:0:0:0:
320,192,34895,128,0,35082:0:0:0:0:
64,192,34895,1,8,0:0:0:0:
64,192,35270,1,2,0:0:0:0:
448,192,35457,1,0,0:0:0:0:
192,192,35551,1,2,0:0:0:0:
320,192,35645,128,0,35832:0:0:0:0:
64,192,35645,1,8,0:0:0:0:
448,192,35926,1,0,0:0:0:0:
192,192,36020,1,0,0:0:0:0:
64,192,36113,1,2,0:0:0:0:
320,192,36301,1,0,0:0:0:0:
448,192,36395,1,8,0:0:0:0:
192,192,36395,128,2,36582:0:0:0:0:
64,192,36770,1,0,0:0:0:0:
448,192,36863,128,2,37051:0:0:0:0:
192,192,37051,1,0,0:0:0:0:
320,192,37145,128,2,37332:0:0:0:0:
64,192,37145,1,8,0:0:0:0:
64,192,37520,1,2,0:0:0:0:
448,192,37707,1,0,0:0:0:0:
192,192,37801,1,2,0:0:0:0:
320,192,37895,128,0,38082:0:0:0:0:
64,192,37895,1,8,0:0:0:0:
64,192,38270,1,2,0:0:0:0:
448,192,38457,1,0,0:0:0:0:
192,192,38551,1,2,0:0:0:0:
320,192,38645,128,0,38832:0:0:0:0:
64,192,38645,1,8,0:0:0:0:
448,192,39020,1,0,0:0:0:0:
64,192,39113,1,2,0:0:0:0:
320,192,39301,1,0,0:0:0:0:
448,192,39395,1,2,0:0:0:0:
192,192,39395,128,8,39582:0:0:0:0:
64,192,39770,1,0,0:0:0:0:
448,192,39863,128,2,40051:0:0:0:0:
192,192,40051,1,0,0:0:0:0:
320,192,40145,128,8,40332:0:0:0:0:
64,192,40145,1,2,0:0:0:0:
448,192,40332,1,0,0:0:0:0:
192,192,40426,1,0,0:0:0:0:
320,192,40520,1,0,0:0:0:0:
64,192,40520,1,2,0:0:0:0:
192,192,40613,1,0,0:0:0:0:
448,192,40707,1,0,0:0:0:0:
64,192,40801,1,2,0:0:0:0:
320,192,40895,1,8,0:0:0:0:
192,192,41082,1,0,0:0:0:0:
320,192,41270,1,2,0:0:0:0:
192,192,41363,1,0,0:0:0:0:
448,192,41457,1,0,0:0:0:0:
64,192,41551,1,2,0:0:0:0:
320,192,41645,1,8,0:0:0:0:
192,192,41832,1,0,0:0:0:0:
64,192,41926,1,0,0:0:0:0:
320,192,42020,1,0,0:0:0:0:
64,192,42113,1,2,0:0:0:0:
448,192,42207,1,0,0:0:0:0:
192,192,42301,1,0,0:0:0:0:
320,192,42395,1,10,0:0:0:0:
192,192,42582,1,0,0:0:0:0:
192,192,42770,1,0,0:0:0:0:
448,192,42863,1,2,0:0:0:0:
64,192,43051,1,0,0:0:0:0:
320,192,43145,1,10,0:0:0:0:
192,192,43332,1,0,0:0:0:0:
64,192,43426,1,0,0:0:0:0:
320,192,43520,1,2,0:0:0:0:
192,192,43613,1,0,0:0:0:0:
448,192,43707,1,0,0:0:0:0:
64,192,43801,1,2,0:0:0:0:
320,192,43895,1,8,0:0:0:0:
192,192,44082,1,0,0:0:0:0:
320,192,44270,1,2,0:0:0:0:
192,192,44363,1,0,0:0:0:0:
448,192,44457,1,0,0:0:0:0:
64,192,44551,1,2,0:0:0:0:
320,192,44645,1,8,0:0:0:0:
192,192,44832,1,0,0:0:0:0:
64,192,44926,1,0,0:0:0:0:
448,192,45113,1,2,0:0:0:0:
192,192,45207,1,0,0:0:0:0:
320,192,45301,1,0,0:0:0:0:
64,192,45395,1,10,0:0:0:0:
320,192,45488,1,0,0:0:0:0:
320,192,45676,1,0,0:0:0:0:
192,192,45770,1,0,0:0:0:0:
448,192,45863,1,2,0:0:0:0:
64,192,45957,1,0,0:0:0:0:
192,192,46051,1,0,0:0:0:0:
320,192,46145,1,10,0:0:0:0:
448,192,46238,1,0,0:0:0:0:
192,192,46332,1,0,0:0:0:0:
448,192,46426,1,0,0:0:0:0:
320,192,46520,1,0,0:0:0:0:
64,192,46520,1,2,0:0:0:0:
192,192,46613,1,0,0:0:0:0:
448,192,46707,1,0,0:0:0:0:
64,192,46801,1,2,0:0:0:0:
320,192,46895,1,8,0:0:0:0:
192,192,47082,1,0,0:0:0:0:
320,192,47270,1,2,0:0:0:0:
192,192,47363,1,0,0:0:0:0:
448,192,47457,1,0,0:0:0:0:
64,192,47551,1,2,0:0:0:0:
320,192,47645,1,8,0:0:0:0:
192,192,47832,1,0,0:0:0:0:
64,192,47926,1,0,0:0:0:0:
320,192,48020,1,0,0:0:0:0:
64,192,48113,1,2,0:0:0:0:
448,192,48207,1,0,0:0:0:0:
192,192,48301,1,0,0:0:0:0:
320,192,48395,1,10,0:0:0:0:
192,192,48582,1,0,0:0:0:0:
192,192,48770,1,0,0:0:0:0:
448,192,48863,1,2,0:0:0:0:
64,192,49051,1,0,0:0:0:0:
320,192,49145,1,10,0:0:0:0:
192,192,49332,1,0,0:0:0:0:
64,192,49426,1,0,0:0:0:0:
320,192,49520,1,2,0:0:0:0:
192,192,49613,1,0,0:0:0:0:
448,192,49707,1,0,0:0:0:0:
64,192,49801,1,2,0:0:0:0:
320,192,49895,1,8,0:0:0:0:
192,192,50082,1,0,0:0:0:0:
320,192,50270,1,2,0:0:0:0:
192,192,50363,1,0,0:0:0:0:
448,192,50457,1,0,0:0:0:0:
64,192,50551,1,2,0:0:0:0:
320,192,50645,1,8,0:0:0:0:
192,192,50832,1,0,0:0:0:0:
64,192,50926,1,0,0:0:0:0:
448,192,51113,1,2,0:0:0:0:
192,192,51207,1,0,0:0:0:0:
320,192,51301,1,0,0:0:0:0:
64,192,51395,1,10,0:0:0:0:
320,192,51488,1,0,0:0:0:0:
320,192,51676,1,0,0:0:0:0:
192,192,51770,1,0,0:0:0:0:
448,192,51863,1,2,0:0:0:0:
64,192,51957,1,0,0:0:0:0:
192,192,52051,1,0,0:0:0:0:
320,192,52145,1,10,0:0:0:0:
448,192,52238,1,0,0:0:0:0:
192,192,52332,1,0,0:0:0:0:
448,192,52426,1,0,0:0:0:0:
320,192,52520,1,0,0:0:0:0:
64,192,52520,1,2,0:0:0:0:
192,192,52613,1,0,0:0:0:0:
448,192,52707,1,0,0:0:0:0:
64,192,52801,1,2,0:0:0:0:
320,192,52895,1,8,0:0:0:0:
192,192,53082,1,0,0:0:0:0:
320,192,53270,1,2,0:0:0:0:
192,192,53363,1,0,0:0:0:0:
448,192,53457,1,0,0:0:0:0:
64,192,53551,1,2,0:0:0:0:
320,192,53645,1,8,0:0:0:0:
192,192,53832,1,0,0:0:0:0:
64,192,53926,1,0,0:0:0:0:
320,192,54020,1,0,0:0:0:0:
64,192,54113,1,2,0:0:0:0:
448,192,54207,1,0,0:0:0:0:
192,192,54301,1,0,0:0:0:0:
320,192,54395,1,10,0:0:0:0:
192,192,54582,1,0,0:0:0:0:
192,192,54770,1,0,0:0:0:0:
448,192,54863,1,2,0:0:0:0:
64,192,55051,1,0,0:0:0:0:
320,192,55145,1,10,0:0:0:0:
192,192,55332,1,0,0:0:0:0:
64,192,55426,1,0,0:0:0:0:
320,192,55520,1,2,0:0:0:0:
192,192,55613,1,0,0:0:0:0:
448,192,55707,1,0,0:0:0:0:
64,192,55801,1,2,0:0:0:0:
320,192,55895,1,8,0:0:0:0:
192,192,56082,1,0,0:0:0:0:
320,192,56270,1,2,0:0:0:0:
192,192,56363,1,0,0:0:0:0:
448,192,56457,1,0,0:0:0:0:
64,192,56551,1,2,0:0:0:0:
320,192,56645,1,8,0:0:0:0:
192,192,56832,1,0,0:0:0:0:
64,192,56926,1,0,0:0:0:0:
448,192,57113,1,2,0:0:0:0:
192,192,57207,1,0,0:0:0:0:
320,192,57301,1,0,0:0:0:0:
64,192,57395,1,10,0:0:0:0:
320,192,57488,1,0,0:0:0:0:
320,192,57676,1,0,0:0:0:0:
192,192,57770,1,0,0:0:0:0:
448,192,57863,1,2,0:0:0:0:
64,192,57957,1,0,0:0:0:0:
192,192,58051,1,0,0:0:0:0:
320,192,58145,1,10,0:0:0:0:
448,192,58238,1,0,0:0:0:0:
192,192,58332,1,0,0:0:0:0:
448,192,58426,1,0,0:0:0:0:
192,192,58520,1,0,0:0:0:0:
64,192,58520,1,2,0:0:0:0:
320,192,58613,1,0,0:0:0:0:
448,192,58707,1,0,0:0:0:0:
64,192,58801,1,2,0:0:0:0:
320,192,58895,1,8,0:0:0:0:
192,192,59082,1,0,0:0:0:0:
320,192,59270,1,2,0:0:0:0:
192,192,59363,1,0,0:0:0:0:
448,192,59457,1,0,0:0:0:0:
64,192,59551,1,2,0:0:0:0:
320,192,59645,1,8,0:0:0:0:
192,192,59832,1,0,0:0:0:0:
64,192,59926,1,0,0:0:0:0:
320,192,60020,1,0,0:0:0:0:
64,192,60113,1,2,0:0:0:0:
448,192,60207,1,0,0:0:0:0:
192,192,60301,1,0,0:0:0:0:
320,192,60395,1,10,0:0:0:0:
192,192,60582,1,0,0:0:0:0:
192,192,60770,1,0,0:0:0:0:
448,192,60863,1,2,0:0:0:0:
64,192,61051,1,0,0:0:0:0:
320,192,61145,1,10,0:0:0:0:
192,192,61332,1,0,0:0:0:0:
64,192,61426,1,0,0:0:0:0:
320,192,61520,1,2,0:0:0:0:
192,192,61613,1,0,0:0:0:0:
448,192,61707,1,0,0:0:0:0:
64,192,61801,1,2,0:0:0:0:
320,192,61895,1,8,0:0:0:0:
192,192,62082,1,0,0:0:0:0:
320,192,62270,1,2,0:0:0:0:
192,192,62363,1,0,0:0:0:0:
448,192,62457,1,0,0:0:0:0:
64,192,62551,1,2,0:0:0:0:
320,192,62645,1,8,0:0:0:0:
192,192,62832,1,0,0:0:0:0:
64,192,62926,1,0,0:0:0:0:
448,192,63113,1,2,0:0:0:0:
192,192,63207,1,0,0:0:0:0:
320,192,63301,1,0,0:0:0:0:
64,192,63395,1,2,0:0:0:0:
320,192,63488,1,0,0:0:0:0:
320,192,63676,1,0,0:0:0:0:
448,192,63863,1,0,0:0:0:0:
64,192,63957,1,0,0:0:0:0:
192,192,64051,1,0,0:0:0:0:
320,192,64145,1,0,0:0:0:0:
192,192,64520,1,2,0:0:0:0:
320,192,64613,1,0,0:0:0:0:
192,192,64801,1,2,0:0:0:0:
448,192,64895,1,8,0:0:0:0:
64,192,65270,1,2,0:0:0:0:
320,192,65363,1,0,0:0:0:0:
64,192,65551,1,2,0:0:0:0:
448,192,65645,1,8,0:0:0:0:
448,192,66020,1,0,0:0:0:0:
192,192,66113,1,2,0:0:0:0:
448,192,66301,1,0,0:0:0:0:
64,192,66395,1,10,0:0:0:0:
320,192,66582,1,0,0:0:0:0:
320,192,66770,1,0,0:0:0:0:
192,192,66770,1,0,0:0:0:0:
64,192,66863,1,2,0:0:0:0:
320,192,67051,1,0,0:0:0:0:
192,192,67145,1,10,0:0:0:0:
192,192,67520,1,2,0:0:0:0:
320,192,67613,1,0,0:0:0:0:
192,192,67801,1,2,0:0:0:0:
448,192,67895,1,8,0:0:0:0:
64,192,68270,1,2,0:0:0:0:
320,192,68363,1,0,0:0:0:0:
64,192,68551,1,2,0:0:0:0:
448,192,68645,1,8,0:0:0:0:
448,192,69020,1,0,0:0:0:0:
192,192,69113,1,2,0:0:0:0:
448,192,69301,1,0,0:0:0:0:
64,192,69395,1,10,0:0:0:0:
320,192,69582,1,0,0:0:0:0:
320,192,69770,1,0,0:0:0:0:
192,192,69770,1,0,0:0:0:0:
64,192,69863,128,2,70145:0:0:0:0:
320,192,70051,1,0,0:0:0:0:
192,192,70145,1,2,0:0:0:0:
192,192,70520,1,2,0:0:0:0:
320,192,70613,1,0,0:0:0:0:
192,192,70801,1,2,0:0:0:0:
448,192,70895,1,8,0:0:0:0:
64,192,71270,1,2,0:0:0:0:
320,192,71363,1,0,0:0:0:0:
64,192,71551,1,2,0:0:0:0:
448,192,71645,1,8,0:0:0:0:
448,192,72020,1,0,0:0:0:0:
192,192,72113,1,2,0:0:0:0:
448,192,72301,1,0,0:0:0:0:
64,192,72395,1,10,0:0:0:0:
320,192,72582,1,0,0:0:0:0:
320,192,72770,1,0,0:0:0:0:
192,192,72770,1,0,0:0:0:0:
64,192,72863,1,2,0:0:0:0:
320,192,73051,1,0,0:0:0:0:
192,192,73145,1,10,0:0:0:0:
192,192,73520,1,2,0:0:0:0:
320,192,73613,1,0,0:0:0:0:
192,192,73801,1,2,0:0:0:0:
448,192,73895,1,8,0:0:0:0:
64,192,74270,1,2,0:0:0:0:
320,192,74363,1,0,0:0:0:0:
64,192,74551,1,2,0:0:0:0:
448,192,74645,1,8,0:0:0:0:
448,192,75020,1,0,0:0:0:0:
192,192,75113,1,2,0:0:0:0:
448,192,75301,1,0,0:0:0:0:
64,192,75395,1,10,0:0:0:0:
320,192,75582,1,0,0:0:0:0:
320,192,75770,1,0,0:0:0:0:
192,192,75770,1,0,0:0:0:0:
64,192,75863,1,2,0:0:0:0:
320,192,76051,1,0,0:0:0:0:
192,192,76145,1,8,0:0:0:0:
64,192,76520,128,2,76895:0:0:0:0:
320,192,76707,1,0,0:0:0:0:
448,192,76801,1,0,0:0:0:0:
192,192,76895,1,8,0:0:0:0:
64,192,77270,128,2,77645:0:0:0:0:
320,192,77457,1,0,0:0:0:0:
448,192,77551,1,0,0:0:0:0:
192,192,77645,1,8,0:0:0:0:
192,192,77832,1,0,0:0:0:0:
448,192,78020,1,2,0:0:0:0:
64,192,78113,128,0,78395:0:0:0:0:
320,192,78207,1,0,0:0:0:0:
192,192,78395,1,8,0:0:0:0:
192,192,78676,1,0,0:0:0:0:
448,192,78770,1,2,0:0:0:0:
64,192,78863,128,0,79145:0:0:0:0:
320,192,78957,1,0,0:0:0:0:
192,192,79145,1,8,0:0:0:0:
192,192,79332,1,0,0:0:0:0:
64,192,79520,128,2,79895:0:0:0:0:
320,192,79707,1,0,0:0:0:0:
448,192,79801,1,0,0:0:0:0:
192,192,79895,1,8,0:0:0:0:
64,192,80270,128,2,80645:0:0:0:0:
320,192,80457,1,0,0:0:0:0:
448,192,80551,1,0,0:0:0:0:
192,192,80645,1,8,0:0:0:0:
192,192,80832,1,0,0:0:0:0:
64,192,81020,1,2,0:0:0:0:
448,192,81113,128,0,81395:0:0:0:0:
192,192,81301,1,0,0:0:0:0:
320,192,81395,1,8,0:0:0:0:
192,192,81488,1,0,0:0:0:0:
64,192,81582,1,0,0:0:0:0:
320,192,81676,1,0,0:0:0:0:
448,192,81770,128,2,81957:0:0:0:0:
64,192,81957,1,0,0:0:0:0:
448,192,82145,128,8,82520:0:0:0:0:
192,192,82332,1,0,0:0:0:0:
64,192,82520,128,2,82895:0:0:0:0:
320,192,82707,1,0,0:0:0:0:
448,192,82801,1,0,0:0:0:0:
192,192,82895,1,8,0:0:0:0:
64,192,83270,128,2,83645:0:0:0:0:
320,192,83457,1,0,0:0:0:0:
448,192,83551,1,0,0:0:0:0:
448,192,84020,1,2,0:0:0:0:
64,192,84113,128,0,84395:0:0:0:0:
320,192,84301,1,0,0:0:0:0:
192,192,84395,1,8,0:0:0:0:
448,192,84488,1,0,0:0:0:0:
192,192,84676,1,0,0:0:0:0:
448,192,84770,1,2,0:0:0:0:
64,192,84863,128,0,85145:0:0:0:0:
320,192,84957,1,0,0:0:0:0:
192,192,85145,1,8,0:0:0:0:
320,192,85332,1,0,0:0:0:0:
64,192,85520,128,2,85895:0:0:0:0:
448,192,85613,1,0,0:0:0:0:
320,192,85707,1,0,0:0:0:0:
448,192,85801,1,0,0:0:0:0:
192,192,85895,1,8,0:0:0:0:
448,192,86176,1,0,0:0:0:0:
64,192,86270,128,2,86645:0:0:0:0:
320,192,86363,1,0,0:0:0:0:
448,192,86457,1,0,0:0:0:0:
320,192,86551,1,0,0:0:0:0:
192,192,86645,1,8,0:0:0:0:
448,192,86738,1,0,0:0:0:0:
192,192,86832,1,0,0:0:0:0:
320,192,86926,1,0,0:0:0:0:
64,192,87020,1,2,0:0:0:0:
448,192,87113,128,0,87395:0:0:0:0:
192,192,87301,1,0,0:0:0:0:
320,192,87395,1,8,0:0:0:0:
64,192,87488,1,0,0:0:0:0:
320,192,87582,1,0,0:0:0:0:
192,192,87676,1,0,0:0:0:0:
448,192,87770,128,2,87957:0:0:0:0:
64,192,87863,1,0,0:0:0:70:A#6S_Bb6S_s.wav
192,192,87957,1,0,0:0:0:70:C7S_s.wav
64,192,88051,1,0,0:0:0:70:C#7S_Db7S_s.wav
448,192,88145,128,8,88520:0:0:0:0:
192,192,88332,1,0,0:0:0:70:D#7S_Eb7S_s.wav
320,192,88426,1,0,0:0:0:70:E7S_s.wav
64,192,88520,1,0,0:0:0:70:E7S_s.wav
192,192,88613,1,0,0:0:0:70:F#7S_Gb7S_s.wav
448,192,88707,1,0,0:0:0:70:C#7S_Db7S_s.wav
320,192,88801,1,0,0:0:0:70:A6S_s.wav
192,192,88895,1,0,0:0:0:70:F#6S_Gb6S_s.wav
448,192,88988,1,0,0:0:0:70:D6S_s.wav
64,192,89082,1,0,0:0:0:70:C#6S_Db6S_s.wav
320,192,89176,1,0,0:0:0:70:F#5S_Gb5S_s.wav
448,192,89551,1,0,0:0:0:70:D#7S_Eb7S_s.wav
320,192,89645,1,0,0:0:0:70:D7S_s.wav
192,192,89738,1,0,0:0:0:70:C#7S_Db7S_s.wav
448,192,89832,1,0,0:0:0:70:A#6S_Bb6S_s.wav
192,192,89926,1,0,0:0:0:70:A6S_s.wav
320,192,90020,1,0,0:0:0:70:G6S_s.wav
64,192,90113,1,0,0:0:0:70:F#6S_Gb6S_s.wav
448,192,90207,1,0,0:0:0:70:D#6S_Eb6S_s.wav
192,192,90301,1,0,0:0:0:70:D6S_s.wav
64,192,90395,1,0,0:0:0:70:C6S_s.wav
320,192,90488,1,0,0:0:0:70:B5S_s.wav
192,192,90582,1,0,0:0:0:70:A5S_s.wav
320,192,90676,1,0,0:0:0:70:B5S_s.wav
448,192,90770,1,0,0:0:0:70:C6S_s.wav
64,192,90863,1,0,0:0:0:70:D#6S_Eb6S_s.wav
320,192,91051,1,0,0:0:0:70:G6S_s.wav
192,192,91145,1,0,0:0:0:70:A#6S_Bb6S_s.wav
64,192,91238,1,0,0:0:0:70:D7S_s.wav
320,192,91332,1,0,0:0:0:70:E7S_s.wav
448,192,91426,1,0,0:0:0:70:F#7S_Gb7S_s.wav
192,192,91613,1,0,0:0:0:70:A6S_s.wav
64,192,91707,1,0,0:0:0:70:C#7S_Db7S_s.wav
448,192,91801,1,0,0:0:0:70:D7S_s.wav
64,192,91988,1,0,0:0:0:70:D6S_s.wav
192,192,92082,1,0,0:0:0:70:D#6S_Eb6S_s.wav
320,192,92176,1,0,0:0:0:70:F#6S_Gb6S_s.wav
64,192,92270,1,0,0:0:0:70:A#6S_Bb6S_s.wav
448,192,92363,1,0,0:0:0:70:D#7S_Eb7S_s.wav
320,192,92645,1,0,0:0:0:70:D7S_s.wav
448,192,92738,1,0,0:0:0:70:E7S_s.wav
192,192,92832,1,0,0:0:0:70:D#7S_Eb7S_s.wav
64,192,92926,1,0,0:0:0:70:F#6S_Gb6S_s.wav
320,192,93020,1,0,0:0:0:70:D6S_s.wav
192,192,93113,1,0,0:0:0:70:E6S_s.wav
320,192,93270,1,0,0:0:0:70:D6S_s.wav
64,192,93332,1,0,0:0:0:70:E6S_s.wav
192,192,93395,1,0,0:0:0:70:D#6S_Eb6S_s.wav
448,192,93441,1,0,0:0:0:70:D#7S_Eb7S_s.wav
192,192,93723,1,0,0:0:0:70:F6S_s.wav
320,192,93770,1,0,0:0:0:70:F7S_s.wav
64,192,93957,1,0,0:0:0:70:C7S_s.wav
448,192,94004,1,0,0:0:0:70:F#7S_Gb7S_s.wav
192,192,94098,1,0,0:0:0:70:C7S_s.wav
64,192,94238,1,0,0:0:0:70:D7S_s.wav
320,192,94332,1,0,0:0:0:70:D7S_s.wav
192,192,94426,1,0,0:0:0:70:D#7S_Eb7S_s.wav
448,192,94520,1,0,0:0:0:70:D#8S_Eb8S_s.wav
320,192,94613,1,0,0:0:0:70:D8S_s.wav
192,192,94707,1,0,0:0:0:70:C#7S_Db7S_s.wav
64,192,94801,1,0,0:0:0:70:G7S_s.wav
448,192,95082,1,0,0:0:0:70:A7S_s.wav
192,192,95176,1,0,0:0:0:70:G#7S_Ab7S_s.wav
64,192,95270,1,0,0:0:0:70:D#7S_Eb7S_s.wav
320,192,95363,1,0,0:0:0:70:D7S_s.wav
64,192,95551,1,0,0:0:0:70:F#6S_Gb6S_s.wav
192,192,95645,1,0,0:0:0:70:A#6S_Bb6S_s.wav
448,192,95738,1,0,0:0:0:70:C7S_s.wav
320,192,95832,1,0,0:0:0:70:G#6S_Ab6S_s.wav
64,192,95926,1,0,0:0:0:70:G6S_s.wav
448,192,96020,1,0,0:0:0:70:F#6S_Gb6S_s.wav
320,192,96113,1,0,0:0:0:70:F6S_s.wav
192,192,96207,1,0,0:0:0:70:E6S_s.wav
64,192,96301,1,0,0:0:0:70:D#6S_Eb6S_s.wav
192,192,96395,1,0,0:0:0:70:E6S_s.wav
320,192,96488,1,0,0:0:0:70:F6S_s.wav
448,192,96582,1,0,0:0:0:70:F#6S_Gb6S_s.wav
64,192,96676,1,0,0:0:0:70:G6S_s.wav
320,192,96770,1,0,0:0:0:70:G#6S_Ab6S_s.wav
192,192,96957,1,0,0:0:0:70:C#7S_Db7S_s.wav
448,192,97051,1,0,0:0:0:70:D7S_s.wav
192,192,97238,1,0,0:0:0:70:C#7S_Db7S_s.wav
320,192,97426,1,0,0:0:0:70:E7S_s.wav
448,192,97645,1,0,0:0:0:70:D7S_s.wav
192,192,97832,1,0,0:0:0:70:C#7S_Db7S_s.wav
64,192,98082,1,0,0:0:0:70:A#6S_Bb6S_s.wav
448,192,98207,1,0,0:0:0:70:A6S_s.wav
192,192,98270,1,0,0:0:0:70:G#6S_Ab6S_s.wav
320,192,98363,1,0,0:0:0:70:G6S_s.wav
192,192,98457,1,0,0:0:0:70:G#6S_Ab6S_s.wav
448,192,98551,1,0,0:0:0:70:E6S_s.wav
64,192,98707,1,0,0:0:0:70:D#6S_Eb6S_s.wav
192,192,98770,1,0,0:0:0:70:E6S_s.wav
320,192,98895,1,0,0:0:0:70:G6S_s.wav
448,192,99020,1,2,0:0:0:0:
192,192,99113,1,0,0:0:0:70:G#6S_Ab6S_s.wav
320,192,99348,1,0,0:0:0:70:A6S_s.wav
64,192,99395,1,2,0:0:0:0:
448,192,99629,1,0,0:0:0:70:A#6S_Bb6S_s.wav
320,192,99770,1,2,0:0:0:0:
192,192,99863,1,0,0:0:0:70:C#7S_Db7S_s.wav
448,192,99957,1,0,0:0:0:0:
64,192,100051,1,0,0:0:0:70:D7S_s.wav
448,192,100145,1,2,0:0:0:0:
192,192,100238,1,0,0:0:0:70:D#7S_Eb7S_s.wav
320,192,100332,1,0,0:0:0:0:
448,192,100426,1,0,0:0:0:70:E7S_s.wav
192,192,100520,1,0,0:0:0:0:
64,192,100520,1,2,0:0:0:0:
448,192,103501,1,0,0:0:0:0:
320,192,103501,1,2,0:0:0:0:
192,192,103876,1,2,0:0:0:0:
448,192,104063,1,0,0:0:0:0:
320,192,104110,1,0,0:0:0:0:
64,192,104157,1,0,0:0:0:0:
192,192,104251,1,2,0:0:0:0:
320,192,104344,1,0,0:0:0:0:
192,192,104626,1,2,0:0:0:0:
448,192,104813,1,0,0:0:0:0:
320,192,104860,1,0,0:0:0:0:
64,192,104907,1,0,0:0:0:0:
192,192,105001,1,2,0:0:0:0:
320,192,105094,1,0,0:0:0:0:
192,192,105376,1,2,0:0:0:0:
320,192,105657,1,0,0:0:0:0:
64,192,105751,1,2,0:0:0:0:
320,192,105844,1,0,0:0:0:0:
192,192,106126,1,2,0:0:0:0:
448,192,106313,1,0,0:0:0:0:
320,192,106501,1,2,0:0:0:0:
192,192,106876,1,2,0:0:0:0:
448,192,107063,1,0,0:0:0:0:
320,192,107157,1,0,0:0:0:0:
64,192,107251,1,2,0:0:0:0:
320,192,107344,1,0,0:0:0:0:
192,192,107626,1,2,0:0:0:0:
320,192,107719,1,0,0:0:0:0:
448,192,107813,1,0,0:0:0:0:
192,192,107907,1,0,0:0:0:0:
64,192,108001,1,2,0:0:0:0:
320,192,108094,1,0,0:0:0:0:
192,192,108376,1,2,0:0:0:0:
320,192,108657,1,0,0:0:0:0:
64,192,108751,1,2,0:0:0:0:
320,192,108844,1,0,0:0:0:0:
192,192,109126,1,2,0:0:0:0:
192,192,109501,1,2,0:0:0:0:
320,192,109876,1,2,0:0:0:0:
64,192,110063,1,0,0:0:0:0:
192,192,110110,1,0,0:0:0:0:
448,192,110157,1,0,0:0:0:0:
320,192,110251,1,2,0:0:0:0:
192,192,110344,1,0,0:0:0:0:
320,192,110626,1,2,0:0:0:0:
64,192,110813,1,0,0:0:0:0:
192,192,110860,1,0,0:0:0:0:
448,192,110907,1,0,0:0:0:0:
320,192,111001,1,2,0:0:0:0:
192,192,111094,1,0,0:0:0:0:
320,192,111376,1,2,0:0:0:0:
192,192,111657,1,0,0:0:0:0:
448,192,111751,1,2,0:0:0:0:
192,192,111844,1,0,0:0:0:0:
320,192,112126,1,2,0:0:0:0:
64,192,112313,1,0,0:0:0:0:
448,192,112407,1,0,0:0:0:0:
192,192,112501,1,2,0:0:0:0:
448,192,112594,1,0,0:0:0:0:
320,192,112876,1,2,0:0:0:0:
64,192,113157,1,0,0:0:0:0:
320,192,113251,1,2,0:0:0:0:
64,192,113344,1,0,0:0:0:0:
192,192,113626,1,2,0:0:0:0:
448,192,113907,1,0,0:0:0:0:
64,192,114001,1,2,0:0:0:0:
448,192,114094,1,0,0:0:0:0:
64,192,114282,1,0,0:0:0:0:
320,192,114376,128,2,115126:0:0:0:0:
192,192,114751,128,2,115126:0:0:0:0:
448,192,115126,1,2,0:0:0:0:
448,192,115501,1,0,0:0:0:0:
320,192,115501,1,2,0:0:0:0:
192,192,115876,1,2,0:0:0:0:
448,192,116063,1,0,0:0:0:0:
320,192,116157,1,0,0:0:0:0:
64,192,116251,1,2,0:0:0:0:
320,192,116344,1,0,0:0:0:0:
192,192,116626,1,2,0:0:0:0:
320,192,116719,1,0,0:0:0:0:
448,192,116813,1,0,0:0:0:0:
192,192,116907,1,0,0:0:0:0:
64,192,117001,1,2,0:0:0:0:
320,192,117094,1,0,0:0:0:0:
64,192,117282,1,0,0:0:0:0:
192,192,117376,1,2,0:0:0:0:
448,192,117563,1,0,0:0:0:0:
320,192,117657,1,0,0:0:0:0:
64,192,117751,1,2,0:0:0:0:
320,192,117844,1,0,0:0:0:0:
448,192,118032,1,0,0:0:0:0:
192,192,118126,1,2,0:0:0:0:
192,192,118501,1,2,0:0:0:0:
320,192,118876,1,2,0:0:0:0:
64,192,119063,1,0,0:0:0:0:
192,192,119157,1,0,0:0:0:0:
448,192,119251,1,2,0:0:0:0:
192,192,119344,1,0,0:0:0:0:
64,192,119532,1,0,0:0:0:0:
320,192,119626,1,2,0:0:0:0:
192,192,119719,1,0,0:0:0:0:
64,192,119813,1,0,0:0:0:0:
320,192,119907,1,0,0:0:0:0:
448,192,120001,1,2,0:0:0:0:
192,192,120094,1,0,0:0:0:0:
320,192,120188,1,0,0:0:0:0:
64,192,120282,1,0,0:0:0:0:
448,192,120376,1,2,0:0:0:0:
320,192,120469,1,0,0:0:0:0:
64,192,120563,1,0,0:0:0:0:
192,192,120657,1,0,0:0:0:0:
448,192,120751,1,2,0:0:0:0:
192,192,120844,1,0,0:0:0:0:
64,192,121032,1,0,0:0:0:0:
320,192,121126,1,2,0:0:0:0:
320,192,121501,1,2,0:0:0:0:
192,192,121876,1,2,0:0:0:0:
448,192,122063,1,0,0:0:0:0:
320,192,122157,1,0,0:0:0:0:
64,192,122251,1,2,0:0:0:0:
320,192,122344,1,0,0:0:0:0:
192,192,122626,1,2,0:0:0:0:
320,192,122719,1,0,0:0:0:0:
448,192,122813,1,0,0:0:0:0:
192,192,122907,1,0,0:0:0:0:
64,192,123001,1,2,0:0:0:0:
320,192,123094,1,0,0:0:0:0:
64,192,123282,1,0,0:0:0:0:
192,192,123376,1,2,0:0:0:0:
448,192,123563,1,0,0:0:0:0:
320,192,123657,1,0,0:0:0:0:
64,192,123751,1,2,0:0:0:0:
320,192,123844,1,0,0:0:0:0:
448,192,124032,1,0,0:0:0:0:
192,192,124126,1,2,0:0:0:0:
64,192,124313,1,0,0:0:0:0:
448,192,124407,1,0,0:0:0:0:
320,192,124501,1,2,0:0:0:0:
192,192,124688,1,2,0:0:0:0:
320,192,124876,1,2,0:0:0:0:
64,192,125063,1,2,0:0:0:0:
192,192,125251,1,2,0:0:0:0:
320,192,125438,1,2,0:0:0:0:
192,192,125626,1,2,0:0:0:0:
448,192,125813,1,2,0:0:0:0:
64,192,126001,1,2,0:0:0:0:
192,192,126094,1,2,0:0:0:0:
320,192,126188,1,2,0:0:0:0:
64,192,126282,1,2,0:0:0:0:
448,192,126376,1,2,0:0:0:0:
320,192,126469,1,2,0:0:0:0:
192,192,126563,1,2,0:0:0:0:
448,192,126657,1,2,0:0:0:0:
64,192,126751,1,2,0:0:0:0:
192,192,126844,1,2,0:0:0:0:
320,192,126938,1,2,0:0:0:0:
64,192,127032,1,2,0:0:0:0:
448,192,127313,1,8,0:0:0:0:
320,192,127407,1,8,0:0:0:0:
192,192,127501,128,0,127876:0:0:0:0:
64,192,127501,1,2,0:0:0:0:
448,192,127688,1,0,0:0:0:0:
64,192,127876,1,2,0:0:0:0:
448,192,128063,1,0,0:0:0:0:
192,192,128251,128,0,128532:0:0:0:0:
64,192,128251,1,2,0:0:0:0:
448,192,128532,1,0,0:0:0:0:
320,192,128626,1,2,0:0:0:0:
64,192,128719,1,0,0:0:0:0:
320,192,128907,128,0,129376:0:0:0:0:
192,192,129001,1,2,0:0:0:0:
448,192,129188,1,0,0:0:0:0:
192,192,129376,1,2,0:0:0:0:
448,192,129563,1,0,0:0:0:0:
320,192,129751,128,0,130032:0:0:0:0:
192,192,129751,1,2,0:0:0:0:
448,192,130032,1,0,0:0:0:0:
64,192,130126,128,2,130501:0:0:0:0:
448,192,130501,128,0,130876:0:0:0:0:
320,192,130501,1,2,0:0:0:0:
192,192,130688,1,0,0:0:0:0:
320,192,130876,1,2,0:0:0:0:
192,192,131063,1,0,0:0:0:0:
448,192,131251,128,0,131532:0:0:0:0:
320,192,131251,1,2,0:0:0:0:
192,192,131532,1,0,0:0:0:0:
64,192,131626,1,2,0:0:0:0:
320,192,131719,1,0,0:0:0:0:
448,192,131907,1,0,0:0:0:0:
192,192,132001,1,0,0:0:0:0:
64,192,132001,128,2,132188:0:0:0:0:
192,192,132376,1,0,0:0:0:0:
64,192,132376,128,2,132563:0:0:0:0:
448,192,132751,128,0,132938:0:0:0:0:
320,192,132751,1,2,0:0:0:0:
192,192,133126,1,2,0:0:0:0:
448,192,133219,128,0,133501:0:0:0:0:
192,192,133501,128,0,133876:0:0:0:0:
64,192,133501,1,2,0:0:0:0:
448,192,133688,1,0,0:0:0:0:
64,192,133876,1,2,0:0:0:0:
448,192,134063,1,0,0:0:0:0:
192,192,134251,128,0,134532:0:0:0:0:
64,192,134251,1,2,0:0:0:0:
448,192,134532,1,0,0:0:0:0:
320,192,134626,1,2,0:0:0:0:
192,192,134719,1,0,0:0:0:0:
64,192,134907,128,0,135376:0:0:0:0:
448,192,135001,1,2,0:0:0:0:
192,192,135188,1,0,0:0:0:0:
448,192,135376,1,2,0:0:0:0:
192,192,135563,1,0,0:0:0:0:
448,192,135751,1,0,0:0:0:0:
64,192,135751,128,2,136126:0:0:0:0:
320,192,135938,1,0,0:0:0:0:
448,192,136032,1,0,0:0:0:0:
192,192,136126,1,2,0:0:0:0:
320,192,136219,1,0,0:0:0:0:
192,192,136313,1,0,0:0:0:0:
64,192,136407,1,0,0:0:0:0:
448,192,136501,128,0,136876:0:0:0:0:
320,192,136501,1,2,0:0:0:0:
192,192,136688,1,0,0:0:0:0:
320,192,136876,1,2,0:0:0:0:
192,192,137063,1,0,0:0:0:0:
448,192,137251,128,0,137532:0:0:0:0:
320,192,137251,1,2,0:0:0:0:
192,192,137532,1,0,0:0:0:0:
64,192,137626,1,2,0:0:0:0:
320,192,137719,1,0,0:0:0:0:
448,192,137907,1,0,0:0:0:0:
192,192,138001,1,0,0:0:0:0:
64,192,138001,128,2,138188:0:0:0:0:
192,192,138376,1,0,0:0:0:0:
64,192,138376,128,2,138563:0:0:0:0:
448,192,138751,1,0,0:0:0:0:
320,192,138751,128,2,138938:0:0:0:0:
448,192,139126,1,0,0:0:0:0:
320,192,139126,128,2,139313:0:0:0:0:
192,192,139501,128,0,139876:0:0:0:0:
64,192,139501,1,2,0:0:0:0:
448,192,139688,1,0,0:0:0:0:
64,192,139876,1,2,0:0:0:0:
448,192,140063,1,0,0:0:0:0:
192,192,140251,128,0,140532:0:0:0:0:
64,192,140251,1,2,0:0:0:0:
448,192,140532,1,0,0:0:0:0:
320,192,140626,1,2,0:0:0:0:
64,192,140719,1,0,0:0:0:0:
320,192,140907,128,0,141376:0:0:0:0:
192,192,141001,1,2,0:0:0:0:
448,192,141188,1,0,0:0:0:0:
192,192,141376,1,2,0:0:0:0:
448,192,141563,1,0,0:0:0:0:
320,192,141751,128,0,142032:0:0:0:0:
192,192,141751,1,2,0:0:0:0:
448,192,142032,1,0,0:0:0:0:
64,192,142126,128,2,142501:0:0:0:0:
448,192,142501,128,0,142876:0:0:0:0:
320,192,142501,1,2,0:0:0:0:
192,192,142688,1,0,0:0:0:0:
320,192,142876,1,2,0:0:0:0:
192,192,143063,1,0,0:0:0:0:
448,192,143251,128,0,143532:0:0:0:0:
320,192,143251,1,2,0:0:0:0:
192,192,143532,1,0,0:0:0:0:
64,192,143626,1,2,0:0:0:0:
320,192,143719,1,0,0:0:0:0:
448,192,143907,1,0,0:0:0:0:
192,192,144001,1,0,0:0:0:0:
64,192,144001,128,2,144188:0:0:0:0:
192,192,144376,1,0,0:0:0:0:
64,192,144376,128,2,144563:0:0:0:0:
448,192,144751,128,0,144938:0:0:0:0:
320,192,144751,1,2,0:0:0:0:
192,192,145126,1,2,0:0:0:0:
448,192,145219,128,0,145501:0:0:0:0:
64,192,145501,1,2,0:0:0:0:
192,192,145594,1,0,0:0:0:70:F#7S_Gb7S_s.wav
448,192,145688,1,0,0:0:0:70:F7S_s.wav
320,192,145782,1,0,0:0:0:70:E7S_s.wav
192,192,145876,1,2,0:0:0:0:
448,192,145969,1,0,0:0:0:70:D7S_s.wav
64,192,146063,1,0,0:0:0:70:C#7S_Db7S_s.wav
320,192,146157,1,0,0:0:0:70:C7S_s.wav
192,192,146251,1,2,0:0:0:0:
448,192,146344,1,0,0:0:0:70:A#6S_Bb6S_s.wav
320,192,146438,1,0,0:0:0:70:A6S_s.wav
64,192,146532,1,0,0:0:0:70:G#6S_Ab6S_s.wav
448,192,146626,1,2,0:0:0:0:
192,192,146719,1,0,0:0:0:0:
448,192,146813,1,0,0:0:0:70:G6S_s.wav
320,192,146907,1,0,0:0:0:70:G#6S_Ab6S_s.wav
192,192,147001,1,2,0:0:0:0:
64,192,147094,1,0,0:0:0:70:F6S_s.wav
192,192,147282,1,0,0:0:0:70:F6S_s.wav
448,192,147313,1,0,0:0:0:70:C7S_s.wav
64,192,147469,1,0,0:0:0:0:
192,192,147563,1,0,0:0:0:70:F#6S_Gb6S_s.wav
448,192,147610,1,0,0:0:0:70:C#7S_Db7S_s.wav
320,192,147657,1,0,0:0:0:0:
64,192,147751,1,2,0:0:0:0:
448,192,147844,1,0,0:0:0:70:C8S_s.wav
192,192,147938,1,0,0:0:0:70:F7S_s.wav
64,192,148032,1,0,0:0:0:70:C#7S_Db7S_s.wav
320,192,148126,1,2,0:0:0:0:
192,192,148219,1,0,0:0:0:70:B6S_s.wav
448,192,148313,1,0,0:0:0:70:D#7S_Eb7S_s.wav
192,192,148407,1,0,0:0:0:70:F7S_s.wav
320,192,148501,1,2,0:0:0:0:
64,192,148594,1,0,0:0:0:70:A#6S_Bb6S_s.wav
192,192,148688,1,0,0:0:0:70:F7S_s.wav
320,192,148782,1,0,0:0:0:70:A#7S_Bb7S_s.wav
64,192,148876,1,2,0:0:0:0:
448,192,148969,1,0,0:0:0:70:F6S_s.wav
192,192,149157,1,0,0:0:0:0:
320,192,149344,1,0,0:0:0:70:C#7S_Db7S_s.wav
192,192,149532,1,0,0:0:0:70:C7S_s.wav
64,192,149672,1,0,0:0:0:70:F7S_s.wav
320,192,149766,1,0,0:0:0:70:E7S_s.wav
448,192,149876,1,0,0:0:0:70:D7S_s.wav
192,192,149938,1,0,0:0:0:70:C#7S_Db7S_s.wav
320,192,150001,1,2,0:0:0:0:
448,192,150094,1,0,0:0:0:70:F#6S_Gb6S_s.wav
64,192,150141,1,0,0:0:0:70:C#7S_Db7S_s.wav
192,192,150251,1,0,0:0:0:70:F7S_s.wav
448,192,150376,1,2,0:0:0:0:
320,192,150501,1,0,0:0:0:70:G7S_s.wav
64,192,150688,1,0,0:0:0:70:F7S_s.wav
192,192,150751,1,2,0:0:0:0:
320,192,150844,1,0,0:0:0:70:G7S_s.wav
64,192,150938,1,0,0:0:0:70:A#7S_Bb7S_s.wav
448,192,151032,1,0,0:0:0:70:C8S_s.wav
320,192,151126,1,2,0:0:0:0:
64,192,151313,1,0,0:0:0:60:F8S_s.wav
192,192,151407,1,0,0:0:0:60:F#8S_Gb8S_s.wav
448,192,151501,1,0,0:0:0:60:G8S_s.wav
320,192,151599,1,0,0:0:0:60:F8S_s.wav
192,192,151698,1,0,0:0:0:60:D#8S_Eb8S_s.wav
64,192,151797,1,0,0:0:0:60:C#8S_Db8S_s.wav
448,192,151895,1,0,0:0:0:60:B7S_s.wav
192,192,151999,1,0,0:0:0:60:A7S_s.wav
320,192,152103,1,0,0:0:0:60:G7S_s.wav
64,192,152207,1,0,0:0:0:60:F7S_s.wav
448,192,152311,1,0,0:0:0:50:B7S_s.wav
320,192,152421,1,0,0:0:0:50:A7S_s.wav
192,192,152531,1,0,0:0:0:50:G7S_s.wav
64,192,152641,1,0,0:0:0:50:F7S_s.wav
448,192,152752,1,0,0:0:0:50:D#7S_Eb7S_s.wav
192,192,152867,1,0,0:0:0:50:C#7S_Db7S_s.wav
320,192,152982,1,0,0:0:0:50:B6S_s.wav
64,192,153102,1,0,0:0:0:50:A6S_s.wav
448,192,153223,1,0,0:0:0:40:D#7S_Eb7S_s.wav
320,192,153350,1,0,0:0:0:40:C#7S_Db7S_s.wav
192,192,153477,1,0,0:0:0:40:B6S_s.wav
64,192,153610,1,0,0:0:0:40:A6S_s.wav
448,192,153744,1,0,0:0:0:40:G6S_s.wav
192,192,153885,1,0,0:0:0:40:F6S_s.wav
320,192,154027,1,0,0:0:0:40:D#6S_Eb6S_s.wav
64,192,154168,1,0,0:0:0:40:C#6S_Db6S_s.wav
448,192,154310,1,0,0:0:0:30:G6S_s.wav
320,192,154463,1,0,0:0:0:30:F6S_s.wav
192,192,154616,1,0,0:0:0:30:D#6S_Eb6S_s.wav
64,192,154782,1,0,0:0:0:30:C#6S_Db6S_s.wav
448,192,154949,1,0,0:0:0:30:B5S_s.wav
192,192,155123,1,0,0:0:0:30:A5S_s.wav
320,192,155297,1,0,0:0:0:30:G5S_s.wav
64,192,155479,1,0,0:0:0:30:F5S_s.wav
448,192,155662,1,0,0:0:0:20:B5S_s.wav
320,192,155849,1,0,0:0:0:20:A5S_s.wav
192,192,156037,1,0,0:0:0:20:G5S_s.wav
320,192,156224,1,0,0:0:0:20:G#5S_Ab5S_s.wav
192,192,156444,1,0,0:0:0:20:F#5S_Gb5S_s.wav
64,192,156665,1,0,0:0:0:20:E5S_s.wav
448,192,156885,1,0,0:0:0:20:F5S_s.wav
320,192,157126,1,0,0:0:0:20:E5S_s.wav
192,192,157368,1,0,0:0:0:20:D#5S_Eb5S.wav
64,192,157610,1,0,0:0:0:20:D5S.wav
448,192,157877,1,0,0:0:0:20:C#5S_Db5S.wav
320,192,158177,1,0,0:0:0:20:C5S.wav
192,192,158571,1,0,0:0:0:20:B4S.wav
