osu file format v14

[General]
AudioFilename: audio3.mp3
AudioLeadIn: 0
PreviewTime: 71918
Countdown: 1
SampleSet: Normal
StackLeniency: 0.7
Mode: 1
LetterboxInBreaks: 0
WidescreenStoryboard: 1

[Editor]
DistanceSpacing: 1
BeatDivisor: 6
GridSize: 32
TimelineZoom: 3.899999

[Metadata]
Title:Tag mapset
TitleUnicode:Tag mapset
Artist:-
ArtistUnicode:-
Creator:Chaosfan
Version:HoneyWorks feat.sana - Sayonara Ryou Kataomoi (chKKi)
Source:
Tags:
BeatmapID:1884639
BeatmapSetID:902731

[Difficulty]
HPDrainRate:5
CircleSize:5
OverallDifficulty:5
ApproachRate:5
SliderMultiplier:1.4
SliderTickRate:1

[Events]
//Background and Video events
0,0,"e179c504da4c0a205a7c64b7ce9f0aa2.jpg",0,0
//Break Periods
2,181427,189532
//Storyboard Layer 0 (Background)
//Storyboard Layer 1 (Fail)
//Storyboard Layer 2 (Pass)
//Storyboard Layer 3 (Foreground)
//Storyboard Sound Samples

[TimingPoints]
3009.97161467819,297.029702970297,4,1,0,100,1,0
71920,-83.3333333333333,4,1,0,100,0,1
90930,-83.3333333333333,4,1,0,100,0,0
91227,-100,4,1,0,100,0,0
131326,-83.3333333333333,4,1,0,100,0,1
147960,-83.3333333333333,4,1,0,100,0,0
148851,-100,4,1,0,100,0,0
190732,-83.3333333333333,4,1,0,100,0,0
194297,-83.3333333333333,4,1,0,100,0,1
239445,-83.3333333333333,4,1,0,100,0,0

[HitObjects]
212,189,3011,5,4,0:0:0:0:
212,189,3158,1,4,0:0:0:0:
238,165,5386,5,6,0:0:0:0:
238,165,5534,1,6,0:0:0:0:
236,184,6277,5,4,0:0:0:0:
236,184,6425,1,4,0:0:0:0:
250,226,7762,5,4,0:0:0:0:
250,226,7910,1,4,0:0:0:0:
234,178,10138,5,4,0:0:0:0:
205,153,10287,1,4,0:0:0:0:
189,146,10584,1,6,0:0:0:0:
187,147,10881,1,0,0:0:0:0:
236,131,10955,1,0,0:0:0:0:
186,147,11029,1,2,0:0:0:0:
239,153,11326,5,0,0:0:0:0:
267,132,11475,1,0,0:0:0:0:
267,132,11549,1,0,0:0:0:0:
267,132,11623,1,2,0:0:0:0:
267,132,11698,1,2,0:0:0:0:
267,132,11772,1,0,0:0:0:0:
267,132,11846,1,0,0:0:0:0:
249,108,11920,1,2,0:0:0:0:
208,130,11995,1,0,0:0:0:0:
202,116,12069,1,0,0:0:0:0:
245,119,12143,1,2,0:0:0:0:
244,119,12217,1,0,0:0:0:0:
202,116,12292,1,0,0:0:0:0:
239,108,12366,1,2,0:0:0:0:
252,120,12415,1,2,0:0:0:0:
252,120,12465,1,2,0:0:0:0:
239,108,12514,1,0,0:0:0:0:
268,116,12811,5,0,0:0:0:0:
268,115,12960,1,0,0:0:0:0:
246,127,13034,1,0,0:0:0:0:
268,116,13108,1,2,0:0:0:0:
216,134,13183,1,2,0:0:0:0:
252,113,13257,1,0,0:0:0:0:
210,133,13331,1,2,0:0:0:0:
210,133,13406,1,2,0:0:0:0:
234,118,13480,1,2,0:0:0:0:
231,121,13554,1,0,0:0:0:0:
259,123,13628,1,0,0:0:0:0:
252,125,13703,1,2,0:0:0:0:
210,131,13777,1,2,0:0:0:0:
259,132,13851,1,0,0:0:0:0:
210,131,13925,1,0,0:0:0:0:
210,131,14000,1,2,0:0:0:0:
210,131,14074,1,0,0:0:0:0:
259,132,14148,1,0,0:0:0:0:
208,139,14222,1,0,0:0:0:0:
259,130,14297,1,2,0:0:0:0:
208,139,14371,1,2,0:0:0:0:
239,116,14445,1,0,0:0:0:0:
239,116,14519,1,2,0:0:0:0:
239,117,14594,1,2,0:0:0:0:
239,117,14668,1,0,0:0:0:0:
239,116,14742,1,2,0:0:0:0:
239,116,14816,1,2,0:0:0:0:
239,116,14891,1,0,0:0:0:0:
272,140,15039,5,0,0:0:0:0:
285,143,15113,1,0,0:0:0:0:
215,102,15188,1,2,0:0:0:0:
215,102,15262,1,0,0:0:0:0:
275,133,15336,1,0,0:0:0:0:
215,102,15410,1,2,0:0:0:0:
217,108,15485,1,2,0:0:0:0:
285,143,15559,1,2,0:0:0:0:
285,143,15633,1,0,0:0:0:0:
204,110,15707,1,0,0:0:0:0:
281,147,15782,1,2,0:0:0:0:
215,102,15856,1,2,0:0:0:0:
242,134,15930,1,0,0:0:0:0:
242,134,16005,1,0,0:0:0:0:
256,128,16079,1,0,0:0:0:0:
248,110,16153,1,2,0:0:0:0:
273,127,16227,1,0,0:0:0:0:
286,145,16376,5,2,0:0:0:0:
262,161,16450,1,2,0:0:0:0:
285,143,16524,1,0,0:0:0:0:
216,101,16599,1,2,0:0:0:0:
309,151,16673,1,2,0:0:0:0:
309,151,16821,1,0,0:0:0:0:
251,122,16871,1,0,0:0:0:0:
251,122,16920,1,0,0:0:0:0:
281,145,16970,1,2,0:0:0:0:
275,109,17044,1,0,0:0:0:0:
247,131,17118,1,2,0:0:0:0:
247,131,17168,1,2,0:0:0:0:
247,130,17217,1,2,0:0:0:0:
280,145,17267,1,0,0:0:0:0:
283,163,19643,5,0,0:0:0:0:
297,172,19792,1,2,0:0:0:0:
243,157,19866,1,2,0:0:0:0:
243,157,19940,1,2,0:0:0:0:
243,157,20014,1,2,0:0:0:0:
243,157,20089,1,0,0:0:0:0:
246,158,20163,1,0,0:0:0:0:
246,153,20237,1,0,0:0:0:0:
214,153,20311,1,0,0:0:0:0:
214,153,20386,1,0,0:0:0:0:
214,153,20460,1,0,0:0:0:0:
218,155,20534,1,2,0:0:0:0:
218,155,20608,1,2,0:0:0:0:
246,153,20683,1,2,0:0:0:0:
246,153,20757,1,2,0:0:0:0:
246,153,20831,1,0,0:0:0:0:
220,164,20906,1,0,0:0:0:0:
236,151,20980,1,0,0:0:0:0:
223,147,21054,1,0,0:0:0:0:
251,127,21128,5,2,0:0:0:0:
220,164,21203,1,2,0:0:0:0:
220,164,21277,1,2,0:0:0:0:
220,164,21351,1,2,0:0:0:0:
217,158,21425,1,0,0:0:0:0:
217,158,21475,1,0,0:0:0:0:
218,155,21524,1,0,0:0:0:0:
218,155,21574,1,2,0:0:0:0:
204,146,21648,1,0,0:0:0:0:
190,150,21722,1,2,0:0:0:0:
194,143,21772,1,2,0:0:0:0:
194,143,21821,1,2,0:0:0:0:
187,172,21871,1,0,0:0:0:0:
202,166,21945,1,2,0:0:0:0:
205,165,22019,1,0,0:0:0:0:
244,137,22316,5,2,0:0:0:0:
244,137,22465,1,0,0:0:0:0:
202,124,22613,1,0,0:0:0:0:
196,137,22910,5,2,0:0:0:0:
194,146,23059,1,0,0:0:0:0:
199,143,23207,1,0,0:0:0:0:
199,155,23356,1,0,0:0:0:0:
199,157,23430,1,0,0:0:0:0:
197,153,23505,1,2,0:0:0:0:
192,159,23653,1,0,0:0:0:0:
197,149,23802,1,0,0:0:0:0:
201,148,24099,5,2,0:0:0:0:
221,155,24247,1,2,0:0:0:0:
221,155,24396,1,0,0:0:0:0:
212,149,24544,1,0,0:0:0:0:
212,149,24693,1,2,0:0:0:0:
212,149,24841,1,0,0:0:0:0:
212,155,24990,1,0,0:0:0:0:
242,157,25287,5,2,0:0:0:0:
253,162,25435,1,0,0:0:0:0:
253,162,25509,1,0,0:0:0:0:
252,161,25584,1,0,0:0:0:0:
244,151,25732,1,0,0:0:0:0:
242,157,25881,1,2,0:0:0:0:
254,155,26029,1,0,0:0:0:0:
254,155,26104,1,2,0:0:0:0:
254,155,26178,1,0,0:0:0:0:
254,155,26252,1,0,0:0:0:0:
254,155,26326,1,2,0:0:0:0:
243,175,26475,1,2,0:0:0:0:
238,178,26623,1,2,0:0:0:0:
238,178,26698,1,2,0:0:0:0:
234,178,26772,1,0,0:0:0:0:
231,169,26920,1,0,0:0:0:0:
231,168,27069,5,2,0:0:0:0:
224,163,27217,1,0,0:0:0:0:
207,146,27292,1,0,0:0:0:0:
214,145,27366,1,0,0:0:0:0:
236,155,27514,1,0,0:0:0:0:
234,146,27663,1,2,0:0:0:0:
234,146,27811,1,2,0:0:0:0:
234,146,27960,1,0,0:0:0:0:
223,150,28108,1,0,0:0:0:0:
228,132,28183,1,0,0:0:0:0:
225,156,28257,1,2,0:0:0:0:
212,138,28331,1,2,0:0:0:0:
225,157,28406,1,2,0:0:0:0:
231,169,28554,1,2,0:0:0:0:
231,169,28703,1,0,0:0:0:0:
231,169,28851,5,2,0:0:0:0:
231,169,28925,1,2,0:0:0:0:
231,172,29000,1,2,0:0:0:0:
231,172,29148,1,0,0:0:0:0:
197,182,29297,1,0,0:0:0:0:
197,182,29445,1,2,0:0:0:0:
197,182,29594,1,0,0:0:0:0:
171,143,29742,1,2,0:0:0:0:
183,150,29816,1,2,0:0:0:0:
218,158,29891,1,0,0:0:0:0:
186,150,29965,1,0,0:0:0:0:
219,158,30039,1,2,0:0:0:0:
219,158,30188,5,2,0:0:0:0:
218,158,30262,1,2,0:0:0:0:
218,158,30336,1,0,0:0:0:0:
160,133,30410,1,2,0:0:0:0:
196,163,30485,1,0,0:0:0:0:
196,163,30559,1,0,0:0:0:0:
196,163,30633,1,0,0:0:0:0:
180,138,30707,1,2,0:0:0:0:
196,162,30782,1,0,0:0:0:0:
196,162,30856,1,0,0:0:0:0:
196,162,30930,1,0,0:0:0:0:
179,139,31005,1,2,0:0:0:0:
196,159,31079,1,0,0:0:0:0:
196,159,31153,1,0,0:0:0:0:
196,159,31227,1,2,0:0:0:0:
196,159,31302,1,2,0:0:0:0:
196,159,31376,1,2,0:0:0:0:
190,161,31450,1,2,0:0:0:0:
190,161,31524,1,0,0:0:0:0:
189,141,31673,1,0,0:0:0:0:
255,180,31821,5,2,0:0:0:0:
187,141,31896,1,2,0:0:0:0:
255,180,31970,1,0,0:0:0:0:
191,138,32118,1,0,0:0:0:0:
190,138,32193,1,0,0:0:0:0:
270,175,32267,1,0,0:0:0:0:
190,138,32341,1,2,0:0:0:0:
234,164,32415,1,2,0:0:0:0:
234,164,32490,1,2,0:0:0:0:
234,164,32564,1,0,0:0:0:0:
190,149,32638,1,2,0:0:0:0:
253,161,32712,1,0,0:0:0:0:
245,154,32861,1,0,0:0:0:0:
245,153,33009,5,2,0:0:0:0:
184,155,33084,1,2,0:0:0:0:
245,153,33158,1,0,0:0:0:0:
188,150,33307,1,0,0:0:0:0:
187,150,33381,1,0,0:0:0:0:
259,137,33455,1,0,0:0:0:0:
190,149,33529,1,0,0:0:0:0:
262,138,33604,1,2,0:0:0:0:
190,149,33678,1,2,0:0:0:0:
225,120,33752,1,2,0:0:0:0:
225,120,33826,1,2,0:0:0:0:
225,120,33901,1,0,0:0:0:0:
213,119,34198,5,0,0:0:0:0:
213,119,34346,1,0,0:0:0:0:
213,119,34495,5,2,0:0:0:0:
213,119,34643,1,0,0:0:0:0:
233,117,34792,5,2,0:0:0:0:
251,124,34940,1,2,0:0:0:0:
244,125,35089,5,2,0:0:0:0:
187,110,35138,1,2,0:0:0:0:
187,110,35188,1,2,0:0:0:0:
244,125,35237,1,0,0:0:0:0:
200,102,35311,1,0,0:0:0:0:
204,106,35386,1,2,0:0:0:0:
204,106,35435,1,2,0:0:0:0:
204,106,35485,1,2,0:0:0:0:
205,106,35534,1,0,0:0:0:0:
217,148,35608,1,0,0:0:0:0:
217,148,35683,1,2,0:0:0:0:
217,148,35757,1,2,0:0:0:0:
217,148,35831,1,2,0:0:0:0:
220,107,35906,1,2,0:0:0:0:
221,145,35980,1,0,0:0:0:0:
215,135,36079,1,2,0:0:0:0:
215,135,36178,1,2,0:0:0:0:
233,98,36277,1,0,0:0:0:0:
217,135,36425,1,0,0:0:0:0:
217,136,36500,1,0,0:0:0:0:
226,96,36574,1,2,0:0:0:0:
226,96,36722,5,0,0:0:0:0:
210,159,36797,1,2,0:0:0:0:
232,95,36871,1,0,0:0:0:0:
210,159,36945,1,0,0:0:0:0:
151,142,37019,1,2,0:0:0:0:
151,142,37094,1,2,0:0:0:0:
211,160,37168,1,0,0:0:0:0:
200,153,37316,1,2,0:0:0:0:
200,153,37391,1,2,0:0:0:0:
200,153,37465,1,0,0:0:0:0:
228,131,37613,1,0,0:0:0:0:
166,211,37663,1,0,0:0:0:0:
166,211,37712,1,0,0:0:0:0:
228,131,37762,1,2,0:0:0:0:
213,114,37910,1,0,0:0:0:0:
213,114,37985,1,2,0:0:0:0:
213,114,38059,1,2,0:0:0:0:
213,114,38133,1,2,0:0:0:0:
228,114,38207,1,0,0:0:0:0:
247,108,38356,5,2,0:0:0:0:
247,108,38505,1,2,0:0:0:0:
212,108,38579,1,2,0:0:0:0:
211,107,38653,1,0,0:0:0:0:
210,107,38727,1,0,0:0:0:0:
233,114,38802,1,2,0:0:0:0:
233,114,38876,1,2,0:0:0:0:
233,114,38950,1,0,0:0:0:0:
180,98,39024,1,0,0:0:0:0:
239,112,39099,1,0,0:0:0:0:
187,87,39173,1,0,0:0:0:0:
239,112,39247,1,2,0:0:0:0:
239,112,39321,1,2,0:0:0:0:
239,112,39396,1,0,0:0:0:0:
176,95,39470,1,0,0:0:0:0:
233,116,39544,1,0,0:0:0:0:
234,119,39618,1,0,0:0:0:0:
234,119,39693,1,2,0:0:0:0:
233,114,39767,1,2,0:0:0:0:
233,114,39841,5,0,0:0:0:0:
202,156,39891,1,0,0:0:0:0:
202,156,39940,1,0,0:0:0:0:
219,102,39990,1,2,0:0:0:0:
219,102,40064,1,2,0:0:0:0:
219,102,40138,1,0,0:0:0:0:
210,159,40188,1,0,0:0:0:0:
210,159,40237,1,0,0:0:0:0:
218,94,40287,1,2,0:0:0:0:
218,174,40361,1,2,0:0:0:0:
210,143,40435,1,0,0:0:0:0:
210,143,40485,1,0,0:0:0:0:
210,143,40534,1,0,0:0:0:0:
208,143,40584,1,2,0:0:0:0:
184,118,40658,1,0,0:0:0:0:
204,143,40732,1,2,0:0:0:0:
204,143,40782,1,2,0:0:0:0:
204,143,40831,1,2,0:0:0:0:
204,143,40881,1,0,0:0:0:0:
184,118,40955,1,2,0:0:0:0:
204,143,41029,1,0,0:0:0:0:
234,150,41326,1,0,0:0:0:0:
226,125,41623,1,0,0:0:0:0:
234,150,41920,5,0,0:0:0:0:
231,123,42069,1,0,0:0:0:0:
231,114,42217,1,0,0:0:0:0:
243,114,42514,1,0,0:0:0:0:
243,114,42663,1,0,0:0:0:0:
242,115,42811,1,2,0:0:0:0:
242,115,42960,1,2,0:0:0:0:
242,115,43108,1,0,0:0:0:0:
247,135,43406,5,0,0:0:0:0:
246,128,43703,1,2,0:0:0:0:
242,128,43851,1,2,0:0:0:0:
242,128,44000,1,0,0:0:0:0:
259,119,44297,1,0,0:0:0:0:
251,122,44594,1,2,0:0:0:0:
204,97,44891,1,0,0:0:0:0:
217,155,45188,1,0,0:0:0:0:
217,155,45336,1,2,0:0:0:0:
217,155,45485,1,0,0:0:0:0:
217,155,45633,1,2,0:0:0:0:
217,155,45782,1,0,0:0:0:0:
223,159,46079,5,0,0:0:0:0:
223,159,46376,1,0,0:0:0:0:
232,206,46673,1,0,0:0:0:0:
239,206,46821,1,0,0:0:0:0:
239,206,46970,1,0,0:0:0:0:
263,219,47267,1,0,0:0:0:0:
253,178,47415,1,0,0:0:0:0:
253,178,47564,1,2,0:0:0:0:
241,139,47712,1,2,0:0:0:0:
236,154,47861,1,0,0:0:0:0:
286,174,48158,5,0,0:0:0:0:
286,174,48455,1,2,0:0:0:0:
283,167,48752,1,2,0:0:0:0:
257,171,49049,1,2,0:0:0:0:
257,171,49346,1,0,0:0:0:0:
255,157,49495,1,0,0:0:0:0:
186,159,49792,1,0,0:0:0:0:
191,161,49866,1,0,0:0:0:0:
194,164,49940,1,0,0:0:0:0:
196,164,50089,1,0,0:0:0:0:
210,171,50237,1,2,0:0:0:0:
210,171,50386,1,2,0:0:0:0:
210,171,50534,5,0,0:0:0:0:
235,180,50683,1,0,0:0:0:0:
235,180,50757,1,0,0:0:0:0:
233,180,50831,1,2,0:0:0:0:
233,180,50906,1,2,0:0:0:0:
186,130,50980,1,0,0:0:0:0:
186,130,51054,1,0,0:0:0:0:
186,130,51128,1,2,0:0:0:0:
189,152,51203,1,0,0:0:0:0:
189,152,51277,1,0,0:0:0:0:
189,152,51351,1,2,0:0:0:0:
202,148,51425,1,0,0:0:0:0:
159,119,51500,1,2,0:0:0:0:
159,119,51574,1,2,0:0:0:0:
159,119,51648,1,0,0:0:0:0:
202,172,51722,1,2,0:0:0:0:
159,119,51797,1,0,0:0:0:0:
257,182,51871,1,0,0:0:0:0:
251,176,51945,1,2,0:0:0:0:
251,176,52019,1,0,0:0:0:0:
251,176,52094,1,0,0:0:0:0:
251,176,52168,1,2,0:0:0:0:
157,112,52242,1,0,0:0:0:0:
157,112,52316,1,2,0:0:0:0:
157,112,52391,1,2,0:0:0:0:
226,153,52465,1,0,0:0:0:0:
226,153,52539,1,2,0:0:0:0:
226,153,52613,1,2,0:0:0:0:
226,153,52688,1,0,0:0:0:0:
226,153,52762,1,2,0:0:0:0:
226,153,52836,1,2,0:0:0:0:
226,153,52910,1,0,0:0:0:0:
202,133,53059,5,0,0:0:0:0:
202,133,53133,1,0,0:0:0:0:
202,133,53207,1,2,0:0:0:0:
210,133,53356,1,2,0:0:0:0:
185,129,53430,1,2,0:0:0:0:
208,142,53505,1,2,0:0:0:0:
208,142,53579,1,2,0:0:0:0:
208,142,53653,1,0,0:0:0:0:
208,142,53727,1,0,0:0:0:0:
208,142,53802,1,2,0:0:0:0:
208,142,53876,1,2,0:0:0:0:
208,142,53950,1,0,0:0:0:0:
208,142,54024,1,2,0:0:0:0:
208,143,54099,1,0,0:0:0:0:
203,119,54173,1,0,0:0:0:0:
186,155,54247,1,0,0:0:0:0:
186,155,54321,1,0,0:0:0:0:
186,155,54396,1,2,0:0:0:0:
186,155,54470,1,0,0:0:0:0:
186,155,54544,1,2,0:0:0:0:
186,155,54618,1,2,0:0:0:0:
183,159,54693,1,0,0:0:0:0:
183,159,54767,1,0,0:0:0:0:
183,159,54841,1,2,0:0:0:0:
183,161,54915,1,0,0:0:0:0:
194,155,54990,1,2,0:0:0:0:
194,155,55064,1,2,0:0:0:0:
194,156,55138,1,2,0:0:0:0:
194,156,55212,1,2,0:0:0:0:
194,156,55287,1,0,0:0:0:0:
213,149,55584,5,0,0:0:0:0:
219,182,55732,1,0,0:0:0:0:
219,182,55807,1,0,0:0:0:0:
218,161,55881,1,2,0:0:0:0:
218,161,56178,1,0,0:0:0:0:
218,148,56326,1,2,0:0:0:0:
218,148,56475,1,0,0:0:0:0:
205,142,56623,1,0,0:0:0:0:
217,155,56772,1,0,0:0:0:0:
218,161,57069,5,2,0:0:0:0:
217,156,57366,1,0,0:0:0:0:
203,134,57440,1,0,0:0:0:0:
236,173,57514,1,0,0:0:0:0:
220,168,57663,1,2,0:0:0:0:
210,155,57960,1,2,0:0:0:0:
196,161,58108,1,2,0:0:0:0:
196,161,58183,1,2,0:0:0:0:
213,137,58257,1,2,0:0:0:0:
205,161,58554,1,0,0:0:0:0:
203,165,58703,1,0,0:0:0:0:
190,118,58851,1,2,0:0:0:0:
241,143,59148,1,2,0:0:0:0:
231,119,59445,1,0,0:0:0:0:
235,135,59742,1,2,0:0:0:0:
256,155,60039,5,0,0:0:0:0:
237,179,60336,1,0,0:0:0:0:
237,179,60485,1,0,0:0:0:0:
237,179,60633,1,2,0:0:0:0:
259,180,60782,1,0,0:0:0:0:
252,187,61079,1,2,0:0:0:0:
252,187,61227,1,0,0:0:0:0:
253,189,61524,1,0,0:0:0:0:
253,189,61673,1,0,0:0:0:0:
253,189,61821,1,2,0:0:0:0:
194,185,62118,1,2,0:0:0:0:
194,185,62267,1,2,0:0:0:0:
194,185,62415,1,0,0:0:0:0:
199,150,62712,5,0,0:0:0:0:
199,150,63009,1,2,0:0:0:0:
216,119,63158,1,0,0:0:0:0:
216,129,63307,1,0,0:0:0:0:
220,121,63455,1,2,0:0:0:0:
220,121,63604,1,0,0:0:0:0:
218,128,63901,1,0,0:0:0:0:
219,127,64198,1,2,0:0:0:0:
220,128,64495,1,2,0:0:0:0:
243,135,64643,1,2,0:0:0:0:
218,128,64792,1,0,0:0:0:0:
254,164,65089,5,0,0:0:0:0:
208,136,65386,1,2,0:0:0:0:
213,166,65534,1,0,0:0:0:0:
204,117,65683,1,2,0:0:0:0:
204,123,65831,1,2,0:0:0:0:
203,118,65980,1,0,0:0:0:0:
186,124,66277,1,0,0:0:0:0:
199,124,66574,1,2,0:0:0:0:
199,125,66871,1,2,0:0:0:0:
207,116,67465,5,0,0:0:0:0:
202,118,67762,1,2,0:0:0:0:
202,118,67910,1,0,0:0:0:0:
202,118,68207,1,2,0:0:0:0:
202,121,68356,1,0,0:0:0:0:
187,116,68653,1,0,0:0:0:0:
175,137,68703,1,0,0:0:0:0:
177,137,68752,1,0,0:0:0:0:
177,137,68802,1,2,0:0:0:0:
148,126,68876,1,2,0:0:0:0:
202,153,68950,1,0,0:0:0:0:
202,153,69049,1,0,0:0:0:0:
202,153,69148,1,0,0:0:0:0:
210,163,69247,1,2,0:0:0:0:
210,163,69321,1,2,0:0:0:0:
210,163,69396,1,0,0:0:0:0:
256,192,69544,8,0,71772,0:0:0:0:
238,151,71920,5,4,0:0:0:0:
202,221,72069,1,0,0:0:0:0:
202,221,72143,1,0,0:0:0:0:
217,160,72217,1,2,0:0:0:0:
188,219,72292,1,0,0:0:0:0:
207,155,72366,1,0,0:0:0:0:
167,124,72440,1,0,0:0:0:0:
188,219,72514,1,2,0:0:0:0:
189,216,72589,1,2,0:0:0:0:
189,216,72663,1,0,0:0:0:0:
189,216,72737,1,0,0:0:0:0:
218,151,72811,1,2,0:0:0:0:
212,153,72886,1,0,0:0:0:0:
212,153,72960,1,0,0:0:0:0:
212,153,73034,1,2,0:0:0:0:
211,154,73108,1,0,0:0:0:0:
211,155,73183,1,0,0:0:0:0:
211,155,73257,1,2,0:0:0:0:
210,158,73331,1,2,0:0:0:0:
162,163,73406,1,2,0:0:0:0:
210,160,73480,1,2,0:0:0:0:
210,160,73554,1,0,0:0:0:0:
210,160,73628,1,0,0:0:0:0:
210,160,73703,1,2,0:0:0:0:
168,148,73777,1,2,0:0:0:0:
165,148,73851,1,0,0:0:0:0:
170,168,73925,1,0,0:0:0:0:
185,196,74000,1,0,0:0:0:0:
193,146,74074,1,0,0:0:0:0:
193,147,74148,1,2,0:0:0:0:
193,147,74222,1,2,0:0:0:0:
177,170,74297,1,0,0:0:0:0:
205,213,74371,1,2,0:0:0:0:
132,177,74445,1,2,0:0:0:0:
211,178,74519,1,0,0:0:0:0:
181,179,74594,1,2,0:0:0:0:
207,182,74668,1,2,0:0:0:0:
181,179,74742,1,2,0:0:0:0:
208,190,74816,1,2,0:0:0:0:
149,150,74891,1,0,0:0:0:0:
149,150,74965,1,2,0:0:0:0:
181,179,75039,1,0,0:0:0:0:
139,168,75113,1,0,0:0:0:0:
183,179,75188,1,2,0:0:0:0:
183,179,75262,1,0,0:0:0:0:
183,179,75336,1,0,0:0:0:0:
197,150,75410,1,0,0:0:0:0:
181,179,75485,1,2,0:0:0:0:
223,144,75633,1,0,0:0:0:0:
223,144,75782,1,2,0:0:0:0:
216,145,75930,1,2,0:0:0:0:
171,153,75980,1,2,0:0:0:0:
171,153,76029,1,2,0:0:0:0:
212,142,76079,1,0,0:0:0:0:
213,142,76227,5,0,0:0:0:0:
213,142,76302,1,0,0:0:0:0:
212,143,76376,1,2,0:0:0:0:
212,143,76450,1,0,0:0:0:0:
172,124,76524,1,2,0:0:0:0:
172,124,76599,1,2,0:0:0:0:
212,146,76673,1,0,0:0:0:0:
200,189,76747,1,0,0:0:0:0:
205,175,76821,1,0,0:0:0:0:
227,178,76896,1,0,0:0:0:0:
205,175,76970,1,2,0:0:0:0:
177,201,77044,1,2,0:0:0:0:
205,175,77118,1,2,0:0:0:0:
177,201,77193,1,2,0:0:0:0:
230,179,77267,1,0,0:0:0:0:
177,201,77341,1,0,0:0:0:0:
177,201,77415,1,2,0:0:0:0:
177,201,77490,1,0,0:0:0:0:
177,201,77564,1,2,0:0:0:0:
177,201,77638,1,2,0:0:0:0:
177,201,77712,1,0,0:0:0:0:
177,201,77787,1,2,0:0:0:0:
203,196,77861,1,0,0:0:0:0:
172,163,77935,1,0,0:0:0:0:
172,163,78009,1,2,0:0:0:0:
208,197,78084,1,0,0:0:0:0:
208,197,78158,1,2,0:0:0:0:
172,163,78232,1,0,0:0:0:0:
197,200,78307,1,0,0:0:0:0:
172,163,78381,1,2,0:0:0:0:
232,195,78455,1,0,0:0:0:0:
172,163,78529,1,2,0:0:0:0:
172,163,78604,1,2,0:0:0:0:
172,163,78678,1,0,0:0:0:0:
172,163,78752,1,2,0:0:0:0:
172,163,78826,1,2,0:0:0:0:
195,177,78901,1,0,0:0:0:0:
195,177,78975,1,2,0:0:0:0:
195,177,79049,1,0,0:0:0:0:
179,107,79123,1,2,0:0:0:0:
197,164,79198,1,2,0:0:0:0:
180,127,79272,1,0,0:0:0:0:
199,164,79346,1,2,0:0:0:0:
199,164,79420,1,2,0:0:0:0:
199,164,79495,1,0,0:0:0:0:
188,161,79569,1,2,0:0:0:0:
185,167,79643,1,2,0:0:0:0:
184,168,79717,1,0,0:0:0:0:
189,166,79792,1,2,0:0:0:0:
189,166,79866,1,0,0:0:0:0:
189,166,79940,1,0,0:0:0:0:
184,167,80014,1,2,0:0:0:0:
189,166,80089,1,0,0:0:0:0:
187,167,80163,1,2,0:0:0:0:
195,174,80237,1,0,0:0:0:0:
187,167,80311,1,0,0:0:0:0:
187,167,80386,1,2,0:0:0:0:
187,167,80460,1,2,0:0:0:0:
187,167,80534,1,0,0:0:0:0:
187,167,80608,1,2,0:0:0:0:
185,167,80683,1,2,0:0:0:0:
184,168,80757,1,2,0:0:0:0:
189,166,80831,1,0,0:0:0:0:
139,144,80980,1,0,0:0:0:0:
139,144,81128,5,2,0:0:0:0:
139,144,81203,1,2,0:0:0:0:
204,151,81277,1,2,0:0:0:0:
204,151,81326,1,2,0:0:0:0:
204,151,81376,1,2,0:0:0:0:
139,144,81425,1,0,0:0:0:0:
173,138,81574,1,0,0:0:0:0:
173,138,81722,1,2,0:0:0:0:
173,138,81871,1,4,0:0:0:0:
173,138,82168,1,0,0:0:0:0:
173,138,82316,1,2,0:0:0:0:
173,138,82465,1,2,0:0:0:0:
173,138,82539,1,2,0:0:0:0:
173,138,82613,1,0,0:0:0:0:
194,135,82910,1,2,0:0:0:0:
180,138,83059,1,4,0:0:0:0:
180,142,83356,1,0,0:0:0:0:
155,136,83430,1,0,0:0:0:0:
180,142,83505,1,2,0:0:0:0:
155,140,83579,1,2,0:0:0:0:
155,141,83653,1,0,0:0:0:0:
155,141,83727,1,2,0:0:0:0:
213,144,83802,1,0,0:0:0:0:
213,144,83950,5,0,0:0:0:0:
213,144,84024,1,0,0:0:0:0:
213,144,84099,1,2,0:0:0:0:
160,134,84173,1,0,0:0:0:0:
213,144,84247,1,0,0:0:0:0:
213,144,84321,1,0,0:0:0:0:
213,144,84396,1,2,0:0:0:0:
164,138,84470,1,0,0:0:0:0:
201,143,84544,1,0,0:0:0:0:
201,143,84618,1,0,0:0:0:0:
201,143,84693,1,2,0:0:0:0:
153,146,84767,1,0,0:0:0:0:
194,151,84841,1,0,0:0:0:0:
194,151,84915,1,0,0:0:0:0:
192,151,84990,1,2,0:0:0:0:
154,147,85064,1,0,0:0:0:0:
184,151,85138,1,0,0:0:0:0:
184,151,85212,1,0,0:0:0:0:
183,152,85287,1,2,0:0:0:0:
183,152,85361,1,2,0:0:0:0:
191,169,85435,1,2,0:0:0:0:
191,170,85509,1,2,0:0:0:0:
191,170,85584,1,0,0:0:0:0:
191,170,85658,1,0,0:0:0:0:
194,160,85732,1,0,0:0:0:0:
194,160,85807,1,0,0:0:0:0:
204,130,85881,1,2,0:0:0:0:
218,132,85955,1,0,0:0:0:0:
191,116,86029,1,2,0:0:0:0:
191,116,86079,1,2,0:0:0:0:
191,116,86128,1,2,0:0:0:0:
178,150,86178,1,0,0:0:0:0:
183,152,86326,5,0,0:0:0:0:
196,135,86401,1,0,0:0:0:0:
182,153,86475,1,2,0:0:0:0:
183,151,86623,1,0,0:0:0:0:
183,157,86772,1,0,0:0:0:0:
174,170,87069,1,2,0:0:0:0:
173,171,87217,1,0,0:0:0:0:
204,191,87292,1,0,0:0:0:0:
173,172,87366,1,0,0:0:0:0:
197,193,87514,1,0,0:0:0:0:
196,194,87663,1,2,0:0:0:0:
160,177,87811,1,2,0:0:0:0:
160,177,87886,1,0,0:0:0:0:
160,177,87960,1,0,0:0:0:0:
189,197,88108,1,0,0:0:0:0:
190,199,88257,1,2,0:0:0:0:
190,199,88406,1,2,0:0:0:0:
187,205,88554,1,4,0:0:0:0:
186,206,88851,5,2,0:0:0:0:
185,208,89000,1,4,0:0:0:0:
196,222,89297,1,0,0:0:0:0:
196,222,89445,1,2,0:0:0:0:
184,104,89594,1,0,0:0:0:0:
199,105,89643,1,0,0:0:0:0:
197,110,89693,1,0,0:0:0:0:
196,112,89742,1,2,0:0:0:0:
203,158,89816,1,2,0:0:0:0:
197,211,89891,1,0,0:0:0:0:
223,158,89965,1,0,0:0:0:0:
196,219,90039,1,2,0:0:0:0:
223,159,90113,1,0,0:0:0:0:
223,159,90188,1,0,0:0:0:0:
223,159,90262,1,2,0:0:0:0:
184,228,90336,1,0,0:0:0:0:
184,228,90410,1,0,0:0:0:0:
184,228,90485,1,2,0:0:0:0:
223,162,90559,1,2,0:0:0:0:
185,161,90633,1,0,0:0:0:0:
185,161,90707,1,0,0:0:0:0:
200,173,90782,1,2,0:0:0:0:
202,177,90831,1,2,0:0:0:0:
205,177,90881,1,2,0:0:0:0:
184,231,90930,1,0,0:0:0:0:
187,142,91227,1,0,0:0:0:0:
187,135,91524,5,2,0:0:0:0:
183,114,91673,1,0,0:0:0:0:
193,161,91970,1,0,0:0:0:0:
195,161,92118,1,2,0:0:0:0:
230,187,92415,1,0,0:0:0:0:
230,187,92564,1,2,0:0:0:0:
219,114,92861,1,0,0:0:0:0:
200,140,93009,1,2,0:0:0:0:
202,140,93158,1,2,0:0:0:0:
200,140,93307,1,0,0:0:0:0:
275,166,93604,5,0,0:0:0:0:
244,151,93901,1,2,0:0:0:0:
244,151,94049,1,2,0:0:0:0:
244,151,94198,1,0,0:0:0:0:
220,187,94495,1,0,0:0:0:0:
220,187,94792,1,0,0:0:0:0:
176,170,95089,1,2,0:0:0:0:
191,187,95386,1,2,0:0:0:0:
218,181,95683,1,0,0:0:0:0:
218,181,95980,1,0,0:0:0:0:
213,180,96128,1,2,0:0:0:0:
206,179,96425,1,2,0:0:0:0:
206,179,96574,1,0,0:0:0:0:
206,179,96722,1,0,0:0:0:0:
207,168,97019,1,0,0:0:0:0:
207,168,97168,1,2,0:0:0:0:
212,165,97465,5,0,0:0:0:0:
212,165,97613,1,0,0:0:0:0:
215,172,97762,1,2,0:0:0:0:
215,174,97910,1,2,0:0:0:0:
212,176,98059,1,0,0:0:0:0:
216,172,98356,1,0,0:0:0:0:
221,179,98653,1,2,0:0:0:0:
205,171,98950,1,2,0:0:0:0:
213,183,99099,1,2,0:0:0:0:
213,183,99173,1,2,0:0:0:0:
189,145,99247,1,0,0:0:0:0:
189,145,99321,1,0,0:0:0:0:
181,129,99396,1,0,0:0:0:0:
181,130,99470,1,0,0:0:0:0:
196,157,99544,1,2,0:0:0:0:
183,132,99618,1,0,0:0:0:0:
163,121,99693,1,2,0:0:0:0:
210,116,99767,1,2,0:0:0:0:
163,121,99841,1,0,0:0:0:0:
193,143,99915,1,0,0:0:0:0:
170,148,99990,1,0,0:0:0:0:
210,116,100064,1,0,0:0:0:0:
145,140,100138,1,2,0:0:0:0:
145,140,100287,1,2,0:0:0:0:
145,145,100435,1,4,0:0:0:0:
160,109,100881,5,0,0:0:0:0:
160,109,101029,1,2,0:0:0:0:
125,123,101326,1,2,0:0:0:0:
125,123,101475,1,2,0:0:0:0:
125,123,101623,1,0,0:0:0:0:
154,132,102069,1,0,0:0:0:0:
154,132,102217,1,2,0:0:0:0:
134,127,102366,1,0,0:0:0:0:
134,127,102663,1,0,0:0:0:0:
134,127,102811,1,2,0:0:0:0:
133,132,103108,5,0,0:0:0:0:
265,190,103257,1,0,0:0:0:0:
260,185,103406,1,2,0:0:0:0:
106,124,103703,1,2,0:0:0:0:
106,124,104000,1,0,0:0:0:0:
105,134,104742,1,0,0:0:0:0:
145,135,104891,1,2,0:0:0:0:
218,142,105188,1,0,0:0:0:0:
190,147,105633,1,0,0:0:0:0:
190,147,105782,1,2,0:0:0:0:
239,176,106079,5,0,0:0:0:0:
239,176,106227,1,2,0:0:0:0:
239,176,106376,1,0,0:0:0:0:
206,186,106821,1,0,0:0:0:0:
206,186,106970,1,2,0:0:0:0:
207,192,107267,1,2,0:0:0:0:
207,192,107415,1,2,0:0:0:0:
205,192,107564,1,0,0:0:0:0:
209,196,108009,1,0,0:0:0:0:
209,196,108083,1,0,0:0:0:0:
209,196,108157,1,2,0:0:0:0:
209,196,108306,1,0,0:0:0:0:
204,184,108604,1,2,0:0:0:0:
205,184,108752,1,0,0:0:0:0:
185,182,109049,1,0,0:0:0:0:
180,185,109346,1,2,0:0:0:0:
181,171,109445,1,0,0:0:0:0:
181,171,109544,1,0,0:0:0:0:
182,172,109643,1,2,0:0:0:0:
192,186,109792,1,2,0:0:0:0:
210,171,109940,5,0,0:0:0:0:
220,142,110014,1,2,0:0:0:0:
235,180,110089,1,0,0:0:0:0:
235,180,110163,1,0,0:0:0:0:
204,161,110237,1,2,0:0:0:0:
200,120,110311,1,0,0:0:0:0:
202,137,110386,1,2,0:0:0:0:
199,167,110460,1,2,0:0:0:0:
199,167,110534,1,0,0:0:0:0:
199,167,110608,1,0,0:0:0:0:
199,167,110683,1,2,0:0:0:0:
189,144,110757,1,2,0:0:0:0:
192,170,110831,1,0,0:0:0:0:
192,170,110906,1,0,0:0:0:0:
192,170,110980,1,2,0:0:0:0:
214,160,111054,1,2,0:0:0:0:
193,177,111128,1,0,0:0:0:0:
214,160,111203,1,2,0:0:0:0:
193,177,111277,1,0,0:0:0:0:
216,160,111351,1,2,0:0:0:0:
194,185,111425,1,2,0:0:0:0:
194,185,111500,1,2,0:0:0:0:
194,185,111574,1,0,0:0:0:0:
209,163,111648,1,2,0:0:0:0:
186,155,111722,1,2,0:0:0:0:
209,162,111797,1,2,0:0:0:0:
207,159,111871,1,0,0:0:0:0:
225,190,111945,1,0,0:0:0:0:
207,164,112019,1,2,0:0:0:0:
221,176,112094,1,2,0:0:0:0:
205,164,112168,1,2,0:0:0:0:
212,166,112242,1,2,0:0:0:0:
212,166,112316,1,0,0:0:0:0:
168,174,112613,5,2,0:0:0:0:
197,174,112688,1,2,0:0:0:0:
179,173,112762,1,2,0:0:0:0:
179,173,112910,1,0,0:0:0:0:
179,173,113059,1,2,0:0:0:0:
179,173,113207,1,2,0:0:0:0:
193,152,113282,1,0,0:0:0:0:
193,152,113356,1,0,0:0:0:0:
209,198,113406,1,2,0:0:0:0:
209,198,113455,1,2,0:0:0:0:
179,174,113505,1,0,0:0:0:0:
197,161,113653,1,0,0:0:0:0:
190,162,113802,1,2,0:0:0:0:
190,162,113950,1,0,0:0:0:0:
179,162,114099,1,2,0:0:0:0:
214,165,114136,1,2,0:0:0:0:
178,163,114247,1,2,0:0:0:0:
214,165,114284,1,2,0:0:0:0:
178,163,114396,1,0,0:0:0:0:
214,165,114433,1,0,0:0:0:0:
199,151,114544,1,2,0:0:0:0:
214,165,114581,1,2,0:0:0:0:
197,153,114693,1,4,0:0:0:0:
192,146,114990,5,0,0:0:0:0:
198,134,115138,1,0,0:0:0:0:
198,137,115212,1,0,0:0:0:0:
191,146,115287,1,2,0:0:0:0:
194,157,115584,1,0,0:0:0:0:
194,159,115732,1,2,0:0:0:0:
194,159,115807,1,2,0:0:0:0:
194,159,115881,1,0,0:0:0:0:
195,156,116029,1,2,0:0:0:0:
194,157,116178,1,0,0:0:0:0:
205,157,116475,1,2,0:0:0:0:
208,164,116772,1,0,0:0:0:0:
208,164,116920,1,2,0:0:0:0:
208,164,116995,1,2,0:0:0:0:
207,164,117069,1,0,0:0:0:0:
216,163,117366,1,0,0:0:0:0:
184,148,117663,1,2,0:0:0:0:
184,148,117960,1,2,0:0:0:0:
174,151,118257,5,0,0:0:0:0:
174,151,118331,1,0,0:0:0:0:
174,151,118406,1,0,0:0:0:0:
181,151,118480,1,0,0:0:0:0:
184,148,118554,1,2,0:0:0:0:
205,150,118628,1,2,0:0:0:0:
160,132,118703,1,0,0:0:0:0:
200,156,118777,1,2,0:0:0:0:
142,132,118851,1,2,0:0:0:0:
161,124,118950,1,0,0:0:0:0:
174,128,119049,1,0,0:0:0:0:
142,135,119148,1,2,0:0:0:0:
195,144,119297,1,2,0:0:0:0:
197,159,119445,1,0,0:0:0:0:
196,118,119594,1,0,0:0:0:0:
198,149,119668,1,0,0:0:0:0:
221,172,119742,1,0,0:0:0:0:
201,147,119816,1,2,0:0:0:0:
204,164,119891,1,0,0:0:0:0:
207,162,119965,1,0,0:0:0:0:
207,162,120039,1,2,0:0:0:0:
194,157,120113,1,2,0:0:0:0:
223,163,120188,1,0,0:0:0:0:
209,167,120336,5,2,0:0:0:0:
211,168,120485,1,2,0:0:0:0:
184,164,120559,1,2,0:0:0:0:
205,167,120633,1,0,0:0:0:0:
193,140,120707,1,0,0:0:0:0:
140,140,120782,1,2,0:0:0:0:
193,140,120856,1,2,0:0:0:0:
123,137,120930,1,0,0:0:0:0:
192,140,121005,1,0,0:0:0:0:
196,124,121079,1,0,0:0:0:0:
192,140,121153,1,2,0:0:0:0:
192,140,121227,1,0,0:0:0:0:
192,141,121302,1,0,0:0:0:0:
192,141,121376,1,2,0:0:0:0:
192,141,121450,1,0,0:0:0:0:
180,140,121524,1,0,0:0:0:0:
193,140,121599,1,2,0:0:0:0:
158,123,121673,1,2,0:0:0:0:
156,123,121747,1,2,0:0:0:0:
156,123,121821,1,0,0:0:0:0:
187,137,121970,1,0,0:0:0:0:
196,124,122118,1,0,0:0:0:0:
187,137,122193,1,0,0:0:0:0:
195,122,122267,1,0,0:0:0:0:
173,105,122415,5,2,0:0:0:0:
146,94,122564,1,2,0:0:0:0:
182,95,122638,1,2,0:0:0:0:
146,94,122712,1,0,0:0:0:0:
182,176,122787,1,2,0:0:0:0:
146,94,122861,1,2,0:0:0:0:
192,144,122935,1,2,0:0:0:0:
124,85,123009,1,0,0:0:0:0:
188,144,123084,1,2,0:0:0:0:
181,114,123158,1,0,0:0:0:0:
188,144,123232,1,0,0:0:0:0:
178,120,123307,1,2,0:0:0:0:
158,135,123455,1,0,0:0:0:0:
173,124,123604,1,2,0:0:0:0:
158,135,123678,1,2,0:0:0:0:
171,125,123752,1,0,0:0:0:0:
158,135,123826,1,2,0:0:0:0:
95,137,123901,1,2,0:0:0:0:
158,135,123975,1,0,0:0:0:0:
158,101,124049,1,2,0:0:0:0:
158,135,124123,1,0,0:0:0:0:
155,106,124198,1,0,0:0:0:0:
163,137,124346,5,0,0:0:0:0:
179,140,124420,1,0,0:0:0:0:
213,148,124495,1,2,0:0:0:0:
176,132,124569,1,2,0:0:0:0:
176,132,124643,1,2,0:0:0:0:
213,148,124717,1,0,0:0:0:0:
213,148,124792,1,2,0:0:0:0:
168,131,124866,1,2,0:0:0:0:
218,145,124940,1,0,0:0:0:0:
177,138,125014,1,2,0:0:0:0:
177,138,125089,1,2,0:0:0:0:
177,138,125163,1,0,0:0:0:0:
218,145,125237,1,2,0:0:0:0:
177,138,125311,1,0,0:0:0:0:
218,142,125386,1,0,0:0:0:0:
224,101,125534,1,2,0:0:0:0:
217,138,125683,1,0,0:0:0:0:
217,140,125831,1,0,0:0:0:0:
218,145,125980,1,2,0:0:0:0:
226,146,126277,1,4,0:0:0:0:
227,148,126722,1,2,0:0:0:0:
227,150,126871,1,0,0:0:0:0:
229,151,127168,5,2,0:0:0:0:
191,158,127217,1,2,0:0:0:0:
191,158,127267,1,2,0:0:0:0:
191,158,127316,1,0,0:0:0:0:
199,143,127391,1,0,0:0:0:0:
196,143,127465,1,2,0:0:0:0:
196,143,127539,1,2,0:0:0:0:
181,155,127613,1,0,0:0:0:0:
206,145,127688,1,2,0:0:0:0:
192,143,127762,1,2,0:0:0:0:
218,153,127861,1,0,0:0:0:0:
198,152,127960,1,0,0:0:0:0:
172,133,128059,1,2,0:0:0:0:
182,190,128133,1,0,0:0:0:0:
197,140,128207,1,2,0:0:0:0:
172,180,128282,1,2,0:0:0:0:
184,135,128356,1,0,0:0:0:0:
182,137,128430,1,0,0:0:0:0:
181,137,128505,1,0,0:0:0:0:
181,137,128579,1,0,0:0:0:0:
176,133,128653,1,2,0:0:0:0:
168,132,128802,1,2,0:0:0:0:
256,192,128950,8,2,131178,0:0:0:0:
238,151,131326,5,0,0:0:0:0:
192,131,131401,1,0,0:0:0:0:
190,140,131475,1,0,0:0:0:0:
192,136,131549,1,0,0:0:0:0:
217,160,131623,1,2,0:0:0:0:
142,125,131673,1,2,0:0:0:0:
142,125,131722,1,2,0:0:0:0:
207,155,131772,1,0,0:0:0:0:
167,124,131846,1,0,0:0:0:0:
206,129,131920,1,2,0:0:0:0:
206,129,131970,1,2,0:0:0:0:
197,120,132019,1,2,0:0:0:0:
206,129,132069,1,0,0:0:0:0:
106,140,132143,1,0,0:0:0:0:
183,152,132217,1,2,0:0:0:0:
176,131,132292,1,2,0:0:0:0:
185,166,132366,1,0,0:0:0:0:
185,166,132440,1,2,0:0:0:0:
183,152,132514,1,0,0:0:0:0:
161,134,132564,1,0,0:0:0:0:
161,135,132613,1,0,0:0:0:0:
161,135,132663,1,2,0:0:0:0:
202,188,132737,1,2,0:0:0:0:
168,152,132811,1,0,0:0:0:0:
168,152,132861,1,0,0:0:0:0:
168,152,132910,1,0,0:0:0:0:
179,167,132960,1,2,0:0:0:0:
168,135,133034,1,2,0:0:0:0:
178,169,133109,1,0,0:0:0:0:
155,140,133183,1,2,0:0:0:0:
154,140,133257,1,2,0:0:0:0:
154,140,133331,1,2,0:0:0:0:
154,141,133406,1,0,0:0:0:0:
148,139,133480,1,2,0:0:0:0:
178,170,133554,1,2,0:0:0:0:
177,170,133628,1,2,0:0:0:0:
177,170,133703,1,0,0:0:0:0:
162,131,133777,1,2,0:0:0:0:
156,134,133851,1,0,0:0:0:0:
156,135,133925,1,0,0:0:0:0:
196,150,134000,1,2,0:0:0:0:
155,140,134074,1,0,0:0:0:0:
194,150,134148,1,2,0:0:0:0:
154,140,134222,1,0,0:0:0:0:
121,118,134297,1,0,0:0:0:0:
121,118,134371,1,2,0:0:0:0:
121,118,134445,1,0,0:0:0:0:
121,118,134519,1,0,0:0:0:0:
121,118,134594,1,2,0:0:0:0:
121,118,134668,1,0,0:0:0:0:
197,150,134742,1,2,0:0:0:0:
197,150,134816,1,2,0:0:0:0:
197,150,134891,1,0,0:0:0:0:
121,118,134965,1,2,0:0:0:0:
223,144,135039,1,2,0:0:0:0:
116,121,135113,1,0,0:0:0:0:
223,144,135188,1,2,0:0:0:0:
200,119,135262,1,0,0:0:0:0:
194,128,135336,1,0,0:0:0:0:
194,128,135410,1,0,0:0:0:0:
204,131,135485,5,2,0:0:0:0:
205,131,135535,1,0,0:0:0:0:
205,131,135584,1,0,0:0:0:0:
204,131,135634,1,2,0:0:0:0:
193,205,135708,1,0,0:0:0:0:
181,140,135782,1,2,0:0:0:0:
190,107,135832,1,2,0:0:0:0:
190,109,135881,1,2,0:0:0:0:
189,110,135931,1,0,0:0:0:0:
197,133,136005,1,2,0:0:0:0:
212,146,136079,1,0,0:0:0:0:
202,164,136153,1,0,0:0:0:0:
199,164,136227,1,0,0:0:0:0:
199,164,136302,1,0,0:0:0:0:
199,164,136376,1,2,0:0:0:0:
199,164,136450,1,2,0:0:0:0:
205,175,136524,1,0,0:0:0:0:
213,142,136599,1,0,0:0:0:0:
196,166,136673,1,2,0:0:0:0:
195,166,136747,1,0,0:0:0:0:
194,166,136821,1,0,0:0:0:0:
194,166,136896,1,2,0:0:0:0:
194,166,136970,1,0,0:0:0:0:
194,166,137044,1,0,0:0:0:0:
194,166,137118,1,2,0:0:0:0:
201,132,137193,1,2,0:0:0:0:
199,146,137267,1,0,0:0:0:0:
199,148,137341,1,0,0:0:0:0:
199,148,137415,1,2,0:0:0:0:
208,197,137490,1,0,0:0:0:0:
208,197,137564,1,2,0:0:0:0:
201,150,137638,1,2,0:0:0:0:
197,200,137713,1,0,0:0:0:0:
199,151,137787,1,0,0:0:0:0:
204,173,137861,1,2,0:0:0:0:
201,170,137935,1,0,0:0:0:0:
183,179,138010,1,0,0:0:0:0:
200,170,138084,1,0,0:0:0:0:
196,177,138158,1,2,0:0:0:0:
200,170,138232,1,0,0:0:0:0:
200,170,138307,1,0,0:0:0:0:
200,170,138381,1,0,0:0:0:0:
200,170,138455,1,2,0:0:0:0:
200,170,138529,1,0,0:0:0:0:
200,170,138604,1,2,0:0:0:0:
188,142,138678,1,2,0:0:0:0:
199,164,138752,1,0,0:0:0:0:
199,164,138826,1,2,0:0:0:0:
199,164,138901,1,2,0:0:0:0:
194,130,138975,1,0,0:0:0:0:
191,166,139049,1,2,0:0:0:0:
216,136,139123,1,2,0:0:0:0:
216,136,139198,1,0,0:0:0:0:
189,166,139272,1,2,0:0:0:0:
189,166,139346,1,0,0:0:0:0:
215,139,139420,1,0,0:0:0:0:
221,142,139495,1,0,0:0:0:0:
191,139,139569,1,2,0:0:0:0:
195,174,139643,1,0,0:0:0:0:
161,141,139680,1,0,0:0:0:0:
173,138,139792,1,0,0:0:0:0:
161,141,139829,1,0,0:0:0:0:
173,138,139940,1,2,0:0:0:0:
161,141,139977,1,2,0:0:0:0:
173,138,140089,1,2,0:0:0:0:
161,141,140126,1,2,0:0:0:0:
171,160,140237,5,0,0:0:0:0:
173,165,140311,1,0,0:0:0:0:
139,144,140386,1,0,0:0:0:0:
176,167,140460,1,0,0:0:0:0:
139,144,140534,1,2,0:0:0:0:
139,144,140609,1,2,0:0:0:0:
179,176,140683,1,0,0:0:0:0:
197,132,140732,1,2,0:0:0:0:
197,132,140782,1,2,0:0:0:0:
139,144,140831,1,0,0:0:0:0:
173,138,140980,1,0,0:0:0:0:
136,145,141054,1,0,0:0:0:0:
173,138,141128,1,2,0:0:0:0:
173,138,141277,1,4,0:0:0:0:
173,138,141574,1,0,0:0:0:0:
214,134,141648,1,0,0:0:0:0:
173,138,141722,1,2,0:0:0:0:
173,120,141797,1,2,0:0:0:0:
173,138,141871,1,2,0:0:0:0:
173,138,142019,1,0,0:0:0:0:
181,151,142094,1,0,0:0:0:0:
184,126,142168,1,0,0:0:0:0:
181,152,142242,1,2,0:0:0:0:
194,135,142316,1,2,0:0:0:0:
181,150,142391,1,2,0:0:0:0:
180,138,142465,1,0,0:0:0:0:
165,153,142613,5,2,0:0:0:0:
180,138,142762,1,0,0:0:0:0:
222,142,142836,1,0,0:0:0:0:
180,142,142911,1,2,0:0:0:0:
186,130,142960,1,2,0:0:0:0:
186,130,143009,1,2,0:0:0:0:
196,140,143059,1,0,0:0:0:0:
196,140,143133,1,2,0:0:0:0:
198,127,143207,1,0,0:0:0:0:
180,138,143356,1,0,0:0:0:0:
213,144,143430,1,0,0:0:0:0:
213,144,143505,1,2,0:0:0:0:
213,144,143653,1,0,0:0:0:0:
213,144,143727,1,0,0:0:0:0:
213,144,143802,1,2,0:0:0:0:
201,143,143950,1,0,0:0:0:0:
201,143,144024,1,0,0:0:0:0:
201,143,144099,1,2,0:0:0:0:
194,151,144247,5,0,0:0:0:0:
194,151,144321,1,0,0:0:0:0:
192,151,144396,1,2,0:0:0:0:
176,128,144445,1,2,0:0:0:0:
176,128,144495,1,2,0:0:0:0:
184,151,144544,1,0,0:0:0:0:
184,151,144618,1,0,0:0:0:0:
183,152,144693,1,2,0:0:0:0:
183,152,144767,1,2,0:0:0:0:
182,153,144841,1,0,0:0:0:0:
178,132,144915,1,2,0:0:0:0:
183,151,144990,1,0,0:0:0:0:
181,176,145138,1,0,0:0:0:0:
237,174,145212,1,0,0:0:0:0:
181,144,145287,1,2,0:0:0:0:
180,153,145336,1,2,0:0:0:0:
180,154,145386,1,2,0:0:0:0:
179,150,145435,1,0,0:0:0:0:
221,177,145509,1,2,0:0:0:0:
184,151,145584,1,0,0:0:0:0:
173,149,145732,1,0,0:0:0:0:
154,161,145782,1,0,0:0:0:0:
168,157,145831,1,0,0:0:0:0:
182,153,145881,1,2,0:0:0:0:
183,151,146029,1,0,0:0:0:0:
183,157,146178,5,0,0:0:0:0:
169,169,146326,1,2,0:0:0:0:
178,142,146401,1,0,0:0:0:0:
177,151,146475,1,0,0:0:0:0:
174,156,146549,1,0,0:0:0:0:
174,156,146623,1,2,0:0:0:0:
181,165,146698,1,0,0:0:0:0:
181,166,146772,1,0,0:0:0:0:
166,134,146920,1,0,0:0:0:0:
196,194,147069,1,2,0:0:0:0:
160,177,147217,1,2,0:0:0:0:
160,177,147292,1,0,0:0:0:0:
160,177,147366,1,0,0:0:0:0:
181,137,147440,1,0,0:0:0:0:
168,195,147514,1,2,0:0:0:0:
189,218,147589,1,0,0:0:0:0:
190,199,147663,1,2,0:0:0:0:
158,205,147737,1,0,0:0:0:0:
190,199,147812,1,2,0:0:0:0:
189,198,147886,1,2,0:0:0:0:
187,205,147960,1,4,0:0:0:0:
185,181,148108,1,4,0:0:0:0:
190,165,148851,5,6,0:0:0:0:
190,165,149000,1,6,0:0:0:0:
181,161,149742,5,2,0:0:0:0:
181,161,149816,1,2,0:0:0:0:
179,161,149891,1,0,0:0:0:0:
179,161,150039,1,2,0:0:0:0:
181,161,150188,1,2,0:0:0:0:
181,161,150336,1,0,0:0:0:0:
181,161,150782,1,0,0:0:0:0:
184,163,150930,1,2,0:0:0:0:
174,166,151227,1,0,0:0:0:0:
110,181,151970,5,2,0:0:0:0:
114,180,152044,1,2,0:0:0:0:
114,180,152118,1,0,0:0:0:0:
139,153,152267,1,0,0:0:0:0:
139,153,152415,1,2,0:0:0:0:
190,169,152712,1,0,0:0:0:0:
211,174,153009,1,0,0:0:0:0:
206,176,153158,1,2,0:0:0:0:
205,176,153307,1,0,0:0:0:0:
205,174,153604,1,2,0:0:0:0:
187,133,154049,5,2,0:0:0:0:
187,133,154198,1,0,0:0:0:0:
202,140,154346,1,0,0:0:0:0:
187,133,154495,1,2,0:0:0:0:
202,170,154643,1,2,0:0:0:0:
202,170,154792,1,0,0:0:0:0:
202,170,154940,1,2,0:0:0:0:
186,143,155089,1,0,0:0:0:0:
230,137,155386,1,2,0:0:0:0:
230,137,155534,1,0,0:0:0:0:
230,137,155831,1,0,0:0:0:0:
230,137,155980,1,2,0:0:0:0:
241,140,156425,5,0,0:0:0:0:
241,139,156722,1,2,0:0:0:0:
239,140,156871,1,0,0:0:0:0:
222,129,157019,1,0,0:0:0:0:
241,140,157168,1,2,0:0:0:0:
241,140,157316,1,2,0:0:0:0:
207,178,157391,1,2,0:0:0:0:
235,140,157465,1,0,0:0:0:0:
239,153,157910,1,2,0:0:0:0:
239,153,158356,1,0,0:0:0:0:
252,135,158802,5,0,0:0:0:0:
250,135,158950,1,0,0:0:0:0:
242,145,159247,1,2,0:0:0:0:
235,127,159544,1,2,0:0:0:0:
234,136,159841,1,0,0:0:0:0:
228,140,160138,1,0,0:0:0:0:
226,141,160287,1,2,0:0:0:0:
224,135,160584,1,2,0:0:0:0:
224,135,160732,1,0,0:0:0:0:
223,135,160881,1,0,0:0:0:0:
221,135,161029,1,0,0:0:0:0:
218,131,161178,1,0,0:0:0:0:
217,132,161326,1,2,0:0:0:0:
218,132,161623,5,2,0:0:0:0:
217,132,161772,1,0,0:0:0:0:
217,132,161920,1,0,0:0:0:0:
221,135,162069,1,2,0:0:0:0:
218,131,162217,1,0,0:0:0:0:
230,129,162514,1,0,0:0:0:0:
219,114,162663,1,2,0:0:0:0:
237,104,162811,1,0,0:0:0:0:
244,118,163108,1,2,0:0:0:0:
244,100,163554,1,0,0:0:0:0:
235,189,163851,5,0,0:0:0:0:
235,189,164000,1,2,0:0:0:0:
215,177,164148,1,0,0:0:0:0:
107,162,164297,1,2,0:0:0:0:
231,164,164445,1,2,0:0:0:0:
193,147,164594,1,0,0:0:0:0:
193,193,165039,1,0,0:0:0:0:
193,193,165188,1,2,0:0:0:0:
179,181,165485,1,2,0:0:0:0:
196,231,165930,1,0,0:0:0:0:
182,221,166079,1,2,0:0:0:0:
182,221,166227,1,2,0:0:0:0:
182,221,166376,1,0,0:0:0:0:
186,221,166673,1,2,0:0:0:0:
185,223,166970,5,0,0:0:0:0:
182,221,167415,1,2,0:0:0:0:
178,219,167861,1,0,0:0:0:0:
173,225,168307,1,2,0:0:0:0:
170,227,168455,1,0,0:0:0:0:
163,218,168752,1,0,0:0:0:0:
161,218,169049,1,2,0:0:0:0:
205,240,169346,5,0,0:0:0:0:
195,231,169643,1,0,0:0:0:0:
195,231,169792,1,2,0:0:0:0:
154,234,170089,1,2,0:0:0:0:
154,234,170237,1,2,0:0:0:0:
154,234,170386,1,2,0:0:0:0:
186,192,170534,1,0,0:0:0:0:
173,222,170683,1,0,0:0:0:0:
173,222,170980,1,2,0:0:0:0:
173,222,171054,1,2,0:0:0:0:
174,221,171128,1,0,0:0:0:0:
174,221,171277,1,0,0:0:0:0:
223,172,171425,5,2,0:0:0:0:
212,198,171500,1,2,0:0:0:0:
212,198,171574,1,0,0:0:0:0:
212,198,171648,1,2,0:0:0:0:
188,206,171722,1,0,0:0:0:0:
176,226,171797,1,0,0:0:0:0:
212,198,171871,1,0,0:0:0:0:
212,198,171945,1,0,0:0:0:0:
186,178,172019,1,2,0:0:0:0:
175,189,172094,1,2,0:0:0:0:
186,178,172168,1,0,0:0:0:0:
175,189,172242,1,2,0:0:0:0:
217,203,172316,1,2,0:0:0:0:
182,198,172391,1,0,0:0:0:0:
182,198,172465,1,2,0:0:0:0:
182,198,172539,1,2,0:0:0:0:
182,198,172613,1,0,0:0:0:0:
182,198,172688,1,2,0:0:0:0:
194,158,172762,1,2,0:0:0:0:
194,158,172836,1,2,0:0:0:0:
194,158,172910,1,0,0:0:0:0:
232,216,173059,5,0,0:0:0:0:
193,225,173133,1,2,0:0:0:0:
192,177,173207,1,2,0:0:0:0:
232,218,173282,1,2,0:0:0:0:
192,177,173356,1,0,0:0:0:0:
193,225,173430,1,0,0:0:0:0:
232,218,173505,1,2,0:0:0:0:
193,225,173579,1,0,0:0:0:0:
197,186,173653,1,0,0:0:0:0:
193,225,173727,1,2,0:0:0:0:
193,225,173802,1,0,0:0:0:0:
232,216,173876,1,0,0:0:0:0:
193,225,173950,1,2,0:0:0:0:
196,187,174024,1,2,0:0:0:0:
196,187,174099,1,0,0:0:0:0:
198,187,174247,5,0,0:0:0:0:
269,250,174321,1,0,0:0:0:0:
178,185,174396,1,0,0:0:0:0:
192,176,174544,1,0,0:0:0:0:
269,250,174618,1,0,0:0:0:0:
197,187,174693,1,0,0:0:0:0:
197,187,174841,1,0,0:0:0:0:
269,250,174915,1,0,0:0:0:0:
196,187,174990,1,0,0:0:0:0:
198,191,175138,1,2,0:0:0:0:
198,187,175287,1,0,0:0:0:0:
199,189,175361,1,0,0:0:0:0:
199,189,175435,1,2,0:0:0:0:
199,189,175509,1,0,0:0:0:0:
207,180,175584,1,0,0:0:0:0:
197,187,175732,5,2,0:0:0:0:
184,217,175881,1,2,0:0:0:0:
194,160,175930,1,2,0:0:0:0:
193,161,175980,1,2,0:0:0:0:
184,217,176029,1,0,0:0:0:0:
184,217,176104,1,2,0:0:0:0:
185,190,176178,1,0,0:0:0:0:
192,197,176252,1,0,0:0:0:0:
192,197,176326,1,2,0:0:0:0:
192,197,176401,1,2,0:0:0:0:
192,197,176475,1,0,0:0:0:0:
186,164,176623,1,0,0:0:0:0:
132,109,176772,1,2,0:0:0:0:
132,109,176920,1,0,0:0:0:0:
132,109,177069,1,0,0:0:0:0:
88,91,177366,5,2,0:0:0:0:
88,91,177514,1,0,0:0:0:0:
220,120,177663,1,2,0:0:0:0:
142,171,177811,1,0,0:0:0:0:
147,167,177886,1,0,0:0:0:0:
142,171,177960,1,2,0:0:0:0:
137,192,178108,1,2,0:0:0:0:
136,192,178257,1,0,0:0:0:0:
129,181,178554,1,2,0:0:0:0:
129,184,178703,1,0,0:0:0:0:
148,155,178752,1,0,0:0:0:0:
148,155,178802,1,0,0:0:0:0:
196,195,178851,1,2,0:0:0:0:
194,166,179000,5,0,0:0:0:0:
190,203,179148,1,2,0:0:0:0:
157,163,179198,1,2,0:0:0:0:
157,163,179247,1,2,0:0:0:0:
190,203,179297,1,0,0:0:0:0:
178,136,179371,1,0,0:0:0:0:
202,153,179445,1,2,0:0:0:0:
177,185,179544,1,0,0:0:0:0:
174,185,179643,1,0,0:0:0:0:
188,213,179742,1,2,0:0:0:0:
170,120,179792,1,2,0:0:0:0:
170,120,179841,1,2,0:0:0:0:
188,213,179891,1,0,0:0:0:0:
194,152,179965,1,0,0:0:0:0:
225,185,180039,1,2,0:0:0:0:
192,145,180138,1,0,0:0:0:0:
192,145,180237,1,0,0:0:0:0:
199,180,180336,1,2,0:0:0:0:
164,144,180386,1,0,0:0:0:0:
164,144,180435,1,0,0:0:0:0:
199,180,180485,1,2,0:0:0:0:
176,129,180559,1,0,0:0:0:0:
164,144,180633,1,2,0:0:0:0:
164,144,180707,1,2,0:0:0:0:
164,144,180782,1,0,0:0:0:0:
164,144,180856,1,0,0:0:0:0:
164,144,180930,1,2,0:0:0:0:
164,144,181005,1,0,0:0:0:0:
164,144,181079,1,0,0:0:0:0:
168,153,181153,1,2,0:0:0:0:
164,144,181227,1,0,0:0:0:0:
184,200,190732,5,0,0:0:0:0:
184,200,190881,1,0,0:0:0:0:
184,200,191029,1,2,0:0:0:0:
149,209,191104,1,0,0:0:0:0:
168,180,191178,1,0,0:0:0:0:
149,209,191252,1,2,0:0:0:0:
168,180,191326,1,0,0:0:0:0:
168,180,191475,1,0,0:0:0:0:
165,186,191623,1,2,0:0:0:0:
153,215,191698,1,2,0:0:0:0:
153,215,191772,1,0,0:0:0:0:
176,181,191846,1,2,0:0:0:0:
179,190,191920,1,0,0:0:0:0:
178,191,192069,5,0,0:0:0:0:
153,217,192143,1,0,0:0:0:0:
172,163,192217,1,2,0:0:0:0:
176,170,192292,1,2,0:0:0:0:
180,178,192366,1,0,0:0:0:0:
180,178,192440,1,0,0:0:0:0:
160,214,192514,1,0,0:0:0:0:
160,214,192589,1,0,0:0:0:0:
180,178,192663,1,2,0:0:0:0:
180,178,192737,1,0,0:0:0:0:
187,182,192811,1,2,0:0:0:0:
148,159,192886,1,2,0:0:0:0:
183,180,192960,1,2,0:0:0:0:
183,180,193034,1,2,0:0:0:0:
183,180,193108,1,0,0:0:0:0:
119,174,193257,1,0,0:0:0:0:
119,174,193406,5,2,0:0:0:0:
119,174,193480,1,0,0:0:0:0:
120,188,193554,1,0,0:0:0:0:
120,188,193628,1,0,0:0:0:0:
120,188,193703,1,2,0:0:0:0:
100,179,193851,1,2,0:0:0:0:
136,161,194000,5,2,0:0:0:0:
161,163,194148,1,2,0:0:0:0:
116,187,194222,1,2,0:0:0:0:
238,151,194297,1,0,0:0:0:0:
192,131,194372,1,0,0:0:0:0:
190,140,194446,1,0,0:0:0:0:
192,136,194520,1,0,0:0:0:0:
217,160,194594,1,2,0:0:0:0:
142,125,194644,1,2,0:0:0:0:
142,125,194693,1,2,0:0:0:0:
207,155,194743,1,0,0:0:0:0:
167,124,194817,1,0,0:0:0:0:
206,129,194891,1,2,0:0:0:0:
206,129,194941,1,2,0:0:0:0:
197,120,194990,1,2,0:0:0:0:
206,129,195040,1,0,0:0:0:0:
106,140,195114,1,0,0:0:0:0:
183,152,195188,1,2,0:0:0:0:
176,131,195263,1,2,0:0:0:0:
185,166,195337,1,0,0:0:0:0:
185,166,195411,1,2,0:0:0:0:
183,152,195485,1,0,0:0:0:0:
161,134,195535,1,0,0:0:0:0:
161,135,195584,1,0,0:0:0:0:
161,135,195634,1,2,0:0:0:0:
202,188,195708,1,2,0:0:0:0:
168,152,195782,1,0,0:0:0:0:
168,152,195832,1,0,0:0:0:0:
168,152,195881,1,0,0:0:0:0:
179,167,195931,1,2,0:0:0:0:
168,135,196005,1,2,0:0:0:0:
178,169,196080,1,0,0:0:0:0:
155,140,196154,1,2,0:0:0:0:
154,140,196228,1,2,0:0:0:0:
154,140,196302,1,2,0:0:0:0:
154,141,196377,1,0,0:0:0:0:
148,139,196451,1,0,0:0:0:0:
178,170,196525,1,2,0:0:0:0:
177,170,196599,1,2,0:0:0:0:
177,170,196674,1,0,0:0:0:0:
162,131,196748,1,2,0:0:0:0:
156,134,196822,1,0,0:0:0:0:
156,135,196896,1,0,0:0:0:0:
196,150,196971,1,2,0:0:0:0:
155,140,197045,1,0,0:0:0:0:
194,150,197119,1,2,0:0:0:0:
154,140,197193,1,0,0:0:0:0:
121,118,197268,1,0,0:0:0:0:
121,118,197342,1,2,0:0:0:0:
121,118,197416,1,0,0:0:0:0:
121,118,197490,1,0,0:0:0:0:
121,118,197565,1,2,0:0:0:0:
121,118,197639,1,0,0:0:0:0:
197,150,197713,1,2,0:0:0:0:
197,150,197787,1,2,0:0:0:0:
197,150,197862,1,0,0:0:0:0:
121,118,197936,1,2,0:0:0:0:
223,144,198010,1,2,0:0:0:0:
116,121,198084,1,0,0:0:0:0:
223,144,198159,1,2,0:0:0:0:
200,119,198233,1,0,0:0:0:0:
194,128,198307,1,0,0:0:0:0:
194,128,198381,1,2,0:0:0:0:
204,131,198456,5,2,0:0:0:0:
205,131,198506,1,0,0:0:0:0:
205,131,198555,1,0,0:0:0:0:
204,131,198605,1,2,0:0:0:0:
193,205,198679,1,0,0:0:0:0:
181,140,198753,1,2,0:0:0:0:
190,107,198803,1,2,0:0:0:0:
190,109,198852,1,2,0:0:0:0:
189,110,198902,1,0,0:0:0:0:
197,133,198976,1,2,0:0:0:0:
212,146,199050,1,0,0:0:0:0:
202,164,199124,1,0,0:0:0:0:
199,164,199198,1,2,0:0:0:0:
199,164,199273,1,0,0:0:0:0:
199,164,199347,1,2,0:0:0:0:
199,164,199421,1,2,0:0:0:0:
205,175,199495,1,0,0:0:0:0:
213,142,199570,1,0,0:0:0:0:
196,166,199644,1,2,0:0:0:0:
195,166,199718,1,0,0:0:0:0:
194,166,199792,1,0,0:0:0:0:
194,166,199867,1,2,0:0:0:0:
194,166,199941,1,0,0:0:0:0:
194,166,200015,1,0,0:0:0:0:
194,166,200089,1,2,0:0:0:0:
201,132,200164,1,2,0:0:0:0:
199,146,200238,1,0,0:0:0:0:
199,148,200312,1,0,0:0:0:0:
199,148,200386,1,2,0:0:0:0:
208,197,200461,1,0,0:0:0:0:
208,197,200535,1,2,0:0:0:0:
201,150,200609,1,2,0:0:0:0:
197,200,200684,1,0,0:0:0:0:
199,151,200758,1,0,0:0:0:0:
204,173,200832,1,2,0:0:0:0:
201,170,200906,1,0,0:0:0:0:
183,179,200981,1,0,0:0:0:0:
200,170,201055,1,0,0:0:0:0:
196,177,201129,1,2,0:0:0:0:
200,170,201203,1,0,0:0:0:0:
200,170,201278,1,0,0:0:0:0:
200,170,201352,1,0,0:0:0:0:
168,69,201425,1,2,0:0:0:0:
168,69,201475,1,0,0:0:0:0:
168,69,201524,1,0,0:0:0:0:
204,116,201574,1,2,0:0:0:0:
204,136,201648,1,0,0:0:0:0:
220,104,201722,1,2,0:0:0:0:
212,107,201772,1,2,0:0:0:0:
211,108,201821,1,2,0:0:0:0:
199,164,201872,1,0,0:0:0:0:
194,130,201946,1,0,0:0:0:0:
178,116,202019,1,2,0:0:0:0:
178,118,202069,1,0,0:0:0:0:
182,122,202118,1,0,0:0:0:0:
216,136,202169,1,2,0:0:0:0:
169,120,202242,1,0,0:0:0:0:
176,131,202316,1,2,0:0:0:0:
176,131,202366,1,2,0:0:0:0:
176,131,202415,1,2,0:0:0:0:
176,131,202465,1,0,0:0:0:0:
191,139,202540,1,2,0:0:0:0:
195,174,202614,1,0,0:0:0:0:
157,136,202651,1,0,0:0:0:0:
177,165,202762,1,0,0:0:0:0:
181,176,202799,1,0,0:0:0:0:
181,176,202910,1,2,0:0:0:0:
181,176,202948,1,2,0:0:0:0:
173,105,203059,1,2,0:0:0:0:
180,176,203096,1,2,0:0:0:0:
171,160,203208,5,0,0:0:0:0:
173,165,203282,1,0,0:0:0:0:
139,144,203357,1,0,0:0:0:0:
176,167,203431,1,0,0:0:0:0:
139,144,203505,1,2,0:0:0:0:
139,144,203580,1,2,0:0:0:0:
179,176,203654,1,0,0:0:0:0:
197,132,203703,1,2,0:0:0:0:
197,132,203753,1,2,0:0:0:0:
139,144,203802,1,0,0:0:0:0:
173,138,203951,1,0,0:0:0:0:
207,192,204024,1,0,0:0:0:0:
173,138,204099,1,2,0:0:0:0:
204,157,204247,1,0,0:0:0:0:
176,116,204396,1,2,0:0:0:0:
209,135,204445,1,2,0:0:0:0:
209,135,204495,1,2,0:0:0:0:
186,178,204544,1,0,0:0:0:0:
186,178,204618,1,2,0:0:0:0:
173,138,204693,1,2,0:0:0:0:
173,120,204767,1,0,0:0:0:0:
173,138,204842,1,2,0:0:0:0:
169,158,204915,1,2,0:0:0:0:
173,138,204990,1,0,0:0:0:0:
184,126,205139,5,0,0:0:0:0:
202,138,205212,1,0,0:0:0:0:
178,137,205287,1,2,0:0:0:0:
180,138,205436,1,4,0:0:0:0:
209,132,205584,1,2,0:0:0:0:
208,139,205658,1,2,0:0:0:0:
180,138,205733,1,0,0:0:0:0:
222,142,205807,1,0,0:0:0:0:
180,142,205882,1,2,0:0:0:0:
186,130,205931,1,2,0:0:0:0:
186,130,205980,1,2,0:0:0:0:
196,140,206030,1,0,0:0:0:0:
196,140,206104,1,2,0:0:0:0:
186,123,206178,1,2,0:0:0:0:
186,123,206252,1,0,0:0:0:0:
180,138,206327,1,0,0:0:0:0:
213,144,206401,1,0,0:0:0:0:
213,144,206476,1,2,0:0:0:0:
204,138,206549,1,0,0:0:0:0:
213,144,206624,1,0,0:0:0:0:
213,144,206698,1,0,0:0:0:0:
213,144,206773,1,2,0:0:0:0:
203,138,206846,1,0,0:0:0:0:
201,143,206921,1,0,0:0:0:0:
201,143,206995,1,0,0:0:0:0:
201,143,207070,1,2,0:0:0:0:
205,137,207143,1,0,0:0:0:0:
194,151,207218,1,0,0:0:0:0:
194,151,207292,1,0,0:0:0:0:
192,151,207367,5,2,0:0:0:0:
176,128,207416,1,2,0:0:0:0:
176,128,207466,1,2,0:0:0:0:
184,151,207515,1,0,0:0:0:0:
184,151,207589,1,0,0:0:0:0:
183,152,207664,1,2,0:0:0:0:
183,152,207738,1,2,0:0:0:0:
182,153,207812,1,0,0:0:0:0:
178,132,207886,1,2,0:0:0:0:
183,151,207961,1,0,0:0:0:0:
181,176,208109,1,0,0:0:0:0:
237,174,208183,1,0,0:0:0:0:
181,144,208258,1,2,0:0:0:0:
180,153,208307,1,2,0:0:0:0:
180,154,208357,1,2,0:0:0:0:
179,150,208406,1,0,0:0:0:0:
221,177,208480,1,2,0:0:0:0:
184,151,208555,1,0,0:0:0:0:
173,149,208703,1,0,0:0:0:0:
154,161,208753,1,0,0:0:0:0:
168,157,208802,1,0,0:0:0:0:
182,153,208852,1,2,0:0:0:0:
153,134,208925,1,2,0:0:0:0:
157,130,209000,1,0,0:0:0:0:
156,133,209074,1,2,0:0:0:0:
183,157,209149,1,0,0:0:0:0:
169,169,209297,5,2,0:0:0:0:
178,142,209372,1,0,0:0:0:0:
177,151,209446,1,0,0:0:0:0:
174,156,209520,1,0,0:0:0:0:
174,156,209594,1,2,0:0:0:0:
160,170,209743,1,0,0:0:0:0:
166,134,209891,1,2,0:0:0:0:
187,181,209965,1,2,0:0:0:0:
196,194,210040,1,0,0:0:0:0:
149,160,210113,1,0,0:0:0:0:
160,177,210188,1,2,0:0:0:0:
160,177,210263,1,0,0:0:0:0:
160,177,210337,1,0,0:0:0:0:
181,137,210411,1,0,0:0:0:0:
168,195,210485,1,2,0:0:0:0:
189,218,210560,1,0,0:0:0:0:
190,199,210634,1,2,0:0:0:0:
158,205,210708,1,0,0:0:0:0:
190,199,210783,1,2,0:0:0:0:
189,198,210857,1,2,0:0:0:0:
187,205,210931,1,0,0:0:0:0:
185,181,211079,5,0,0:0:0:0:
172,186,211153,1,0,0:0:0:0:
172,186,211227,1,2,0:0:0:0:
177,146,211277,1,0,0:0:0:0:
177,146,211326,1,0,0:0:0:0:
177,146,211376,1,0,0:0:0:0:
191,165,211450,1,0,0:0:0:0:
189,181,211524,1,2,0:0:0:0:
173,114,211574,1,0,0:0:0:0:
183,122,211623,1,0,0:0:0:0:
177,146,211673,1,0,0:0:0:0:
188,181,211747,1,0,0:0:0:0:
188,182,211821,1,2,0:0:0:0:
183,183,211896,1,0,0:0:0:0:
177,153,211970,1,0,0:0:0:0:
177,153,212044,1,0,0:0:0:0:
149,186,212118,1,2,0:0:0:0:
159,198,212193,1,2,0:0:0:0:
159,198,212267,1,2,0:0:0:0:
159,198,212341,1,2,0:0:0:0:
159,198,212415,1,2,0:0:0:0:
159,198,212490,1,2,0:0:0:0:
174,201,212564,1,2,0:0:0:0:
174,201,212638,1,2,0:0:0:0:
159,198,212712,1,0,0:0:0:0:
159,198,212787,1,0,0:0:0:0:
174,201,212861,1,0,0:0:0:0:
174,201,212935,1,0,0:0:0:0:
198,167,213009,5,2,0:0:0:0:
198,167,213059,1,2,0:0:0:0:
198,167,213108,1,2,0:0:0:0:
198,167,213158,1,2,0:0:0:0:
198,167,213207,1,2,0:0:0:0:
198,167,213257,1,2,0:0:0:0:
198,167,213307,1,0,0:0:0:0:
148,126,213455,1,0,0:0:0:0:
148,126,213505,1,0,0:0:0:0:
148,126,213554,1,0,0:0:0:0:
217,160,213604,1,2,0:0:0:0:
134,151,213678,1,2,0:0:0:0:
207,155,213753,1,0,0:0:0:0:
137,155,213826,1,0,0:0:0:0:
207,155,213901,1,2,0:0:0:0:
134,151,213975,1,2,0:0:0:0:
134,151,214049,1,0,0:0:0:0:
152,116,214123,1,0,0:0:0:0:
183,152,214198,1,2,0:0:0:0:
160,126,214272,1,2,0:0:0:0:
174,151,214346,1,2,0:0:0:0:
173,153,214396,1,2,0:0:0:0:
174,156,214445,1,2,0:0:0:0:
183,152,214495,1,0,0:0:0:0:
134,86,214643,1,0,0:0:0:0:
162,163,214718,1,0,0:0:0:0:
163,124,214792,1,2,0:0:0:0:
157,137,214841,1,2,0:0:0:0:
157,137,214891,1,2,0:0:0:0:
157,137,214940,1,0,0:0:0:0:
192,148,215014,1,0,0:0:0:0:
172,144,215089,1,2,0:0:0:0:
201,149,215163,1,0,0:0:0:0:
185,196,215238,1,0,0:0:0:0:
201,149,215311,1,0,0:0:0:0:
185,196,215387,5,2,0:0:0:0:
221,154,215460,1,0,0:0:0:0:
178,170,215535,1,2,0:0:0:0:
166,142,215584,1,2,0:0:0:0:
168,142,215633,1,2,0:0:0:0:
168,142,215683,1,0,0:0:0:0:
164,145,215831,1,2,0:0:0:0:
169,128,215906,1,2,0:0:0:0:
175,132,215980,1,0,0:0:0:0:
212,136,216054,1,0,0:0:0:0:
212,139,216128,1,0,0:0:0:0:
135,168,216203,1,2,0:0:0:0:
193,150,216278,1,0,0:0:0:0:
191,192,216351,1,2,0:0:0:0:
191,192,216425,1,2,0:0:0:0:
189,193,216500,1,0,0:0:0:0:
197,150,216575,1,2,0:0:0:0:
205,143,216648,1,2,0:0:0:0:
197,150,216723,1,2,0:0:0:0:
189,165,216797,1,2,0:0:0:0:
197,150,216872,1,0,0:0:0:0:
148,84,216945,1,0,0:0:0:0:
223,144,217020,1,0,0:0:0:0:
191,109,217094,1,0,0:0:0:0:
223,144,217169,1,2,0:0:0:0:
200,119,217243,1,2,0:0:0:0:
216,145,217317,1,0,0:0:0:0:
216,145,217392,1,2,0:0:0:0:
212,142,217466,1,0,0:0:0:0:
174,114,217540,1,0,0:0:0:0:
213,142,217614,1,2,0:0:0:0:
213,142,217689,1,0,0:0:0:0:
212,143,217763,1,0,0:0:0:0:
212,143,217837,1,0,0:0:0:0:
212,143,217911,1,2,0:0:0:0:
196,148,217960,1,2,0:0:0:0:
196,149,218009,1,2,0:0:0:0:
212,146,218060,1,0,0:0:0:0:
205,175,218208,5,0,0:0:0:0:
143,196,218282,1,2,0:0:0:0:
146,191,218356,1,2,0:0:0:0:
143,196,218430,1,0,0:0:0:0:
143,196,218505,1,2,0:0:0:0:
213,142,218580,1,0,0:0:0:0:
191,178,218653,1,2,0:0:0:0:
192,176,218703,1,2,0:0:0:0:
191,178,218752,1,2,0:0:0:0:
145,179,218802,1,0,0:0:0:0:
146,191,218876,1,2,0:0:0:0:
230,179,218951,1,0,0:0:0:0:
141,179,219024,1,2,0:0:0:0:
141,179,219099,1,2,0:0:0:0:
141,179,219173,1,0,0:0:0:0:
203,196,219248,1,0,0:0:0:0:
215,217,219396,5,2,0:0:0:0:
215,214,219470,1,2,0:0:0:0:
208,197,219545,1,0,0:0:0:0:
189,198,219618,1,2,0:0:0:0:
189,198,219693,1,2,0:0:0:0:
189,198,219767,1,0,0:0:0:0:
232,195,219842,1,2,0:0:0:0:
178,94,219915,1,2,0:0:0:0:
176,106,219990,1,0,0:0:0:0:
178,94,220064,1,2,0:0:0:0:
176,100,220138,1,0,0:0:0:0:
176,106,220212,1,0,0:0:0:0:
195,177,220288,1,2,0:0:0:0:
176,106,220361,1,2,0:0:0:0:
195,177,220436,1,0,0:0:0:0:
197,164,220584,5,0,0:0:0:0:
170,138,220633,1,2,0:0:0:0:
173,149,220683,1,2,0:0:0:0:
173,149,220732,1,2,0:0:0:0:
186,160,220807,1,2,0:0:0:0:
199,164,220882,1,0,0:0:0:0:
194,130,220956,1,2,0:0:0:0:
191,166,221030,1,0,0:0:0:0:
189,166,221179,1,0,0:0:0:0:
189,166,221253,1,0,0:0:0:0:
189,166,221327,1,2,0:0:0:0:
189,166,221401,1,0,0:0:0:0:
172,144,221475,1,2,0:0:0:0:
172,144,221549,1,2,0:0:0:0:
195,174,221624,1,0,0:0:0:0:
165,126,221698,1,2,0:0:0:0:
173,138,221773,1,0,0:0:0:0:
177,157,221846,1,0,0:0:0:0:
173,138,221921,1,2,0:0:0:0:
178,157,221995,1,2,0:0:0:0:
173,138,222070,1,0,0:0:0:0:
181,154,222143,1,2,0:0:0:0:
180,150,222217,1,0,0:0:0:0:
139,144,222367,1,0,0:0:0:0:
139,144,222515,5,2,0:0:0:0:
139,144,222590,1,0,0:0:0:0:
175,134,222663,1,2,0:0:0:0:
173,138,222712,1,2,0:0:0:0:
174,136,222762,1,2,0:0:0:0:
139,144,222812,1,0,0:0:0:0:
173,138,222961,1,0,0:0:0:0:
173,138,223109,1,2,0:0:0:0:
173,138,223258,1,4,0:0:0:0:
173,138,223555,5,0,0:0:0:0:
173,138,223703,1,2,0:0:0:0:
173,138,223852,1,2,0:0:0:0:
173,138,223926,1,2,0:0:0:0:
173,138,224000,1,0,0:0:0:0:
184,126,224149,1,2,0:0:0:0:
194,135,224297,1,2,0:0:0:0:
180,138,224446,1,0,0:0:0:0:
189,152,224519,1,0,0:0:0:0:
188,152,224594,1,0,0:0:0:0:
217,150,224668,1,2,0:0:0:0:
180,142,224743,1,0,0:0:0:0:
180,142,224892,1,2,0:0:0:0:
179,142,225040,1,2,0:0:0:0:
213,144,225189,5,0,0:0:0:0:
213,144,225337,1,0,0:0:0:0:
180,158,225410,1,2,0:0:0:0:
213,144,225486,1,2,0:0:0:0:
185,175,225559,1,0,0:0:0:0:
185,176,225633,1,0,0:0:0:0:
213,144,225708,1,0,0:0:0:0:
213,144,225783,1,2,0:0:0:0:
174,162,225856,1,0,0:0:0:0:
201,143,225931,1,0,0:0:0:0:
201,143,226005,1,0,0:0:0:0:
201,143,226080,1,2,0:0:0:0:
174,162,226153,1,0,0:0:0:0:
194,151,226228,1,0,0:0:0:0:
194,151,226302,1,0,0:0:0:0:
192,151,226377,1,2,0:0:0:0:
173,160,226450,1,0,0:0:0:0:
184,151,226525,1,0,0:0:0:0:
172,132,226574,1,2,0:0:0:0:
168,101,226623,1,2,0:0:0:0:
159,128,226673,1,2,0:0:0:0:
183,152,226748,1,2,0:0:0:0:
175,149,226821,1,0,0:0:0:0:
175,149,226871,1,0,0:0:0:0:
175,150,226920,1,0,0:0:0:0:
183,151,226971,1,2,0:0:0:0:
180,150,227118,1,0,0:0:0:0:
180,150,227268,5,2,0:0:0:0:
170,149,227316,1,2,0:0:0:0:
170,149,227366,1,2,0:0:0:0:
179,150,227416,1,0,0:0:0:0:
184,151,227491,1,2,0:0:0:0:
178,150,227565,1,0,0:0:0:0:
183,152,227713,1,0,0:0:0:0:
169,169,227787,1,0,0:0:0:0:
182,153,227862,1,2,0:0:0:0:
183,151,228010,1,0,0:0:0:0:
183,157,228159,1,0,0:0:0:0:
166,161,228232,1,0,0:0:0:0:
168,212,228307,1,0,0:0:0:0:
168,212,228381,1,0,0:0:0:0:
174,170,228456,1,2,0:0:0:0:
166,206,228529,1,0,0:0:0:0:
166,206,228604,1,2,0:0:0:0:
204,191,228679,1,2,0:0:0:0:
173,172,228753,1,0,0:0:0:0:
197,193,228901,1,0,0:0:0:0:
196,194,229050,1,2,0:0:0:0:
160,177,229198,1,2,0:0:0:0:
160,177,229273,1,0,0:0:0:0:
160,177,229347,1,0,0:0:0:0:
189,197,229495,1,0,0:0:0:0:
190,199,229644,5,2,0:0:0:0:
161,160,229717,1,0,0:0:0:0:
190,199,229793,1,2,0:0:0:0:
170,142,229866,1,0,0:0:0:0:
187,205,229941,1,0,0:0:0:0:
185,181,230089,1,0,0:0:0:0:
152,184,230163,1,0,0:0:0:0:
143,156,230237,1,2,0:0:0:0:
149,184,230311,1,2,0:0:0:0:
143,156,230386,1,0,0:0:0:0:
152,184,230460,1,2,0:0:0:0:
143,156,230534,1,0,0:0:0:0:
143,156,230683,1,0,0:0:0:0:
152,184,230757,1,2,0:0:0:0:
143,156,230831,1,2,0:0:0:0:
152,184,230906,1,0,0:0:0:0:
152,184,230980,1,0,0:0:0:0:
137,163,231054,1,2,0:0:0:0:
137,164,231128,1,0,0:0:0:0:
149,184,231203,1,2,0:0:0:0:
149,184,231277,1,2,0:0:0:0:
152,184,231351,1,0,0:0:0:0:
123,162,231425,1,2,0:0:0:0:
196,236,231500,1,0,0:0:0:0:
106,158,231574,1,0,0:0:0:0:
106,159,231648,1,2,0:0:0:0:
105,161,231722,1,0,0:0:0:0:
192,315,231797,1,2,0:0:0:0:
80,159,231871,1,2,0:0:0:0:
147,166,231945,1,0,0:0:0:0:
95,167,232019,1,2,0:0:0:0:
151,141,232168,5,2,0:0:0:0:
151,141,232242,1,2,0:0:0:0:
151,141,232316,1,0,0:0:0:0:
160,165,232391,1,0,0:0:0:0:
160,165,232465,1,2,0:0:0:0:
148,216,232539,1,0,0:0:0:0:
148,216,232613,1,0,0:0:0:0:
148,216,232688,1,2,0:0:0:0:
148,216,232762,1,0,0:0:0:0:
148,216,232836,1,0,0:0:0:0:
148,216,232910,1,2,0:0:0:0:
148,216,232985,1,2,0:0:0:0:
148,216,233059,1,0,0:0:0:0:
148,216,233133,1,2,0:0:0:0:
148,216,233207,1,0,0:0:0:0:
148,216,233282,1,0,0:0:0:0:
147,163,233356,1,2,0:0:0:0:
166,152,233430,1,2,0:0:0:0:
148,216,233505,1,0,0:0:0:0:
170,158,233579,1,2,0:0:0:0:
174,189,233653,1,2,0:0:0:0:
174,189,233728,1,0,0:0:0:0:
174,189,233802,1,0,0:0:0:0:
174,189,233876,1,0,0:0:0:0:
174,189,233950,1,2,0:0:0:0:
174,183,234025,1,0,0:0:0:0:
189,118,234099,1,2,0:0:0:0:
184,130,234148,1,2,0:0:0:0:
184,130,234198,1,2,0:0:0:0:
184,130,234247,1,0,0:0:0:0:
178,147,234321,1,0,0:0:0:0:
184,130,234396,1,2,0:0:0:0:
184,130,234445,1,2,0:0:0:0:
184,130,234495,1,2,0:0:0:0:
184,130,234544,1,0,0:0:0:0:
176,150,234618,1,2,0:0:0:0:
176,150,234693,1,0,0:0:0:0:
158,195,234841,1,0,0:0:0:0:
158,195,234990,1,2,0:0:0:0:
158,195,235138,5,0,0:0:0:0:
145,205,235435,5,2,0:0:0:0:
145,205,235732,5,2,0:0:0:0:
71,194,235881,5,0,0:0:0:0:
94,185,235955,1,0,0:0:0:0:
94,185,236029,1,0,0:0:0:0:
94,185,236104,1,0,0:0:0:0:
94,185,236178,1,0,0:0:0:0:
94,185,236252,1,0,0:0:0:0:
94,185,236326,1,0,0:0:0:0:
94,185,236401,1,0,0:0:0:0:
101,196,236475,1,2,0:0:0:0:
98,209,237069,5,2,0:0:0:0:
98,209,237217,1,0,0:0:0:0:
98,209,237292,1,0,0:0:0:0:
98,209,237366,1,2,0:0:0:0:
98,209,237514,1,0,0:0:0:0:
98,209,237589,1,0,0:0:0:0:
98,209,237663,1,2,0:0:0:0:
98,209,237811,1,0,0:0:0:0:
98,209,237886,1,0,0:0:0:0:
98,209,237960,1,2,0:0:0:0:
98,209,238108,5,0,0:0:0:0:
98,209,238183,1,0,0:0:0:0:
98,209,238257,1,2,0:0:0:0:
145,154,238331,1,0,0:0:0:0:
126,240,238406,1,0,0:0:0:0:
126,240,238480,1,0,0:0:0:0:
126,240,238554,1,2,0:0:0:0:
126,240,238628,1,0,0:0:0:0:
126,240,238703,1,0,0:0:0:0:
125,148,238777,1,2,0:0:0:0:
126,240,238851,1,0,0:0:0:0:
126,240,238925,1,0,0:0:0:0:
126,240,239000,1,0,0:0:0:0:
126,240,239074,1,0,0:0:0:0:
126,240,239148,1,2,0:0:0:0:
126,240,239222,1,2,0:0:0:0:
126,240,239297,1,2,0:0:0:0:
126,240,239371,1,2,0:0:0:0:
220,132,239445,1,0,0:0:0:0:
244,137,239742,5,2,0:0:0:0:
244,137,239891,1,0,0:0:0:0:
168,189,239965,1,0,0:0:0:0:
202,124,240039,1,0,0:0:0:0:
196,137,240336,5,2,0:0:0:0:
194,146,240485,1,0,0:0:0:0:
199,143,240633,1,0,0:0:0:0:
199,155,240782,1,0,0:0:0:0:
199,157,240856,1,0,0:0:0:0:
197,153,240931,1,2,0:0:0:0:
192,159,241079,1,0,0:0:0:0:
197,149,241228,1,0,0:0:0:0:
135,215,241376,1,0,0:0:0:0:
135,215,241450,1,0,0:0:0:0:
201,148,241525,1,2,0:0:0:0:
141,218,241599,1,2,0:0:0:0:
221,155,241673,1,0,0:0:0:0:
148,168,241747,1,2,0:0:0:0:
221,155,241822,1,0,0:0:0:0:
212,149,241970,1,0,0:0:0:0:
212,149,242118,5,2,0:0:0:0:
135,215,242193,1,2,0:0:0:0:
212,149,242267,1,0,0:0:0:0:
212,155,242416,1,0,0:0:0:0:
242,157,242713,1,2,0:0:0:0:
253,162,242861,1,0,0:0:0:0:
253,162,242935,1,0,0:0:0:0:
252,161,243010,1,0,0:0:0:0:
134,209,243084,1,2,0:0:0:0:
244,151,243158,1,0,0:0:0:0:
242,157,243307,1,2,0:0:0:0:
254,155,243455,1,0,0:0:0:0:
254,155,243530,1,2,0:0:0:0:
254,155,243604,1,0,0:0:0:0:
254,155,243678,1,0,0:0:0:0:
254,155,243752,1,2,0:0:0:0:
243,175,243901,1,2,0:0:0:0:
238,178,244049,1,2,0:0:0:0:
238,178,244124,1,2,0:0:0:0:
234,178,244198,1,0,0:0:0:0:
231,169,244346,1,0,0:0:0:0:
231,168,244495,5,2,0:0:0:0:
224,163,244643,1,0,0:0:0:0:
207,146,244718,1,0,0:0:0:0:
214,145,244792,1,2,0:0:0:0:
94,196,244940,1,0,0:0:0:0:
181,155,245089,1,2,0:0:0:0:
234,146,245237,1,0,0:0:0:0:
234,146,245386,1,2,0:0:0:0:
223,150,245534,1,0,0:0:0:0:
228,132,245609,1,0,0:0:0:0:
225,156,245683,1,2,0:0:0:0:
212,138,245757,1,2,0:0:0:0:
225,157,245831,1,0,0:0:0:0:
231,169,245980,1,2,0:0:0:0:
231,169,246129,1,0,0:0:0:0:
231,169,246277,1,2,0:0:0:0:
104,193,246351,1,0,0:0:0:0:
231,172,246426,1,2,0:0:0:0:
104,193,246500,1,0,0:0:0:0:
231,172,246574,1,0,0:0:0:0:
197,182,246722,5,0,0:0:0:0:
104,193,246797,1,0,0:0:0:0:
197,182,246871,1,2,0:0:0:0:
104,193,246945,1,0,0:0:0:0:
197,182,247020,1,0,0:0:0:0:
104,193,247094,1,2,0:0:0:0:
171,143,247168,1,2,0:0:0:0:
183,150,247242,1,2,0:0:0:0:
218,158,247317,1,0,0:0:0:0:
186,150,247391,1,0,0:0:0:0:
219,158,247465,1,2,0:0:0:0:
219,158,247614,1,2,0:0:0:0:
218,158,247688,1,2,0:0:0:0:
218,158,247762,1,0,0:0:0:0:
196,163,247911,1,0,0:0:0:0:
196,163,247985,1,0,0:0:0:0:
196,163,248059,1,2,0:0:0:0:
196,162,248208,1,2,0:0:0:0:
196,162,248282,1,0,0:0:0:0:
196,162,248356,1,0,0:0:0:0:
196,159,248505,5,0,0:0:0:0:
196,159,248579,1,0,0:0:0:0:
196,159,248653,1,2,0:0:0:0:
196,159,248728,1,2,0:0:0:0:
196,159,248802,1,2,0:0:0:0:
190,161,248876,1,2,0:0:0:0:
190,161,248950,1,0,0:0:0:0:
221,152,249099,1,0,0:0:0:0:
221,152,249247,1,2,0:0:0:0:
214,153,249396,1,0,0:0:0:0:
214,153,249470,1,0,0:0:0:0:
214,153,249544,1,2,0:0:0:0:
162,163,249693,1,0,0:0:0:0:
192,155,249841,1,2,0:0:0:0:
201,178,249990,1,0,0:0:0:0:
201,178,250138,1,2,0:0:0:0:
171,190,250212,1,2,0:0:0:0:
171,190,250287,1,0,0:0:0:0:
183,180,250435,1,2,0:0:0:0:
182,180,250584,1,0,0:0:0:0:
171,196,250732,1,0,0:0:0:0:
171,196,250807,1,0,0:0:0:0:
171,196,250881,1,0,0:0:0:0:
170,196,251029,5,2,0:0:0:0:
174,232,251104,1,2,0:0:0:0:
170,196,251178,1,2,0:0:0:0:
174,232,251252,1,2,0:0:0:0:
174,232,251326,1,0,0:0:0:0:
114,131,251401,1,0,0:0:0:0:
212,253,251475,1,0,0:0:0:0:
114,131,251549,1,0,0:0:0:0:
169,106,251623,1,2,0:0:0:0:
160,126,251673,1,2,0:0:0:0:
160,126,251722,1,2,0:0:0:0:
183,226,251772,1,0,0:0:0:0:
63,166,251846,1,2,0:0:0:0:
184,224,251920,1,0,0:0:0:0:
169,106,251970,1,0,0:0:0:0:
167,113,252019,1,0,0:0:0:0:
166,113,252069,1,2,0:0:0:0:
114,131,252143,1,0,0:0:0:0:
181,177,252217,1,2,0:0:0:0:
149,130,252267,1,2,0:0:0:0:
150,133,252316,1,2,0:0:0:0:
181,177,252366,1,0,0:0:0:0:
161,202,252514,5,0,0:0:0:0:
184,169,252663,1,0,0:0:0:0:
188,164,252737,1,0,0:0:0:0:
161,202,252811,1,2,0:0:0:0:
175,205,252960,1,0,0:0:0:0:
174,206,253034,1,2,0:0:0:0:
173,207,253108,1,0,0:0:0:0:
173,207,253183,1,0,0:0:0:0:
171,208,253257,1,0,0:0:0:0:
176,210,253406,1,2,0:0:0:0:
184,189,253554,1,2,0:0:0:0:
184,187,253628,1,2,0:0:0:0:
184,188,253703,1,0,0:0:0:0:
142,184,253851,1,0,0:0:0:0:
142,184,254000,1,2,0:0:0:0:
142,184,254148,1,0,0:0:0:0:
142,184,254222,1,0,0:0:0:0:
142,184,254297,1,0,0:0:0:0:
142,184,254594,5,2,0:0:0:0:
136,185,254742,1,0,0:0:0:0:
136,185,254891,1,0,0:0:0:0:
131,143,255039,1,0,0:0:0:0:
131,143,255113,1,0,0:0:0:0:
131,150,255188,1,2,0:0:0:0:
104,111,255262,1,0,0:0:0:0:
139,169,255336,1,0,0:0:0:0:
140,172,255485,1,2,0:0:0:0:
111,153,255782,5,2,0:0:0:0:
77,161,255930,1,2,0:0:0:0:
190,153,256005,1,2,0:0:0:0:
114,160,256079,1,0,0:0:0:0:
125,170,256153,1,2,0:0:0:0:
52,156,256227,1,2,0:0:0:0:
125,170,256302,1,0,0:0:0:0:
125,170,256376,1,2,0:0:0:0:
52,156,256450,1,2,0:0:0:0:
52,156,256524,1,0,0:0:0:0:
125,172,256599,1,2,0:0:0:0:
44,148,256673,1,0,0:0:0:0:
44,148,256747,1,0,0:0:0:0:
126,176,256821,1,2,0:0:0:0:
126,176,256896,1,0,0:0:0:0:
30,143,256970,1,2,0:0:0:0:
30,143,257044,1,0,0:0:0:0:
14,136,257118,1,0,0:0:0:0:
30,143,257193,1,2,0:0:0:0:
30,144,257267,1,0,0:0:0:0:
171,161,257341,1,0,0:0:0:0:
9,140,257415,1,2,0:0:0:0:
171,161,257490,1,0,0:0:0:0:
59,161,257564,1,2,0:0:0:0:
171,161,257638,1,2,0:0:0:0:
59,162,257712,1,0,0:0:0:0:
171,161,257787,1,2,0:0:0:0:
171,161,257861,1,0,0:0:0:0:
72,156,257935,1,0,0:0:0:0:
68,150,258009,1,2,0:0:0:0:
189,192,258059,1,2,0:0:0:0:
189,192,258108,1,2,0:0:0:0:
66,152,258158,1,0,0:0:0:0:
101,159,258307,1,2,0:0:0:0:
101,159,258455,5,4,0:0:0:0:
215,139,258604,1,4,0:0:0:0:
157,120,260831,5,6,0:0:0:0:
152,122,260980,1,6,0:0:0:0:
158,130,261722,5,4,0:0:0:0:
158,130,261871,1,4,0:0:0:0:
111,117,263207,5,4,0:0:0:0:
111,117,263356,1,4,0:0:0:0:
145,191,265584,5,4,0:0:0:0:
145,191,265732,1,4,0:0:0:0:
148,172,266029,5,6,0:0:0:0:
141,164,266326,5,4,0:0:0:0:
140,164,266475,1,4,0:0:0:0:
