osu file format v14

[General]
AudioFilename: audio.mp3
AudioLeadIn: 0
PreviewTime: 41982
Countdown: 0
SampleSet: Soft
StackLeniency: 0.3
Mode: 0
LetterboxInBreaks: 0
WidescreenStoryboard: 1

[Editor]
Bookmarks: 839,11810,17296,28268,33753,41982,52953,63925,69410,80382,94096,105068,116039,127010,137982
DistanceSpacing: 1.2
BeatDivisor: 4
GridSize: 32
TimelineZoom: 3.899997

[Metadata]
Title:Ren'ai Heiki! Lethal Weapon-chan
TitleUnicode:恋愛兵器!りーさるうぇぽんちゃん
Artist::) feat. KAFU
ArtistUnicode:ت feat. KAFU
Creator:- akiira -
Version:VP757's Insane
Source:
Tags:vocaloid vocalsynth japanese pop j-pop jpop -_akiira_- -_asuuka_- Ayesha Altugle Shizuku- Kazato Asa Shikibe Mayu VP757 Rorupan L9 Lulu- Ducky- Lunicia 0ugi
BeatmapID:3773543
BeatmapSetID:1832014

[Difficulty]
HPDrainRate:4.5
CircleSize:3.3
OverallDifficulty:7.5
ApproachRate:8.3
SliderMultiplier:1.8
SliderTickRate:1

[Events]
//Background and Video events
0,0,"bg.jpeg",0,0
//Break Periods
//Storyboard Layer 0 (Background)
//Storyboard Layer 1 (Fail)
//Storyboard Layer 2 (Pass)
//Storyboard Layer 3 (Foreground)
//Storyboard Layer 4 (Overlay)
//Storyboard Sound Samples

[TimingPoints]
400,342.857142857143,4,2,1,40,1,0
742,342.857142857143,4,2,1,40,1,0
742,-125,4,2,1,40,0,0
10342,-200,4,2,1,40,0,0
11713,-100,4,2,1,80,0,0
17199,-166.666666666667,4,2,2,60,0,0
26799,-125,4,2,1,60,0,0
28170,-200,4,2,1,40,0,0
32284,-250,4,2,1,40,0,0
33656,-142.857142857143,4,2,1,40,0,0
36741,-142.857142857143,4,2,1,50,0,0
37084,-142.857142857143,4,2,1,60,0,0
37427,-142.857142857143,4,2,1,70,0,0
37770,-142.857142857143,4,2,1,80,0,0
41884,342.857142857143,4,2,1,80,1,1
41884,-83.3333333333333,4,2,1,80,0,1
52169,-83.3333333333333,4,2,1,80,0,0
52512,-166.666666666667,4,2,1,80,0,0
52855,-100,4,2,1,80,0,0
68969,-125,4,2,1,80,0,0
69312,-166.666666666667,4,2,1,60,0,0
80284,-125,4,2,1,40,0,0
88512,-142.857142857143,4,2,1,50,0,0
88854,-142.857142857143,4,2,1,60,0,0
89197,-142.857142857143,4,2,1,70,0,0
89540,-142.857142857143,4,2,1,80,0,0
93998,342.857142857143,4,2,1,60,1,0
93998,-200,4,2,1,60,0,0
102912,-125,4,2,1,60,0,0
104969,-100,4,2,1,80,0,0
106169,-83.3333333333333,4,2,1,80,0,1
115255,-83.3333333333333,4,2,1,80,0,0
115598,-166.666666666667,4,2,1,80,0,0
115940,-100,4,2,1,80,0,0
137883,-400,4,2,1,40,0,0
138225,-400,4,2,1,5,0,0

[Colours]
Combo1 : 157,60,255
Combo2 : 0,255,255
Combo3 : 86,102,216
Combo4 : 255,128,192

[HitObjects]
306,30,400,6,0,B|327:72|327:72|321:114,1,90,0|0,2:0|2:0,2:0:0:0:
250,168,742,6,0,P|188:131|117:129,1,144,2|0,2:0|2:0,2:0:0:0:
117,129,1256,2,0,P|54:164|17:224,1,144,0|0,2:0|2:0,2:0:0:0:
17,224,1770,2,0,P|16:295|49:358,1,144,0|0,2:0|2:0,2:0:0:0:
141,367,2284,38,0,P|142:349|137:331,2,36,0|0|0,2:0|2:0|2:0,2:0:0:0:
194,276,2627,2,0,P|183:261|167:252,1,36,0|0,2:0|2:0,2:0:0:0:
146,250,2799,5,0,2:0:0:0:
137,331,2970,1,0,2:0:0:0:
214,353,3142,2,0,P|247:340|268:312,1,72,0|0,2:0|2:0,2:0:0:0:
335,258,3484,38,0,P|333:187|352:118,1,144,2|0,2:0|2:0,2:0:0:0:
352,118,3999,2,0,P|319:132|283:137,1,72,0|0,2:0|2:0,2:0:0:0:
215,85,4342,5,0,2:0:0:0:
215,85,4513,2,0,B|211:65|211:65|164:43,1,72,0|0,2:0|2:0,2:0:0:0:
81,19,4856,2,0,L|92:90,1,72,0|0,2:0|2:0,2:0:0:0:
38,153,5199,2,0,L|70:217,1,72,0|0,2:0|2:0,2:0:0:0:
36,293,5542,2,0,L|134:338,1,108,0|0,2:0|2:0,2:0:0:0:
227,310,6056,37,0,2:0:0:0:
227,310,6142,1,0,2:0:0:0:
227,310,6227,2,0,P|267:252|335:236,1,144,2|0,1:2|2:0,2:0:0:0:
424,235,6742,5,0,2:0:0:0:
424,235,6913,2,0,L|432:200,2,36,0|0|0,2:0|2:0|2:0,2:0:0:0:
482,118,7256,37,0,2:0:0:0:
467,93,7427,1,0,1:2:0:0:
451,69,7599,2,0,L|383:92,1,72,0|0,1:2|2:0,2:0:0:0:
310,60,7942,2,0,L|242:83,1,72,0|0,2:0|2:0,2:0:0:0:
230,101,8284,6,0,B|209:124|240:167|278:169|293:244|242:296,1,216,0|0,2:0|1:2,2:0:0:0:
242,296,8970,37,2,1:2:0:0:
185,364,9484,1,0,1:2:0:0:
118,309,9656,5,0,1:2:0:0:
118,309,10170,1,0,1:2:0:0:
176,245,10342,38,0,B|171:209|171:209|180:191|180:191|175:157,3,90,0|0|0|2,2:0|2:0|2:0|2:0,2:0:0:0:
402,5,11713,22,0,B|428:27|428:27|429:82,1,90,6|2,1:2|2:0,2:0:0:0:
421,161,12056,1,10,2:0:0:0:
468,237,12227,1,0,2:0:0:0:
468,237,12313,1,0,2:0:0:0:
468,237,12399,2,0,B|447:277|447:277|405:296,1,90,0|2,1:2|2:0,2:0:0:0:
322,267,12742,2,0,B|275:262|275:262|238:288,1,90,10|2,2:0|2:0,2:0:0:0:
160,332,13084,21,2,1:2:0:0:
155,240,13256,1,2,2:0:0:0:
81,182,13427,1,10,2:0:0:0:
120,104,13599,1,2,2:0:0:0:
120,104,13684,1,2,2:0:0:0:
120,104,13770,2,0,B|145:47|145:47|133:21,3,90,2|2|10|2,1:2|2:0|2:0|2:0,2:0:0:0:
221,4,14456,22,0,P|265:3|309:11,1,90,2|2,1:2|2:0,2:0:0:0:
404,62,14799,2,0,P|422:104|452:137,1,90,10|2,2:0|2:0,2:0:0:0:
459,144,15056,1,2,2:0:0:0:
459,144,15142,2,0,P|440:184|437:229,1,90,2|2,1:2|2:0,2:0:0:0:
391,311,15484,2,0,P|353:335|311:350,1,90,10|2,2:0|2:0,2:0:0:0:
218,324,15827,21,4,1:2:0:0:
261,239,15999,1,10,2:0:0:0:
261,239,16084,1,2,2:0:0:0:
261,239,16170,2,0,P|216:237|172:224,1,90,2|2,2:0|1:2,2:0:0:0:
103,177,16513,5,2,1:2:0:0:
98,159,16599,1,2,2:0:0:0:
90,142,16684,1,2,1:2:0:0:
79,127,16770,1,2,1:2:0:0:
64,113,16856,2,0,B|30:75|30:75|44:38,1,90,10|2,2:0|2:0,2:0:0:0:
68,33,17199,22,0,P|122:29|173:45,1,108,6|2,1:2|2:0,2:0:0:0:
261,93,17884,1,10,2:0:0:0:
68,33,18570,1,2,1:2:0:0:
261,93,19256,1,10,2:0:0:0:
68,33,19942,22,0,P|122:29|173:45,1,108,2|2,1:2|2:0,2:0:0:0:
261,93,20627,1,10,2:0:0:0:
68,33,21313,1,2,1:2:0:0:
261,93,21999,1,10,2:0:0:0:
68,33,22684,22,0,P|122:29|173:45,1,108,2|2,1:2|2:0,2:0:0:0:
261,93,23370,1,10,2:0:0:0:
68,33,24056,1,2,1:2:0:0:
261,93,24742,1,10,2:0:0:0:
68,33,25427,22,0,P|122:29|173:45,1,108,2|0,1:2|2:0,2:0:0:0:
261,93,26113,1,10,2:0:0:0:
68,33,26799,22,0,P|104:28|140:32,1,72,0|2,1:2|2:0,2:0:0:0:
261,93,27142,2,0,P|225:97|189:93,1,72,0|0,1:2|1:2,2:0:0:0:
94,116,27484,37,10,2:0:0:0:
87,128,27570,1,0,1:2:0:0:
82,141,27656,1,2,1:2:0:0:
133,207,27827,2,0,P|168:208|203:218,1,72,2|2,1:2|1:2,2:0:0:0:
220,232,28170,6,0,L|232:321,1,90,6|0,2:0|2:0,2:0:0:0:
232,321,30913,2,0,L|220:232,1,90,2|0,2:0|2:0,2:0:0:0:
417,67,32284,6,0,P|297:94|219:190,1,252,2|0,2:0|2:0,2:0:0:0:
220,232,33656,38,0,L|229:294,1,62.9999999999999,2|2,1:2|2:0,2:0:0:0:
314,283,33999,2,0,L|305:221,1,62.9999999999999,2|2,2:0|1:2,2:0:0:0:
294,139,34342,1,2,2:0:0:0:
294,139,34513,1,0,2:0:0:0:
378,108,34684,38,0,L|438:129,1,62.9999999999999,2|2,2:0|1:2,2:0:0:0:
511,171,35027,2,0,B|527:193|514:226|497:230|479:260|496:289,1,126,2|2,1:2|2:0,2:0:0:0:
496,288,35542,1,0,2:0:0:0:
436,348,35713,6,0,L|376:327,1,62.9999999999999,2|2,1:2|2:0,2:0:0:0:
318,264,36056,1,2,2:0:0:0:
299,267,36142,1,0,2:0:0:0:
280,270,36227,1,2,2:0:0:0:
261,273,36313,1,0,2:0:0:0:
240,276,36399,38,0,L|249:288,28,15.75,8|8|8|8|10|8|8|8|8|8|8|8|10|8|8|8|10|8|8|8|10|8|8|8|10|8|8|8|10,2:0|2:0|2:0|2:0|2:0|2:0|2:0|2:0|2:0|2:0|2:0|2:0|2:0|2:0|2:0|2:0|2:0|2:0|2:0|2:0|2:0|2:0|2:0|2:0|2:0|2:0|2:0|2:0|2:0,2:0:0:0:
182,199,37770,5,8,2:3:0:0:
182,199,37884,2,0,L|156:165,4,42,8|8|8|8|8,2:3|2:3|2:3|2:3|2:3,2:0:0:0:
126,134,38456,37,4,2:3:0:0:
200,79,38684,1,4,2:3:0:0:
286,112,38970,1,4,2:3:0:0:
301,91,39142,21,6,1:2:0:0:
439,255,39484,1,6,1:2:0:0:
225,226,39827,1,6,1:2:0:0:
68,374,40170,1,6,1:2:0:0:
282,358,40513,5,6,1:2:0:0:
260,142,40856,1,6,1:2:0:0:
53,205,41199,1,6,1:2:0:0:
132,174,41884,6,0,L|185:184,1,54,6|0,1:2|2:0,2:0:0:0:
185,184,42055,2,0,L|131:173,1,54,2|0,2:0|2:0,2:0:0:0:
101,77,42226,22,0,L|154:87,1,54,10|0,2:0|2:0,2:0:0:0:
154,87,42398,2,0,L|101:77,1,54,2|0,2:0|2:0,2:0:0:0:
41,17,42569,21,2,1:2:0:0:
231,55,42826,1,2,2:0:0:0:
357,202,43084,22,0,L|377:362,1,162,10|0,2:0|2:0,2:0:0:0:
383,365,43426,2,0,L|376:311,1,54,2|0,2:0|2:0,2:0:0:0:
261,257,43598,22,0,L|267:310,1,54,10|0,2:0|2:0,2:0:0:0:
267,310,43769,2,0,L|261:257,1,54,2|0,2:0|2:0,2:0:0:0:
246,171,43941,21,2,1:2:0:0:
439,191,44198,1,2,2:0:0:0:
359,13,44455,1,0,2:0:0:0:
319,95,44626,38,0,L|342:143,1,54,6|0,1:2|2:0,2:0:0:0:
342,143,44798,2,0,L|319:95,1,54,2|0,2:0|2:0,2:0:0:0:
212,97,44969,22,0,L|184:44,1,54,8|0,2:0|2:0,2:0:0:0:
186,49,45141,2,0,L|209:97,1,54,2|0,2:0|2:0,2:0:0:0:
246,171,45312,21,2,1:2:0:0:
105,306,45569,1,2,2:0:0:0:
59,117,45826,1,2,2:0:0:0:
93,202,45998,22,0,L|130:164,1,54,0|0,1:2|2:0,2:0:0:0:
130,163,46169,2,0,L|54:239,1,108,2|8,2:0|2:0,2:0:0:0:
7,333,46512,22,0,L|60:326,1,54,2|0,2:0|2:0,2:0:0:0:
60,325,46684,2,0,L|6:331,1,54,0|0,1:2|2:0,2:0:0:0:
6,331,46855,21,2,2:0:0:0:
141,316,47026,1,8,2:0:0:0:
273,311,47198,21,2,2:0:0:0:
334,312,47369,38,0,L|280:318,1,54,6|0,1:2|2:0,2:0:0:0:
280,317,47541,2,0,L|334:311,1,54,2|0,2:0|2:0,2:0:0:0:
294,223,47712,22,0,L|347:216,1,54,10|0,2:0|2:0,2:0:0:0:
347,215,47884,2,0,L|294:222,1,54,2|0,2:0|2:0,2:0:0:0:
207,234,48055,21,2,1:2:0:0:
318,74,48312,1,2,2:0:0:0:
129,14,48569,22,0,L|21:135,1,162,10|0,2:0|2:0,2:0:0:0:
26,139,48912,2,0,L|62:99,1,54,2|0,2:0|2:0,2:0:0:0:
152,123,49084,22,0,L|115:162,1,54,10|0,2:0|2:0,2:0:0:0:
114,162,49255,2,0,L|150:122,1,54,2|0,2:0|2:0,2:0:0:0:
208,58,49426,21,2,1:2:0:0:
350,189,49684,1,2,2:0:0:0:
392,0,49941,1,2,2:0:0:0:
365,84,50112,38,0,L|408:118,1,54,6|0,1:2|2:0,2:0:0:0:
407,117,50284,2,0,L|364:83,1,54,2|0,2:0|2:0,2:0:0:0:
279,115,50455,22,0,L|236:81,1,54,8|0,2:0|2:0,2:0:0:0:
236,81,50626,2,0,L|279:115,1,54,2|0,2:0|2:0,2:0:0:0:
269,192,50798,21,2,1:2:0:0:
453,253,51055,1,2,2:0:0:0:
309,381,51312,1,2,2:0:0:0:
352,307,51484,22,0,L|395:338,1,54,4|0,1:2|2:0,2:0:0:0:
495,381,51655,22,0,L|478:329,1,54,2|0,2:0|2:0,2:0:0:0:
478,329,51826,2,0,L|494:380,1,54,8|0,2:0|2:0,2:0:0:0:
495,381,51998,21,0,1:2:0:0:
453,253,52169,1,0,1:2:0:0:
411,125,52341,1,0,1:2:0:0:
411,125,52426,1,0,1:2:0:0:
411,125,52512,2,0,P|418:99|438:81,1,53.9999999999999,12|2,2:0|2:0,2:0:0:0:
411,125,52855,6,0,P|384:88|344:63,1,90,4|2,1:2|2:0,2:0:0:0:
350,191,53198,2,0,P|330:180|312:166,1,45,10|0,2:0|2:0,2:0:0:0:
300,152,53369,21,2,2:0:0:0:
261,79,53541,1,2,1:2:0:0:
222,6,53712,1,2,2:0:0:0:
178,85,53884,1,10,2:0:0:0:
178,85,54055,1,2,2:0:0:0:
178,85,54226,6,0,B|160:129|160:129|138:132|138:132|156:123,1,90,0|2,1:2|2:0,2:0:0:0:
142,216,54569,2,0,B|160:207|160:207|138:210|138:210|120:254,1,90,8|2,2:0|2:0,2:0:0:0:
98,333,54912,5,0,1:2:0:0:
182,311,55084,1,2,2:0:0:0:
266,289,55255,1,8,2:0:0:0:
266,289,55426,1,2,2:0:0:0:
266,289,55598,22,0,P|308:300|340:332,1,90,0|2,1:2|2:0,2:0:0:0:
319,195,55941,2,0,P|333:214|351:227,1,45,8|0,2:0|2:0,2:0:0:0:
373,235,56112,37,2,2:0:0:0:
390,152,56284,1,2,1:2:0:0:
407,69,56455,1,2,2:0:0:0:
327,89,56626,1,8,2:0:0:0:
248,69,56798,1,2,2:0:0:0:
248,69,56884,1,0,2:0:0:0:
248,69,56969,6,0,B|204:92|204:92|164:82,1,90,0|2,1:2|2:0,2:0:0:0:
49,56,57312,2,0,B|88:35,1,45,10|0,2:0|2:0,2:0:0:0:
105,26,57484,5,2,2:0:0:0:
96,119,57655,1,2,1:2:0:0:
87,212,57826,1,2,2:0:0:0:
167,174,57998,1,10,2:0:0:0:
184,170,58084,1,0,2:0:0:0:
202,169,58169,1,2,2:0:0:0:
219,171,58255,1,0,2:0:0:0:
235,177,58341,6,0,B|261:183|261:183|263:201|263:201|282:210|288:236,1,90,6|2,1:2|2:0,2:0:0:0:
360,282,58684,2,0,B|367:308|367:308|353:318|353:318|354:339|335:358,1,90,10|2,2:0|2:0,2:0:0:0:
250,371,59026,5,2,1:2:0:0:
335,358,59198,1,2,2:0:0:0:
420,345,59369,2,0,B|448:353|481:338|481:338|470:353|471:363,1,90,10|2,2:0|2:0,2:0:0:0:
471,362,59712,6,0,P|485:320|510:282,1,90,0|2,1:2|2:0,2:0:0:0:
432,176,60055,2,0,P|438:197|441:219,1,45,8|0,2:0|2:0,2:0:0:0:
441,243,60226,5,2,2:0:0:0:
358,213,60398,1,0,1:2:0:0:
275,183,60569,1,2,2:0:0:0:
346,131,60741,1,8,2:0:0:0:
346,131,60826,1,8,2:0:0:0:
346,131,60912,1,10,2:0:0:0:
346,131,60998,1,8,2:0:0:0:
369,81,61084,5,6,1:2:0:0:
156,122,61426,1,6,1:2:0:0:
228,325,61769,5,6,1:2:0:0:
276,228,61941,1,6,1:2:0:0:
171,253,62112,1,6,1:2:0:0:
66,278,62284,1,2,2:0:0:0:
199,20,63826,5,6,1:2:0:0:
199,20,63912,1,0,2:0:0:0:
199,20,63998,1,2,2:0:0:0:
281,45,64169,2,0,P|323:30|368:28,1,90,10|0,2:0|2:0,2:0:0:0:
454,17,64512,2,0,B|484:33|484:33|471:63|481:87,1,90,0|2,1:2|2:0,2:0:0:0:
460,170,64855,2,0,B|470:194|457:224|457:224|487:240,1,90,10|2,2:0|2:0,2:0:0:0:
433,309,65112,21,0,2:0:0:0:
433,309,65198,1,2,1:2:0:0:
378,234,65369,1,2,2:0:0:0:
341,321,65541,1,10,2:0:0:0:
286,246,65712,1,2,2:0:0:0:
286,246,65798,1,2,2:0:0:0:
286,246,65884,2,0,P|244:221|202:213,1,90,2|2,1:2|2:0,2:0:0:0:
147,151,66226,5,10,2:0:0:0:
130,157,66312,1,2,2:0:0:0:
115,167,66398,1,2,2:0:0:0:
103,181,66484,1,0,2:0:0:0:
96,197,66569,6,0,P|107:240|109:285,1,90,2|2,1:2|2:0,2:0:0:0:
87,302,66912,2,0,P|85:257|73:213,1,90,10|2,2:0|2:0,2:0:0:0:
23,146,67169,1,2,2:0:0:0:
23,146,67255,1,2,1:2:0:0:
76,83,67426,1,2,2:0:0:0:
44,7,67598,2,0,P|78:35|119:52,1,90,10|2,2:0|2:0,2:0:0:0:
217,40,67941,6,0,B|239:57|239:57|235:73,1,45,4|0,1:2|2:0,2:0:0:0:
315,97,68198,22,0,B|311:124|311:124|295:130,1,45,2|2,2:0|2:0,2:0:0:0:
314,210,68455,6,0,B|288:220|288:220|275:209,1,45,2|0,1:2|2:0,2:0:0:0:
215,265,68626,5,2,2:0:0:0:
207,252,68712,1,2,2:0:0:0:
201,238,68798,1,2,2:0:0:0:
196,224,68884,1,2,2:0:0:0:
194,209,68969,2,0,B|193:179|193:179|175:167|164:147,1,72,10|0,2:0|2:0,2:0:0:0:
168,117,69312,22,0,L|380:154,1,216,6|10,1:2|2:0,2:0:0:0:
443,99,70169,1,2,2:0:0:0:
443,99,70341,2,0,L|428:46,2,53.9999999999999,2|2|0,2:0|2:0|2:0,2:0:0:0:
470,196,70855,21,8,2:0:0:0:
470,196,71026,1,2,2:0:0:0:
420,12,71369,1,8,2:0:0:0:
129,36,72055,22,0,P|88:103|105:180,1,162,2|2,1:2|1:2,2:0:0:0:
105,180,72741,1,10,2:0:0:0:
10,274,73084,1,2,1:2:0:0:
10,274,73255,2,0,L|25:222,1,53.9999999999999,2|2,1:2|2:0,2:0:0:0:
56,338,73598,5,8,2:0:0:0:
9,143,74112,1,8,2:0:0:0:
77,33,74455,2,0,L|128:52,1,53.9999999999999,2|0,2:0|1:2,2:0:0:0:
203,83,74712,5,0,1:2:0:0:
203,83,74798,2,0,B|263:104|263:104|274:140|274:140|330:160,1,162,2|0,1:2|1:2,2:0:0:0:
331,160,75484,2,0,L|382:178,2,53.9999999999999,10|2|2,2:0|2:0|2:0,2:0:0:0:
344,73,75998,21,10,2:0:0:0:
267,223,76341,1,10,2:0:0:0:
267,223,76512,2,0,L|243:271,1,53.9999999999999,2|0,2:0|2:0,2:0:0:0:
195,167,76855,5,10,2:0:0:0:
335,289,77198,2,0,L|388:286,1,53.9999999999999,2|2,2:0|1:2,2:0:0:0:
471,284,77541,6,0,L|434:126,1,162,2|0,1:2|1:2,2:0:0:0:
434,126,78226,1,10,2:0:0:0:
497,32,78569,21,2,2:0:0:0:
497,32,78741,2,0,L|446:47,1,53.9999999999999,0|0,1:2|1:2,2:0:0:0:
368,32,79084,2,0,L|314:23,1,53.9999999999999,2|0,2:0|2:0,2:0:0:0:
192,70,79598,22,0,L|167:175,1,108,10|10,2:0|2:0,2:0:0:0:
167,175,80112,1,10,2:0:0:0:
117,278,80284,6,0,B|95:250|95:250|337:320,3,288,6|10|10|10,1:2|2:0|2:0|2:0,2:0:0:0:
420,347,82684,5,10,2:0:0:0:
420,347,82855,1,10,2:0:0:0:
408,262,83026,38,0,B|478:229|478:229|475:91,1,216,10|10,2:0|2:0,2:0:0:0:
387,31,83712,2,0,B|390:169|390:169|320:202,1,216,10|10,2:0|2:0,2:0:0:0:
408,262,84398,2,0,B|478:229|478:229|475:91,1,216,10|10,2:0|2:0,2:0:0:0:
475,91,85084,5,10,2:0:0:0:
392,68,85255,1,10,2:0:0:0:
305,77,85426,1,10,2:0:0:0:
239,133,85598,1,0,1:2:0:0:
225,48,85769,37,6,1:2:0:0:
412,337,86455,1,6,1:2:0:0:
352,172,86798,1,0,2:0:0:0:
352,172,86969,1,0,2:0:0:0:
225,48,87141,21,6,1:2:0:0:
352,172,87484,1,0,2:0:0:0:
412,337,87826,1,6,1:2:0:0:
391,344,87912,1,8,2:0:0:0:
369,346,87998,1,8,2:0:0:0:
347,344,88084,1,8,2:0:0:0:
325,340,88169,1,8,2:0:0:0:
304,332,88255,1,8,2:0:0:0:
283,325,88341,1,8,2:0:0:0:
261,326,88426,1,8,2:0:0:0:
243,337,88512,22,0,L|234:350,28,15.75,8|8|8|8|8|8|8|8|8|8|8|8|8|8|8|8|8|8|8|8|8|8|8|8|8|8|8|8|8,2:0|2:0|2:0|2:0|2:0|2:0|2:0|2:0|2:0|2:0|2:0|2:0|2:0|2:0|2:0|2:0|2:0|2:0|2:0|2:0|2:0|2:0|2:0|2:0|2:0|2:0|2:0|2:0|2:0,2:0:0:0:
292,254,89884,5,8,2:3:0:0:
292,254,89998,2,0,L|314:218,4,42,8|8|8|8|8,2:3|2:3|2:3|2:3|2:3,2:0:0:0:
333,191,90569,37,4,2:3:0:0:
230,144,90798,1,4,2:3:0:0:
142,206,91084,1,4,2:3:0:0:
123,179,91255,21,6,1:2:0:0:
269,20,91598,1,6,1:2:0:0:
440,150,91941,1,6,1:2:0:0:
245,243,92284,1,6,1:2:0:0:
435,345,92626,5,6,1:2:0:0:
338,151,92969,1,6,1:2:0:0:
268,355,93312,1,6,1:2:0:0:
375,307,93998,22,0,B|361:271|361:271|314:249,1,90,6|2,1:2|2:0,2:0:0:0:
233,220,94512,1,0,1:2:0:0:
171,153,94683,1,2,2:0:0:0:
167,138,94769,1,0,2:0:0:0:
169,122,94855,1,0,2:0:0:0:
146,35,95026,22,0,P|124:30|101:31,2,45,2|2|2,2:0|2:0|1:2,2:0:0:0:
233,66,95540,5,2,2:0:0:0:
233,66,95626,1,0,2:0:0:0:
233,66,95712,2,0,L|263:32,1,45,2|2,2:0|1:2,2:0:0:0:
353,56,96055,2,0,B|319:96|319:96|331:131,1,90,2|8,2:0|2:0,2:0:0:0:
454,203,96740,6,0,L|432:209,1,22.5,2|0,1:2|2:0,2:0:0:0:
415,207,96912,2,0,L|393:213,1,22.5,0|0,2:0|2:0,2:0:0:0:
342,290,97255,38,0,L|431:300,1,90,2|2,1:2|2:0,2:0:0:0:
440,309,97683,1,0,2:0:0:0:
440,309,97769,2,0,B|421:321|421:321|427:342,1,45,2|2,2:0|2:0,2:0:0:0:
500,362,98112,6,0,B|518:349|518:349|512:328,1,45,2|2,1:2|2:0,2:0:0:0:
499,248,98455,2,0,B|493:225|493:225|482:206,1,45,2|2,2:0|1:2,2:0:0:0:
457,115,98798,2,0,B|421:99|421:99|392:98,2,67.5,2|0|0,2:0|2:0|2:0,2:0:0:0:
467,123,99483,5,6,1:2:0:0:
318,149,99826,1,2,1:2:0:0:
467,123,100169,37,2,1:2:0:0:
318,149,100512,1,2,1:2:0:0:
467,123,100855,21,2,1:2:0:0:
318,149,101198,1,2,1:2:0:0:
467,123,101540,5,2,1:2:0:0:
467,123,101626,1,0,2:0:0:0:
318,149,101798,1,0,2:0:0:0:
318,149,101883,1,2,1:2:0:0:
401,180,102055,1,2,2:0:0:0:
467,123,102226,5,14,1:2:0:0:
386,96,102398,1,8,2:0:0:0:
318,149,102569,1,10,2:0:0:0:
401,180,102740,1,10,2:0:0:0:
467,123,102912,6,0,L|502:115,7,36,10|8|10|8|10|8|10|8,2:0|2:0|2:0|2:0|2:0|2:0|2:0|2:0,2:0:0:0:
511,114,103598,37,2,2:0:0:0:
491,124,103940,1,2,2:0:0:0:
467,124,104283,1,2,2:0:0:0:
57,111,104969,6,0,L|79:150,1,45,6|0,1:2|2:0,2:0:0:0:
79,150,105140,2,0,L|57:111,1,45,2|0,2:0|2:0,2:0:0:0:
121,63,105312,6,0,L|99:24,1,45,10|0,2:0|2:0,2:0:0:0:
98,23,105483,2,0,L|120:62,1,45,2|2,1:2|1:2,2:0:0:0:
157,129,105655,21,2,1:2:0:0:
294,43,105912,2,0,L|305:23,4,22.5,2|0|10|0|0,1:2|2:0|2:0|2:0|2:0,2:0:0:0:
255,113,106169,22,0,L|305:266,1,162,6|0,1:2|2:0,2:0:0:0:
311,269,106512,2,0,L|294:217,1,54,2|0,2:0|2:0,2:0:0:0:
361,150,106683,22,0,L|377:201,1,54,10|0,2:0|2:0,2:0:0:0:
377,201,106855,2,0,L|360:149,1,54,2|0,2:0|2:0,2:0:0:0:
391,74,107026,21,2,1:2:0:0:
198,222,107283,1,2,2:0:0:0:
423,316,107540,1,0,2:0:0:0:
354,368,107712,38,0,L|301:380,1,54,6|0,1:2|2:0,2:0:0:0:
301,379,107883,2,0,L|354:367,1,54,2|0,2:0|2:0,2:0:0:0:
263,303,108055,22,0,L|316:291,1,54,8|0,2:0|2:0,2:0:0:0:
315,291,108226,2,0,L|263:304,1,54,2|0,2:0|2:0,2:0:0:0:
181,316,108398,21,2,1:2:0:0:
192,72,108655,1,2,2:0:0:0:
397,204,108912,1,2,2:0:0:0:
345,135,109083,22,0,L|395:117,1,54,0|0,1:2|2:0,2:0:0:0:
397,115,109255,2,0,L|294:149,1,108,2|8,2:0|2:0,2:0:0:0:
271,38,109598,22,0,L|324:47,1,54,2|0,2:0|2:0,2:0:0:0:
325,47,109769,2,0,L|271:36,1,54,0|0,1:2|2:0,2:0:0:0:
272,35,109940,21,2,2:0:0:0:
171,17,110112,1,8,2:0:0:0:
98,95,110283,21,2,2:0:0:0:
116,154,110455,38,0,L|103:101,1,54,6|0,1:2|2:0,2:0:0:0:
103,101,110626,2,0,L|115:153,1,54,2|0,2:0|2:0,2:0:0:0:
192,178,110798,22,0,L|183:231,1,54,10|0,2:0|2:0,2:0:0:0:
184,232,110969,2,0,L|192:178,1,54,2|0,2:0|2:0,2:0:0:0:
246,118,111140,21,2,1:2:0:0:
89,232,111398,1,2,2:0:0:0:
261,306,111655,22,0,L|384:201,1,162,10|0,2:0|2:0,2:0:0:0:
389,205,111998,2,0,L|348:239,1,54,2|0,2:0|2:0,2:0:0:0:
381,324,112169,22,0,L|422:289,1,54,10|0,2:0|2:0,2:0:0:0:
422,289,112340,2,0,L|380:323,1,54,2|0,2:0|2:0,2:0:0:0:
317,375,112512,21,2,1:2:0:0:
216,152,112769,1,2,2:0:0:0:
74,351,113026,1,2,2:0:0:0:
156,342,113198,38,0,L|140:290,1,54,6|0,1:2|2:0,2:0:0:0:
140,290,113369,2,0,L|155:341,1,54,2|0,2:0|2:0,2:0:0:0:
210,235,113540,22,0,L|225:286,1,54,8|0,2:0|2:0,2:0:0:0:
225,286,113712,2,0,L|209:234,1,54,2|0,2:0|2:0,2:0:0:0:
216,152,113883,21,2,1:2:0:0:
436,49,114140,1,2,2:0:0:0:
415,290,114398,1,2,2:0:0:0:
354,227,114569,22,0,L|403:205,1,54,4|0,1:2|2:0,2:0:0:0:
451,130,114740,22,0,L|397:127,1,54,2|0,2:0|2:0,2:0:0:0:
397,127,114912,2,0,L|451:130,1,54,8|0,2:0|2:0,2:0:0:0:
451,130,115083,21,0,1:2:0:0:
292,123,115255,1,0,1:2:0:0:
124,121,115426,1,0,1:2:0:0:
124,121,115512,1,0,1:2:0:0:
124,121,115598,2,0,P|100:107|85:85,1,53.9999999999999,12|2,2:0|2:0,2:0:0:0:
124,120,115940,6,0,P|95:155|80:197,1,90,4|2,1:2|2:0,2:0:0:0:
212,161,116283,2,0,P|206:182|196:203,1,45,10|0,2:0|2:0,2:0:0:0:
171,219,116455,21,2,2:0:0:0:
184,299,116626,1,2,1:2:0:0:
252,342,116798,1,2,2:0:0:0:
338,328,116969,1,10,2:0:0:0:
338,328,117140,1,2,2:0:0:0:
338,328,117312,6,0,B|324:314|324:314|335:313|335:313|351:256,1,90,0|2,1:2|2:0,2:0:0:0:
348,174,117655,2,0,B|364:117|364:117|375:116|375:116|361:102,1,90,8|2,2:0|2:0,2:0:0:0:
386,28,117998,5,0,1:2:0:0:
305,40,118169,1,2,2:0:0:0:
225,52,118340,1,8,2:0:0:0:
225,52,118512,1,2,2:0:0:0:
225,52,118683,22,0,L|180:129,1,90,0|2,1:2|2:0,2:0:0:0:
146,11,119026,2,0,L|122:49,1,45,8|0,2:0|2:0,2:0:0:0:
107,74,119198,37,2,2:0:0:0:
97,154,119369,1,2,1:2:0:0:
154,211,119540,1,2,2:0:0:0:
75,231,119712,1,8,2:0:0:0:
42,305,119883,1,2,2:0:0:0:
42,305,119969,1,0,2:0:0:0:
42,305,120055,6,0,B|93:327|93:327|100:324|100:324|123:336,1,90,0|2,1:2|2:0,2:0:0:0:
279,318,120398,2,0,B|228:296,1,45,10|0,2:0|2:0,2:0:0:0:
211,288,120569,5,2,2:0:0:0:
276,240,120740,1,2,1:2:0:0:
341,193,120912,1,2,2:0:0:0:
352,273,121083,1,10,2:0:0:0:
370,285,121169,1,0,2:0:0:0:
390,292,121255,1,2,2:0:0:0:
412,294,121340,1,0,2:0:0:0:
433,288,121426,22,0,B|427:268|429:253|441:249|455:232|450:202,1,90,6|2,1:2|2:0,2:0:0:0:
507,138,121769,2,0,B|491:123|486:109|494:100|498:78|479:55,1,90,10|2,2:0|2:0,2:0:0:0:
401,38,122112,5,2,1:2:0:0:
337,89,122283,1,2,2:0:0:0:
257,99,122455,2,0,B|237:87|222:87|222:87|208:61|207:36,1,90,10|2,2:0|2:0,2:0:0:0:
208,38,122798,38,0,P|188:78|173:120,1,90,0|2,1:2|2:0,2:0:0:0:
126,7,123140,2,0,P|119:29|111:50,1,45,8|0,2:0|2:0,2:0:0:0:
90,77,123312,5,2,2:0:0:0:
29,131,123483,1,0,1:2:0:0:
83,192,123655,1,2,2:0:0:0:
73,282,123826,1,8,2:0:0:0:
73,282,123912,1,8,2:0:0:0:
73,282,123998,1,10,2:0:0:0:
73,282,124083,1,8,2:0:0:0:
110,242,124169,5,6,1:2:0:0:
300,343,124512,1,6,1:2:0:0:
430,170,124855,5,6,1:2:0:0:
321,164,125026,1,6,1:2:0:0:
363,262,125198,1,6,1:2:0:0:
405,361,125369,1,2,2:0:0:0:
445,40,126912,22,0,B|424:23|424:23|362:39,1,90,6|2,1:2|2:0,2:0:0:0:
274,67,127255,1,10,2:0:0:0:
220,135,127426,1,0,2:0:0:0:
220,135,127512,1,0,2:0:0:0:
220,135,127598,2,0,P|176:146|132:142,1,90,0|2,1:2|2:0,2:0:0:0:
78,68,127940,2,0,P|121:56|165:60,1,90,10|2,2:0|2:0,2:0:0:0:
297,169,128283,21,2,1:2:0:0:
256,253,128455,1,2,2:0:0:0:
305,336,128626,1,10,2:0:0:0:
225,378,128798,1,2,2:0:0:0:
225,378,128883,1,2,2:0:0:0:
225,378,128969,2,0,P|187:356|144:343,3,90,2|2|10|2,1:2|2:0|2:0|2:0,2:0:0:0:
132,257,129655,22,0,L|47:287,1,90,2|2,1:2|2:0,2:0:0:0:
0,219,129998,2,0,L|19:131,1,90,10|2,2:0|2:0,2:0:0:0:
25,138,130255,1,2,2:0:0:0:
25,138,130340,2,0,L|95:81,1,90,2|2,1:2|2:0,2:0:0:0:
177,92,130683,2,0,L|187:181,1,90,10|2,2:0|2:0,2:0:0:0:
233,248,131026,6,0,P|252:236|263:217,1,45,4|0,1:2|2:0,2:0:0:0:
342,218,131283,54,0,P|342:195|331:176,1,45,2|2,2:0|2:0,2:0:0:0:
371,109,131540,54,0,P|351:97|329:97,1,45,2|0,1:2|2:0,2:0:0:0:
291,29,131712,37,2,1:2:0:0:
275,38,131798,1,2,2:0:0:0:
257,43,131883,1,2,1:2:0:0:
238,42,131969,1,2,1:2:0:0:
220,36,132055,2,0,B|180:14|180:14|139:32,1,90,10|2,2:0|2:0,2:0:0:0:
60,67,132398,21,6,1:2:0:0:
60,67,132483,1,0,2:0:0:0:
60,67,132569,1,2,2:0:0:0:
96,139,132740,2,0,P|97:183|72:219,1,90,10|0,2:0|2:0,2:0:0:0:
0,298,133083,2,0,L|89:306,1,90,0|2,1:2|2:0,2:0:0:0:
158,350,133426,2,0,L|247:358,1,90,10|2,2:0|2:0,2:0:0:0:
334,367,133769,21,2,1:2:0:0:
277,275,133940,1,2,2:0:0:0:
291,168,134112,1,10,2:0:0:0:
231,90,134283,1,2,2:0:0:0:
231,90,134369,1,2,2:0:0:0:
231,90,134455,2,0,B|269:77|269:77|276:71|276:71|315:60,1,90,2|2,1:2|2:0,2:0:0:0:
397,20,134798,2,0,B|435:33|435:33|442:39|442:39|481:49,1,90,10|2,2:0|2:0,2:0:0:0:
481,49,135055,21,0,2:0:0:0:
481,49,135140,1,2,1:2:0:0:
423,127,135312,1,2,2:0:0:0:
512,169,135483,1,10,2:0:0:0:
453,246,135655,1,2,2:0:0:0:
453,246,135740,1,2,2:0:0:0:
453,246,135826,22,0,L|457:290,1,45,2|0,1:2|2:0,2:0:0:0:
457,290,135998,2,0,L|461:334,1,45,2|2,2:0|2:0,2:0:0:0:
373,365,136169,6,0,L|368:320,1,45,10|0,2:0|2:0,2:0:0:0:
368,320,136340,2,0,L|363:275,1,45,2|0,2:0|2:0,2:0:0:0:
354,195,136512,37,4,1:2:0:0:
265,157,136683,1,10,2:0:0:0:
265,157,136769,1,2,2:0:0:0:
265,157,136855,1,2,2:0:0:0:
174,194,137026,1,2,1:2:0:0:
107,133,137198,38,0,L|97:88,3,45,2|2|2|2,1:2|2:0|1:2|1:2,2:0:0:0:
177,65,137540,2,0,L|184:20,3,45,10|0|2|0,2:0|2:0|2:0|2:0,2:0:0:0:
194,17,137883,22,0,L|186:61,1,45,2|0,2:0|2:0,2:0:0:0:
