osu file format v14

[General]
AudioFilename: audio.mp3
AudioLeadIn: 0
PreviewTime: 41982
Countdown: 0
SampleSet: Soft
StackLeniency: 0.7
Mode: 0
LetterboxInBreaks: 0
WidescreenStoryboard: 0

[Editor]
DistanceSpacing: 1.5
BeatDivisor: 8
GridSize: 32
TimelineZoom: 5.799996

[Metadata]
Title:Ren'ai Heiki! Lethal Weapon-chan
TitleUnicode:恋愛兵器!りーさるうぇぽんちゃん
Artist::) feat. KAFU
ArtistUnicode:ت feat. KAFU
Creator:- akiira -
Version:Schizophrenia
Source:
Tags:vocaloid vocalsynth japanese pop j-pop jpop -_akiira_- -_asuuka_- Ayesha Altugle Shizuku- Kazato Asa Shikibe Mayu VP757 Rorupan L9 Lulu- Ducky- Lunicia 0ugi
BeatmapID:3760479
BeatmapSetID:1832014

[Difficulty]
HPDrainRate:5
CircleSize:4
OverallDifficulty:9.1
ApproachRate:9.6
SliderMultiplier:3.59999990463257
SliderTickRate:1

[Events]
//Background and Video events
0,0,"bg.jpeg",0,0
//Break Periods
2,62485,63317
//Storyboard Layer 0 (Background)
//Storyboard Layer 1 (Fail)
//Storyboard Layer 2 (Pass)
//Storyboard Layer 3 (Foreground)
//Storyboard Layer 4 (Overlay)
//Storyboard Sound Samples

[TimingPoints]
400,342.857142857143,4,2,1,40,1,0
742,342.857142857143,4,2,1,40,1,0
742,-1000,4,2,1,40,0,0
6227,-500,4,2,1,40,0,0
7599,-250,4,2,1,40,0,0
8627,-125,4,2,1,40,0,0
9827,-100,4,2,1,40,0,0
11713,-100,4,2,1,80,0,0
12399,-50,4,2,1,80,0,0
12913,-100,4,2,1,80,0,0
15827,-66.6666666666667,4,2,1,80,0,0
17199,-200,4,2,2,60,0,0
26799,-200,4,2,1,60,0,0
28170,-1000,4,2,1,40,0,0
33999,-285.714285714284,4,2,1,40,0,0
36742,-285.714285714284,4,2,1,50,0,0
37084,-285.714285714284,4,2,1,60,0,0
37427,-285.714285714284,4,2,1,70,0,0
37770,-285.714285714284,4,2,1,80,0,0
39142,-33.3333333333333,4,2,1,80,0,0
41542,-66.6666666666667,4,2,1,80,0,0
41884,342.857142857143,4,2,1,80,1,1
41884,-66.6666666666667,4,2,1,80,0,1
42055,-30.3030303030303,4,2,1,80,0,1
42398,-43.4782608695652,4,2,1,80,0,1
42569,-35.7142857142857,4,2,1,80,0,1
43084,-181.818181818181,4,2,1,80,0,1
43426,-33.3333333333333,4,2,1,80,0,1
43769,-50,4,2,1,80,0,1
43941,-33.3333333333333,4,2,1,80,0,1
44284,-666.666666666658,4,2,1,80,0,1
44626,-66.6666666666667,4,2,1,80,0,1
44969,-38.4615384615385,4,2,1,80,0,1
45655,-62.5,4,2,1,80,0,1
46169,-43.4782608695652,4,2,1,80,0,1
46855,-66.6666666666667,4,2,1,80,0,1
47541,-33.3333333333333,4,2,1,80,0,1
48312,-30.3030303030303,4,2,1,80,0,1
48569,-153.846153846153,4,2,1,80,0,1
48912,-33.3333333333333,4,2,1,80,0,1
49255,-45.4545454545455,4,2,1,80,0,1
49426,-29.4117647058824,4,2,1,80,0,1
49941,-666.666666666658,4,2,1,80,0,1
50112,-66.6666666666667,4,2,1,80,0,1
50455,-33.3333333333333,4,2,1,80,0,1
50798,-27.7777777777778,4,2,1,80,0,1
51312,-52.6315789473684,4,2,1,80,0,1
51484,-181.818181818181,4,2,1,80,0,1
52169,-181.818181818181,4,2,1,80,0,0
52855,-100,4,2,1,80,0,0
53026,-117.647058823529,4,2,1,80,0,0
53198,-50,4,2,1,80,0,0
53369,-142.857142857143,4,2,1,80,0,0
53541,-181.818181818182,4,2,1,80,0,0
53884,-58.8235294117647,4,2,1,80,0,0
54055,-100,4,2,1,80,0,0
54398,-83.3333333333333,4,2,1,80,0,0
55598,-50,4,2,1,80,0,0
55769,-100,4,2,1,80,0,0
57141,-50,4,2,1,80,0,0
57655,-100,4,2,1,80,0,0
57826,-25,4,2,1,80,0,0
57998,-55.5555555555556,4,2,1,80,0,0
58341,-100,4,2,1,80,0,0
58512,-125,4,2,1,80,0,0
58684,-50,4,2,1,80,0,0
59026,-100,4,2,1,80,0,0
59198,-125,4,2,1,80,0,0
59369,-50,4,2,1,80,0,0
60226,-33.3333333333333,4,2,1,80,0,0
60398,-181.818181818181,4,2,1,80,0,0
60569,-50,4,2,1,80,0,0
60912,-33.3333333333333,4,2,1,80,0,0
63826,-100,4,2,1,80,0,0
67941,-43.4782608695652,4,2,1,80,0,0
68112,-30.3030303030303,4,2,1,80,0,0
69312,-66.6666666666667,4,2,1,60,0,0
70512,-100,4,2,1,60,0,0
70855,-50,4,2,1,60,0,0
71026,-285.714285714284,4,2,1,60,0,0
72055,-166.666666666667,4,2,1,60,0,0
74798,-62.5,4,2,1,60,0,0
75484,-40,4,2,1,60,0,0
75998,-66.6666666666667,4,2,1,60,0,0
76512,-181.818181818181,4,2,1,60,0,0
79084,-117.647058823529,4,2,1,60,0,0
80284,-117.647058823529,4,2,1,40,0,0
80969,-399.999999999995,4,2,1,40,0,0
85255,-200,4,2,1,40,0,0
85426,-400,4,2,1,40,0,0
88512,-400,4,2,1,50,0,0
88855,-400,4,2,1,60,0,0
89198,-400,4,2,1,70,0,0
89541,-400,4,2,1,80,0,0
93655,-133.333333333333,4,2,1,80,0,0
93998,342.857142857143,4,2,1,60,1,0
93998,-133.333333333333,4,2,1,60,0,0
104626,-222.222222222221,4,2,1,60,0,0
104969,-200,4,2,1,80,0,0
105312,-133.333333333333,4,2,1,80,0,0
106169,-40,4,2,1,80,0,1
107369,-100,4,2,1,80,0,1
107712,-37.037037037037,4,2,1,80,0,1
108398,-47.6190476190476,4,2,1,80,0,1
108655,-40,4,2,1,80,0,1
108912,-133.333333333333,4,2,1,80,0,1
109769,-83.3333333333333,4,2,1,80,0,1
110455,-50,4,2,1,80,0,1
110626,-40,4,2,1,80,0,1
111655,-399.999999999997,4,2,1,80,0,1
111998,-50,4,2,1,80,0,1
112512,-33.3333333333333,4,2,1,80,0,1
113626,-50,4,2,1,80,0,1
114569,-285.714285714284,4,2,1,80,0,1
115940,-105.263157894737,4,2,1,80,0,1
116283,-50,4,2,1,80,0,0
116455,-105.263157894737,4,2,1,80,0,0
117312,-43.4782608695652,4,2,1,80,0,0
117826,-66.6666666666667,4,2,1,80,0,0
118683,-399.999999999997,4,2,1,80,0,0
119026,-100,4,2,1,80,0,0
120912,-50,4,2,1,80,0,0
121083,-100,4,2,1,80,0,0
121426,-66.6666666666667,4,2,1,80,0,0
121769,-38.4615384615385,4,2,1,80,0,0
121940,-66.6666666666667,4,2,1,80,0,0
122112,-50,4,2,1,80,0,0
122283,-33.3333333333333,4,2,1,80,0,0
127598,-50,4,2,1,80,0,0
128112,-125,4,2,1,80,0,0
129140,-55.5555555555556,4,2,1,80,0,0
129483,-41.6666666666667,4,2,1,80,0,0
131540,-58.8235294117647,4,2,1,80,0,0
132398,-35.7142857142857,4,2,1,80,0,0
133083,-100,4,2,1,80,0,0
133426,-55.5555555555556,4,2,1,80,0,0
136169,-25.6410256410256,4,2,1,80,0,0
137883,-25.6410256410256,4,2,1,40,0,0

[Colours]
Combo1 : 157,60,255
Combo2 : 0,255,255
Combo3 : 86,102,216
Combo4 : 255,128,192

[HitObjects]
10,111,400,5,0,2:0:0:0:
50,92,571,1,0,2:0:0:0:
82,124,742,2,0,L|118:131,1,35.9999990463257,2|0,2:0|2:0,2:0:0:0:
115,50,1256,6,0,L|150:57,1,35.9999990463257,0|0,2:0|2:0,2:0:0:0:
0,190,1770,2,0,L|105:211,1,107.999997138977,0|0,2:0|2:0,2:0:0:0:
180,189,2970,2,0,L|188:182,2,8.99999976158142,0|0|0,2:0|2:0|2:0,2:0:0:0:
133,180,3313,37,0,2:0:0:0:
164,259,3484,2,0,L|156:296,1,35.9999990463257,2|0,2:0|2:0,2:0:0:0:
194,106,3999,2,0,L|202:69,1,35.9999990463257,0|0,2:0|2:0,2:0:0:0:
145,132,4513,5,0,2:0:0:0:
211,187,4684,1,0,2:0:0:0:
192,262,4856,1,0,2:0:0:0:
211,187,5027,1,0,2:0:0:0:
286,167,5199,1,0,2:0:0:0:
211,187,5370,1,0,2:0:0:0:
145,132,5542,2,0,L|113:134,2,26.9999992847443,0|0|0,2:0|2:0|2:0,2:0:0:0:
180,68,6227,38,0,P|185:29|178:-7,1,71.9999980926514,2|0,1:2|2:0,2:0:0:0:
66,135,6742,2,0,P|60:99|66:64,1,71.9999980926514,0|0,2:0|2:0,2:0:0:0:
121,60,7256,1,0,2:0:0:0:
2,225,7427,1,0,1:2:0:0:
2,225,7599,6,0,P|35:236|144:209,1,143.999996185303,0|0,1:2|2:0,2:0:0:0:
160,289,8113,1,0,2:0:0:0:
224,247,8284,2,0,P|272:251|305:279,1,71.9999980926514,0|0,2:0|2:0,2:0:0:0:
323,332,8627,2,0,L|291:140,2,143.999996185303,0|0|2,2:0|1:2|1:2,2:0:0:0:
494,176,9313,37,0,2:0:0:0:
428,128,9484,2,0,P|417:203|441:253,1,71.9999980926514,0|0,1:2|2:0,2:0:0:0:
494,176,9656,5,0,1:2:0:0:
440,86,9827,2,0,B|393:157|393:157|430:284,2,179.999995231629,0|0|0,2:0|2:0|1:2,2:0:0:0:
494,176,10342,38,0,L|506:121,1,44.9999988079071,0|0,2:0|2:0,2:0:0:0:
229,374,10684,2,0,L|241:319,1,44.9999988079071,0|0,2:0|2:0,2:0:0:0:
266,69,11027,6,0,L|261:14,2,44.9999988079071,0|0|0,2:0|2:0|2:0,2:0:0:0:
257,79,11199,37,0,2:0:0:0:
272,88,11284,1,0,2:0:0:0:
236,156,11370,1,2,2:0:0:0:
260,226,11456,2,0,L|246:301,4,44.9999988079071,0|0|0|0|0,2:0|2:0|2:0|2:0|2:0,2:0:0:0:
339,244,11713,22,0,B|426:263|426:263|530:202,1,179.999995231629,6|2,1:2|2:0,2:0:0:0:
491,202,11970,21,2,2:0:0:0:
422,236,12056,1,10,2:0:0:0:
430,315,12142,1,0,2:0:0:0:
422,236,12227,1,0,2:0:0:0:
357,192,12313,1,0,2:0:0:0:
293,240,12399,22,0,B|224:58|224:58|400:124,1,359.999990463257,0|2,1:2|2:0,2:0:0:0:
354,186,12656,1,2,2:0:0:0:
280,165,12742,2,0,B|289:95|289:95|317:75|317:75|344:-5,1,179.999995231629,10|0,2:0|2:0,2:0:0:0:
138,4,12913,2,0,L|156:114,1,89.9999976158143,2|0,2:0|2:0,2:0:0:0:
197,262,13084,22,0,L|219:384,1,89.9999976158143,2|0,1:2|2:0,2:0:0:0:
96,147,13256,2,0,L|118:269,1,89.9999976158143,2|0,2:0|2:0,2:0:0:0:
99,278,13427,1,10,2:0:0:0:
176,247,13513,1,0,2:0:0:0:
175,168,13599,1,2,2:0:0:0:
186,161,13684,1,2,2:0:0:0:
193,170,13770,22,0,L|289:140,1,89.9999976158143,2|0,1:2|2:0,2:0:0:0:
13,42,13942,2,0,L|116:76,1,89.9999976158143,2|0,2:0|2:0,2:0:0:0:
350,161,14113,1,10,2:0:0:0:
424,185,14199,1,2,2:0:0:0:
474,124,14284,2,0,B|479:76|479:76|457:24,1,89.9999976158143,2|0,2:0|2:0,2:0:0:0:
399,98,14456,21,2,1:2:0:0:
506,239,14627,1,2,2:0:0:0:
297,60,14799,21,10,2:0:0:0:
302,56,14842,2,0,B|265:25|265:25|196:36,1,89.9999976158143,0|0,2:0|2:0,2:0:0:0:
219,59,14970,21,2,2:0:0:0:
306,40,15056,1,2,2:0:0:0:
383,21,15142,1,2,1:2:0:0:
113,5,15313,21,2,2:0:0:0:
453,93,15484,21,10,2:0:0:0:
456,87,15506,1,0,2:0:0:0:
61,77,15656,1,2,2:0:0:0:
469,2,15827,22,0,B|429:141|429:141|464:281,1,269.999992847443,4|10,1:2|2:0,2:0:0:0:
490,262,16084,1,2,2:0:0:0:
500,237,16170,1,2,2:0:0:0:
249,188,16342,1,2,1:2:0:0:
8,170,16513,5,2,1:2:0:0:
37,163,16599,1,2,2:0:0:0:
60,191,16684,1,2,1:2:0:0:
24,258,16770,37,2,1:2:0:0:
93,291,16856,1,10,2:0:0:0:
133,223,16942,1,0,2:0:0:0:
59,263,17027,2,0,B|35:327|35:327|71:390,1,134.999996423721,2|0,2:0|2:0,2:0:0:0:
302,304,17199,38,0,B|331:272|331:272|427:301|427:301|440:364,1,179.999995231629,6|2,1:2|2:0,2:0:0:0:
502,186,17713,1,0,2:0:0:0:
502,186,17884,2,0,B|450:188|450:188|422:233,2,89.9999976158143,10|2|2,2:0|2:0|2:0,2:0:0:0:
494,266,18399,1,2,2:0:0:0:
253,205,18570,22,0,L|366:169,1,89.9999976158143,2|2,1:2|2:0,2:0:0:0:
196,149,18913,1,2,2:0:0:0:
246,283,19084,1,2,2:0:0:0:
8,182,19256,21,10,2:0:0:0:
81,155,19427,1,2,2:0:0:0:
45,192,19599,2,0,L|25:290,1,89.9999976158143,2|2,2:0|2:0,2:0:0:0:
137,383,19942,22,0,B|101:339|101:339|175:218,1,179.999995231629,2|2,1:2|2:0,2:0:0:0:
35,286,20456,1,2,2:0:0:0:
201,326,20627,2,0,B|239:302|239:302|316:329,1,89.9999976158143,10|2,2:0|2:0,2:0:0:0:
430,221,20970,2,0,B|447:257|447:257|424:311,1,89.9999976158143,2|2,2:0|2:0,2:0:0:0:
357,343,21313,21,2,1:2:0:0:
341,261,21484,1,2,2:0:0:0:
412,232,21656,1,2,2:0:0:0:
341,261,21827,1,2,2:0:0:0:
493,359,21999,2,0,L|517:248,1,89.9999976158143,10|0,2:0|2:0,2:0:0:0:
505,263,22256,1,0,2:0:0:0:
508,253,22342,1,0,2:0:0:0:
478,180,22513,1,0,2:0:0:0:
359,299,22684,22,0,B|292:294|292:294|223:335|223:335|185:327,1,179.999995231629,2|2,1:2|2:0,2:0:0:0:
205,254,23199,1,0,2:0:0:0:
215,365,23370,22,0,L|234:260,1,89.9999976158143,10|2,2:0|2:0,2:0:0:0:
130,280,23713,1,2,2:0:0:0:
315,351,23884,2,0,L|506:387,1,179.999995231629,2|2,2:0|2:0,2:0:0:0:
505,260,24399,2,0,L|401:279,1,89.9999976158143,2|0,2:0|2:0,2:0:0:0:
400,321,24742,1,10,2:0:0:0:
512,295,24913,1,2,2:0:0:0:
497,283,24999,1,0,2:0:0:0:
478,287,25084,1,2,2:0:0:0:
480,364,25256,1,2,2:0:0:0:
306,268,25427,22,0,P|222:237|124:238,1,179.999995231629,2|0,1:2|2:0,2:0:0:0:
61,203,25942,1,2,2:0:0:0:
132,236,26113,2,0,L|157:133,1,89.9999976158143,10|2,2:0|2:0,2:0:0:0:
0,48,26456,2,0,L|22:143,1,89.9999976158143,2|2,2:0|2:0,2:0:0:0:
92,96,26799,21,0,1:2:0:0:
272,54,26970,1,2,2:0:0:0:
153,42,27142,37,0,1:2:0:0:
173,57,27227,1,0,2:0:0:0:
198,54,27313,1,0,1:2:0:0:
220,209,27484,37,10,2:0:0:0:
295,216,27570,1,0,1:2:0:0:
330,145,27656,1,2,1:2:0:0:
503,384,27827,5,2,1:2:0:0:
512,288,27913,1,0,1:2:0:0:
432,232,27999,1,2,1:2:0:0:
0,319,28170,6,0,L|284:256,2,287.999992370606,6|2|2,2:0|2:0|1:2,2:0:0:0:
57,268,33827,1,2,2:0:0:0:
126,305,33999,2,0,L|112:384,1,62.9999983310703,2|2,2:0|1:2,2:0:0:0:
268,368,34342,2,0,L|253:288,1,62.9999983310703,2|0,2:0|2:0,2:0:0:0:
194,266,34684,1,2,2:0:0:0:
189,376,34856,37,2,1:2:0:0:
388,301,35027,2,0,L|537:321,1,125.999996662141,2|2,1:2|2:0,2:0:0:0:
484,223,35542,5,0,2:0:0:0:
485,210,35627,1,0,2:0:0:0:
473,204,35713,1,2,1:2:0:0:
397,218,35799,37,0,2:0:0:0:
320,236,35884,5,2,2:0:0:0:
311,230,35970,1,0,2:0:0:0:
314,217,36056,1,2,2:0:0:0:
394,208,36142,1,0,2:0:0:0:
409,286,36227,38,0,L|418:305,1,15.7499995827676,2|0,2:0|2:0,2:0:0:0:
401,292,36313,2,0,L|401:314,1,15.7499995827676,0|0,2:0|2:0,2:0:0:0:
395,287,36399,2,0,L|385:306,1,15.7499995827676,8|8,2:0|2:0,2:0:0:0:
502,114,36570,6,0,L|497:91,1,15.7499995827676,10|8,2:0|2:0,2:0:0:0:
495,109,36656,2,0,L|498:87,1,15.7499995827676,8|0,2:0|2:0,2:0:0:0:
490,103,36742,2,0,L|498:81,1,15.7499995827676,8|8,2:0|2:0,2:0:0:0:
487,95,36827,2,0,L|500:75,1,15.7499995827676,8|8,2:0|2:0,2:0:0:0:
465,69,36913,38,0,L|470:92,1,15.7499995827676,10|8,2:0|2:0,2:0:0:0:
472,74,36999,2,0,L|469:96,1,15.7499995827676,8|0,2:0|2:0,2:0:0:0:
477,80,37084,2,0,L|469:102,1,15.7499995827676,10|8,2:0|2:0,2:0:0:0:
480,88,37170,2,0,L|467:108,1,15.7499995827676,8|8,2:0|2:0,2:0:0:0:
458,111,37256,5,10,2:0:0:0:
387,132,37342,1,8,2:0:0:0:
312,150,37427,1,10,2:0:0:0:
290,75,37513,1,8,2:0:0:0:
268,0,37599,1,10,2:0:0:0:
322,92,37684,1,8,2:0:0:0:
251,201,37770,37,8,2:3:0:0:
251,201,37827,1,8,2:3:0:0:
251,201,37884,1,8,2:3:0:0:
182,158,37999,5,8,2:3:0:0:
258,120,38113,37,8,2:3:0:0:
184,241,38227,5,8,2:3:0:0:
187,77,38342,37,8,2:3:0:0:
324,165,38456,5,4,2:3:0:0:
110,100,38684,37,4,2:3:0:0:
421,198,38913,5,4,2:3:0:0:
18,357,39142,6,0,B|5:252|5:252|25:232,1,134.999996423721,6|0,1:2|2:0,2:0:0:0:
108,38,39484,6,0,B|120:49|120:49|96:187,1,134.999996423721,6|0,1:2|2:0,2:0:0:0:
186,360,39827,6,0,B|165:243|165:243|177:232,1,134.999996423721,6|0,1:2|2:0,2:0:0:0:
256,9,40170,6,0,B|268:20|268:20|248:137,1,134.999996423721,6|0,1:2|2:0,2:0:0:0:
308,353,40513,6,0,B|336:281|336:281|307:218,1,134.999996423721,6|0,1:2|2:0,2:0:0:0:
448,14,40856,6,0,B|402:70|402:70|512:147,1,134.999996423721,6|0,1:2|2:0,2:0:0:0:
506,326,41199,6,0,B|440:339|440:339|480:285,1,134.999996423721,6|0,1:2|2:0,2:0:0:0:
402,327,41370,1,2,2:0:0:0:
476,362,41542,6,0,B|495:338|495:338|473:287,2,67.4999982118607,2|0|0,2:0|2:0|2:0,2:0:0:0:
339,269,41713,5,2,2:0:0:0:
416,252,41884,22,0,B|317:230|317:230|366:354,1,202.499994635582,6|0,1:2|2:0,2:0:0:0:
433,335,42055,22,0,B|304:168|304:168|293:72,1,296.999992132187,2|0,2:0|2:0,2:0:0:0:
346,17,42226,1,10,2:0:0:0:
3,298,42398,22,0,B|32:316|32:316|229:232,1,206.999994516373,2|0,2:0|2:0,2:0:0:0:
391,145,42569,2,0,B|101:5|101:5|191:201,1,503.99998664856,2|0,1:2|2:0,2:0:0:0:
95,199,42826,1,2,2:0:0:0:
19,148,42912,2,0,B|91:107|91:107|350:190,1,251.99999332428,8|0,2:0|2:0,2:0:0:0:
491,169,43084,22,0,B|496:154|496:154|442:138|442:138|402:174|402:174|432:206,1,148.499996066094,10|0,2:0|2:0,2:0:0:0:
400,282,43426,22,0,B|452:257|452:257|513:14,1,269.999992847443,2|0,2:0|2:0,2:0:0:0:
436,13,43598,1,10,2:0:0:0:
451,347,43769,22,0,B|409:300|409:300|291:275,1,179.999995231629,2|0,2:0|2:0,2:0:0:0:
0,164,43941,2,0,B|309:13|309:13|216:185,1,539.999985694886,2|0,1:2|2:0,2:0:0:0:
134,181,44198,1,2,2:0:0:0:
96,103,44284,22,0,L|102:58,1,40.4999989271169,8|0,2:0|2:0,2:0:0:0:
128,45,44626,6,0,P|101:106|180:149,1,134.999996423721,6|0,1:2|2:0,2:0:0:0:
220,139,44798,2,0,P|247:78|168:35,1,134.999996423721,2|0,2:0|2:0,2:0:0:0:
74,168,44969,22,0,B|192:181|192:181|310:86,1,233.999993801117,8|0,2:0|2:0,2:0:0:0:
263,17,45141,2,0,B|147:1|147:1|7:99,1,233.999993801117,2|0,2:0|2:0,2:0:0:0:
0,362,45312,22,0,L|534:223,1,467.999987602234,2|0,1:2|2:0,2:0:0:0:
508,301,45569,21,2,2:0:0:0:
279,247,45655,2,0,B|370:261|370:261|272:362,1,215.999994277954,8|0,2:0|2:0,2:0:0:0:
376,374,45826,2,0,L|358:297,2,71.9999980926514,2|0|0,2:0|2:0|2:0,2:0:0:0:
444,337,45998,21,0,1:2:0:0:
329,41,46169,2,0,B|382:58|382:58|476:206,1,206.999994516373,2|0,2:0|2:0,2:0:0:0:
385,198,46341,22,0,B|349:-7|349:-7|531:136,2,413.999989032746,8|2|0,2:0|2:0|1:2,2:0:0:0:
510,97,46855,22,0,B|320:54|320:54|225:126,2,269.999992847443,2|8|2,2:0|2:0|2:0,2:0:0:0:
454,19,47284,1,0,2:0:0:0:
382,52,47369,38,0,B|361:138|361:138|509:80,1,202.499994635582,6|0,1:2|2:0,2:0:0:0:
454,19,47541,22,0,B|412:78|412:78|487:341,1,269.999992847443,2|0,2:0|2:0,2:0:0:0:
505,338,47712,1,10,2:0:0:0:
45,136,47884,22,0,B|86:140|86:140|134:76|134:76|289:127,1,269.999992847443,2|0,2:0|2:0,2:0:0:0:
485,249,48055,2,0,B|221:378|221:378|352:148,1,539.999985694886,2|0,1:2|2:0,2:0:0:0:
412,198,48312,22,0,B|225:258|225:258|156:157,1,296.999992132187,2|8,2:0|2:0,2:0:0:0:
168,174,48569,22,0,B|163:123|163:123|240:116|240:116|248:174,1,175.499995350839,10|0,2:0|2:0,2:0:0:0:
284,253,48912,22,0,B|240:305|240:305|-14:234,1,269.999992847443,2|0,2:0|2:0,2:0:0:0:
21,175,49084,1,10,2:0:0:0:
140,317,49255,22,0,B|152:285|152:285|357:226,1,197.999994754791,2|0,2:0|2:0,2:0:0:0:
405,326,49426,2,0,B|-13:191|-13:191|90:395,1,611.999983787536,2|0,1:2|2:0,2:0:0:0:
313,384,49684,2,0,L|259:55,1,305.999991893768,2|8,2:0|2:0,2:0:0:0:
256,64,49941,2,0,L|280:69,1,20.2499994635585,2|0,2:0|2:0,2:0:0:0:
271,50,50112,6,0,B|345:117|345:117|268:242,1,202.499994635582,6|0,1:2|2:0,2:0:0:0:
22,34,50284,2,0,B|112:11|112:11|167:105,1,202.499994635582,2|0,2:0|2:0,2:0:0:0:
296,217,50455,22,0,L|33:154,1,269.999992847443,8|0,2:0|2:0,2:0:0:0:
0,384,50626,2,0,L|265:332,1,269.999992847443,2|0,2:0|2:0,2:0:0:0:
118,323,50798,22,0,B|147:341|147:341|253:222|253:222|289:239|289:239|501:109|501:109|284:37,1,647.999982833862,2|0,1:2|2:0,2:0:0:0:
421,250,51055,2,0,B|357:200|357:200|408:17|408:17|457:0,1,323.999991416931,2|8,2:0|2:0,2:0:0:0:
466,8,51312,22,0,B|504:53|504:53|487:138|388:98,1,170.999995470047,2|0,2:0|2:0,2:0:0:0:
380,47,51484,22,0,L|391:11,2,24.749999344349,4|0|0,1:2|2:0|2:0,2:0:0:0:
465,191,51655,2,0,L|526:173,1,49.4999986886981,2|0,2:0|2:0,2:0:0:0:
279,93,51826,2,0,L|334:107,1,49.4999986886981,8|0,2:0|2:0,2:0:0:0:
512,384,51998,21,0,1:2:0:0:
10,279,52169,22,0,B|50:304|50:304|146:260|146:260|147:191|147:191|82:165|82:165|59:218,1,346.499990820886,0|0,1:2|2:0,2:0:0:0:
64,203,52855,38,0,L|21:50,1,134.999996423721,4|0,1:2|2:0,2:0:0:0:
107,66,53026,2,0,L|145:202,1,114.749996960164,2|0,2:0|2:0,2:0:0:0:
237,252,53198,22,0,B|248:158|248:158|201:121|201:121|220:3,1,269.999992847443,10|0,2:0|2:0,2:0:0:0:
321,58,53369,22,0,L|324:153,1,94.4999974966049,2|0,2:0|2:0,2:0:0:0:
402,158,53541,22,0,L|418:86,1,74.2499980330467,2|0,1:2|2:0,2:0:0:0:
407,86,53712,2,0,L|410:170,1,74.2499980330467,2|0,2:0|2:0,2:0:0:0:
399,200,53884,6,0,L|431:30,1,152.999995946884,10|0,2:0|2:0,2:0:0:0:
502,84,54055,6,0,L|517:206,2,89.9999976158143,2|0|0,2:0|2:0|1:2,2:0:0:0:
425,371,54398,2,0,B|471:245|471:245|518:354,1,215.999994277954,2|8,2:0|2:0,2:0:0:0:
105,290,54741,2,0,L|-33:254,1,107.999997138977,2|0,2:0|2:0,2:0:0:0:
351,173,54912,2,0,L|229:203,1,107.999997138977,0|0,1:2|2:0,2:0:0:0:
183,252,55084,5,2,2:0:0:0:
159,174,55169,37,0,2:0:0:0:
178,260,55255,1,8,2:0:0:0:
197,342,55341,1,0,2:0:0:0:
187,262,55426,5,2,2:0:0:0:
512,0,55598,2,0,B|440:157|440:157|360:11,1,269.999992847443,0|0,1:2|2:0,2:0:0:0:
462,95,55769,38,0,B|411:82|411:82|375:129,1,89.9999976158143,2|0,2:0|2:0,2:0:0:0:
511,384,55941,2,0,L|492:278,1,89.9999976158143,8|0,2:0|2:0,2:0:0:0:
477,221,56112,1,2,2:0:0:0:
401,196,56198,1,0,2:0:0:0:
484,202,56284,5,2,1:2:0:0:
347,256,56369,1,0,2:0:0:0:
215,311,56455,1,2,2:0:0:0:
144,276,56541,1,0,2:0:0:0:
229,297,56626,38,0,L|350:336,1,89.9999976158143,8|0,2:0|2:0,2:0:0:0:
0,355,56798,2,0,L|106:322,1,89.9999976158143,2|0,2:0|2:0,2:0:0:0:
474,167,56969,6,0,L|492:113,2,44.9999988079071,0|0|0,1:2|2:0|2:0,2:0:0:0:
452,215,57141,38,0,B|383:28|383:28|532:145,2,359.999990463257,2|10|2,2:0|2:0|2:0,2:0:0:0:
403,148,57569,21,0,2:0:0:0:
326,133,57655,2,0,B|314:153|314:153|335:170|331:197|331:197|360:204,1,89.9999976158143,2|0,1:2|2:0,2:0:0:0:
0,220,57826,22,0,B|397:333|397:333|508:231,1,539.999985694885,2|0,2:0|2:0,2:0:0:0:
493,285,57998,22,0,B|367:314|367:314|328:305|328:305|337:286|337:286|255:274|255:274|229:292|229:292|225:309|225:309|157:325|157:325|114:297|114:297|90:329|90:329|83:332|1:350,1,566.999984979629,10|0,2:0|2:0,2:0:0:0:
17,261,58341,22,0,L|-6:154,1,89.9999976158143,6|0,1:2|2:0,2:0:0:0:
84,147,58512,2,0,L|89:235,1,71.9999980926514,2|0,2:0|2:0,2:0:0:0:
147,294,58684,22,0,B|175:206|175:206|163:182|163:182|189:87|189:87|241:88,1,269.999992847443,10|0,2:0|2:0,2:0:0:0:
296,150,58855,22,0,B|198:182|198:182|210:166|210:166|187:183|187:183|255:186,1,179.999995231629,2|0,2:0|2:0,2:0:0:0:
0,173,59026,22,0,L|17:261,1,89.9999976158143,2|0,1:2|2:0,2:0:0:0:
88,218,59198,2,0,L|84:147,1,71.9999980926514,2|0,2:0|2:0,2:0:0:0:
241,88,59369,6,0,B|189:87|189:87|163:182|163:182|175:206|175:206|147:294,2,269.999992847443,10|0|0,2:0|2:0|2:0,2:0:0:0:
113,70,59712,5,0,1:2:0:0:
496,307,59884,2,0,B|286:228|286:228|377:368,1,359.999990463257,2|8,2:0|2:0,2:0:0:0:
359,341,60226,2,0,B|221:387|221:387|309:241,1,269.999992847443,2|0,2:0|2:0,2:0:0:0:
365,235,60398,6,0,L|353:273,2,24.749999344349,0|0|0,1:2|2:0|2:0,2:0:0:0:
364,123,60569,2,0,B|429:186|429:186|522:146,1,179.999995231629,2|0,2:0|2:0,2:0:0:0:
3,37,60741,2,0,B|85:1|85:1|150:64,1,179.999995231629,8|8,2:0|2:0,2:0:0:0:
310,191,60912,2,0,B|372:69|372:69|120:159,1,404.999989271164,10|0,2:0|2:0,2:0:0:0:
67,96,61084,5,6,1:2:0:0:
440,315,61426,5,6,1:2:0:0:
13,282,61769,5,6,1:2:0:0:
499,102,61941,5,6,1:2:0:0:
256,384,62112,5,6,1:2:0:0:
256,24,62284,1,2,2:0:0:0:
0,192,63826,6,0,B|40:216|40:216|168:152,1,134.999996423721,6|0,1:2|2:0,2:0:0:0:
116,162,63998,1,2,2:0:0:0:
307,19,64169,21,10,2:0:0:0:
238,49,64255,1,0,2:0:0:0:
297,101,64341,2,0,L|272:203,1,89.9999976158143,0|0,2:0|2:0,2:0:0:0:
366,178,64512,22,0,P|445:216|518:138,1,179.999995231629,0|2,1:2|2:0,2:0:0:0:
201,196,64769,2,0,L|315:171,1,89.9999976158143,2|10,2:0|2:0,2:0:0:0:
502,163,65026,22,0,P|458:165|462:235,1,89.9999976158143,2|0,2:0|2:0,2:0:0:0:
481,362,65198,2,0,B|396:378|396:378|349:331,1,134.999996423721,2|0,1:2|2:0,2:0:0:0:
343,358,65369,6,0,L|381:266,1,89.9999976158143,2|0,2:0|2:0,2:0:0:0:
9,310,65541,2,0,L|10:189,1,89.9999976158143,10|0,2:0|2:0,2:0:0:0:
311,237,65712,1,2,2:0:0:0:
238,204,65798,1,2,2:0:0:0:
89,346,65884,5,2,1:2:0:0:
165,320,65969,1,0,2:0:0:0:
146,244,66055,1,2,2:0:0:0:
221,221,66141,1,0,2:0:0:0:
253,295,66226,2,0,L|229:385,1,89.9999976158143,10|2,2:0|2:0,2:0:0:0:
258,32,66398,2,0,L|234:122,1,89.9999976158143,2|0,2:0|2:0,2:0:0:0:
316,159,66569,21,2,1:2:0:0:
316,159,66591,1,0,2:0:0:0:
152,102,66741,5,2,2:0:0:0:
152,102,66762,1,0,2:0:0:0:
456,276,66912,1,10,2:0:0:0:
489,191,66998,2,0,L|509:245,1,44.9999988079071,2|0,2:0|2:0,2:0:0:0:
473,294,67084,6,0,L|493:166,1,89.9999976158143,2|2,2:0|2:0,2:0:0:0:
499,114,67255,21,2,1:2:0:0:
288,342,67426,1,2,2:0:0:0:
296,340,67448,1,0,2:0:0:0:
17,133,67598,21,10,2:0:0:0:
26,138,67619,1,0,2:0:0:0:
186,302,67769,21,2,2:0:0:0:
184,292,67791,1,0,2:0:0:0:
152,0,67941,2,0,B|26:65|26:65|90:307,1,310.499991774559,4|0,1:2|2:0,2:0:0:0:
108,312,68112,6,0,B|162:255|162:255|95:130,1,148.499996066094,2|0,2:0|2:0,2:0:0:0:
177,254,68198,2,0,B|100:235|100:235|25:356,1,148.499996066094,2|0,2:0|2:0,2:0:0:0:
93,224,68284,2,0,B|115:299|115:299|257:303,1,148.499996066094,2|0,2:0|2:0,2:0:0:0:
126,268,68369,5,0,2:0:0:0:
126,268,68455,1,2,1:2:0:0:
394,70,68626,22,0,B|451:124|451:124|576:57,1,148.499996066094,2|0,2:0|2:0,2:0:0:0:
452,139,68712,2,0,B|471:62|471:62|350:-13,1,148.499996066094,2|0,2:0|2:0,2:0:0:0:
482,55,68798,2,0,B|407:77|407:77|403:219,1,148.499996066094,2|0,2:0|2:0,2:0:0:0:
438,88,68884,5,2,2:0:0:0:
438,88,68969,2,0,B|134:44|134:44|21:137,1,445.499988198281,10|0,2:0|2:0,2:0:0:0:
16,41,69141,6,0,B|94:119|94:119|533:7,1,445.499988198281,0|0,2:0|2:0,2:0:0:0:
512,119,69312,22,0,B|465:323|465:323|309:158,1,404.999989271164,6|0,1:2|2:0,2:0:0:0:
424,166,69655,1,2,2:0:0:0:
424,166,69998,22,0,B|514:217|514:217|331:296,2,269.999992847443,10|2|2,2:0|2:0|2:0,2:0:0:0:
493,104,70512,2,0,L|468:-21,1,89.9999976158143,2|0,2:0|2:0,2:0:0:0:
190,127,70684,2,0,L|349:92,1,134.999996423721,0|0,2:0|2:0,2:0:0:0:
169,70,70855,22,0,P|141:178|-8:172,1,269.999992847443,8|0,2:0|2:0,2:0:0:0:
0,165,71026,6,0,L|99:186,1,94.4999974966055,2|0,2:0|2:0,2:0:0:0:
168,202,71369,5,8,2:0:0:0:
89,89,71541,1,2,2:0:0:0:
161,284,71712,1,2,2:0:0:0:
89,89,71884,1,2,2:0:0:0:
289,322,72055,22,0,B|183:288|183:288|227:394,1,215.999994277954,2|2,1:2|2:0,2:0:0:0:
497,199,72569,2,0,B|443:190|443:190|421:214,1,80.9999978542327,2|0,1:2|2:0,2:0:0:0:
408,197,72741,1,10,2:0:0:0:
476,288,72912,5,2,2:0:0:0:
476,288,72955,1,0,2:0:0:0:
476,288,72998,1,0,2:0:0:0:
476,288,73041,1,0,2:0:0:0:
476,288,73084,1,2,1:2:0:0:
408,114,73255,1,2,1:2:0:0:
506,367,73426,5,2,2:0:0:0:
380,297,73598,1,8,2:0:0:0:
506,367,73769,1,2,2:0:0:0:
281,163,73941,1,2,2:0:0:0:
28,249,74112,21,8,2:0:0:0:
105,236,74226,21,0,2:0:0:0:
178,228,74341,21,0,2:0:0:0:
0,384,74455,5,2,2:0:0:0:
14,261,74626,6,0,L|19:213,1,26.9999984607697,0|0,1:2|2:0,2:0:0:0:
91,201,74712,2,0,L|100:231,1,26.9999992847442,0|0,1:2|2:0,2:0:0:0:
190,238,74798,2,0,B|336:292|336:292|262:152,2,287.999992370606,2|0|2,1:2|2:0|2:0,2:0:0:0:
273,76,75312,22,0,L|261:-8,2,71.9999980926514,0|0|0,1:2|2:0|2:0,2:0:0:0:
201,384,75484,6,0,B|281:47|281:47|421:-2,2,449.999988079071,10|2|2,2:0|2:0|2:0,2:0:0:0:
343,113,75998,2,0,B|499:152|499:152|447:28,1,269.999992847443,10|0,2:0|2:0,2:0:0:0:
177,15,76341,2,0,L|195:127,1,67.4999982118607,10|0,2:0|2:0,2:0:0:0:
180,161,76512,6,0,L|210:376,1,197.999994754792,2|10,2:0|2:0,2:0:0:0:
235,281,77026,1,2,2:0:0:0:
96,1,77198,21,2,2:0:0:0:
273,199,77369,21,2,1:2:0:0:
56,128,77541,2,0,B|20:16|20:16|106:48,1,197.999994754792,2|0,1:2|2:0,2:0:0:0:
9,181,78055,21,0,1:2:0:0:
163,140,78226,1,10,2:0:0:0:
96,174,78398,5,0,2:0:0:0:
96,174,78441,1,0,2:0:0:0:
96,174,78484,1,0,2:0:0:0:
58,245,78569,2,0,L|68:311,1,49.4999986886981,2|0,2:0|2:0,2:0:0:0:
174,60,78741,5,0,1:2:0:0:
306,139,78826,2,0,L|293:206,1,49.4999986886981,0|0,2:0|1:2,2:0:0:0:
307,239,79084,22,0,L|287:70,1,152.999995946885,2|0,2:0|2:0,2:0:0:0:
280,91,79369,5,0,2:0:0:0:
265,68,79484,1,0,2:0:0:0:
243,33,79598,5,10,2:0:0:0:
392,11,79769,1,0,2:0:0:0:
155,134,79941,21,10,2:0:0:0:
386,90,80112,1,0,2:0:0:0:
386,90,80198,1,0,2:0:0:0:
98,0,80284,37,6,1:2:0:0:
98,0,80798,1,0,2:0:0:0:
44,59,80969,2,0,B|18:66|18:66|-2:50,1,44.9999988079077,10|0,2:0|2:0,2:0:0:0:
90,346,81312,2,0,B|83:320|83:320|99:300,1,44.9999988079077,0|0,2:0|2:0,2:0:0:0:
169,324,81655,2,0,P|206:329|262:317,1,89.9999976158154,10|0,2:0|2:0,2:0:0:0:
313,264,82169,1,0,2:0:0:0:
376,310,82341,2,0,B|378:333|378:333|358:358,1,44.9999988079077,10|0,2:0|2:0,2:0:0:0:
242,229,82684,6,0,L|212:236,1,22.4999994039538,10|0,2:0|2:0,2:0:0:0:
483,288,82855,2,0,L|453:295,1,22.4999994039538,10|0,2:0|2:0,2:0:0:0:
147,265,83026,38,0,B|126:270|126:270|101:253,1,44.9999988079077,10|0,2:0|2:0,2:0:0:0:
102,263,83541,5,10,2:0:0:0:
46,210,83712,2,0,B|42:189|42:189|75:168,1,44.9999988079077,10|0,2:0|2:0,2:0:0:0:
52,156,84055,37,0,2:0:0:0:
113,26,84226,2,0,B|137:25|137:25|157:44,1,44.9999988079077,10|10,2:0|2:0,2:0:0:0:
231,0,84569,5,0,2:0:0:0:
435,55,84741,2,0,B|440:84|440:84|423:105,1,44.9999988079077,0|10,2:0|2:0,2:0:0:0:
493,172,85084,38,0,L|486:141,1,22.4999994039538,10|0,2:0|2:0,2:0:0:0:
255,207,85255,2,0,L|248:176,2,22.4999994039536,10|0|0,2:0|2:0|2:0,2:0:0:0:
6,249,85426,2,0,L|-1:218,1,22.4999994039536,10|0,2:0|2:0,2:0:0:0:
420,113,85598,5,0,1:2:0:0:
0,326,85769,38,0,B|28:326|28:326|39:344,1,44.9999988079071,6|0,1:2|2:0,2:0:0:0:
204,384,86112,2,0,P|208:351|247:308,2,89.9999976158143,0|6|0,2:0|1:2|2:0,2:0:0:0:
129,316,86969,5,0,2:0:0:0:
346,384,87141,2,0,P|433:364|440:360,1,89.9999976158143,6|0,1:2|2:0,2:0:0:0:
324,286,87655,5,0,2:0:0:0:
344,296,87741,1,0,2:0:0:0:
362,302,87826,1,6,1:2:0:0:
395,233,87912,5,8,2:0:0:0:
426,163,87998,37,8,2:0:0:0:
408,154,88084,1,8,2:0:0:0:
394,147,88169,1,8,2:0:0:0:
427,74,88255,5,8,2:0:0:0:
461,0,88341,37,8,2:0:0:0:
479,7,88426,1,8,2:0:0:0:
494,13,88512,1,8,2:0:0:0:
250,202,88684,22,0,L|240:186,1,11.2499997019768,8|8,2:0|2:0,2:0:0:0:
250,202,88769,2,0,L|233:192,1,11.2499997019768,8|0,2:0|2:0,2:0:0:0:
250,202,88855,2,0,L|233:200,1,11.2499997019768,8|8,2:0|2:0,2:0:0:0:
250,202,88941,2,0,L|232:207,1,11.2499997019768,8|8,2:0|2:0,2:0:0:0:
250,202,89026,2,0,L|235:215,1,11.2499997019768,8|8,2:0|2:0,2:0:0:0:
250,202,89112,2,0,L|244:220,1,11.2499997019768,8|0,2:0|2:0,2:0:0:0:
250,202,89198,2,0,L|252:222,2,11.2499997019768,8|8|8,2:0|2:0|2:0,2:0:0:0:
305,148,89369,5,8,2:0:0:0:
373,108,89455,1,8,2:0:0:0:
412,173,89541,1,8,2:0:0:0:
349,217,89626,1,8,2:0:0:0:
395,283,89712,1,8,2:0:0:0:
459,239,89798,1,8,2:0:0:0:
501,306,89884,37,8,2:3:0:0:
357,382,89998,5,8,2:3:0:0:
270,229,90112,37,8,2:3:0:0:
128,305,90226,5,8,2:3:0:0:
407,309,90341,37,8,2:3:0:0:
428,235,90455,5,8,2:3:0:0:
449,160,90569,37,4,2:3:0:0:
416,26,90798,6,0,L|433:92,1,59.9999984105428,4|4,2:3|2:3,2:0:0:0:
506,96,91255,5,6,1:2:0:0:
189,3,91598,5,6,1:2:0:0:
74,384,91941,37,6,1:2:0:0:
398,336,92284,5,6,1:2:0:0:
270,51,92626,37,6,1:2:0:0:
9,223,92969,5,6,1:2:0:0:
512,105,93312,37,6,1:2:0:0:
512,105,93655,2,0,B|449:129|449:129|397:78,1,134.999996423722,2|2,2:0|2:0,2:0:0:0:
281,283,93998,38,0,B|186:246|186:246|241:382|241:382|161:393,1,269.999992847443,6|2,1:2|2:0,2:0:0:0:
10,301,94512,2,0,L|113:321,1,67.4999982118609,0|0,1:2|2:0,2:0:0:0:
145,364,94683,21,2,2:0:0:0:
160,286,94769,1,0,2:0:0:0:
160,286,95026,22,0,B|319:220|319:220|284:332,1,269.999992847443,2|2,2:0|1:2,2:0:0:0:
396,376,95540,1,2,2:0:0:0:
403,376,95562,1,0,2:0:0:0:
379,289,95712,1,2,2:0:0:0:
387,292,95733,1,0,2:0:0:0:
480,345,95883,21,2,1:2:0:0:
158,202,96055,1,2,2:0:0:0:
149,179,96226,21,0,2:0:0:0:
177,249,96312,1,0,2:0:0:0:
162,141,96398,2,0,B|173:206|173:206|134:282,1,134.999996423722,8|2,2:0|2:0,2:0:0:0:
13,331,96740,38,0,B|95:330|95:330|129:385,1,134.999996423722,2|0,1:2|2:0,2:0:0:0:
199,378,96998,1,0,2:0:0:0:
250,322,97083,1,2,2:0:0:0:
32,187,97255,38,0,B|97:133|97:133|174:321,1,269.999992847443,2|2,1:2|2:0,2:0:0:0:
186,19,97769,6,0,B|264:-4|264:-4|195:235,1,269.999992847443,2|2,2:0|1:2,2:0:0:0:
133,145,98283,37,2,2:0:0:0:
131,137,98305,1,0,2:0:0:0:
341,24,98455,1,2,2:0:0:0:
345,13,98476,1,0,2:0:0:0:
247,370,98626,21,2,1:2:0:0:
251,362,98648,1,0,2:0:0:0:
239,286,98798,37,2,2:0:0:0:
97,375,99055,5,0,2:0:0:0:
430,288,99312,37,0,2:0:0:0:
0,234,99483,6,0,L|38:372,1,134.999996423722,6|0,1:2|2:0,2:0:0:0:
72,119,99826,2,0,L|100:276,1,134.999996423722,2|0,1:2|2:0,2:0:0:0:
165,39,100169,2,0,L|177:194,1,134.999996423722,2|0,1:2|2:0,2:0:0:0:
256,0,100512,2,0,L|256:144,1,134.999996423722,2|2,1:2|2:0,2:0:0:0:
347,39,100855,2,0,L|336:173,1,134.999996423722,2|2,1:2|2:0,2:0:0:0:
382,140,101112,1,0,2:0:0:0:
440,119,101198,2,0,L|416:251,1,134.999996423722,2|2,1:2|2:0,2:0:0:0:
466,238,101455,1,0,2:0:0:0:
512,234,101540,2,0,L|476:364,1,134.999996423722,2|0,1:2|2:0,2:0:0:0:
401,376,101798,1,0,2:0:0:0:
389,298,101883,1,2,1:2:0:0:
376,220,101969,1,0,2:0:0:0:
295,233,102055,1,2,2:0:0:0:
218,249,102140,1,0,2:0:0:0:
230,328,102226,38,0,L|378:297,1,134.999996423722,14|8,1:2|2:0,2:0:0:0:
68,110,102569,2,0,B|56:98|56:98|34:105,1,33.7499991059304,10|8,2:0|2:0,2:0:0:0:
68,110,102655,2,0,B|51:107|51:107|37:125,1,33.7499991059304,8|0,2:0|2:0,2:0:0:0:
68,110,102740,2,0,B|53:118|53:118|54:141,1,33.7499991059304,10|0,2:0|2:0,2:0:0:0:
68,110,102826,2,0,B|58:124|58:124|69:144,1,33.7499991059304,8|0,2:0|2:0,2:0:0:0:
146,118,102912,1,10,2:0:0:0:
223,93,102998,1,8,2:0:0:0:
298,69,103083,1,10,2:0:0:0:
325,145,103169,1,8,2:0:0:0:
352,221,103255,1,10,2:0:0:0:
274,246,103340,1,8,2:0:0:0:
198,272,103426,1,10,2:0:0:0:
169,195,103512,1,8,2:0:0:0:
249,169,103598,5,2,2:0:0:0:
269,165,103940,37,2,2:0:0:0:
359,0,104078,5,2,2:0:0:0:
349,215,104198,37,2,2:0:0:0:
349,215,104240,1,2,2:0:0:0:
349,215,104283,1,2,2:0:0:0:
425,236,104369,1,2,2:0:0:0:
482,181,104455,1,2,2:0:0:0:
271,269,104626,6,0,L|163:241,1,80.9999978542333,2|2,2:0|2:0,2:0:0:0:
18,364,104969,38,0,B|-9:299|-9:299|22:234,1,134.999996423721,6|0,1:2|2:0,2:0:0:0:
478,226,105312,2,0,B|507:292|507:292|469:368,1,134.999996423722,10|2,2:0|1:2,2:0:0:0:
44,231,105569,1,2,1:2:0:0:
263,183,105655,22,0,L|236:348,1,134.999996423722,2|0,1:2|2:0,2:0:0:0:
32,322,105912,1,2,1:2:0:0:
455,229,105998,1,10,2:0:0:0:
455,229,106169,22,0,B|485:144|485:144|361:-10|361:-10|121:312|121:312|384:169,1,899.999976158142,6|2,1:2|2:0,2:0:0:0:
320,137,106598,1,0,2:0:0:0:
332,58,106683,1,10,2:0:0:0:
253,48,106769,1,0,2:0:0:0:
174,38,106855,1,2,2:0:0:0:
165,113,106940,21,0,2:0:0:0:
89,118,107026,2,0,B|234:28|234:28|366:91|366:91|408:38|408:38|485:28,1,449.999988079071,2|0,1:2|2:0,2:0:0:0:
312,10,107283,22,0,B|277:58|277:58|325:144,1,112.499997019768,2|0,2:0|2:0,2:0:0:0:
338,169,107369,2,0,L|516:122,1,179.999995231629,8|0,2:0|2:0,2:0:0:0:
504,145,107712,6,0,L|199:70,1,242.999993562699,6|0,1:2|2:0,2:0:0:0:
258,67,107883,2,0,L|183:372,1,242.999993562699,2|0,2:0|2:0,2:0:0:0:
185,316,108055,2,0,L|490:391,1,242.999993562699,8|0,2:0|2:0,2:0:0:0:
436,366,108226,22,0,L|511:61,1,242.999993562699,2|0,2:0|2:0,2:0:0:0:
69,1,108398,2,0,L|107:382,1,377.99998998642,2|0,1:2|2:0,2:0:0:0:
22,338,108655,2,0,L|-5:88,1,224.999994039536,2|8,2:0|2:0,2:0:0:0:
20,131,108912,2,0,B|35:80|35:80|23:27,1,101.249997317791,2|0,2:0|2:0,2:0:0:0:
14,25,109083,21,0,1:2:0:0:
88,0,109169,1,0,2:0:0:0:
134,61,109255,1,2,2:0:0:0:
104,132,109340,1,0,2:0:0:0:
174,163,109426,21,8,2:0:0:0:
125,98,109512,1,0,2:0:0:0:
88,172,109598,1,2,2:0:0:0:
174,163,109683,1,0,2:0:0:0:
125,98,109769,22,0,B|75:83|75:83|6:121,1,107.999997138977,0|0,1:2|2:0,2:0:0:0:
249,384,109940,2,0,B|200:290|200:290|330:277,2,215.999994277954,2|8|2,2:0|2:0|2:0,2:0:0:0:
319,353,110369,1,0,2:0:0:0:
288,191,110455,38,0,B|116:342|116:342|128:392,1,269.999992847443,6|0,1:2|2:0,2:0:0:0:
249,384,110626,2,0,B|204:354|204:354|144:153,1,224.999994039536,2|0,2:0|2:0,2:0:0:0:
102,24,110798,1,10,2:0:0:0:
48,217,110969,22,0,B|-21:81|-21:81|176:191,1,337.499991059303,2|0,2:0|2:0,2:0:0:0:
512,225,111140,2,0,B|472:259|472:259|416:237|416:237|378:137|378:137|269:182|269:182|266:327,1,449.999988079071,2|0,1:2|2:0,2:0:0:0:
353,295,111398,21,2,2:0:0:0:
392,228,111483,1,8,2:0:0:0:
324,190,111569,1,0,2:0:0:0:
293,257,111655,2,0,L|366:232,1,67.4999982118612,10|0,2:0|2:0,2:0:0:0:
373,260,111998,22,0,B|413:174|413:174|328:68,1,179.999995231629,2|0,2:0|2:0,2:0:0:0:
184,66,112169,1,10,2:0:0:0:
489,2,112340,22,0,B|406:12|406:12|363:133,1,179.999995231629,2|0,2:0|2:0,2:0:0:0:
225,288,112512,2,0,B|427:222|427:222|482:290|482:290|474:321|474:321|507:388|507:388|327:313,1,539.999985694886,2|0,1:2|2:0,2:0:0:0:
441,276,112769,1,2,2:0:0:0:
477,205,112855,1,8,2:0:0:0:
477,205,112940,1,0,2:0:0:0:
477,205,113026,21,2,2:0:0:0:
312,169,113112,1,0,2:0:0:0:
337,21,113198,2,0,B|458:12|458:12|515:183,1,269.999992847443,6|0,1:2|2:0,2:0:0:0:
409,177,113369,1,2,2:0:0:0:
359,105,113455,1,0,2:0:0:0:
431,38,113540,1,8,2:0:0:0:
409,125,113626,38,0,B|436:90|436:90|488:90,1,89.9999976158143,0|0,2:0|2:0,2:0:0:0:
436,99,113712,2,0,B|392:93|392:93|366:48,1,89.9999976158143,2|0,2:0|2:0,2:0:0:0:
399,88,113798,2,0,B|415:128|415:128|389:173,1,89.9999976158143,0|0,2:0|2:0,2:0:0:0:
414,105,113883,22,0,L|54:206,1,359.999990463257,2|0,1:2|2:0,2:0:0:0:
6,130,114140,1,2,2:0:0:0:
138,173,114226,2,0,L|357:110,1,179.999995231629,8|0,2:0|2:0,2:0:0:0:
499,350,114398,2,0,B|331:298|331:298|240:365,1,269.999992847443,2|0,2:0|2:0,2:0:0:0:
277,365,114569,22,0,L|272:324,1,31.4999991655352,4|0,1:2|2:0,2:0:0:0:
204,62,114740,22,0,L|224:-1,1,62.9999983310703,2|8,2:0|2:0,2:0:0:0:
246,252,115083,2,0,L|255:221,1,31.4999991655352,0|0,1:2|2:0,2:0:0:0:
216,157,115255,1,0,1:2:0:0:
287,384,115426,1,0,1:2:0:0:
287,384,115512,1,0,1:2:0:0:
287,384,115598,1,12,2:0:0:0:
222,328,115769,1,2,2:0:0:0:
370,201,115940,6,0,B|409:205|409:205|481:175,1,85.4999977350234,4|0,1:2|2:0,2:0:0:0:
334,108,116112,2,0,B|359:144|359:144|360:219,1,85.4999977350234,2|0,2:0|2:0,2:0:0:0:
468,72,116283,22,0,B|383:46|383:46|282:129,1,179.999995231629,10|0,2:0|2:0,2:0:0:0:
463,169,116455,22,0,B|438:127|438:127|449:44,1,85.4999977350234,2|0,2:0|2:0,2:0:0:0:
389,33,116626,21,2,1:2:0:0:
317,8,116712,1,0,2:0:0:0:
246,41,116798,1,2,2:0:0:0:
247,88,116883,1,0,2:0:0:0:
196,30,116969,5,10,2:0:0:0:
196,19,117055,1,0,2:0:0:0:
205,20,117140,1,2,2:0:0:0:
13,130,117312,6,0,B|90:189|90:189|222:128,1,206.999994516373,0|0,1:2|2:0,2:0:0:0:
319,107,117483,2,0,B|98:25|98:25|196:210,1,413.999989032746,2|8,2:0|2:0,2:0:0:0:
468,9,117826,2,0,B|445:83|445:83|488:129|488:129|454:227,1,202.499994635582,2|0,2:0|2:0,2:0:0:0:
397,148,117998,1,0,1:2:0:0:
397,148,118169,6,0,B|455:102|455:102|530:130,1,134.999996423721,2|0,2:0|2:0,2:0:0:0:
292,336,118340,37,8,2:0:0:0:
287,207,118426,1,0,2:0:0:0:
402,262,118512,1,2,2:0:0:0:
328,270,118598,5,0,2:0:0:0:
371,346,118683,2,0,L|394:337,1,22.4999994039537,0|0,1:2|2:0,2:0:0:0:
223,281,118855,2,0,L|246:272,1,22.4999994039537,2|0,2:0|2:0,2:0:0:0:
408,139,119026,38,0,L|514:173,1,89.9999976158143,8|0,2:0|2:0,2:0:0:0:
8,343,119198,2,0,L|106:370,1,89.9999976158143,2|0,2:0|2:0,2:0:0:0:
182,383,119369,1,2,1:2:0:0:
151,309,119455,1,0,2:0:0:0:
120,240,119540,1,2,2:0:0:0:
192,209,119626,1,0,2:0:0:0:
267,183,119712,1,8,2:0:0:0:
236,113,119798,1,0,2:0:0:0:
206,39,119883,2,0,P|216:15|241:11,1,44.9999988079071,2|0,2:0|2:0,2:0:0:0:
206,39,119969,2,0,P|200:1|214:-8,1,44.9999988079071,0|0,2:0|2:0,2:0:0:0:
206,39,120055,2,0,P|175:9|179:-13,1,44.9999988079071,0|0,1:2|2:0,2:0:0:0:
283,19,120140,1,0,2:0:0:0:
317,89,120226,5,2,2:0:0:0:
257,137,120312,1,0,2:0:0:0:
302,129,120398,1,10,2:0:0:0:
282,206,120483,1,0,2:0:0:0:
264,280,120569,1,2,2:0:0:0:
294,246,120655,1,0,2:0:0:0:
260,354,120740,2,0,P|209:334|193:282,1,89.9999976158143,2|0,1:2|2:0,2:0:0:0:
368,19,120912,6,0,B|458:1|458:1|522:100,1,179.999995231629,2|0,2:0|2:0,2:0:0:0:
458,0,121083,22,0,B|387:135|387:135|525:74,1,269.999992847443,10|0,2:0|2:0,2:0:0:0:
499,168,121426,22,0,B|435:200|435:200|500:257,1,134.999996423721,6|0,1:2|2:0,2:0:0:0:
435,237,121598,2,0,B|393:284|393:284|361:220,1,134.999996423721,2|0,2:0|2:0,2:0:0:0:
353,236,121769,22,0,B|189:293|189:293|230:33,1,350.999990701675,10|0,2:0|2:0,2:0:0:0:
203,128,121940,22,0,B|137:118|137:118|165:41,1,134.999996423721,2|0,2:0|2:0,2:0:0:0:
419,168,122112,22,0,B|466:324|466:324|435:364,1,179.999995231629,2|0,1:2|2:0,2:0:0:0:
455,337,122283,2,0,B|118:258|118:258|58:313,1,404.999989271164,2|0,2:0|2:0,2:0:0:0:
0,348,122455,38,0,B|391:269|391:269|531:390,2,539.999985694886,10|2|0,2:0|2:0|1:2,2:0:0:0:
6,267,122883,1,0,2:0:0:0:
74,229,122969,1,2,2:0:0:0:
45,157,123055,1,0,2:0:0:0:
117,132,123140,1,8,2:0:0:0:
148,202,123226,1,0,2:0:0:0:
150,158,123312,1,2,2:0:0:0:
39,125,123398,1,0,2:0:0:0:
9,241,123483,5,0,1:2:0:0:
126,274,123569,1,0,2:0:0:0:
220,181,123655,1,2,2:0:0:0:
220,181,123740,1,0,2:0:0:0:
211,261,123826,5,8,2:0:0:0:
139,199,123912,1,8,2:0:0:0:
176,112,123998,1,10,2:0:0:0:
270,120,124083,1,8,2:0:0:0:
292,212,124169,5,6,1:2:0:0:
92,126,124512,5,6,1:2:0:0:
437,227,124855,5,6,1:2:0:0:
23,182,125026,5,6,1:2:0:0:
501,134,125198,5,6,1:2:0:0:
256,192,125369,12,2,126740,2:0:0:0:
18,76,126912,22,0,P|25:237|13:368,1,269.999992847443,6|0,1:2|2:0,2:0:0:0:
17,358,127083,1,2,2:0:0:0:
7,348,127169,1,2,2:0:0:0:
33,276,127255,1,10,2:0:0:0:
6,203,127340,21,0,2:0:0:0:
46,278,127426,1,0,2:0:0:0:
124,263,127512,1,0,2:0:0:0:
86,194,127598,22,0,B|254:117|254:117|394:283,1,359.999990463257,0|2,1:2|2:0,2:0:0:0:
302,316,127855,22,0,B|269:229|269:229|357:156,1,179.999995231629,2|10,2:0|2:0,2:0:0:0:
503,305,128112,2,0,L|408:269,2,71.9999980926514,2|0|2,2:0|2:0|1:2,2:0:0:0:
509,121,128455,22,0,L|473:133,1,35.9999990463257,2|0,2:0|2:0,2:0:0:0:
173,365,128626,2,0,L|131:352,1,35.9999990463257,10|0,2:0|2:0,2:0:0:0:
115,315,128712,1,0,2:0:0:0:
122,238,128798,1,2,2:0:0:0:
195,212,128883,1,2,2:0:0:0:
256,261,128969,1,2,1:2:0:0:
246,339,129055,1,0,2:0:0:0:
185,289,129140,22,0,B|112:318|112:318|-12:258,1,161.999995708466,2|0,2:0|2:0,2:0:0:0:
150,35,129312,2,0,B|165:73|165:73|139:133,2,80.9999978542328,10|0|2,2:0|2:0|2:0,2:0:0:0:
73,84,129483,2,0,B|3:193|3:193|223:95,1,323.999991416931,2|0,2:0|2:0,2:0:0:0:
245,46,129655,21,2,1:2:0:0:
251,43,129676,1,0,2:0:0:0:
512,162,129826,21,2,2:0:0:0:
506,165,129848,1,0,2:0:0:0:
275,142,129998,21,10,2:0:0:0:
494,79,130083,1,2,2:0:0:0:
275,142,130169,1,2,2:0:0:0:
494,79,130255,1,2,2:0:0:0:
275,142,130340,1,2,1:2:0:0:
437,9,130512,21,2,2:0:0:0:
442,13,130533,1,0,2:0:0:0:
377,355,130683,21,10,2:0:0:0:
382,359,130705,1,0,2:0:0:0:
5,331,130855,21,2,2:0:0:0:
5,331,130876,2,0,B|37:196|37:196|84:161,1,161.999990764618,0|0,2:0|2:0,2:0:0:0:
121,144,131026,5,4,1:2:0:0:
186,186,131112,53,0,2:0:0:0:
173,142,131198,1,10,2:0:0:0:
197,109,131283,1,2,2:0:0:0:
260,154,131369,53,2,2:0:0:0:
224,226,131455,1,0,2:0:0:0:
295,266,131540,2,0,L|523:211,1,152.999995946884,2|0,1:2|2:0,2:0:0:0:
65,64,131712,38,0,B|55:32|55:32|88:-6,1,76.4999979734421,2|0,1:2|2:0,2:0:0:0:
65,64,131798,2,0,B|83:28|83:28|143:19,1,76.4999979734421,2|0,2:0|2:0,2:0:0:0:
65,64,131883,2,0,B|102:47|102:47|160:70,1,76.4999979734421,2|0,1:2|2:0,2:0:0:0:
65,64,131969,2,0,B|107:74|107:74|126:136,1,76.4999979734421,2|0,1:2|2:0,2:0:0:0:
45,139,132055,21,10,2:0:0:0:
13,6,132140,1,0,2:0:0:0:
149,53,132226,2,0,B|161:103|161:103|104:209,1,152.999995946884,2|0,2:0|2:0,2:0:0:0:
27,384,132398,22,0,P|12:182|19:82,1,251.99999332428,6|0,1:2|2:0,2:0:0:0:
26,128,132569,1,2,2:0:0:0:
26,145,132655,1,2,2:0:0:0:
15,219,132740,1,10,2:0:0:0:
87,240,132826,1,0,2:0:0:0:
59,203,132912,21,0,2:0:0:0:
34,294,132998,1,0,2:0:0:0:
117,260,133083,2,0,B|185:195|185:195|297:213,1,179.999995231629,0|2,1:2|2:0,2:0:0:0:
146,187,133340,21,2,2:0:0:0:
283,292,133426,2,0,B|350:253|350:253|349:148,1,161.999995708466,10|0,2:0|2:0,2:0:0:0:
263,77,133598,22,0,B|204:129|204:129|237:224,1,161.999995708466,2|0,2:0|2:0,2:0:0:0:
421,251,133769,22,0,L|513:233,2,80.9999978542328,2|0|0,1:2|2:0|2:0,2:0:0:0:
171,42,133940,2,0,L|70:16,2,80.9999978542328,2|0|0,2:0|2:0|2:0,2:0:0:0:
420,328,134112,2,0,L|503:5,1,323.999991416931,10|2,2:0|2:0,2:0:0:0:
459,75,134369,1,2,2:0:0:0:
493,326,134455,22,0,B|422:369|422:369|307:308,1,161.999995708466,2|0,1:2|2:0,2:0:0:0:
342,58,134626,2,0,B|411:17|411:17|522:88,1,161.999995708466,2|0,2:0|2:0,2:0:0:0:
512,157,134798,22,0,L|291:201,1,161.999995708466,10|2,2:0|2:0,2:0:0:0:
6,239,134969,1,2,2:0:0:0:
313,280,135140,21,2,1:2:0:0:
307,287,135162,1,0,2:0:0:0:
199,100,135312,21,2,2:0:0:0:
205,93,135333,1,0,2:0:0:0:
229,343,135483,21,10,2:0:0:0:
256,192,135569,1,2,2:0:0:0:
283,41,135655,1,2,2:0:0:0:
256,192,135740,1,2,2:0:0:0:
229,343,135826,2,0,B|153:373|153:373|40:266,1,161.999995708466,2|0,1:2|2:0,2:0:0:0:
283,41,135998,2,0,B|359:11|359:11|472:118,1,161.999995708466,2|2,2:0|2:0,2:0:0:0:
512,228,136169,22,0,B|59:125|59:125|2:165,1,526.499986052514,10|0,2:0|2:0,2:0:0:0:
0,156,136340,2,0,B|453:259|453:259|510:219,1,526.499986052514,2|0,2:0|2:0,2:0:0:0:
502,142,136512,6,0,L|-4:378,1,526.499986052514,4|0,1:2|2:0,2:0:0:0:
36,374,136683,53,10,2:0:0:0:
103,310,136769,1,2,2:0:0:0:
66,226,136855,1,2,2:0:0:0:
108,259,136940,53,0,2:0:0:0:
33,293,137026,1,2,1:2:0:0:
33,293,137112,1,0,2:0:0:0:
162,376,137198,37,2,1:2:0:0:
191,239,137283,1,2,2:0:0:0:
119,131,137369,1,2,1:2:0:0:
119,131,137455,1,2,1:2:0:0:
114,209,137540,21,10,2:0:0:0:
206,317,137626,1,0,2:0:0:0:
247,176,137712,1,2,2:0:0:0:
114,209,137798,1,0,2:0:0:0:
191,239,137883,21,2,2:0:0:0:
