osu file format v14

[General]
AudioFilename: audio.mp3
AudioLeadIn: 0
PreviewTime: 41982
Countdown: 0
SampleSet: Soft
StackLeniency: 0.5
Mode: 0
LetterboxInBreaks: 0
WidescreenStoryboard: 1

[Editor]
DistanceSpacing: 1
BeatDivisor: 4
GridSize: 32
TimelineZoom: 2.099999

[Metadata]
Title:Ren'ai Heiki! Lethal Weapon-chan
TitleUnicode:恋愛兵器!りーさるうぇぽんちゃん
Artist::) feat. KAFU
ArtistUnicode:ت feat. KAFU
Creator:- akiira -
Version:Collab Normal
Source:
Tags:vocaloid vocalsynth japanese pop j-pop jpop -_akiira_- -_asuuka_- Ayesha Altugle Shizuku- Kazato Asa Shikibe Mayu VP757 Rorupan L9 Lulu- Ducky- Lunicia 0ugi
BeatmapID:3763618
BeatmapSetID:1832014

[Difficulty]
HPDrainRate:3.2
CircleSize:3
OverallDifficulty:3.5
ApproachRate:4.7
SliderMultiplier:1
SliderTickRate:1

[Events]
//Background and Video events
0,0,"bg.jpeg",0,0
//Break Periods
2,93998,98022
//Storyboard Layer 0 (Background)
//Storyboard Layer 1 (Fail)
//Storyboard Layer 2 (Pass)
//Storyboard Layer 3 (Foreground)
//Storyboard Layer 4 (Overlay)
//Storyboard Sound Samples

[TimingPoints]
400,342.857142857143,4,2,1,40,1,0
742,342.857142857143,4,2,1,40,1,0
11713,-100,4,2,1,80,0,0
17199,-100,4,2,2,60,0,0
26799,-100,4,2,1,60,0,0
28170,-100,4,2,1,40,0,0
36742,-100,4,2,1,50,0,0
37084,-100,4,2,1,60,0,0
37427,-100,4,2,1,70,0,0
37770,-100,4,2,1,80,0,0
41884,342.857142857143,4,2,1,80,1,1
52169,-100,4,2,1,80,0,0
69312,-100,4,2,1,60,0,0
80284,-100,4,2,1,40,0,0
88512,-100,4,2,1,50,0,0
88854,-100,4,2,1,60,0,0
89198,-100,4,2,1,70,0,0
89541,-100,4,2,1,80,0,0
93998,342.857142857143,4,2,1,80,1,0
99483,-100,4,2,1,60,0,0
104969,-100,4,2,1,80,0,0
106169,-100,4,2,1,80,0,1
115940,-100,4,2,1,80,0,0
137883,-100,4,2,1,40,0,0

[Colours]
Combo1 : 157,60,255
Combo2 : 0,255,255
Combo3 : 86,102,216
Combo4 : 255,128,192

[HitObjects]
102,138,400,6,0,B|80:153|53:147,2,49.9999952316284,0|0|2,2:0|2:0|2:0,2:0:0:0:
157,55,1084,2,0,L|256:35,1,100,0|0,2:0|2:0,2:0:0:0:
347,81,1770,2,0,L|396:90,1,50,0|0,2:0|2:0,2:0:0:0:
445,105,2113,1,0,2:0:0:0:
510,181,2456,1,0,2:0:0:0:
462,269,2799,1,0,2:0:0:0:
332,344,3313,1,0,2:0:0:0:
332,344,3484,6,0,B|240:314|296:291|205:265,2,150,2|0|0,2:0|2:0|2:0,2:0:0:0:
409,279,4856,1,0,2:0:0:0:
471,200,5199,1,0,2:0:0:0:
450,102,5542,1,0,2:0:0:0:
450,102,6227,37,2,1:2:0:0:
403,14,6570,2,0,L|302:32,1,100,0|0,2:0|2:0,2:0:0:0:
205,55,7256,2,0,L|195:104,1,50,0|0,2:0|1:2,2:0:0:0:
169,147,7599,1,0,1:2:0:0:
80,193,7942,1,0,2:0:0:0:
53,289,8284,1,0,2:0:0:0:
113,369,8627,2,0,B|134:353|161:359,1,50,0|0,2:0|1:2,2:0:0:0:
188,317,8970,6,0,L|287:297,1,100,2|0,1:2|2:0,2:0:0:0:
316,340,9484,1,0,1:2:0:0:
316,340,9656,2,0,L|415:320,2,100,0|0|0,1:2|2:0|2:0,2:0:0:0:
316,340,11370,1,2,2:0:0:0:
225,297,11713,6,0,B|203:312|176:306,1,50,6|2,1:2|2:0,2:0:0:0:
141,343,12056,2,0,B|119:327|92:333,1,50,10|0,2:0|2:0,2:0:0:0:
50,308,12399,1,0,1:2:0:0:
22,212,12742,2,0,B|43:196|70:202,1,50,10|2,2:0|2:0,2:0:0:0:
120,189,13084,2,0,B|150:145|138:91,1,100,2|10,1:2|2:0,2:0:0:0:
143,43,13599,1,2,2:0:0:0:
143,43,13770,2,0,L|192:33,1,50,2|2,1:2|2:0,2:0:0:0:
242,31,14113,1,10,2:0:0:0:
326,86,14456,22,0,L|375:95,2,50,2|2|10,1:2|2:0|2:0,2:0:0:0:
290,121,14970,1,2,2:0:0:0:
290,121,15142,2,0,B|305:142|299:169,2,50,2|2|10,1:2|2:0|2:0,2:0:0:0:
195,152,15827,2,0,B|173:136|146:142,1,50,4|10,1:2|2:0,2:0:0:0:
101,123,16170,1,2,2:0:0:0:
101,123,16342,2,0,L|91:72,1,50,2|2,1:2|1:2,2:0:0:0:
125,36,16684,1,2,1:2:0:0:
125,36,16856,1,10,2:0:0:0:
223,18,17199,5,6,1:2:0:0:
304,77,17542,2,0,L|322:176,2,100,2|10|2,2:0|2:0|2:0,2:0:0:0:
332,36,18399,1,2,2:0:0:0:
332,36,18570,2,0,L|431:54,1,100,2|2,1:2|2:0,2:0:0:0:
512,116,19256,2,0,B|496:137|502:164,1,50,10|2,2:0|2:0,2:0:0:0:
456,184,19599,1,2,2:0:0:0:
420,277,19942,22,0,B|365:264|322:295,1,100,2|2,1:2|2:0,2:0:0:0:
295,337,20456,1,2,2:0:0:0:
295,337,20627,2,0,B|240:324|197:355,1,100,10|2,2:0|2:0,2:0:0:0:
98,366,21313,2,0,B|76:350|49:356,1,50,2|2,1:2|2:0,2:0:0:0:
13,323,21656,2,0,B|18:295|3:274,1,50,2|2,2:0|2:0,2:0:0:0:
21,227,21999,1,10,2:0:0:0:
120,220,22342,1,0,2:0:0:0:
220,217,22684,21,2,1:2:0:0:
318,200,23027,2,0,L|336:99,2,100,2|10|2,2:0|2:0|2:0,2:0:0:0:
309,249,23884,1,2,2:0:0:0:
309,249,24056,2,0,B|320:302|289:345,1,100,2|2,1:2|2:0,2:0:0:0:
191,363,24742,2,0,L|140:372,1,50,10|2,2:0|2:0,2:0:0:0:
96,352,25084,1,2,2:0:0:0:
7,306,25427,22,0,B|-5:251|25:208,1,100,2|0,1:2|2:0,2:0:0:0:
68,182,25942,1,2,2:0:0:0:
68,182,26113,2,0,B|73:154|58:133,2,50,10|2|2,2:0|2:0|2:0,2:0:0:0:
164,212,26799,2,0,L|263:230,1,100,0|0,1:2|1:2,2:0:0:0:
314,236,27313,1,0,1:2:0:0:
314,236,27484,1,10,2:0:0:0:
363,323,27827,1,2,1:2:0:0:
462,338,28170,22,0,L|498:136,2,200,6|0|2,2:0|2:0|2:0,2:0:0:0:
462,338,30227,1,0,2:0:0:0:
462,338,30913,38,0,L|260:374,2,200,2|2|2,2:0|2:0|2:0,2:0:0:0:
462,338,32970,2,0,L|489:186,1,150,2|0,2:0|2:0,2:0:0:0:
501,138,33656,6,0,B|485:116|491:89,1,50,2|2,1:2|2:0,2:0:0:0:
463,49,33999,1,2,2:0:0:0:
463,49,34170,1,2,1:2:0:0:
463,49,34342,2,0,B|447:27|453:0,2,50,2|0|2,2:0|2:0|2:0,2:0:0:0:
388,116,35027,2,0,B|333:103|290:134,1,100,2|2,1:2|2:0,2:0:0:0:
264,176,35542,1,0,2:0:0:0:
264,176,35713,2,0,L|213:185,1,50,2|2,1:2|2:0,2:0:0:0:
165,183,36056,1,2,2:0:0:0:
165,183,36227,1,2,2:0:0:0:
74,225,36570,38,0,B|61:278|92:321,1,100,10|10,2:0|2:0,2:0:0:0:
126,358,37084,1,10,2:0:0:0:
126,358,37256,1,10,2:0:0:0:
126,358,37427,2,0,L|175:348,1,50,10|10,2:0|2:0,2:0:0:0:
224,362,37770,2,0,B|277:349|320:380,1,100,8|8,2:3|2:3,2:0:0:0:
420,370,38456,2,0,L|494:383,2,75,4|4|4,2:3|2:3|2:3,2:0:0:0:
412,321,39142,21,6,1:2:0:0:
479,247,39484,1,6,1:2:0:0:
447,152,39827,1,6,1:2:0:0:
347,141,40170,1,6,1:2:0:0:
264,196,40513,1,6,1:2:0:0:
166,179,40856,1,6,1:2:0:0:
72,212,41199,1,6,1:2:0:0:
34,304,41542,1,2,2:0:0:0:
99,380,41884,22,0,B|120:364|147:370,1,50,6|2,1:2|2:0,2:0:0:0:
168,325,42226,1,10,2:0:0:0:
168,325,42398,1,2,2:0:0:0:
168,325,42569,2,0,L|242:338,2,75,2|2|10,1:2|2:0|2:0,2:0:0:0:
99,252,43426,2,0,B|114:230|108:203,1,50,2|10,2:0|2:0,2:0:0:0:
141,164,43769,1,2,2:0:0:0:
141,164,43941,2,0,B|194:151|237:182,1,100,2|8,1:2|2:0,2:0:0:0:
338,179,44626,6,0,B|353:200|347:227,1,50,6|2,1:2|2:0,2:0:0:0:
395,245,44969,1,8,2:0:0:0:
395,245,45141,1,2,2:0:0:0:
395,245,45312,2,0,L|380:319,2,75,2|2|2,1:2|2:0|2:0,2:0:0:0:
434,215,45998,2,0,B|464:171|452:117,1,100,0|8,1:2|2:0,2:0:0:0:
453,68,46512,1,2,2:0:0:0:
453,68,46684,2,0,L|462:17,2,50,0|2|8,1:2|2:0|2:0,2:0:0:0:
353,78,47369,38,0,L|302:87,1,50,6|2,1:2|2:0,2:0:0:0:
290,136,47712,1,10,2:0:0:0:
290,136,47884,1,2,2:0:0:0:
290,136,48055,2,0,B|298:175|275:208,2,75,2|2|10,1:2|2:0|2:0,2:0:0:0:
190,133,48912,2,0,B|168:148|141:142,1,50,2|10,2:0|2:0,2:0:0:0:
105,178,49255,1,2,2:0:0:0:
105,178,49426,2,0,B|92:231|123:274,1,100,2|8,1:2|2:0,2:0:0:0:
216,315,50112,6,0,B|237:330|264:324,1,50,6|2,1:2|2:0,2:0:0:0:
314,322,50455,1,8,2:0:0:0:
314,322,50626,1,2,2:0:0:0:
314,322,50798,2,0,B|353:312|386:335,2,75,2|2|2,1:2|2:0|2:0,2:0:0:0:
304,222,51655,2,0,B|288:200|294:173,1,50,2|8,2:0|2:0,2:0:0:0:
329,138,51998,2,0,L|347:37,1,100,0|0,1:2|1:2,2:0:0:0:
394,19,52512,1,12,2:0:0:0:
489,50,52855,38,0,B|504:28|498:1,2,50,4|2|10,1:2|2:0|2:0,2:0:0:0:
487,99,53369,1,2,2:0:0:0:
487,99,53541,2,0,L|436:108,2,50,2|2|10,1:2|2:0|2:0,2:0:0:0:
512,143,54055,1,2,2:0:0:0:
453,224,54398,2,0,L|352:204,1,100,2|2,2:0|2:0,2:0:0:0:
304,196,54912,1,0,1:2:0:0:
304,196,55084,2,0,B|309:168|294:147,2,50,2|8|2,2:0|2:0|2:0,2:0:0:0:
214,241,55769,5,2,2:0:0:0:
214,241,55941,2,0,B|207:267|223:289,1,50,8|2,2:0|2:0,2:0:0:0:
251,331,56284,2,0,B|235:352|241:379,2,50,2|2|8,1:2|2:0|2:0,2:0:0:0:
301,326,56798,2,0,L|400:344,1,100,2|2,2:0|2:0,2:0:0:0:
434,308,57312,1,10,2:0:0:0:
492,227,57655,2,0,B|476:205|482:178,1,50,2|2,1:2|2:0,2:0:0:0:
472,131,57998,1,10,2:0:0:0:
374,111,58341,6,0,L|364:60,2,50,6|2|10,1:2|2:0|2:0,2:0:0:0:
342,149,58855,1,2,2:0:0:0:
342,149,59026,2,0,L|291:139,2,50,2|2|10,1:2|2:0|2:0,2:0:0:0:
348,199,59541,1,2,2:0:0:0:
307,290,59884,2,0,B|252:277|209:308,1,100,2|2,2:0|2:0,2:0:0:0:
164,326,60398,1,0,1:2:0:0:
164,326,60569,2,0,B|157:352|173:374,2,50,2|8|10,2:0|2:0|2:0,2:0:0:0:
122,297,61084,5,6,1:2:0:0:
138,198,61426,1,6,1:2:0:0:
236,177,61769,1,6,1:2:0:0:
236,177,61941,2,0,B|241:149|226:128,1,50,6|6,1:2|1:2,2:0:0:0:
227,129,63826,38,0,B|211:107|217:80,1,50,6|2,1:2|2:0,2:0:0:0:
173,58,64169,2,0,B|151:42|124:48,1,50,10|0,2:0|2:0,2:0:0:0:
77,59,64512,1,0,1:2:0:0:
32,148,64855,2,0,L|22:197,1,50,10|2,2:0|2:0,2:0:0:0:
21,247,65198,2,0,B|51:290|39:343,1,100,2|10,1:2|2:0,2:0:0:0:
75,380,65712,1,2,2:0:0:0:
75,380,65884,2,0,L|124:370,1,50,2|2,1:2|2:0,2:0:0:0:
171,350,66226,1,10,2:0:0:0:
229,269,66569,6,0,B|255:274|277:259,2,50,2|2|10,1:2|2:0|2:0,2:0:0:0:
189,238,67084,1,2,2:0:0:0:
189,238,67255,2,0,L|198:187,2,50,2|2|10,1:2|2:0|2:0,2:0:0:0:
89,240,67941,2,0,B|56:217|15:225,2,75,4|2|2,1:2|2:0|1:2,2:0:0:0:
84,290,68626,2,0,B|68:311|74:338,1,50,2|2,2:0|2:0,2:0:0:0:
110,376,68969,2,0,B|131:360|158:366,1,50,10|0,2:0|2:0,2:0:0:0:
206,350,69312,21,6,1:2:0:0:
260,266,69655,1,2,2:0:0:0:
202,185,69998,2,0,L|220:84,1,100,10|2,2:0|2:0,2:0:0:0:
232,36,70512,2,0,L|331:16,1,100,2|8,2:0|2:0,2:0:0:0:
360,57,71026,1,2,2:0:0:0:
362,157,71369,2,0,L|380:256,1,100,8|2,2:0|2:0,2:0:0:0:
392,306,71884,1,2,2:0:0:0:
392,306,72055,21,2,1:2:0:0:
314,369,72398,2,0,L|263:359,1,50,2|2,2:0|1:2,2:0:0:0:
240,317,72741,2,0,B|251:262|220:219,1,100,10|2,2:0|1:2,2:0:0:0:
241,123,73426,2,0,L|259:22,2,100,2|2|8,2:0|2:0|2:0,2:0:0:0:
142,143,74455,1,2,2:0:0:0:
46,171,74798,21,2,1:2:0:0:
11,265,75141,1,2,2:0:0:0:
79,337,75484,2,0,B|132:348|175:317,1,100,10|2,2:0|2:0,2:0:0:0:
210,282,75998,2,0,B|263:269|306:300,1,100,10|10,2:0|2:0,2:0:0:0:
333,343,76512,1,2,2:0:0:0:
432,331,76855,2,0,L|450:230,1,100,10|2,2:0|2:0,2:0:0:0:
439,183,77369,5,2,1:2:0:0:
439,183,77541,2,0,B|469:139|457:85,1,100,2|0,1:2|2:0,2:0:0:0:
360,109,78226,5,10,2:0:0:0:
331,18,78569,1,2,2:0:0:0:
331,18,78741,2,0,B|276:5|233:36,1,100,0|2,1:2|2:0,2:0:0:0:
190,61,79255,1,0,2:0:0:0:
90,51,79598,2,0,B|62:44|41:60,1,50,10|2,2:0|2:0,2:0:0:0:
4,93,79941,1,10,2:0:0:0:
4,93,80112,1,10,2:0:0:0:
4,93,80284,6,0,B|65:180|40:286,2,200,6|10|10,1:2|2:0|2:0,2:0:0:0:
4,93,82341,1,10,2:0:0:0:
100,35,82684,1,10,2:0:0:0:
100,35,82855,1,10,2:0:0:0:
100,35,83026,6,0,B|179:16|245:62,1,150,10|10,2:0|2:0,2:0:0:0:
261,111,83712,1,10,2:0:0:0:
391,183,84226,1,10,2:0:0:0:
391,183,84398,2,0,L|361:332,1,150,10|10,2:0|2:0,2:0:0:0:
326,367,85084,2,0,B|304:382|277:376,1,50,10|10,2:0|2:0,2:0:0:0:
241,343,85426,1,10,2:0:0:0:
264,246,85769,38,0,B|257:218|273:197,1,50,6|0,1:2|2:0,2:0:0:0:
258,151,86112,2,0,B|214:120|160:131,1,100,0|6,2:0|1:2,2:0:0:0:
104,214,86798,1,0,2:0:0:0:
112,314,87141,2,0,B|68:344|14:332,2,100,6|0|6,1:2|2:0|1:2,2:0:0:0:
162,320,87998,1,8,2:0:0:0:
162,320,88169,1,8,2:0:0:0:
261,335,88512,6,0,B|304:365|357:353,1,100,8|8,2:0|2:0,2:0:0:0:
408,357,89026,1,8,2:0:0:0:
408,357,89198,2,0,L|417:306,1,50,8|8,2:0|2:0,2:0:0:0:
447,266,89541,1,8,2:0:0:0:
447,266,89712,1,8,2:0:0:0:
447,266,89884,2,0,B|458:211|427:168,1,100,8|8,2:3|2:3,2:0:0:0:
354,103,90569,2,0,B|325:131|327:171,2,75,4|4|4,2:3|2:3|2:3,2:0:0:0:
335,53,91255,5,6,1:2:0:0:
236,34,91598,1,6,1:2:0:0:
180,117,91941,1,6,1:2:0:0:
234,200,92284,1,6,1:2:0:0:
188,289,92626,1,6,1:2:0:0:
249,367,92969,1,6,1:2:0:0:
345,339,93312,1,6,1:2:0:0:
171,345,99483,38,0,B|192:329|219:335,1,50,6|0,1:2|2:0,2:0:0:0:
247,294,99826,1,2,1:2:0:0:
212,200,100169,1,2,1:2:0:0:
239,104,100512,2,0,B|217:88|190:94,1,50,2|2,1:2|2:0,2:0:0:0:
146,115,100855,2,0,B|102:145|48:133,2,100,2|2|2,1:2|1:2|1:2,2:0:0:0:
117,20,101883,2,0,B|89:25|68:10,1,50,2|2,1:2|2:0,2:0:0:0:
19,9,102226,1,14,1:2:0:0:
256,192,102398,12,2,103598,2:0:0:0:
256,192,104969,38,0,B|249:164|265:143,1,50,6|2,1:2|2:0,2:0:0:0:
247,97,105312,1,10,2:0:0:0:
247,97,105483,1,2,1:2:0:0:
247,97,105655,2,0,B|206:105|173:82,2,75,2|2|6,1:2|1:2|1:2,2:0:0:0:
277,2,106512,2,0,L|326:11,1,50,2|10,2:0|2:0,2:0:0:0:
337,62,106855,1,2,2:0:0:0:
337,62,107026,2,0,L|355:161,1,100,2|8,1:2|2:0,2:0:0:0:
427,232,107712,6,0,B|411:253|417:280,1,50,6|2,1:2|2:0,2:0:0:0:
422,331,108055,1,8,2:0:0:0:
422,331,108226,1,2,2:0:0:0:
422,331,108398,2,0,L|496:344,2,75,2|2|2,1:2|2:0|2:0,2:0:0:0:
375,350,109083,2,0,L|274:368,1,100,0|8,1:2|2:0,2:0:0:0:
229,351,109598,1,2,2:0:0:0:
229,351,109769,2,0,L|178:360,2,50,0|2|8,1:2|2:0|2:0,2:0:0:0:
280,264,110455,38,0,L|289:213,1,50,6|2,1:2|2:0,2:0:0:0:
333,187,110798,1,10,2:0:0:0:
333,187,110969,1,2,2:0:0:0:
333,187,111140,2,0,B|341:146|318:113,2,75,2|2|10,1:2|2:0|2:0,2:0:0:0:
416,243,111998,2,0,B|437:258|464:252,1,50,2|10,2:0|2:0,2:0:0:0:
501,219,112340,1,2,2:0:0:0:
501,219,112512,2,0,B|512:164|483:118,1,100,2|8,1:2|2:0,2:0:0:0:
442,30,113198,6,0,L|391:39,1,50,6|2,1:2|2:0,2:0:0:0:
354,73,113540,1,8,2:0:0:0:
354,73,113712,1,2,2:0:0:0:
354,73,113883,2,0,L|278:58,2,75,2|2|2,1:2|2:0|2:0,2:0:0:0:
345,173,114740,2,0,B|323:188|296:182,1,50,2|8,2:0|2:0,2:0:0:0:
248,169,115083,2,0,B|204:138|150:149,1,100,0|0,1:2|1:2,2:0:0:0:
115,183,115598,1,12,2:0:0:0:
63,268,115940,38,0,B|35:261|14:277,2,50,4|2|10,1:2|2:0|2:0,2:0:0:0:
100,303,116455,1,2,2:0:0:0:
100,303,116626,2,0,B|93:329|109:351,2,50,2|2|10,1:2|2:0|2:0,2:0:0:0:
149,288,117140,1,2,2:0:0:0:
249,275,117483,2,0,B|292:305|345:293,1,100,2|2,2:0|2:0,2:0:0:0:
391,271,117998,1,0,1:2:0:0:
391,271,118169,2,0,B|412:255|439:261,2,50,2|8|2,2:0|2:0|2:0,2:0:0:0:
333,189,118855,5,2,2:0:0:0:
333,189,119026,2,0,B|317:167|323:140,1,50,8|2,2:0|2:0,2:0:0:0:
306,94,119369,2,0,L|255:84,2,50,2|2|8,1:2|2:0|2:0,2:0:0:0:
342,60,119883,2,0,B|395:47|438:78,1,100,2|2,2:0|2:0,2:0:0:0:
474,113,120398,1,10,2:0:0:0:
499,210,120740,2,0,B|504:236|489:258,1,50,2|2,1:2|2:0,2:0:0:0:
443,274,121083,1,10,2:0:0:0:
350,239,121426,6,0,B|334:260|340:287,2,50,6|2|10,1:2|2:0|2:0,2:0:0:0:
340,191,121940,1,2,2:0:0:0:
340,191,122112,2,0,L|289:181,2,50,2|2|10,1:2|2:0|2:0,2:0:0:0:
366,148,122626,1,2,2:0:0:0:
466,158,122969,2,0,L|484:257,1,100,2|2,2:0|2:0,2:0:0:0:
444,287,123483,1,0,1:2:0:0:
444,287,123655,2,0,B|459:308|453:335,2,50,2|8|10,2:0|2:0|2:0,2:0:0:0:
396,275,124169,5,6,1:2:0:0:
296,273,124512,1,6,1:2:0:0:
198,291,124855,1,6,1:2:0:0:
198,291,125026,2,0,B|203:263|188:242,1,50,6|6,1:2|1:2,2:0:0:0:
189,243,126912,38,0,B|194:215|179:194,1,50,6|2,1:2|2:0,2:0:0:0:
190,146,127255,2,0,L|180:95,1,50,10|0,2:0|2:0,2:0:0:0:
141,66,127598,1,0,1:2:0:0:
50,108,127940,2,0,B|55:134|40:156,1,50,10|2,2:0|2:0,2:0:0:0:
65,201,128283,2,0,B|52:254|83:297,1,100,2|10,1:2|2:0,2:0:0:0:
114,338,128798,1,2,2:0:0:0:
114,338,128969,2,0,B|140:331|162:347,1,50,2|2,1:2|2:0,2:0:0:0:
212,343,129312,1,10,2:0:0:0:
284,274,129655,22,0,B|310:279|332:264,2,50,2|2|10,1:2|2:0|2:0,2:0:0:0:
264,228,130169,1,2,2:0:0:0:
264,228,130340,2,0,L|213:218,2,50,2|2|10,1:2|2:0|2:0,2:0:0:0:
327,150,131026,2,0,L|426:130,2,100,4|2|2,1:2|2:0|1:2,2:0:0:0:
284,127,131883,1,2,1:2:0:0:
284,127,132055,2,0,L|233:117,1,50,10|2,2:0|2:0,2:0:0:0:
216,71,132398,22,0,B|194:55|167:61,1,50,6|2,1:2|2:0,2:0:0:0:
138,21,132740,2,0,B|110:14|89:30,1,50,10|0,2:0|2:0,2:0:0:0:
56,67,133083,1,0,1:2:0:0:
74,165,133426,2,0,B|52:180|25:174,1,50,10|2,2:0|2:0,2:0:0:0:
2,218,133769,2,0,B|-10:271|20:314,1,100,2|10,1:2|2:0,2:0:0:0:
63,341,134283,1,2,2:0:0:0:
63,341,134455,2,0,B|89:334|111:350,1,50,2|2,1:2|2:0,2:0:0:0:
151,321,134798,1,10,2:0:0:0:
247,294,135140,22,0,B|240:266|256:245,2,50,2|2|10,1:2|2:0|2:0,2:0:0:0:
289,321,135655,1,2,2:0:0:0:
289,321,135826,2,0,B|282:347|298:369,2,50,2|2|10,1:2|2:0|2:0,2:0:0:0:
338,307,136340,1,2,2:0:0:0:
338,307,136512,2,0,B|381:337|434:325,1,100,4|2,1:2|2:0,2:0:0:0:
498,249,137198,2,0,B|505:221|489:200,1,50,2|2,1:2|1:2,2:0:0:0:
470,167,137540,1,10,2:0:0:0:
470,167,137712,1,2,2:0:0:0:
470,167,137883,21,2,2:0:0:0:
