osu file format v14

[General]
AudioFilename: audio.mp3
AudioLeadIn: 0
PreviewTime: 41982
Countdown: 0
SampleSet: Soft
StackLeniency: 0.7
Mode: 0
LetterboxInBreaks: 0
WidescreenStoryboard: 1

[Editor]
Bookmarks: 11810,17296,28268,63925,69410,80382,91353,94096,99582,116039,127010,137982
DistanceSpacing: 0.7
BeatDivisor: 4
GridSize: 8
TimelineZoom: 1.999999

[Metadata]
Title:Ren'ai Heiki! Lethal Weapon-chan
TitleUnicode:恋愛兵器!りーさるうぇぽんちゃん
Artist::) feat. KAFU
ArtistUnicode:ت feat. KAFU
Creator:- akiira -
Version:Ayesha's Extra
Source:
Tags:vocaloid vocalsynth japanese pop j-pop jpop -_akiira_- -_asuuka_- Ayesha Altugle Shizuku- Kazato Asa Shikibe Mayu VP757 Rorupan L9 Lulu- Ducky- Lunicia 0ugi
BeatmapID:3784997
BeatmapSetID:1832014

[Difficulty]
HPDrainRate:5
CircleSize:4
OverallDifficulty:9.1
ApproachRate:9.4
SliderMultiplier:3.59999990463257
SliderTickRate:1

[Events]
//Background and Video events
0,0,"bg.jpeg",0,0
//Break Periods
2,62313,63286
2,94199,98943
2,125399,126372
//Storyboard Layer 0 (Background)
//Storyboard Layer 1 (Fail)
//Storyboard Layer 2 (Pass)
//Storyboard Layer 3 (Foreground)
//Storyboard Layer 4 (Overlay)
//Storyboard Sound Samples

[TimingPoints]
400,342.857142857143,4,2,1,40,1,0
742,342.857142857143,4,2,1,40,1,0
5542,-200,4,2,1,40,0,0
10342,-1000,4,2,1,40,0,0
11542,-125,4,2,1,40,0,0
11713,-100,4,2,1,80,0,0
17199,-200,4,2,2,60,0,0
26799,-200,4,2,1,60,0,0
28170,-500,4,2,1,40,0,0
33656,-200,4,2,1,40,0,0
36742,-200,4,2,1,50,0,0
37084,-200,4,2,1,60,0,0
37427,-200,4,2,1,70,0,0
37770,-200,4,2,1,80,0,0
38456,-142.857142857143,4,2,1,80,0,0
41884,342.857142857143,4,2,1,80,1,1
44969,-90.9090909090909,4,2,1,80,0,1
47369,-100,4,2,1,80,0,1
49084,-125,4,2,1,80,0,1
49426,-66.6666666666667,4,2,1,80,0,1
49769,-90.9090909090909,4,2,1,80,0,1
50455,-83.3333333333333,4,2,1,80,0,1
51141,-125,4,2,1,80,0,1
52169,-83.3333333333333,4,2,1,80,0,0
52855,-111.111111111111,4,2,1,80,0,0
56284,-76.9230769230769,4,2,1,80,0,0
56626,-111.111111111111,4,2,1,80,0,0
60055,-83.3333333333333,4,2,1,80,0,0
61084,-333.333333333333,4,2,1,80,0,0
63826,-100,4,2,1,80,0,0
69141,-142.857142857143,4,2,1,80,0,0
69312,-333.333333333334,4,2,1,60,0,0
72055,-166.666666666667,4,2,1,60,0,0
80284,-250.000000000001,4,2,1,40,0,0
85769,-166.666666666667,4,2,1,40,0,0
88512,-166.666666666667,4,2,1,50,0,0
88854,-166.666666666667,4,2,1,60,0,0
89198,-166.666666666667,4,2,1,70,0,0
89541,-166.666666666667,4,2,1,80,0,0
89884,-111.111111111111,4,2,1,80,0,0
90569,-142.857142857143,4,2,1,80,0,0
92626,-100,4,2,1,80,0,0
93998,342.857142857143,4,2,1,60,1,0
99483,-142.857142857143,4,2,1,60,0,0
99826,-500,4,2,1,60,0,0
100855,-333.333333333333,4,2,1,60,0,0
102055,-100,4,2,1,60,0,0
102226,-142.857142857143,4,2,1,60,0,0
104969,-166.666666666667,4,2,1,80,0,0
106169,-71.4285714285714,4,2,1,80,0,1
106683,-100,4,2,1,80,0,1
107026,-76.9230769230769,4,2,1,80,0,1
107369,-90.9090909090909,4,2,1,80,0,1
107712,-100,4,2,1,80,0,1
108055,-90.9090909090909,4,2,1,80,0,1
110455,-125,4,2,1,80,0,1
110798,-100,4,2,1,80,0,1
112169,-125,4,2,1,80,0,1
112512,-66.6666666666667,4,2,1,80,0,1
112855,-90.9090909090909,4,2,1,80,0,1
113540,-83.3333333333333,4,2,1,80,0,1
114226,-125,4,2,1,80,0,1
114398,-66.6666666666667,4,2,1,80,0,1
114740,-125,4,2,1,80,0,1
115598,-100,4,2,1,80,0,1
115940,-111.111111111111,4,2,1,80,0,0
121083,-83.3333333333333,4,2,1,80,0,0
121426,-111.111111111111,4,2,1,80,0,0
124169,-333.333333333333,4,2,1,80,0,0
126912,-100,4,2,1,80,0,0
133769,-125,4,2,1,80,0,0
134112,-100,4,2,1,80,0,0
135826,-125,4,2,1,80,0,0
137883,-125,4,2,1,40,0,0

[Colours]
Combo1 : 157,60,255
Combo2 : 0,255,255
Combo3 : 86,102,216
Combo4 : 255,128,192

[HitObjects]
449,34,742,5,2,2:0:0:0:
290,63,1256,1,0,2:0:0:0:
290,63,1427,1,0,2:0:0:0:
112,90,1770,1,0,2:0:0:0:
112,90,2284,1,0,2:0:0:0:
95,170,2456,1,0,2:0:0:0:
71,250,2627,1,0,2:0:0:0:
61,254,2713,1,0,2:0:0:0:
52,255,2799,1,0,2:0:0:0:
0,181,3142,5,0,2:0:0:0:
125,153,3313,1,0,2:0:0:0:
202,247,3484,1,2,2:0:0:0:
202,247,3999,1,0,2:0:0:0:
295,279,4170,1,0,2:0:0:0:
295,279,4342,37,0,2:0:0:0:
336,194,4513,1,0,2:0:0:0:
424,175,4684,1,0,2:0:0:0:
499,207,4856,5,0,2:0:0:0:
506,226,5027,1,0,2:0:0:0:
366,302,5199,37,0,2:0:0:0:
336,194,5370,1,0,2:0:0:0:
444,50,5542,6,0,B|459:76|459:76|427:175,2,134.999996423721,0|0|0,2:0|2:0|2:0,2:0:0:0:
441,41,6142,1,0,2:0:0:0:
432,32,6227,2,0,B|407:62|407:62|302:73|302:73|276:104,1,179.999995231629,2|0,1:2|2:0,2:0:0:0:
188,45,6742,1,0,2:0:0:0:
137,124,6913,1,0,2:0:0:0:
137,124,6999,1,0,2:0:0:0:
449,284,7256,37,0,2:0:0:0:
346,199,7427,1,0,1:2:0:0:
311,336,7599,1,0,1:2:0:0:
209,272,7770,1,0,2:0:0:0:
145,344,7942,1,0,2:0:0:0:
54,309,8113,1,0,2:0:0:0:
54,309,8284,1,0,2:0:0:0:
0,384,8627,5,0,2:0:0:0:
126,262,8799,1,0,1:2:0:0:
70,98,8970,1,2,1:2:0:0:
70,98,9313,37,0,2:0:0:0:
38,198,9484,1,0,1:2:0:0:
126,262,9656,1,0,1:2:0:0:
126,262,9999,5,0,2:0:0:0:
212,242,10170,1,0,1:2:0:0:
288,320,10342,38,0,L|296:282,2,35.9999990463257,0|0|0,2:0|2:0|2:0,2:0:0:0:
352,368,11199,1,0,2:0:0:0:
432,288,11370,5,2,2:0:0:0:
432,288,11456,1,0,2:0:0:0:
432,288,11542,2,0,L|396:297,2,35.9999990463257,0|0|0,2:0|2:0|2:0,2:0:0:0:
436,384,11713,6,0,B|196:337|196:337|148:361,1,269.999992847443,6|2,1:2|2:0,2:0:0:0:
97,379,12056,2,0,B|74:362|74:362|61:296,1,89.9999976158143,10|0,2:0|2:0,2:0:0:0:
104,227,12227,1,0,2:0:0:0:
53,6,12399,22,0,B|16:139|16:139|50:190,1,179.999995231629,0|2,1:2|2:0,2:0:0:0:
200,115,12656,1,2,2:0:0:0:
192,106,12742,2,0,B|175:94|175:94|87:119,1,89.9999976158143,10|0,2:0|2:0,2:0:0:0:
330,35,12913,22,0,B|351:63|351:63|502:88,2,179.999995231629,2|2|2,2:0|1:2|2:0,2:0:0:0:
330,35,13427,1,10,2:0:0:0:
363,61,13513,1,0,2:0:0:0:
377,102,13599,1,2,2:0:0:0:
415,207,13770,21,2,1:2:0:0:
368,198,13856,1,0,2:0:0:0:
320,207,13942,1,2,2:0:0:0:
283,231,14027,1,0,2:0:0:0:
256,275,14113,2,0,B|270:289|270:289|256:358,1,89.9999976158143,10|2,2:0|2:0,2:0:0:0:
174,384,14284,2,0,B|113:320|113:320|9:362,1,179.999995231629,2|2,2:0|1:2,2:0:0:0:
256,357,14627,21,2,2:0:0:0:
294,328,14713,1,0,2:0:0:0:
336,344,14799,1,10,2:0:0:0:
505,256,14970,21,2,2:0:0:0:
433,275,15056,1,2,2:0:0:0:
370,234,15142,2,0,B|343:102|343:102|364:57,1,179.999995231629,2|2,1:2|2:0,2:0:0:0:
512,92,15399,1,2,2:0:0:0:
512,92,15484,2,0,B|504:105|504:105|416:119,1,89.9999976158143,10|0,2:0|2:0,2:0:0:0:
295,142,15656,2,0,B|236:117|236:117|226:88,1,89.9999976158143,2|0,2:0|2:0,2:0:0:0:
280,26,15827,21,4,1:2:0:0:
197,185,15999,1,10,2:0:0:0:
226,218,16084,1,2,2:0:0:0:
212,263,16170,2,0,B|169:278|169:278|157:339,1,89.9999976158143,2|0,2:0|2:0,2:0:0:0:
212,384,16342,2,0,B|255:369|255:369|267:308,1,89.9999976158143,2|0,1:2|2:0,2:0:0:0:
354,227,16513,1,2,1:2:0:0:
377,180,16599,1,2,2:0:0:0:
421,166,16684,1,2,1:2:0:0:
364,163,16770,1,2,1:2:0:0:
330,133,16856,1,10,2:0:0:0:
324,96,16942,1,2,2:0:0:0:
336,63,17027,1,2,2:0:0:0:
376,53,17113,1,2,2:0:0:0:
398,92,17199,38,0,P|307:102|218:124,2,179.999995231629,6|2|10,1:2|2:0|2:0,2:0:0:0:
158,27,18227,1,2,2:0:0:0:
102,80,18399,1,2,2:0:0:0:
31,58,18570,1,2,1:2:0:0:
7,191,18913,21,2,2:0:0:0:
86,170,19084,1,2,2:0:0:0:
138,233,19256,1,10,2:0:0:0:
86,170,19427,1,2,2:0:0:0:
113,84,19599,1,2,2:0:0:0:
197,54,19770,1,2,2:0:0:0:
281,104,19942,22,0,P|370:93|456:67,1,179.999995231629,2|2,1:2|2:0,2:0:0:0:
505,134,20456,1,2,2:0:0:0:
431,177,20627,2,0,P|386:182|343:195,1,89.9999976158143,10|2,2:0|2:0,2:0:0:0:
281,247,20970,1,2,2:0:0:0:
206,220,21142,1,2,2:0:0:0:
177,141,21313,22,0,P|189:97|196:53,1,89.9999976158143,2|2,1:2|2:0,2:0:0:0:
206,220,21656,2,0,P|121:234|25:287,2,179.999995231629,2|10|0,2:0|2:0|2:0,2:0:0:0:
283,188,22513,1,0,2:0:0:0:
319,261,22684,1,2,1:2:0:0:
413,16,23027,1,2,2:0:0:0:
319,261,23370,21,10,2:0:0:0:
401,282,23542,1,2,2:0:0:0:
467,233,23713,1,2,2:0:0:0:
458,152,23884,2,0,B|367:120|290:186,1,179.999995231629,2|2,2:0|2:0,2:0:0:0:
290,186,24399,1,2,2:0:0:0:
26,69,24742,21,10,2:0:0:0:
86,25,24913,1,2,2:0:0:0:
161,17,25084,1,2,2:0:0:0:
230,51,25256,1,2,2:0:0:0:
256,124,25427,22,0,P|229:204|211:299,1,179.999995231629,2|0,1:2|2:0,2:0:0:0:
255,374,25942,1,2,2:0:0:0:
329,329,26113,2,0,P|371:314|420:310,1,89.9999976158143,10|2,2:0|2:0,2:0:0:0:
191,221,26456,21,2,2:0:0:0:
124,271,26627,2,0,P|89:187|95:100,1,179.999995231629,2|2,2:0|2:0,2:0:0:0:
172,38,27142,2,0,L|295:65,1,89.9999976158143,0|0,1:2|1:2,2:0:0:0:
414,174,27484,5,10,2:0:0:0:
414,174,27570,1,0,1:2:0:0:
414,174,27656,1,2,1:2:0:0:
485,24,27827,1,2,1:2:0:0:
292,158,27999,1,2,1:2:0:0:
496,288,28170,6,0,B|352:259|374:384|215:351,3,287.999992370606,6|2|2|2,2:0|2:0|2:0|2:0,2:0:0:0:
256,192,32370,12,0,33484,2:0:0:0:
410,363,33656,38,0,B|436:337|436:337|426:284,1,89.9999976158143,2|2,1:2|2:0,2:0:0:0:
347,280,33999,2,0,B|321:306|321:306|330:358,1,89.9999976158143,2|2,2:0|1:2,2:0:0:0:
481,177,34342,6,0,B|374:154|427:215|307:191,1,179.999995231629,2|2,2:0|2:0,2:0:0:0:
307,191,34856,1,2,1:2:0:0:
261,90,35027,2,0,P|275:49|284:4,1,89.9999976158143,2|0,1:2|2:0,2:0:0:0:
248,272,35370,2,0,P|192:277|118:302,1,134.999996423721,2|0,2:0|2:0,2:0:0:0:
117,302,35713,2,0,P|96:298|75:290,1,44.9999988079071,2|0,1:2|2:0,2:0:0:0:
32,219,35884,2,0,P|36:197|44:176,1,44.9999988079071,2|0,2:0|2:0,2:0:0:0:
112,128,36056,2,0,P|133:132|154:140,1,44.9999988079071,2|0,2:0|2:0,2:0:0:0:
197,211,36227,2,0,P|192:232|184:253,1,44.9999988079071,2|0,2:0|2:0,2:0:0:0:
259,362,36399,37,8,2:0:0:0:
275,357,36484,1,8,2:0:0:0:
288,353,36570,1,10,2:0:0:0:
300,351,36656,1,8,2:0:0:0:
336,329,36742,6,0,L|342:304,1,22.4999994039536,8|8,2:0|2:0,2:0:0:0:
341,335,36827,2,0,L|347:310,1,22.4999994039536,8|8,2:0|2:0,2:0:0:0:
349,337,36913,2,0,L|355:312,1,22.4999994039536,10|8,2:0|2:0,2:0:0:0:
354,343,36999,2,0,L|360:318,1,22.4999994039536,8|0,2:0|2:0,2:0:0:0:
400,352,37084,38,0,L|406:377,1,22.4999994039536,10|8,2:0|2:0,2:0:0:0:
405,346,37170,2,0,L|411:371,1,22.4999994039536,8|8,2:0|2:0,2:0:0:0:
413,344,37256,2,0,L|419:369,1,22.4999994039536,10|8,2:0|2:0,2:0:0:0:
418,338,37342,2,0,L|424:363,1,22.4999994039536,8|0,2:0|2:0,2:0:0:0:
448,368,37427,5,10,2:0:0:0:
449,336,37513,1,8,2:0:0:0:
457,305,37599,1,10,2:0:0:0:
466,274,37684,1,8,2:0:0:0:
485,249,37770,38,0,P|499:246|513:238,2,29.9999992052714,8|8|8,2:3|2:3|2:3,2:0:0:0:
414,212,37999,1,8,2:3:0:0:
399,134,38113,1,8,2:3:0:0:
341,80,38227,1,8,2:3:0:0:
264,60,38342,1,8,2:3:0:0:
189,87,38456,6,0,B|147:97|125:131|125:131|75:145|38:113,2,167.99999554952,4|4|4,2:3|2:3|2:3,2:0:0:0:
264,60,39142,6,0,L|270:25,1,31.4999991655349,6|0,1:2|2:0,2:0:0:0:
248,324,39484,2,0,L|242:359,1,31.4999991655349,6|0,1:2|2:0,2:0:0:0:
145,119,39827,6,0,L|118:96,1,31.4999991655349,6|0,1:2|2:0,2:0:0:0:
366,264,40170,2,0,L|393:287,1,31.4999991655349,6|0,1:2|2:0,2:0:0:0:
137,251,40513,6,0,L|104:263,1,31.4999991655349,6|0,1:2|2:0,2:0:0:0:
374,132,40856,2,0,L|407:120,1,31.4999991655349,6|0,1:2|2:0,2:0:0:0:
121,98,41199,6,0,L|145:119,1,31.4999991655349,6|0,1:2|2:0,2:0:0:0:
253,201,41370,5,2,2:0:0:0:
256,192,41542,1,2,2:0:0:0:
259,183,41713,1,2,2:0:0:0:
264,8,41884,22,0,B|250:40|250:40|265:92,1,89.9999976158143,6|0,1:2|2:0,2:0:0:0:
260,267,42055,2,0,B|274:235|274:235|258:182,1,89.9999976158143,2|0,2:0|2:0,2:0:0:0:
415,119,42226,22,0,P|372:132|327:141,1,89.9999976158143,10|0,2:0|2:0,2:0:0:0:
96,253,42398,2,0,P|138:239|183:230,1,89.9999976158143,2|0,2:0|2:0,2:0:0:0:
490,336,42569,22,0,B|465:367|465:367|402:333|327:342,1,179.999995231629,2|0,1:2|2:0,2:0:0:0:
257,384,42826,1,2,2:0:0:0:
251,378,42912,2,0,B|231:360|231:360|250:289,1,89.9999976158143,8|0,2:0|2:0,2:0:0:0:
452,238,43084,22,0,B|410:275|413:319|413:319|400:277|351:262,2,179.999995231629,10|2|2,2:0|1:2|2:0,2:0:0:0:
390,186,43512,1,0,2:0:0:0:
390,186,43598,2,0,B|398:148|398:148|400:147|400:147|399:143|399:143|411:88,1,89.9999976158143,10|0,2:0|2:0,2:0:0:0:
346,0,43769,2,0,B|338:38|338:38|336:39|336:39|337:43|337:43|325:98,1,89.9999976158143,2|0,2:0|2:0,2:0:0:0:
480,144,43941,22,0,L|286:175,1,179.999995231629,2|0,1:2|2:0,2:0:0:0:
201,81,44198,21,2,2:0:0:0:
261,22,44284,2,0,B|237:140|237:140|234:140|234:140|206:299,1,269.999992847443,8|0,2:0|2:0,2:0:0:0:
209,285,44626,2,0,B|235:285|249:302|249:302|246:283|257:259,1,89.9999976158143,6|0,1:2|2:0,2:0:0:0:
350,145,44798,2,0,B|324:145|310:128|310:128|313:147|302:171,1,89.9999976158143,2|0,2:0|2:0,2:0:0:0:
257,258,44969,38,0,B|270:285|270:285|337:297,1,98.9999973773957,8|0,2:0|2:0,2:0:0:0:
382,211,45141,2,0,B|369:184|369:184|301:171,1,98.9999973773957,2|0,2:0|2:0,2:0:0:0:
93,363,45312,22,0,B|74:272|74:272|63:265|63:265|45:165,1,197.999994754791,2|0,1:2|2:0,2:0:0:0:
131,0,45569,1,2,2:0:0:0:
183,52,45655,2,0,B|156:93|156:93|87:67,1,98.9999973773957,8|0,2:0|2:0,2:0:0:0:
301,171,45826,22,0,B|399:195|399:195|476:130,2,197.999994754791,2|0|2,2:0|1:2|2:0,2:0:0:0:
374,102,46255,1,0,2:0:0:0:
374,102,46341,2,0,B|394:138|394:138|323:331,1,197.999994754791,8|2,2:0|2:0,2:0:0:0:
402,384,46598,1,0,2:0:0:0:
417,379,46684,2,0,B|440:360|440:360|426:288,1,98.9999973773957,0|0,1:2|2:0,2:0:0:0:
481,138,46855,2,0,B|504:157|504:157|490:229,1,98.9999973773957,2|0,2:0|2:0,2:0:0:0:
195,276,47026,21,8,2:0:0:0:
142,248,47112,1,0,2:0:0:0:
126,196,47198,1,2,2:0:0:0:
146,153,47284,1,0,2:0:0:0:
103,87,47369,6,0,B|88:72|88:72|21:90,1,89.9999976158143,6|0,1:2|2:0,2:0:0:0:
44,200,47541,2,0,B|59:215|59:215|125:196,1,89.9999976158143,2|0,2:0|2:0,2:0:0:0:
195,276,47712,22,0,P|205:224|218:182,1,89.9999976158143,10|0,2:0|2:0,2:0:0:0:
123,0,47884,2,0,P|115:43|103:87,1,89.9999976158143,2|0,2:0|2:0,2:0:0:0:
280,120,48055,22,0,B|363:105|363:105|367:99|367:99|478:79,1,179.999995231629,2|0,1:2|2:0,2:0:0:0:
454,83,48312,1,2,2:0:0:0:
454,83,48398,2,0,P|459:44|420:0,1,89.9999976158143,8|0,2:0|2:0,2:0:0:0:
511,286,48569,22,0,P|423:307|402:396,2,179.999995231629,10|2|2,2:0|1:2|2:0,2:0:0:0:
435,213,48998,1,0,2:0:0:0:
435,213,49084,2,0,P|419:183|420:143,1,71.9999980926514,10|0,2:0|2:0,2:0:0:0:
495,128,49255,2,0,P|510:157|509:197,1,71.9999980926514,2|0,2:0|2:0,2:0:0:0:
481,361,49426,22,0,B|400:387|363:324|369:310|375:300|326:245|248:276,1,269.999992847443,2|0,1:2|2:0,2:0:0:0:
208,341,49684,1,2,2:0:0:0:
272,384,49769,2,0,B|295:357|295:357|246:141|246:141|283:108,1,296.999992132187,8|0,2:0|2:0,2:0:0:0:
371,117,50112,6,0,B|350:137|350:137|266:118,1,98.9999973773957,6|0,1:2|2:0,2:0:0:0:
238,49,50284,2,0,B|259:29|259:29|343:48,1,98.9999973773957,2|0,2:0|2:0,2:0:0:0:
298,219,50455,22,0,P|289:165|274:113,1,107.999997138977,8|0,2:0|2:0,2:0:0:0:
355,9,50626,2,0,P|363:62|378:114,1,107.999997138977,2|0,2:0|2:0,2:0:0:0:
392,238,50798,22,0,P|287:209|180:196,1,215.999994277954,2|0,1:2|2:0,2:0:0:0:
123,249,51055,1,2,2:0:0:0:
123,249,51141,2,0,P|106:224|108:180,1,71.9999980926514,8|0,2:0|2:0,2:0:0:0:
327,44,51312,22,0,P|302:111|288:182,1,143.999996185303,2|4,2:0|1:2,2:0:0:0:
288,182,51655,22,0,B|313:175|312:175|312:175|371:190,1,71.9999980926514,2|0,2:0|2:0,2:0:0:0:
435,55,51826,2,0,B|428:79|429:79|429:79|386:122,1,71.9999980926514,8|0,2:0|2:0,2:0:0:0:
471,245,51998,2,0,B|452:227|453:228|453:228|436:169,1,71.9999980926514,0|0,1:2|2:0,2:0:0:0:
327,44,52169,22,0,B|360:78|360:78|323:242,1,215.999994277954,0|0,1:2|1:2,2:0:0:0:
323,242,52426,1,0,1:2:0:0:
437,276,52512,22,0,B|287:295|287:295|276:309|276:309|122:330,1,323.999991416931,12|0,2:0|2:0,2:0:0:0:
122,329,52855,38,0,B|142:296|142:296|133:248,1,80.9999978542329,4|0,1:2|2:0,2:0:0:0:
54,238,53026,2,0,B|34:271|34:271|43:319,1,80.9999978542329,2|0,2:0|2:0,2:0:0:0:
122,329,53198,22,0,B|144:296|144:296|139:248,1,80.9999978542329,10|0,2:0|2:0,2:0:0:0:
61,231,53369,2,0,B|38:263|38:263|43:311,1,80.9999978542329,2|0,2:0|2:0,2:0:0:0:
122,329,53541,22,0,B|147:298|147:298|146:250,1,80.9999978542329,2|0,1:2|2:0,2:0:0:0:
70,226,53712,2,0,B|44:256|44:256|45:304,1,80.9999978542329,2|0,2:0|2:0,2:0:0:0:
121,327,53884,38,0,B|148:299|148:299|152:250,1,80.9999978542329,10|0,2:0|2:0,2:0:0:0:
13,122,54055,2,0,B|91:133|91:133|163:83,1,161.999995708466,2|0,2:0|1:2,2:0:0:0:
159,85,54398,6,0,B|193:97|193:97|210:142,1,80.9999978542329,2|0,2:0|2:0,2:0:0:0:
297,39,54569,1,8,2:0:0:0:
297,39,54741,2,0,B|278:70|278:70|294:115,1,80.9999978542329,2|0,2:0|2:0,2:0:0:0:
211,9,54912,1,0,1:0:0:0:
169,211,55084,6,0,P|130:221|90:230,1,80.9999978542329,2|0,2:0|2:0,2:0:0:0:
124,380,55255,2,0,P|133:340|146:302,1,80.9999978542329,8|0,2:0|2:0,2:0:0:0:
0,256,55426,2,0,P|29:284|55:314,1,80.9999978542329,2|0,2:0|2:0,2:0:0:0:
222,366,55598,38,0,P|241:287|267:210,1,161.999995708466,0|2,1:2|2:0,2:0:0:0:
267,210,55855,1,0,2:0:0:0:
267,210,55941,2,0,P|266:252|293:292,1,80.9999978542329,8|0,2:0|2:0,2:0:0:0:
363,268,56112,2,0,P|364:226|337:186,1,80.9999978542329,2|0,2:0|2:0,2:0:0:0:
512,0,56284,6,0,P|500:116|391:118,1,233.999993801117,2|2,1:2|2:0,2:0:0:0:
401,125,56541,1,0,2:0:0:0:
401,125,56626,2,0,P|427:162|428:213,1,80.9999978542329,8|0,2:0|2:0,2:0:0:0:
285,285,56798,2,0,P|241:218|248:139,2,161.999995708466,2|0|2,2:0|1:2|2:0,2:0:0:0:
363,268,57226,1,0,2:0:0:0:
423,322,57312,2,0,P|458:312|502:304,1,80.9999978542329,10|0,2:0|2:0,2:0:0:0:
471,165,57484,2,0,P|436:175|392:183,1,80.9999978542329,2|0,2:0|2:0,2:0:0:0:
363,268,57655,5,2,1:2:0:0:
224,80,57826,2,0,B|183:89|183:89|216:69,1,80.9999978542329,2|0,2:0|2:0,2:0:0:0:
272,0,57998,22,0,L|217:258,1,242.999993562699,10|0,2:0|2:0,2:0:0:0:
296,365,58341,22,0,P|335:355|375:349,1,80.9999978542329,6|0,1:2|2:0,2:0:0:0:
465,369,58512,2,0,P|454:329|448:289,1,80.9999978542329,2|0,2:0|2:0,2:0:0:0:
283,284,58684,22,0,P|322:273|362:267,1,80.9999978542329,10|0,2:0|2:0,2:0:0:0:
462,281,58855,2,0,P|451:241|445:201,1,80.9999978542329,2|0,2:0|2:0,2:0:0:0:
269,199,59026,22,0,P|308:188|348:182,1,80.9999978542329,2|0,1:2|2:0,2:0:0:0:
414,118,59198,2,0,P|454:112|494:102,1,80.9999978542329,2|0,2:0|2:0,2:0:0:0:
332,93,59369,2,0,P|293:104|253:110,1,80.9999978542329,10|0,2:0|2:0,2:0:0:0:
379,23,59541,6,0,P|360:97|347:186,1,161.999995708466,2|0,2:0|1:2,2:0:0:0:
256,352,59884,2,0,B|277:377|277:377|263:323,1,80.9999978542329,2|0,2:0|2:0,2:0:0:0:
160,334,60055,6,0,L|433:371,2,215.999994277954,8|2|0,2:0|2:0|1:2,2:0:0:0:
79,90,60569,6,0,B|54:43|54:43|77:135,1,107.999997138977,2|0,2:0|2:0,2:0:0:0:
0,192,60741,5,8,2:0:0:0:
57,182,60826,1,8,2:0:0:0:
101,216,60912,1,10,2:0:0:0:
159,210,60998,1,8,2:0:0:0:
195,250,61084,6,0,P|236:244|273:231,1,80.9999978542329,6|0,1:2|2:0,2:0:0:0:
494,292,61426,2,0,P|453:298|416:311,1,80.9999978542329,6|0,1:2|2:0,2:0:0:0:
324,359,61769,5,6,1:2:0:0:
368,195,61941,1,6,1:2:0:0:
405,45,62112,1,6,1:2:0:0:
494,292,63826,22,0,B|288:350|288:350|236:293,1,269.999992847443,6|2,1:2|2:0,2:0:0:0:
304,176,64169,2,0,B|330:199|330:199|308:281,1,89.9999976158143,10|0,2:0|2:0,2:0:0:0:
383,383,64341,5,0,2:0:0:0:
383,383,64426,1,0,2:0:0:0:
383,383,64512,2,0,B|272:309|272:309|126:359,1,269.999992847443,0|2,1:2|2:0,2:0:0:0:
69,384,64855,2,0,B|53:369|53:369|73:295,1,89.9999976158143,10|0,2:0|2:0,2:0:0:0:
173,99,65026,22,0,B|130:242|130:242|171:283,2,179.999995231629,2|2|2,2:0|1:2|2:0,2:0:0:0:
135,18,65455,1,0,2:0:0:0:
135,18,65541,2,0,B|97:42|97:42|39:29,1,89.9999976158143,10|0,2:0|2:0,2:0:0:0:
19,147,65712,21,2,2:0:0:0:
19,147,65798,1,2,2:0:0:0:
19,147,65884,2,0,B|41:118|41:118|223:164|223:164|259:117,1,269.999992847443,2|0,1:2|2:0,2:0:0:0:
282,57,66226,2,0,B|282:9|282:9|272:57,1,89.9999976158143,10|2,2:0|2:0,2:0:0:0:
401,179,66398,21,2,2:0:0:0:
430,207,66484,1,0,2:0:0:0:
465,198,66569,2,0,B|380:172|380:172|313:254,1,179.999995231629,2|2,1:2|2:0,2:0:0:0:
322,242,66826,1,0,2:0:0:0:
322,242,66912,2,0,B|283:228|283:228|268:176,1,89.9999976158143,10|2,2:0|2:0,2:0:0:0:
196,12,67084,5,2,2:0:0:0:
196,12,67169,1,2,2:0:0:0:
196,12,67255,2,0,L|158:189,1,179.999995231629,2|2,1:2|2:0,2:0:0:0:
11,227,67512,1,2,2:0:0:0:
16,219,67598,2,0,B|41:181|41:181|85:217,1,89.9999976158143,10|0,2:0|2:0,2:0:0:0:
278,68,67769,5,2,2:0:0:0:
278,68,67855,1,0,2:0:0:0:
278,68,67941,2,0,L|61:105,1,179.999995231629,4|2,1:2|2:0,2:0:0:0:
43,54,68198,1,2,2:0:0:0:
43,54,68284,2,0,L|52:8,2,44.9999988079071,2|0|0,2:0|2:0|2:0,2:0:0:0:
11,227,68455,21,2,1:2:0:0:
11,227,68541,1,0,2:0:0:0:
11,227,68626,2,0,L|2:273,2,44.9999988079071,2|0|2,2:0|2:0|2:0,2:0:0:0:
30,140,68798,1,2,2:0:0:0:
66,131,68884,1,2,2:0:0:0:
103,137,68969,1,10,2:0:0:0:
137,155,69055,1,0,2:0:0:0:
156,188,69141,6,0,L|217:175,1,62.9999983310699,0|0,2:0|2:0,2:0:0:0:
424,122,69312,6,0,B|380:95|380:30|380:30|316:32|288:78,1,215.999994277954,6|10,1:2|2:0,2:0:0:0:
319,367,70855,21,8,2:0:0:0:
401,340,71026,2,0,P|410:288|433:237,1,107.999997138977,2|8,2:0|2:0,2:0:0:0:
390,170,71541,1,2,2:0:0:0:
311,157,71712,1,2,2:0:0:0:
246,200,71884,1,2,2:0:0:0:
16,172,72055,22,0,B|69:103|57:14|57:14|75:102|150:141,1,323.999991416931,2|2,1:2|1:2,2:0:0:0:
96,208,72741,1,10,2:0:0:0:
295,45,73084,21,2,1:2:0:0:
295,45,73255,2,0,B|383:54|383:54|421:117,1,161.999995708465,2|0,1:2|2:0,2:0:0:0:
420,116,73598,1,8,2:0:0:0:
503,65,73769,6,0,B|416:87|416:87|397:121|397:121|276:147,2,215.999994277954,2|8|2,2:0|2:0|2:0,2:0:0:0:
248,24,74626,5,0,1:2:0:0:
248,24,74712,1,0,1:2:0:0:
248,24,74798,2,0,B|296:41|296:41|234:356,1,323.999991416931,2|0,1:2|1:2,2:0:0:0:
312,355,75484,2,0,B|398:298|398:298|507:341,1,215.999994277954,10|2,2:0|2:0,2:0:0:0:
409,384,75998,1,10,2:0:0:0:
150,290,76341,21,10,2:0:0:0:
133,384,76512,2,0,B|114:353|77:348|77:348|46:207|80:347|50:202,1,215.999994277954,2|10,2:0|2:0,2:0:0:0:
135,161,77026,1,2,2:0:0:0:
83,0,77198,2,0,B|104:22|104:22|83:108,1,107.999997138977,2|2,2:0|1:2,2:0:0:0:
50,203,77541,6,0,B|13:284|13:284|251:236,1,323.999991416931,2|0,1:2|1:2,2:0:0:0:
283,306,78226,2,0,B|264:330|266:356|266:356|258:332|225:322,1,107.999997138977,10|0,2:0|2:0,2:0:0:0:
452,263,78569,6,0,L|441:318,1,53.9999985694884,2|0,2:0|2:0,2:0:0:0:
438,384,78741,2,0,L|448:331,1,53.9999985694884,0|0,1:2|2:0,2:0:0:0:
363,246,78912,1,0,1:2:0:0:
499,122,79084,22,0,P|464:219|364:246,1,215.999994277954,2|0,2:0|2:0,2:0:0:0:
266,344,79598,1,10,2:0:0:0:
182,308,79769,1,2,2:0:0:0:
182,308,79855,1,0,2:0:0:0:
182,308,79941,2,0,B|133:296|133:296|74:336,1,107.999997138977,10|10,2:0|2:0,2:0:0:0:
85,328,80198,1,8,2:0:0:0:
26,384,80284,38,0,L|65:171,1,215.999994277953,6|0,1:2|2:0,2:0:0:0:
96,40,80969,2,0,B|37:14|37:14|62:99,1,143.999996185302,10|0,2:0|2:0,2:0:0:0:
182,308,81655,6,0,L|398:273,1,215.999994277953,10|0,2:0|2:0,2:0:0:0:
454,330,82341,2,0,B|432:357|432:357|301:335,1,143.999996185302,10|10,2:0|2:0,2:0:0:0:
324,338,82855,1,10,2:0:0:0:
243,384,83026,38,0,L|207:158,1,215.999994277953,10|10,2:0|2:0,2:0:0:0:
316,115,83712,2,0,B|378:150|378:150|451:132,1,143.999996185302,10|0,2:0|2:0,2:0:0:0:
448,132,84226,1,10,2:0:0:0:
279,25,84398,6,0,B|220:36|220:36|207:50|207:50|121:64,1,143.999996185302,10|0,2:0|2:0,2:0:0:0:
57,40,84912,1,10,2:0:0:0:
168,150,85084,37,10,2:0:0:0:
74,125,85255,1,10,2:0:0:0:
0,185,85426,1,10,2:0:0:0:
94,210,85598,1,0,1:2:0:0:
288,104,85769,6,0,B|340:50|406:105|382:161|382:161|363:211|415:270|480:224,1,323.999991416931,6|0,1:2|2:0,2:0:0:0:
480,223,86455,1,6,1:2:0:0:
299,200,86969,37,0,2:0:0:0:
299,200,87141,2,0,B|366:185|366:185|323:369|323:369|391:356,1,323.999991416931,6|0,1:2|2:0,2:0:0:0:
443,253,87826,2,0,B|343:269|343:269|336:285|336:285|217:305,1,215.999994277954,6|8,1:2|2:0,2:0:0:0:
236,308,88255,1,8,2:0:0:0:
230,314,88341,2,0,B|218:334|218:334|225:384,1,53.9999985694884,8|8,2:0|2:0,2:0:0:0:
288,80,88512,5,8,2:0:0:0:
288,80,88726,2,0,L|296:47,9,26.9999992847442,8|8|0|8|8|8|8|8|8|8,2:0|2:0|2:0|2:0|2:0|2:0|2:0|2:0|2:0|2:0,2:0:0:0:
432,176,89198,38,0,L|459:171,1,26.9999992847442,8|8,2:0|2:0,2:0:0:0:
429,169,89284,2,0,L|449:151,1,26.9999992847442,8|8,2:0|2:0,2:0:0:0:
422,164,89369,2,0,L|431:138,1,26.9999992847442,8|8,2:0|2:0,2:0:0:0:
414,163,89455,2,0,L|409:135,1,26.9999992847442,8|0,2:0|2:0,2:0:0:0:
375,188,89541,6,0,L|392:209,1,26.9999992847442,8|8,2:0|2:0,2:0:0:0:
368,191,89626,2,0,L|372:218,1,26.9999992847442,8|8,2:0|2:0,2:0:0:0:
359,190,89712,2,0,L|349:215,1,26.9999992847442,8|8,2:0|2:0,2:0:0:0:
352,186,89798,2,0,L|330:203,1,26.9999992847442,8|0,2:0|2:0,2:0:0:0:
335,164,89884,38,0,P|332:138|323:112,2,53.9999985694886,8|8|8,2:3|2:3|2:3,2:0:0:0:
271,214,90112,1,8,2:3:0:0:
197,185,90226,1,8,2:3:0:0:
194,265,90341,1,8,2:3:0:0:
136,319,90455,1,8,2:3:0:0:
52,332,90569,6,0,B|105:314|133:345|133:345|158:373|208:359,2,167.99999554952,4|4|4,2:3|2:3|2:3,2:0:0:0:
32,240,91255,5,6,1:2:0:0:
480,144,91598,5,6,1:2:0:0:
160,8,91941,37,6,1:2:0:0:
352,376,92284,5,6,1:2:0:0:
152,128,92626,38,0,P|132:117|110:113,1,44.9999988079071,6|0,1:2|2:0,2:0:0:0:
252,314,92969,2,0,P|253:336|260:357,1,44.9999988079071,6|0,1:2|2:0,2:0:0:0:
363,133,93312,2,0,P|382:121|397:105,1,44.9999988079071,6|0,1:2|2:0,2:0:0:0:
320,240,93655,37,2,2:0:0:0:
265,112,93826,1,2,2:0:0:0:
182,223,93998,1,6,1:2:0:0:
432,152,99483,38,0,B|476:124|453:69|453:69|398:51|375:102,1,188.99999499321,6|0,1:2|2:0,2:0:0:0:
357,184,99826,6,0,P|330:184|306:172,1,53.9999985694885,2|0,1:2|2:0,2:0:0:0:
216,96,100169,2,0,P|229:119|231:145,1,53.9999985694885,2|2,1:2|2:0,2:0:0:0:
211,263,100512,2,0,P|224:239|246:224,1,53.9999985694885,2|0,1:2|2:0,2:0:0:0:
159,186,100855,6,0,P|119:176|86:153,1,80.9999978542329,2|0,1:2|2:0,2:0:0:0:
322,262,101198,2,0,P|333:300|329:340,1,80.9999978542329,2|0,1:2|2:0,2:0:0:0:
312,92,101540,5,2,1:2:0:0:
312,92,101626,2,0,L|320:59,1,26.9999992847443,0|0,2:0|2:0,2:0:0:0:
240,336,101798,37,0,2:0:0:0:
240,336,101883,2,0,L|232:369,1,26.9999992847443,2|0,1:2|2:0,2:0:0:0:
248,160,102055,22,0,B|262:187|257:206|252:206|249:227|260:247,1,89.9999976158143,2|0,2:0|2:0,2:0:0:0:
334,212,102226,6,0,P|349:204|364:201,2,31.4999991655349,14|8|8,1:2|2:0|2:0,2:0:0:0:
175,192,102398,2,0,P|160:200|145:202,2,31.4999991655349,8|0|8,2:0|2:0|2:0,2:0:0:0:
374,285,102569,38,0,L|411:293,2,31.4999991655349,10|8|8,2:0|2:0|2:0,2:0:0:0:
131,120,102740,2,0,L|94:112,2,31.4999991655349,10|0|8,2:0|2:0|2:0,2:0:0:0:
313,27,102912,5,10,2:0:0:0:
313,27,102998,1,8,2:0:0:0:
313,27,103083,2,0,P|307:62|298:93,1,62.9999983310699,10|8,2:0|2:0,2:0:0:0:
246,308,103255,37,10,2:0:0:0:
246,308,103340,1,8,2:0:0:0:
246,308,103426,2,0,P|252:273|261:242,1,62.9999983310699,10|8,2:0|2:0,2:0:0:0:
280,169,103598,5,2,2:0:0:0:
280,169,103940,1,2,2:0:0:0:
280,169,104283,1,0,2:0:0:0:
280,169,104969,38,0,B|317:192|317:192|293:316,1,161.999995708465,6|0,1:2|2:0,2:0:0:0:
166,340,105312,2,0,L|49:368,1,107.999997138977,10|2,2:0|1:2,2:0:0:0:
60,365,105569,1,2,1:2:0:0:
60,365,105655,2,0,B|31:321|31:321|54:266,1,107.999997138977,2|0,1:2|2:0,2:0:0:0:
136,232,105912,21,2,1:2:0:0:
136,232,105955,1,0,2:0:0:0:
136,232,105998,2,0,L|77:244,1,53.9999985694884,10|0,2:0|2:0,2:0:0:0:
28,137,106169,22,0,B|44:181|44:181|303:228|303:228|337:294,1,377.99998998642,6|0,1:2|2:0,2:0:0:0:
258,383,106512,21,2,2:0:0:0:
258,383,106598,1,0,2:0:0:0:
258,383,106683,2,0,B|232:347|232:347|251:287,1,89.9999976158143,10|0,2:0|2:0,2:0:0:0:
496,178,106855,21,2,2:0:0:0:
496,178,106940,1,0,2:0:0:0:
496,178,107026,2,0,B|437:184|412:249|412:249|425:182|380:141,1,233.999993801117,2|0,1:2|2:0,2:0:0:0:
459,74,107283,1,2,2:0:0:0:
459,74,107369,2,0,L|384:378,1,296.999992132187,8|0,2:0|2:0,2:0:0:0:
387,362,107712,6,0,B|399:319|399:319|367:266,1,89.9999976158143,6|0,1:2|2:0,2:0:0:0:
287,165,107883,2,0,B|275:208|275:208|307:261,1,89.9999976158143,2|0,2:0|2:0,2:0:0:0:
459,185,108055,22,0,B|409:170|409:170|361:207,1,98.9999973773957,8|0,2:0|2:0,2:0:0:0:
216,349,108226,2,0,B|266:364|266:364|304:336,1,98.9999973773957,2|0,2:0|2:0,2:0:0:0:
196,0,108398,22,0,B|153:146|153:146|185:179,1,197.999994754791,2|0,1:2|2:0,2:0:0:0:
332,93,108655,1,2,2:0:0:0:
339,100,108740,2,0,B|303:130|303:130|243:115,1,98.9999973773957,8|0,2:0|2:0,2:0:0:0:
23,320,108912,22,0,B|65:294|65:294|225:351,2,197.999994754791,2|0|2,2:0|1:2|2:0,2:0:0:0:
81,384,109340,1,0,2:0:0:0:
81,384,109426,2,0,B|126:228|126:228|83:159,1,197.999994754791,8|2,2:0|2:0,2:0:0:0:
23,90,109683,1,0,2:0:0:0:
23,90,109769,2,0,B|42:135|42:135|109:114,1,98.9999973773957,0|0,1:2|2:0,2:0:0:0:
305,231,109940,2,0,B|259:241|259:241|257:244|257:244|206:255,1,98.9999973773957,2|0,2:0|2:0,2:0:0:0:
151,61,110112,21,8,2:0:0:0:
198,43,110198,1,0,2:0:0:0:
243,49,110283,1,2,2:0:0:0:
279,93,110369,1,0,2:0:0:0:
354,70,110455,38,0,P|363:35|370:0,1,71.9999980926514,6|0,1:2|2:0,2:0:0:0:
398,173,110626,2,0,P|388:207|381:243,1,71.9999980926514,2|0,2:0|2:0,2:0:0:0:
510,83,110798,22,0,B|472:107|472:107|419:90,1,89.9999976158143,10|0,2:0|2:0,2:0:0:0:
304,180,110969,2,0,B|342:156|342:156|395:173,1,89.9999976158143,2|0,2:0|2:0,2:0:0:0:
196,129,111140,22,0,B|126:182|126:182|31:152,1,179.999995231629,2|0,1:2|2:0,2:0:0:0:
100,0,111398,1,2,2:0:0:0:
100,0,111483,2,0,L|113:90,1,89.9999976158143,8|0,2:0|2:0,2:0:0:0:
304,180,111655,22,0,B|339:154|339:154|484:217,2,179.999995231629,10|2|2,2:0|1:2|2:0,2:0:0:0:
249,102,112083,1,0,2:0:0:0:
241,92,112169,2,0,B|231:77|231:77|247:25,1,71.9999980926514,10|0,2:0|2:0,2:0:0:0:
345,249,112340,2,0,B|317:269|317:269|272:256,1,71.9999980926514,2|0,2:0|2:0,2:0:0:0:
0,230,112512,22,0,B|31:221|43:187|43:187|111:179|170:256|118:332,1,269.999992847443,2|0,1:2|2:0,2:0:0:0:
0,384,112769,1,2,2:0:0:0:
0,384,112855,2,0,P|70:282|225:305,1,296.999992132187,8|0,2:0|2:0,2:0:0:0:
254,384,113198,6,0,P|223:347|231:299,1,98.9999973773957,6|0,1:2|2:0,2:0:0:0:
313,281,113369,2,0,P|343:317|335:365,1,98.9999973773957,2|0,2:0|2:0,2:0:0:0:
251,214,113540,22,0,P|199:205|146:189,1,107.999997138977,8|0,2:0|2:0,2:0:0:0:
328,360,113712,2,0,P|380:369|432:384,1,107.999997138977,2|0,2:0|2:0,2:0:0:0:
230,299,113883,22,0,B|251:167|308:249|326:114,1,215.999994277954,2|0,1:2|2:0,2:0:0:0:
256,8,114140,1,2,2:0:0:0:
256,8,114226,2,0,B|243:27|243:27|253:79,1,71.9999980926514,8|0,2:0|2:0,2:0:0:0:
146,189,114398,22,0,P|286:214|404:261,1,269.999992847443,2|4,2:0|1:2,2:0:0:0:
404,261,114740,22,0,B|394:246|394:246|409:190,1,71.9999980926514,2|0,2:0|2:0,2:0:0:0:
452,328,114912,2,0,B|469:326|469:326|510:367,1,71.9999980926514,8|0,2:0|2:0,2:0:0:0:
369,336,115083,2,0,B|361:352|361:352|305:367,1,71.9999980926514,0|0,1:2|2:0,2:0:0:0:
404,261,115255,22,0,P|415:192|432:119,1,143.999996185303,0|0,1:2|1:2,2:0:0:0:
495,40,115512,21,0,1:2:0:0:
512,59,115598,2,0,P|421:153|295:131,1,269.999992847443,12|0,2:0|2:0,2:0:0:0:
129,10,115940,38,0,P|125:50|113:89,1,80.9999978542329,4|0,1:2|2:0,2:0:0:0:
151,252,116112,2,0,P|154:211|166:172,1,80.9999978542329,2|0,2:0|2:0,2:0:0:0:
18,142,116283,22,0,P|58:145|97:157,1,80.9999978542329,10|0,2:0|2:0,2:0:0:0:
261,120,116455,2,0,P|220:116|181:104,1,80.9999978542329,2|0,2:0|2:0,2:0:0:0:
151,252,116626,22,0,P|154:211|166:172,1,80.9999978542329,2|0,1:2|2:0,2:0:0:0:
113,89,116798,2,0,P|124:50|128:9,1,80.9999978542329,2|0,2:0|2:0,2:0:0:0:
18,142,116969,38,0,P|58:145|97:157,1,80.9999978542329,10|0,2:0|2:0,2:0:0:0:
261,119,117140,2,0,P|334:83|370:14,1,161.999995708466,2|0,2:0|1:2,2:0:0:0:
370,13,117483,6,0,P|442:42|479:126,1,161.999995708466,2|8,2:0|2:0,2:0:0:0:
256,272,117826,2,0,P|331:272|407:328,1,161.999995708466,2|0,2:0|1:2,2:0:0:0:
400,319,118083,1,0,2:0:0:0:
400,319,118169,2,0,P|438:288|450:252,1,80.9999978542329,2|0,2:0|2:0,2:0:0:0:
303,166,118340,2,0,P|335:205|338:252,1,80.9999978542329,8|0,2:0|2:0,2:0:0:0:
243,383,118512,2,0,P|179:335|100:330,1,161.999995708466,2|0,2:0|1:2,2:0:0:0:
100,330,118855,6,0,P|84:296|83:254,1,80.9999978542329,2|0,2:0|2:0,2:0:0:0:
174,231,119026,2,0,P|190:265|191:307,1,80.9999978542329,8|0,2:0|2:0,2:0:0:0:
442,373,119198,37,2,2:0:0:0:
442,373,119283,1,0,2:0:0:0:
442,373,119369,2,0,P|448:333|460:294,1,80.9999978542329,2|0,1:2|2:0,2:0:0:0:
345,349,119540,2,0,P|356:310|362:270,1,80.9999978542329,2|0,2:0|2:0,2:0:0:0:
429,216,119712,1,8,2:0:0:0:
176,12,119883,6,0,P|201:98|215:175,1,161.999995708466,2|0,2:0|1:2,2:0:0:0:
214,169,120226,38,0,B|238:154|238:154|247:154|300:171,1,80.9999978542329,2|0,2:0|2:0,2:0:0:0:
319,11,120398,2,0,B|319:39|319:39|315:47|274:84,1,80.9999978542329,10|0,2:0|2:0,2:0:0:0:
403,180,120569,2,0,B|378:166|378:166|373:158|361:104,1,80.9999978542329,2|0,2:0|2:0,2:0:0:0:
123,218,120740,22,0,B|172:244|172:244|184:268|205:368,1,161.999995708466,2|2,1:2|2:0,2:0:0:0:
201,347,120998,1,0,2:0:0:0:
127,384,121083,22,0,B|70:306|145:230|169:253|190:278|275:194|207:123,1,323.999991416931,10|0,2:0|2:0,2:0:0:0:
122,22,121426,22,0,P|82:31|42:34,1,80.9999978542329,6|0,1:2|2:0,2:0:0:0:
109,127,121598,2,0,P|81:126|108:117,1,80.9999978542329,2|0,2:0|2:0,2:0:0:0:
216,11,121769,22,0,P|176:20|136:23,1,80.9999978542329,10|0,2:0|2:0,2:0:0:0:
191,205,121940,21,2,2:0:0:0:
191,205,122026,1,0,2:0:0:0:
191,204,122112,2,0,P|201:165|208:125,1,80.9999978542329,2|0,1:2|2:0,2:0:0:0:
316,13,122283,2,0,P|305:51|298:91,1,80.9999978542329,2|0,2:0|2:0,2:0:0:0:
339,179,122455,6,0,P|377:168|417:161,1,80.9999978542329,10|0,2:0|2:0,2:0:0:0:
216,11,122626,2,0,P|138:32|58:45,1,161.999995708466,2|0,2:0|1:2,2:0:0:0:
58,45,122969,6,0,P|50:84|37:123,1,80.9999978542329,2|0,2:0|2:0,2:0:0:0:
118,312,123140,1,8,2:0:0:0:
118,312,123312,2,0,P|126:273|139:234,1,80.9999978542329,2|0,2:0|2:0,2:0:0:0:
218,125,123483,6,0,P|179:136|139:142,1,80.9999978542329,0|0,1:2|2:0,2:0:0:0:
192,368,123655,2,0,P|230:356|270:350,1,80.9999978542329,2|0,2:0|2:0,2:0:0:0:
417,360,123826,5,8,2:0:0:0:
453,322,123912,1,8,2:0:0:0:
445,272,123998,1,10,2:0:0:0:
474,228,124083,1,8,2:0:0:0:
466,175,124169,6,0,P|468:137|480:92,1,80.9999978542329,6|0,1:2|2:0,2:0:0:0:
321,0,124512,2,0,P|319:38|307:83,1,80.9999978542329,6|0,1:2|2:0,2:0:0:0:
366,167,124855,5,6,1:2:0:0:
183,69,125026,1,6,1:2:0:0:
53,229,125198,1,6,1:2:0:0:
53,229,126912,22,0,B|228:266|228:266|184:161,1,269.999992847443,6|2,1:2|2:0,2:0:0:0:
144,32,127255,2,0,B|178:4|178:4|141:75,1,89.9999976158143,10|0,2:0|2:0,2:0:0:0:
86,150,127426,21,0,2:0:0:0:
86,150,127512,1,0,2:0:0:0:
86,150,127598,2,0,L|371:95,1,269.999992847443,0|2,1:2|2:0,2:0:0:0:
465,45,127940,2,0,B|479:17|479:17|428:68,1,89.9999976158143,10|0,2:0|2:0,2:0:0:0:
274,198,128112,22,0,L|317:0,2,179.999995231629,2|2|2,2:0|1:2|2:0,2:0:0:0:
294,301,128540,1,0,2:0:0:0:
294,301,128626,2,0,B|255:278|255:278|195:291,1,89.9999976158143,10|0,2:0|2:0,2:0:0:0:
108,193,128798,2,0,B|147:216|147:216|207:203,1,89.9999976158143,2|2,2:0|2:0,2:0:0:0:
307,384,128969,22,0,B|330:249|330:249|380:219,1,179.999995231629,2|2,1:2|2:0,2:0:0:0:
501,278,129226,1,0,2:0:0:0:
501,278,129312,2,0,B|457:286|457:286|454:289|454:289|409:297,1,89.9999976158143,10|2,2:0|2:0,2:0:0:0:
319,142,129483,21,2,2:0:0:0:
319,142,129569,1,0,2:0:0:0:
319,142,129655,2,0,B|386:193|386:193|483:168,2,179.999995231629,2|2|10,1:2|2:0|2:0,2:0:0:0:
295,87,130083,1,2,2:0:0:0:
240,82,130169,1,2,2:0:0:0:
211,34,130255,1,2,2:0:0:0:
161,43,130340,22,0,B|141:58|141:58|62:40,1,89.9999976158143,2|0,1:2|2:0,2:0:0:0:
0,224,130512,2,0,B|20:209|20:209|99:227,1,89.9999976158143,2|2,2:0|2:0,2:0:0:0:
68,47,130683,22,0,P|77:94|82:143,1,89.9999976158143,10|0,2:0|2:0,2:0:0:0:
187,251,130855,2,0,P|178:204|173:155,1,89.9999976158143,2|0,2:0|2:0,2:0:0:0:
294,7,131026,6,0,P|294:55|268:97,1,89.9999976158143,4|0,1:2|2:0,2:0:0:0:
392,296,131198,53,10,2:0:0:0:
392,296,131283,1,2,2:0:0:0:
392,296,131369,2,0,P|385:319|380:342,2,44.9999988079071,2|0|0,2:0|2:0|2:0,2:0:0:0:
367,156,131540,53,2,1:2:0:0:
367,156,131626,1,0,2:0:0:0:
367,156,131712,2,0,P|374:133|379:110,2,44.9999988079071,2|0|2,1:2|2:0|2:0,2:0:0:0:
509,220,131883,2,0,B|493:233|493:233|404:213,1,89.9999976158143,2|2,1:2|1:2,2:0:0:0:
276,335,132055,37,10,2:0:0:0:
224,320,132140,1,0,2:0:0:0:
174,358,132226,1,2,2:0:0:0:
121,342,132312,1,0,2:0:0:0:
75,380,132398,22,0,B|54:262|54:262|42:253|42:253|23:113,1,269.999992847443,6|2,1:2|2:0,2:0:0:0:
57,44,132740,2,0,P|149:38|189:106,1,179.999995231629,10|0,2:0|2:0,2:0:0:0:
188,105,132998,1,0,2:0:0:0:
188,105,133083,2,0,P|181:155|208:195,1,89.9999976158143,0|0,1:2|2:0,2:0:0:0:
280,174,133255,2,0,P|287:124|260:84,1,89.9999976158143,2|2,2:0|2:0,2:0:0:0:
5,235,133426,22,0,P|95:235|163:297,1,179.999995231629,10|2,2:0|2:0,2:0:0:0:
160,291,133683,1,0,2:0:0:0:
160,291,133769,2,0,P|143:324|137:359,1,71.9999980926514,2|0,1:2|2:0,2:0:0:0:
222,384,133940,2,0,P|239:351|245:316,1,71.9999980926514,2|0,2:0|2:0,2:0:0:0:
331,147,134112,22,0,B|317:192|317:192|342:236,1,89.9999976158143,10|0,2:0|2:0,2:0:0:0:
489,375,134283,1,2,2:0:0:0:
489,375,134369,1,2,2:0:0:0:
489,375,134455,2,0,B|428:313|428:313|334:347,1,179.999995231629,2|2,1:2|2:0,2:0:0:0:
340,344,134712,1,0,2:0:0:0:
340,344,134798,2,0,B|364:314|364:314|351:252,1,89.9999976158143,10|2,2:0|2:0,2:0:0:0:
457,153,134969,21,2,2:0:0:0:
457,153,135055,1,0,2:0:0:0:
457,153,135140,2,0,B|433:183|433:183|446:245,1,89.9999976158143,2|0,1:2|2:0,2:0:0:0:
274,285,135312,22,0,B|231:275|231:275|230:273|230:273|187:264,1,89.9999976158143,2|0,2:0|2:0,2:0:0:0:
80,136,135483,21,10,2:0:0:0:
90,118,135569,1,2,2:0:0:0:
94,99,135655,1,2,2:0:0:0:
89,80,135740,1,2,2:0:0:0:
32,24,135826,22,0,P|13:54|11:90,1,71.9999980926514,2|0,1:2|2:0,2:0:0:0:
70,211,135998,2,0,P|105:211|137:195,1,71.9999980926514,2|2,2:0|2:0,2:0:0:0:
208,16,136169,22,0,P|194:51|198:87,1,71.9999980926514,10|0,2:0|2:0,2:0:0:0:
227,172,136340,2,0,P|250:201|283:216,1,71.9999980926514,2|0,2:0|2:0,2:0:0:0:
455,111,136512,6,0,L|384:130,1,71.9999980926514,4|0,1:2|2:0,2:0:0:0:
301,323,136683,1,10,2:0:0:0:
289,315,136769,1,2,2:0:0:0:
275,310,136855,2,0,L|344:291,1,71.9999980926514,2|0,2:0|2:0,2:0:0:0:
507,235,137026,2,0,L|436:223,1,71.9999980926514,2|0,1:2|2:0,2:0:0:0:
197,134,137198,37,2,1:2:0:0:
197,134,137283,1,2,2:0:0:0:
197,134,137369,2,0,L|267:145,1,71.9999980926514,2|2,1:2|1:2,2:0:0:0:
457,383,137540,22,0,P|447:349|441:314,1,71.9999980926514,10|0,2:0|2:0,2:0:0:0:
336,24,137712,2,0,P|346:58|352:93,1,71.9999980926514,2|0,2:0|2:0,2:0:0:0:
144,280,137883,21,2,2:0:0:0:
