osu file format v14

[General]
AudioFilename: audio.mp3
AudioLeadIn: 0
PreviewTime: 41982
Countdown: 0
SampleSet: Soft
StackLeniency: 0.7
Mode: 0
LetterboxInBreaks: 0
WidescreenStoryboard: 1

[Editor]
DistanceSpacing: 1
BeatDivisor: 16
GridSize: 32
TimelineZoom: 5.499996

[Metadata]
Title:Ren'ai Heiki! Lethal Weapon-chan
TitleUnicode:恋愛兵器!りーさるうぇぽんちゃん
Artist::) feat. KAFU
ArtistUnicode:ت feat. KAFU
Creator:- akiira -
Version:0ugi's Ultra
Source:
Tags:vocaloid vocalsynth japanese pop j-pop jpop -_akiira_- -_asuuka_- Ayesha Altugle Shizuku- Kazato Asa Shikibe Mayu VP757 Rorupan L9 Lulu- Ducky- Lunicia 0ugi
BeatmapID:3889557
BeatmapSetID:1832014

[Difficulty]
HPDrainRate:5
CircleSize:4
OverallDifficulty:9.1
ApproachRate:9.6
SliderMultiplier:3.59999990463257
SliderTickRate:1

[Events]
//Background and Video events
0,0,"bg.jpeg",0,0
//Break Periods
//Storyboard Layer 0 (Background)
//Storyboard Layer 1 (Fail)
//Storyboard Layer 2 (Pass)
//Storyboard Layer 3 (Foreground)
//Storyboard Layer 4 (Overlay)
//Storyboard Sound Samples

[TimingPoints]
400,342.857142857143,4,2,1,40,1,0
742,342.857142857143,4,2,1,40,1,0
742,-1000,4,2,1,40,0,0
6227,-500,4,2,1,40,0,0
11713,-90.9090909090909,4,2,1,80,0,0
17199,-200,4,2,2,60,0,0
26799,-200,4,2,1,60,0,0
28170,-1000,4,2,1,40,0,0
33656,-142.857142857143,4,2,1,40,0,0
36742,-142.857142857143,4,2,1,50,0,0
37084,-142.857142857143,4,2,1,60,0,0
37427,-142.857142857143,4,2,1,70,0,0
37770,-133.333333333333,4,2,1,80,0,0
39142,-66.6666666666667,4,2,1,80,0,0
39827,-55.5555555555556,4,2,1,80,0,0
41542,-66.6666666666667,4,2,1,80,0,0
41884,342.857142857143,4,2,1,80,1,0
41884,-250,4,2,1,80,0,0
42226,-500,4,2,1,80,0,0
42655,-166.666666666667,4,2,1,80,0,0
42912,-333.333333333333,4,2,1,80,0,0
43426,-500,4,2,1,80,0,0
43941,-50,4,2,1,80,0,0
44284,-133.333333333333,4,2,1,80,0,0
44626,-45.4545454545455,4,2,1,80,0,0
44798,-100,4,2,1,80,0,0
44969,-166.666666666667,4,2,1,80,0,0
45141,-333.333333333333,4,2,1,80,0,0
45398,-55.5555555555556,4,2,1,80,0,0
45826,-76.9230769230769,4,2,1,80,0,0
46169,-66.6666666666667,4,2,1,80,0,0
46684,-33.3333333333333,4,2,1,80,0,0
46855,-100,4,2,1,80,0,0
47369,-500,4,2,1,80,0,0
47541,-50,4,2,1,80,0,0
47712,-500,4,2,1,80,0,0
47884,-41.6666666666667,4,2,1,80,0,0
48141,-133.333333333333,4,2,1,80,0,0
48398,-33.3333333333333,4,2,1,80,0,0
48655,-1000,4,2,1,80,0,0
48912,-55.5555555555556,4,2,1,80,0,0
49084,-333.333333333333,4,2,1,80,0,0
49255,-50,4,2,1,80,0,0
49426,-500,4,2,1,80,0,0
49769,-50,4,2,1,80,0,0
50112,-45.4545454545455,4,2,1,80,0,0
50284,-100,4,2,1,80,0,0
50455,-142.857142857143,4,2,1,80,0,0
50626,-250,4,2,1,80,0,0
50884,-50,4,2,1,80,0,0
51484,-66.6666666666667,4,2,1,80,0,0
51655,-333.333333333333,4,2,1,80,0,0
52512,-33.3333333333333,4,2,1,80,0,0
52684,-66.6666666666667,4,2,1,80,0,0
52855,-500,4,2,1,80,0,0
53541,-250,4,2,1,80,0,0
54398,-100,4,2,1,80,0,0
55598,-50,4,2,1,80,0,0
55769,-66.6666666666667,4,2,1,80,0,0
56626,-83.3333333333333,4,2,1,80,0,0
56798,-50,4,2,1,80,0,0
57141,-66.6666666666667,4,2,1,80,0,0
57312,-50,4,2,1,80,0,0
57655,-133.333333333333,4,2,1,80,0,0
57826,-50,4,2,1,80,0,0
58512,-250,4,2,1,80,0,0
59712,-66.6666666666667,4,2,1,80,0,0
59884,-100,4,2,1,80,0,0
61084,-66.6666666666667,4,2,1,80,0,0
63826,-83.3333333333333,4,2,1,80,0,0
68455,-133.333333333333,4,2,1,80,0,0
69312,-1000,4,2,1,60,0,0
79084,-133.333333333333,4,2,1,60,0,0
80284,-133.333333333333,4,2,1,40,0,0
87826,-100,4,2,1,40,0,0
88512,-76.9230769230769,4,2,1,50,0,0
88855,-76.9230769230769,4,2,1,60,0,0
89198,-76.9230769230769,4,2,1,70,0,0
89541,-76.9230769230769,4,2,1,80,0,0
89884,-133.333333333333,4,2,1,80,0,0
91255,-62.5,4,2,1,80,0,0
92626,-55.5555555555556,4,2,1,80,0,0
93655,-333.333333333333,4,2,1,80,0,0
93998,342.857142857143,4,2,1,60,1,0
93998,-166.666666666667,4,2,1,60,0,0
99826,-100,4,2,1,60,0,0
104969,-50,4,2,1,80,0,0
105998,-66.6666666666667,4,2,1,80,0,0
106169,-50,4,2,1,80,0,0
106683,-333.333333333333,4,2,1,80,0,0
107112,-166.666666666667,4,2,1,80,0,0
107369,-50,4,2,1,80,0,0
107883,-100,4,2,1,80,0,0
108483,-125,4,2,1,80,0,0
108740,-166.666666666667,4,2,1,80,0,0
109083,-66.6666666666667,4,2,1,80,0,0
109769,-55.5555555555556,4,2,1,80,0,0
110455,-500,4,2,1,80,0,0
110626,-50,4,2,1,80,0,0
110798,-333.333333333333,4,2,1,80,0,0
111140,-66.6666666666667,4,2,1,80,0,0
111826,-333.333333333333,4,2,1,80,0,0
111998,-50,4,2,1,80,0,0
112169,-250,4,2,1,80,0,0
112340,-45.4545454545455,4,2,1,80,0,0
112598,-66.6666666666667,4,2,1,80,0,0
113198,-50,4,2,1,80,0,0
113369,-100,4,2,1,80,0,0
113969,-66.6666666666667,4,2,1,80,0,0
114569,-100,4,2,1,80,0,0
114740,-166.666666666667,4,2,1,80,0,0
115255,-250,4,2,1,80,0,0
115598,-66.6666666666667,4,2,1,80,0,0
115769,-50,4,2,1,80,0,0
115940,-333.333333333333,4,2,1,80,0,0
116969,-166.666666666667,4,2,1,80,0,0
117483,-100,4,2,1,80,0,0
118683,-50,4,2,1,80,0,0
118855,-66.6666666666667,4,2,1,80,0,0
119369,-58.8235294117647,4,2,1,80,0,0
119712,-66.6666666666667,4,2,1,80,0,0
120226,-83.3333333333333,4,2,1,80,0,0
120740,-71.4285714285714,4,2,1,80,0,0
121426,-133.333333333333,4,2,1,80,0,0
121598,-333.333333333333,4,2,1,80,0,0
121769,-133.333333333333,4,2,1,80,0,0
121940,-333.333333333333,4,2,1,80,0,0
122112,-133.333333333333,4,2,1,80,0,0
122283,-100,4,2,1,80,0,0
122798,-66.6666666666667,4,2,1,80,0,0
122969,-100,4,2,1,80,0,0
123140,-500,4,2,1,80,0,0
123312,-100,4,2,1,80,0,0
123483,-500,4,2,1,80,0,0
123655,-100,4,2,1,80,0,0
124169,-66.6666666666667,4,2,1,80,0,0
126912,-76.9230769230769,4,2,1,80,0,0
137883,-1000,4,2,1,40,0,0

[Colours]
Combo1 : 157,60,255
Combo2 : 0,255,255
Combo3 : 86,102,216
Combo4 : 255,128,192

[HitObjects]
31,149,400,5,0,2:0:0:0:
31,149,571,1,0,2:0:0:0:
31,149,742,2,0,L|34:188,1,35.9999990463257,2|0,2:0|2:0,2:0:0:0:
107,212,1256,2,0,L|97:251,1,35.9999990463257,0|0,2:0|2:0,2:0:0:0:
164,287,1770,2,0,L|143:342,1,53.9999985694885,0|0,2:0|2:0,2:0:0:0:
72,357,2456,1,0,2:0:0:0:
0,379,2627,1,0,2:0:0:0:
0,379,2713,1,0,2:0:0:0:
51,268,2970,5,0,2:0:0:0:
51,268,3142,1,0,2:0:0:0:
161,283,3313,1,0,2:0:0:0:
276,295,3484,2,0,L|282:254,1,35.9999990463257,2|0,2:0|2:0,2:0:0:0:
349,228,3999,2,0,L|343:187,1,35.9999990463257,0|0,2:0|2:0,2:0:0:0:
407,150,4513,2,0,L|396:111,1,35.9999990463257,0|0,2:0|2:0,2:0:0:0:
471,62,5027,37,0,2:0:0:0:
484,26,5199,1,0,2:0:0:0:
471,62,5370,1,0,2:0:0:0:
382,34,5542,5,0,2:0:0:0:
296,80,5799,1,0,2:0:0:0:
203,136,6056,1,0,2:0:0:0:
203,136,6142,1,0,2:0:0:0:
203,136,6227,38,0,L|185:212,1,71.9999980926514,2|0,1:2|2:0,2:0:0:0:
113,236,6742,1,0,2:0:0:0:
45,201,6913,1,0,2:0:0:0:
45,201,6999,1,0,2:0:0:0:
117,154,7256,5,0,2:0:0:0:
266,222,7427,1,0,1:2:0:0:
266,222,7599,2,0,L|247:296,1,71.9999980926514,0|0,1:2|2:0,2:0:0:0:
313,337,8113,1,0,2:0:0:0:
376,291,8284,2,0,L|369:248,1,35.9999990463257,0|0,2:0|2:0,2:0:0:0:
370,255,8542,1,0,2:0:0:0:
370,255,8627,1,0,2:0:0:0:
451,273,8799,1,0,1:2:0:0:
317,189,8970,38,0,L|305:112,1,71.9999980926514,2|0,1:2|2:0,2:0:0:0:
386,143,9484,1,0,1:2:0:0:
145,96,9656,6,0,L|133:19,1,71.9999980926514,0|0,1:2|2:0,2:0:0:0:
214,50,10170,1,0,1:2:0:0:
19,133,10342,37,0,2:0:0:0:
16,160,10684,1,0,2:0:0:0:
14,184,11027,2,0,L|10:225,1,35.9999990463257,0|0,2:0|2:0,2:0:0:0:
75,285,11284,5,0,2:0:0:0:
75,285,11370,1,2,2:0:0:0:
75,285,11456,1,0,2:0:0:0:
75,285,11542,2,0,L|75:298,2,8.99999976158142,0|0|0,2:0|2:0|2:0,2:0:0:0:
27,384,11713,6,0,B|54:292|156:288|156:288|174:219,1,197.999994754791,6|2,1:2|2:0,2:0:0:0:
266,234,11970,1,2,2:0:0:0:
311,170,12056,2,0,P|300:112|217:108,1,98.9999973773957,10|0,2:0|2:0,2:0:0:0:
57,86,12227,21,0,2:0:0:0:
27,137,12313,1,0,2:0:0:0:
52,170,12399,2,0,B|170:159|170:159|189:201|240:201,1,197.999994754791,0|2,1:2|2:0,2:0:0:0:
340,0,12656,21,2,2:0:0:0:
263,21,12742,2,0,L|239:142,1,98.9999973773957,10|0,2:0|2:0,2:0:0:0:
388,222,12913,21,2,2:0:0:0:
471,238,12999,1,0,2:0:0:0:
388,222,13084,2,0,B|333:231|358:263|278:283,1,98.9999973773957,2|0,1:2|2:0,2:0:0:0:
268,373,13256,2,0,B|244:355|244:355|230:287,1,98.9999973773957,2|0,2:0|2:0,2:0:0:0:
82,321,13427,21,10,2:0:0:0:
74,302,13513,1,0,2:0:0:0:
154,243,13599,21,2,2:0:0:0:
146,262,13684,1,2,2:0:0:0:
156,339,13770,22,0,B|61:365|61:365|-18:348|4:261,1,197.999994754791,2|2,1:2|2:0,2:0:0:0:
50,150,14027,1,0,2:0:0:0:
123,119,14113,2,0,B|110:170|110:170|78:182|62:243,1,98.9999973773957,10|2,2:0|2:0,2:0:0:0:
15,47,14284,21,2,2:0:0:0:
55,34,14370,1,0,2:0:0:0:
95,18,14456,2,0,B|134:22|134:22|141:38|141:38|216:62,1,98.9999973773957,2|0,1:2|2:0,2:0:0:0:
247,115,14627,2,0,P|311:96|354:89,1,98.9999973773957,2|0,2:0|2:0,2:0:0:0:
512,59,14799,21,10,2:0:0:0:
459,3,14884,1,2,2:0:0:0:
415,66,14970,1,2,2:0:0:0:
469,124,15056,1,2,2:0:0:0:
506,195,15142,22,0,B|492:242|492:242|421:257|407:358,1,197.999994754791,2|2,1:2|2:0,2:0:0:0:
483,384,15399,1,2,2:0:0:0:
476,305,15484,2,0,P|430:252|373:280,1,98.9999973773957,10|0,2:0|2:0,2:0:0:0:
269,254,15656,1,2,2:0:0:0:
252,223,15742,1,0,2:0:0:0:
312,175,15827,2,0,L|332:69,1,98.9999973773957,4|0,1:2|2:0,2:0:0:0:
191,35,15999,37,10,2:0:0:0:
116,0,16084,1,2,2:0:0:0:
191,35,16170,2,0,B|204:93|220:63|234:142,1,98.9999973773957,2|0,2:0|2:0,2:0:0:0:
364,244,16342,2,0,P|339:306|327:363,1,98.9999973773957,2|0,1:2|2:0,2:0:0:0:
237,379,16513,37,2,1:2:0:0:
211,370,16599,1,2,2:0:0:0:
173,328,16684,1,2,1:2:0:0:
176,254,16770,1,2,1:2:0:0:
252,223,16856,6,0,P|302:179|273:119,1,98.9999973773957,10|0,2:0|2:0,2:0:0:0:
71,111,17027,2,0,P|75:44|12:22,1,98.9999973773957,2|0,2:0|2:0,2:0:0:0:
0,167,17199,22,0,B|28:147|28:147|178:164,1,179.999995231629,6|2,1:2|2:0,2:0:0:0:
274,74,17713,1,0,2:0:0:0:
211,10,17884,2,0,B|189:39|189:39|201:111,2,89.9999976158143,10|2|2,2:0|2:0|2:0,2:0:0:0:
356,49,18399,1,2,2:0:0:0:
356,49,18570,22,0,B|333:179|333:179|274:215,1,179.999995231629,2|2,1:2|2:0,2:0:0:0:
226,244,19084,1,2,2:0:0:0:
258,315,19256,2,0,B|320:341|320:341|337:312|337:312|434:306,1,179.999995231629,10|2,2:0|2:0,2:0:0:0:
489,305,19770,1,2,2:0:0:0:
410,229,19942,22,0,B|386:164|386:164|443:62,1,179.999995231629,2|2,1:2|2:0,2:0:0:0:
484,3,20456,1,2,2:0:0:0:
484,3,20627,2,0,B|494:52|494:52|452:91,1,89.9999976158143,10|2,2:0|2:0,2:0:0:0:
327,69,20970,2,0,B|366:95|366:95|381:149,1,89.9999976158143,2|2,2:0|2:0,2:0:0:0:
262,186,21313,21,2,1:2:0:0:
277,172,21484,1,2,2:0:0:0:
289,189,21656,1,2,2:0:0:0:
274,201,21827,1,2,2:0:0:0:
364,208,21999,22,0,L|169:179,1,179.999995231629,10|0,2:0|2:0,2:0:0:0:
104,217,22513,1,0,2:0:0:0:
104,217,22599,1,0,2:0:0:0:
104,217,22684,22,0,B|46:246|46:246|38:279|38:279|67:370,1,179.999995231629,2|2,1:2|2:0,2:0:0:0:
155,314,23199,1,0,2:0:0:0:
155,314,23370,2,0,B|176:264|176:264|151:208,2,89.9999976158143,10|2|2,2:0|2:0|2:0,2:0:0:0:
9,199,23884,22,0,B|63:183|63:183|81:152,1,89.9999976158143,2|2,2:0|1:2,2:0:0:0:
137,89,24227,1,2,2:0:0:0:
137,89,24399,2,0,L|228:104,1,89.9999976158143,2|0,2:0|2:0,2:0:0:0:
27,31,24742,21,10,2:0:0:0:
39,69,24913,1,2,2:0:0:0:
27,31,25084,1,2,2:0:0:0:
52,106,25256,1,2,2:0:0:0:
162,12,25427,22,0,B|240:4|240:4|252:29|252:29|348:62,1,179.999995231629,2|0,1:2|2:0,2:0:0:0:
442,67,25942,1,2,2:0:0:0:
442,67,26113,2,0,B|453:115|453:115|416:138|416:138|391:242,1,179.999995231629,10|2,2:0|2:0,2:0:0:0:
376,298,26627,1,2,2:0:0:0:
482,344,26799,22,0,B|505:302|505:302|481:247,1,89.9999976158143,0|2,1:2|2:0,2:0:0:0:
276,280,27142,5,0,1:2:0:0:
251,256,27227,1,0,2:0:0:0:
215,253,27313,1,0,1:2:0:0:
138,302,27484,37,10,2:0:0:0:
58,312,27570,1,0,1:2:0:0:
29,380,27656,1,2,1:2:0:0:
132,169,27827,5,2,1:2:0:0:
128,145,27913,1,0,1:2:0:0:
105,136,27999,1,2,1:2:0:0:
84,145,28084,1,0,2:0:0:0:
72,223,28170,6,0,L|151:41,1,197.999994754791,6|0,2:0|2:0,2:0:0:0:
150,41,30142,1,0,2:0:0:0:
150,41,30227,1,0,2:0:0:0:
242,69,30570,2,0,L|240:47,1,17.9999995231628,0|0,2:0|2:0,2:0:0:0:
322,38,30913,2,0,L|354:184,1,143.999996185303,2|2,2:0|2:0,2:0:0:0:
425,196,32627,2,0,L|425:216,1,17.9999995231628,0|0,2:0|2:0,2:0:0:0:
484,261,32970,37,2,2:0:0:0:
455,325,33142,1,0,2:0:0:0:
434,373,33313,2,0,L|419:349,1,26.9999992847443,0|0,2:0|2:0,2:0:0:0:
355,284,33656,6,0,L|236:341,1,125.99999666214,2|2,1:2|2:0,2:0:0:0:
162,343,33999,1,2,2:0:0:0:
99,301,34170,1,2,1:2:0:0:
18,208,34342,37,2,2:0:0:0:
16,130,34513,1,0,2:0:0:0:
84,168,34684,1,2,2:0:0:0:
8,356,34856,5,2,1:2:0:0:
8,356,35027,2,0,B|36:285|36:285|84:277|84:277|114:188,1,188.99999499321,2|0,1:2|2:0,2:0:0:0:
104,216,35370,1,2,2:0:0:0:
187,255,35542,1,0,2:0:0:0:
28,76,35713,38,0,L|15:4,1,62.9999983310699,2|0,1:2|2:0,2:0:0:0:
114,44,35884,1,2,2:0:0:0:
114,44,35970,1,0,2:0:0:0:
114,44,36056,2,0,L|100:125,1,62.9999983310699,2|0,2:0|2:0,2:0:0:0:
194,73,36227,5,2,2:0:0:0:
194,73,36313,1,0,2:0:0:0:
194,73,36399,2,0,B|220:93|220:93|263:96,1,62.9999983310699,8|8,2:0|2:0,2:0:0:0:
275,130,36570,2,0,B|310:118|310:118|333:76,1,62.9999983310699,10|8,2:0|2:0,2:0:0:0:
357,89,36742,2,0,B|369:52|369:52|335:4,1,62.9999983310699,8|8,2:0|2:0,2:0:0:0:
352,2,36913,2,0,B|309:-9|309:-9|282:16,1,62.9999983310699,10|8,2:0|2:0,2:0:0:0:
435,137,37084,38,0,B|457:166|457:166|448:220,1,62.9999983310699,10|8,2:0|2:0,2:0:0:0:
469,276,37256,2,0,B|440:310|440:310|385:314,1,62.9999983310699,10|8,2:0|2:0,2:0:0:0:
326,372,37427,1,10,2:0:0:0:
275,317,37513,1,8,2:0:0:0:
224,338,37599,2,0,L|145:309,1,62.9999983310699,10|8,2:0|2:0,2:0:0:0:
15,256,37770,6,0,B|-3:195|-3:195|14:145,2,89.9999976158145,8|8|8,2:3|2:3|2:3,2:0:0:0:
120,95,38113,38,0,B|150:39|150:39|197:15,2,89.9999976158145,8|8|8,2:3|2:3|2:3,2:0:0:0:
26,65,38456,5,4,2:3:0:0:
38,85,38570,1,0,2:0:0:0:
82,205,38684,37,4,2:3:0:0:
93,209,38799,1,0,2:0:0:0:
197,253,38913,5,4,2:3:0:0:
203,247,39027,1,4,3:0:0:0:
285,156,39142,6,0,B|278:178|278:178|63:231|63:231|3:400,1,404.999989271164,6|0,1:2|2:0,2:0:0:0:
9,382,39484,1,6,1:2:0:0:
173,287,39656,2,0,L|158:142,1,134.999996423721,0|0,2:0|2:0,2:0:0:0:
5,56,39827,6,0,B|25:95|25:95|410:177|410:177|441:292,1,485.999987125397,6|0,1:2|2:0,2:0:0:0:
422,223,40170,2,0,B|186:291|186:291|159:377,1,323.999991416931,6|0,1:2|2:0,2:0:0:0:
498,190,40513,6,0,L|-7:200,1,485.999987125397,6|0,1:2|2:0,2:0:0:0:
12,199,40856,6,0,L|498:190,1,485.999987125397,6|0,1:2|2:0,2:0:0:0:
258,168,41199,5,6,1:2:0:0:
255,242,41370,1,2,2:0:0:0:
250,15,41542,6,0,B|239:28|239:28|265:68|260:160,1,134.999996423721,2|0,2:0|2:0,2:0:0:0:
249,320,41713,1,2,2:0:0:0:
6,209,41884,6,0,L|2:172,1,35.9999990463257,6|0,1:2|2:0,2:0:0:0:
506,175,42055,2,0,L|510:212,1,35.9999990463257,2|0,2:0|2:0,2:0:0:0:
32,298,42226,22,0,L|41:265,1,17.9999995231628,10|0,2:0|2:0,2:0:0:0:
479,86,42398,2,0,L|470:119,1,17.9999995231628,2|0,2:0|2:0,2:0:0:0:
226,0,42569,21,2,1:2:0:0:
272,128,42655,2,0,L|244:259,1,107.999997138977,0|2,2:0|2:0,2:0:0:0:
222,379,42912,2,0,L|232:339,1,26.9999992847443,8|0,2:0|2:0,2:0:0:0:
112,93,43084,21,10,2:0:0:0:
2,123,43169,2,0,L|14:195,1,53.9999985694886,8|0,2:0|2:0,2:0:0:0:
510,194,43426,22,0,L|514:166,1,17.9999995231628,2|0,2:0|2:0,2:0:0:0:
2,194,43598,2,0,L|-2:166,1,17.9999995231628,10|0,2:0|2:0,2:0:0:0:
504,188,43769,2,0,L|499:161,1,17.9999995231628,2|0,2:0|2:0,2:0:0:0:
99,103,43941,22,0,L|70:303,3,179.999995231629,2|0|0|2,1:2|2:0|2:0|2:0,2:0:0:0:
187,134,44284,22,0,B|293:98|293:98|329:134|401:111,1,202.499994635583,8|0,2:0|2:0,2:0:0:0:
512,27,44626,6,0,P|392:106|419:182,1,197.999994754791,6|0,1:2|2:0,2:0:0:0:
320,289,44798,2,0,L|299:177,1,89.9999976158143,2|0,2:0|2:0,2:0:0:0:
23,74,44969,2,0,L|45:-10,1,53.9999985694884,8|0,2:0|2:0,2:0:0:0:
104,67,45141,2,0,L|112:113,1,26.9999992847443,2|0,2:0|2:0,2:0:0:0:
0,384,45312,21,2,1:2:0:0:
86,276,45398,2,0,P|214:227|171:65,1,323.999991416931,0|2,2:0|2:0,2:0:0:0:
19,212,45655,2,0,B|93:183|93:183|120:211|120:211|96:265,1,161.999995708466,8|0,2:0|2:0,2:0:0:0:
186,355,45826,22,0,B|263:336|263:336|285:298,1,116.999996900559,2|0,2:0|2:0,2:0:0:0:
4,287,45998,1,0,1:2:0:0:
265,287,46169,22,0,B|257:272|257:272|280:211|280:211|427:257|427:257|441:328|441:328,2,269.999992847443,2|8|2,2:0|2:0|2:0,2:0:0:0:
460,143,46598,21,0,2:0:0:0:
499,207,46684,2,0,B|510:70|510:70|376:218,1,269.999992847443,0|0,1:2|2:0,2:0:0:0:
323,370,46855,2,0,B|331:327|331:327|375:339,1,89.9999976158143,2|0,2:0|2:0,2:0:0:0:
490,362,47026,21,8,2:0:0:0:
497,352,47112,1,0,2:0:0:0:
482,339,47198,1,2,2:0:0:0:
475,354,47284,1,0,2:0:0:0:
258,384,47369,6,0,L|251:354,1,17.9999995231628,6|0,1:2|2:0,2:0:0:0:
276,23,47541,2,0,L|248:231,1,179.999995231629,2|0,2:0|2:0,2:0:0:0:
249,384,47712,22,0,L|256:354,1,17.9999995231628,10|0,2:0|2:0,2:0:0:0:
249,0,47884,2,0,L|269:241,1,215.999994277954,2|0,2:0|2:0,2:0:0:0:
296,296,48055,21,2,1:2:0:0:
234,151,48141,2,0,L|298:76,1,67.4999982118609,0|0,2:0|2:0,2:0:0:0:
336,45,48312,1,2,2:0:0:0:
267,5,48398,22,0,L|250:331,1,269.999992847443,8|0,2:0|2:0,2:0:0:0:
262,357,48569,1,10,2:0:0:0:
262,357,48655,2,0,L|265:380,1,17.9999995231628,8|0,2:0|2:0,2:0:0:0:
126,55,48912,22,0,L|168:257,1,161.999995708466,2|0,2:0|2:0,2:0:0:0:
382,330,49084,2,0,L|393:289,1,26.9999992847443,10|0,2:0|2:0,2:0:0:0:
387,0,49255,22,0,L|332:220,1,179.999995231629,2|0,2:0|2:0,2:0:0:0:
263,256,49426,2,0,L|252:220,1,35.9999990463257,2|0,1:2|2:0,2:0:0:0:
102,147,49684,21,2,2:0:0:0:
13,206,49769,2,0,L|37:391,1,179.999995231629,8|0,2:0|2:0,2:0:0:0:
105,328,49941,1,2,2:0:0:0:
38,292,50026,1,0,2:0:0:0:
4,360,50112,6,0,P|104:273|80:209,1,197.999994754791,6|0,1:2|2:0,2:0:0:0:
294,122,50284,2,0,L|249:6,1,89.9999976158143,2|0,2:0|2:0,2:0:0:0:
512,235,50455,2,0,L|431:314,1,62.9999983310699,8|0,2:0|2:0,2:0:0:0:
438,193,50626,2,0,L|462:143,1,35.9999990463257,2|0,2:0|2:0,2:0:0:0:
512,57,50798,21,2,1:2:0:0:
364,26,50884,2,0,L|407:413,1,359.999990463257,0|2,2:0|2:0,2:0:0:0:
373,308,51141,2,0,B|287:265|287:265|283:270|283:270|356:373,1,179.999995231629,8|0,2:0|2:0,2:0:0:0:
486,367,51312,21,2,2:0:0:0:
273,49,51484,2,0,L|244:279,1,134.999996423721,4|0,1:2|2:0,2:0:0:0:
23,213,51655,22,0,L|13:144,1,53.9999985694886,2|8,2:0|2:0,2:0:0:0:
79,119,51998,1,0,1:2:0:0:
466,210,52169,2,0,L|457:245,1,26.9999992847443,0|0,1:2|2:0,2:0:0:0:
401,287,52341,1,0,1:2:0:0:
334,246,52426,1,0,1:2:0:0:
392,165,52512,22,0,L|78:211,1,269.999992847443,12|0,2:0|2:0,2:0:0:0:
187,168,52684,2,0,L|364:209,1,134.999996423721,2|0,2:0|2:0,2:0:0:0:
502,363,52855,38,0,L|510:329,1,17.9999995231628,4|0,1:2|2:0,2:0:0:0:
75,275,53026,2,0,L|70:242,1,17.9999995231628,2|0,2:0|2:0,2:0:0:0:
12,211,53198,22,0,L|19:186,1,17.9999995231628,10|0,2:0|2:0,2:0:0:0:
473,119,53369,2,0,L|466:94,1,17.9999995231628,2|0,2:0|2:0,2:0:0:0:
76,4,53541,22,0,L|82:70,1,35.9999990463257,2|0,1:2|2:0,2:0:0:0:
382,189,53712,21,2,2:0:0:0:
393,117,53798,1,0,2:0:0:0:
164,223,53884,6,0,L|158:289,1,35.9999990463257,10|0,2:0|2:0,2:0:0:0:
310,296,54055,6,0,L|316:362,1,35.9999990463257,2|0,2:0|2:0,2:0:0:0:
258,384,54226,37,0,1:2:0:0:
260,8,54398,6,0,P|265:60|256:125,1,89.9999976158143,2|0,2:0|2:0,2:0:0:0:
258,384,54569,37,8,2:0:0:0:
252,8,54741,6,0,P|247:60|256:125,1,89.9999976158143,2|0,2:0|2:0,2:0:0:0:
258,384,54912,37,0,1:2:0:0:
257,11,55084,22,0,P|257:58|257:115,1,89.9999976158143,2|0,2:0|2:0,2:0:0:0:
498,0,55255,38,0,P|503:52|494:117,1,89.9999976158143,8|0,2:0|2:0,2:0:0:0:
27,0,55426,6,0,P|22:52|31:117,1,89.9999976158143,2|0,2:0|2:0,2:0:0:0:
222,185,55598,38,0,B|316:252|316:252|330:247|330:247|317:170,1,179.999995231629,0|0,1:2|2:0,2:0:0:0:
279,128,55769,2,0,B|129:202|129:202|121:217|121:217|123:267|61:298,2,269.999992847443,2|8|2,2:0|2:0|2:0,2:0:0:0:
385,268,56198,5,0,2:0:0:0:
340,330,56284,2,0,B|313:313|313:313|284:162,1,134.999996423721,2|0,1:2|2:0,2:0:0:0:
498,138,56455,37,2,2:0:0:0:
423,173,56541,1,0,2:0:0:0:
507,150,56626,2,0,B|488:225|488:225|466:241|468:269,1,107.999997138977,8|0,2:0|2:0,2:0:0:0:
192,369,56798,6,0,B|250:344|199:316|261:290|261:290|469:332|469:332|502:399,1,359.999990463257,2|0,2:0|1:2,2:0:0:0:
205,223,57055,1,0,2:0:0:0:
148,175,57141,2,0,B|116:109|116:109|170:174,1,134.999996423721,2|0,2:0|2:0,2:0:0:0:
294,73,57312,2,0,B|332:-20|332:-20|324:63,1,179.999995231629,10|0,2:0|2:0,2:0:0:0:
103,285,57484,5,2,2:0:0:0:
27,259,57569,1,0,2:0:0:0:
0,330,57655,2,0,B|16:371|16:371|46:389,1,67.4999982118609,2|0,1:2|2:0,2:0:0:0:
83,206,57826,22,0,B|217:156|217:156|234:103,1,179.999995231629,2|0,2:0|2:0,2:0:0:0:
429,28,57998,21,10,2:0:0:0:
497,83,58084,1,0,2:0:0:0:
466,164,58169,1,2,2:0:0:0:
398,113,58255,1,0,2:0:0:0:
507,103,58341,22,0,B|379:141|379:141|382:166|354:203,1,179.999995231629,6|0,1:2|2:0,2:0:0:0:
40,67,58512,2,0,L|26:8,1,35.9999990463257,2|0,2:0|2:0,2:0:0:0:
117,0,58684,22,0,L|102:58,1,35.9999990463257,10|0,2:0|2:0,2:0:0:0:
426,298,58855,1,2,2:0:0:0:
426,298,58941,1,0,2:0:0:0:
487,252,59026,22,0,L|501:189,1,35.9999990463257,2|0,1:2|2:0,2:0:0:0:
101,114,59198,2,0,L|118:181,1,35.9999990463257,2|0,2:0|2:0,2:0:0:0:
286,241,59369,37,10,2:0:0:0:
309,163,59455,1,0,2:0:0:0:
229,146,59541,1,2,2:0:0:0:
208,226,59626,1,0,2:0:0:0:
0,189,59712,6,0,B|22:164|22:164|148:188,1,134.999996423721,0|0,1:2|2:0,2:0:0:0:
507,188,59884,2,0,P|455:201|388:192,1,89.9999976158143,2|0,2:0|2:0,2:0:0:0:
0,189,60055,5,8,2:0:0:0:
507,196,60226,2,0,P|455:183|388:192,1,89.9999976158143,2|0,2:0|2:0,2:0:0:0:
0,189,60398,5,0,1:2:0:0:
512,190,60569,2,0,P|451:191|408:192,1,89.9999976158143,2|0,2:0|2:0,2:0:0:0:
156,193,60741,5,8,2:0:0:0:
156,193,60826,1,8,2:0:0:0:
338,171,60912,5,10,2:0:0:0:
338,171,60998,1,8,2:0:0:0:
237,125,61084,6,0,L|254:309,1,134.999996423721,6|0,1:2|2:0,2:0:0:0:
256,116,61426,6,0,L|251:273,1,134.999996423721,6|0,1:2|2:0,2:0:0:0:
284,111,61769,6,0,L|256:250,1,134.999996423721,6|0,1:2|2:0,2:0:0:0:
291,384,61941,2,0,L|249:187,1,134.999996423721,6|0,1:2|2:0,2:0:0:0:
249,0,62112,2,0,L|278:211,1,134.999996423721,6|0,1:2|2:0,2:0:0:0:
278,207,62284,5,2,2:0:0:0:
0,346,63826,22,0,B|52:318|52:318|79:206|205:204,1,215.999994277954,6|2,1:2|2:0,2:0:0:0:
258,384,64084,1,2,2:0:0:0:
212,305,64169,2,0,L|71:273,1,107.999997138977,10|0,2:0|2:0,2:0:0:0:
48,182,64341,5,0,2:0:0:0:
80,95,64426,1,0,2:0:0:0:
154,120,64512,2,0,B|188:305|188:305|240:346,1,215.999994277954,0|2,1:2|2:0,2:0:0:0:
351,178,64769,21,2,2:0:0:0:
315,147,64855,2,0,P|262:166|263:239,1,107.999997138977,10|0,2:0|2:0,2:0:0:0:
339,361,65026,21,2,2:0:0:0:
412,384,65112,1,0,2:0:0:0:
339,361,65198,2,0,B|311:337|311:337|330:240,1,107.999997138977,2|0,1:2|2:0,2:0:0:0:
459,168,65369,2,0,B|514:147|514:147|443:186,1,107.999997138977,2|0,2:0|2:0,2:0:0:0:
409,251,65541,21,10,2:0:0:0:
403,234,65626,1,0,2:0:0:0:
490,264,65712,5,2,2:0:0:0:
484,281,65798,1,2,2:0:0:0:
436,350,65884,6,0,L|417:84,1,215.999994277954,2|2,1:2|2:0,2:0:0:0:
411,7,66141,1,0,2:0:0:0:
489,20,66226,2,0,B|475:71|475:71|434:86|434:128,1,107.999997138977,10|2,2:0|2:0,2:0:0:0:
343,127,66398,21,2,2:0:0:0:
269,89,66484,1,0,2:0:0:0:
235,127,66569,2,0,P|263:186|327:179,1,107.999997138977,2|0,1:2|2:0,2:0:0:0:
512,235,66741,2,0,L|352:269,1,107.999997138977,2|0,2:0|2:0,2:0:0:0:
250,286,66912,5,10,2:0:0:0:
235,366,66998,1,2,2:0:0:0:
311,371,67084,1,2,2:0:0:0:
328,293,67169,1,2,2:0:0:0:
279,329,67255,6,0,P|157:301|146:186,1,215.999994277954,2|2,1:2|2:0,2:0:0:0:
127,76,67512,1,2,2:0:0:0:
73,18,67598,2,0,P|13:50|8:117,1,107.999997138977,10|0,2:0|2:0,2:0:0:0:
233,255,67769,2,0,P|297:225|284:152,1,107.999997138977,2|0,2:0|2:0,2:0:0:0:
28,191,67941,22,0,L|1:201,2,26.9999984607697,4|0|0,1:2|2:0|2:0,2:0:0:0:
235,167,68112,21,2,2:0:0:0:
159,145,68198,1,2,2:0:0:0:
247,152,68284,2,0,L|383:172,1,107.999997138977,2|0,2:0|2:0,2:0:0:0:
419,197,68455,2,0,L|515:163,1,67.4999982118609,2|0,1:2|2:0,2:0:0:0:
156,227,68626,21,2,2:0:0:0:
122,208,68712,1,2,2:0:0:0:
86,168,68798,1,2,2:0:0:0:
64,101,68884,1,2,2:0:0:0:
44,25,68969,6,0,P|17:15|37:33,1,67.4999982118609,10|0,2:0|2:0,2:0:0:0:
236,212,69141,6,0,P|246:185|228:205,1,67.4999982118609,0|0,2:0|2:0,2:0:0:0:
307,364,69312,22,0,P|334:374|314:356,1,71.9999980926514,6|10,1:2|2:0,2:0:0:0:
268,299,70169,1,2,2:0:0:0:
196,327,70341,1,2,2:0:0:0:
140,275,70512,2,0,L|135:254,1,17.9999995231628,2|0,2:0|2:0,2:0:0:0:
62,276,70855,1,8,2:0:0:0:
17,216,71026,1,2,2:0:0:0:
17,216,71369,5,8,2:0:0:0:
88,188,71541,1,2,2:0:0:0:
17,216,71712,1,2,2:0:0:0:
88,188,71884,1,2,2:0:0:0:
97,96,72055,6,0,P|76:90|88:107,1,53.9999985694885,2|2,1:2|1:2,2:0:0:0:
161,50,72741,1,10,2:0:0:0:
235,74,72912,1,2,2:0:0:0:
274,143,73084,1,2,1:2:0:0:
349,130,73255,1,2,1:2:0:0:
475,69,73598,21,8,2:0:0:0:
395,68,73769,1,2,2:0:0:0:
349,130,73941,1,2,2:0:0:0:
382,201,74112,21,8,2:0:0:0:
375,239,74226,1,0,2:0:0:0:
334,259,74341,1,0,2:0:0:0:
290,242,74455,1,2,2:0:0:0:
395,376,74626,21,0,1:2:0:0:
438,313,74712,1,0,1:2:0:0:
510,347,74798,6,0,P|521:366|501:359,1,53.9999985694885,2|0,1:2|1:2,2:0:0:0:
378,257,75484,5,10,2:0:0:0:
356,182,75655,1,2,2:0:0:0:
337,104,75826,1,2,2:0:0:0:
271,56,75998,1,10,2:0:0:0:
271,56,76341,21,10,2:0:0:0:
203,97,76512,1,2,2:0:0:0:
22,39,76855,5,10,2:0:0:0:
44,110,77026,1,2,2:0:0:0:
99,55,77198,1,2,2:0:0:0:
125,131,77369,2,0,P|128:133|123:140,1,8.99999976158142,2|0,1:2|2:0,2:0:0:0:
64,192,77541,6,0,P|53:210|73:203,1,53.9999985694885,2|0,1:2|1:2,2:0:0:0:
144,241,78226,1,10,2:0:0:0:
159,318,78398,1,0,2:0:0:0:
221,365,78569,1,2,2:0:0:0:
285,320,78741,21,0,1:2:0:0:
79,283,78912,1,0,1:2:0:0:
285,320,79084,2,0,P|296:275|304:256,1,67.4999982118609,2|0,2:0|2:0,2:0:0:0:
311,237,79255,1,0,2:0:0:0:
426,91,79598,22,0,P|380:103|352:113,1,67.4999982118609,10|0,2:0|2:0,2:0:0:0:
188,171,79769,1,2,2:0:0:0:
426,91,79941,22,0,P|380:103|352:113,1,67.4999982118609,10|0,2:0|2:0,2:0:0:0:
260,181,80112,1,10,2:0:0:0:
188,171,80198,1,8,2:0:0:0:
135,230,80284,38,0,P|166:305|192:385,1,134.999996423722,6|0,1:2|2:0,2:0:0:0:
94,330,80798,1,0,2:0:0:0:
377,230,80969,6,0,P|346:305|320:385,1,134.999996423722,10|0,2:0|2:0,2:0:0:0:
429,294,81312,1,0,2:0:0:0:
325,172,81484,1,0,2:0:0:0:
159,248,81655,38,0,P|178:181|205:110,1,134.999996423722,10|0,2:0|2:0,2:0:0:0:
115,147,82169,1,0,2:0:0:0:
353,248,82341,6,0,P|334:181|307:110,1,134.999996423722,10|0,2:0|2:0,2:0:0:0:
400,115,82684,1,10,2:0:0:0:
451,2,82855,1,10,2:0:0:0:
193,23,83026,38,0,P|212:102|222:166,1,134.999996423722,10|0,2:0|2:0,2:0:0:0:
220,155,83369,1,0,2:0:0:0:
118,56,83541,1,10,2:0:0:0:
319,22,83712,6,0,P|302:88|291:155,1,134.999996423722,10|0,2:0|2:0,2:0:0:0:
389,71,84055,1,0,2:0:0:0:
471,53,84226,1,10,2:0:0:0:
146,225,84398,38,0,P|170:153|207:90,1,134.999996423722,10|0,2:0|2:0,2:0:0:0:
145,42,84741,1,0,2:0:0:0:
145,42,84912,1,10,2:0:0:0:
367,342,85084,5,10,2:0:0:0:
367,342,85255,1,10,2:0:0:0:
193,267,85426,37,10,2:0:0:0:
325,92,85598,2,0,L|293:19,1,67.4999982118609,0|0,1:2|2:0,2:0:0:0:
236,2,85769,6,0,B|213:26|213:26|253:178|253:178|360:227,1,269.999992847443,6|0,1:2|2:0,2:0:0:0:
384,164,86284,1,0,2:0:0:0:
496,223,86455,38,0,B|318:254|318:254|310:319|310:319|253:342,1,269.999992847443,6|0,1:2|2:0,2:0:0:0:
225,279,86969,1,0,2:0:0:0:
81,361,87141,22,0,B|54:340|54:340|68:229|68:229|132:255|132:255|138:313,1,269.999992847443,6|0,1:2|2:0,2:0:0:0:
30,285,87655,1,0,2:0:0:0:
124,127,87826,6,0,B|160:31|160:31|173:26|173:26|200:153,1,179.999995231629,6|8,1:2|2:0,2:0:0:0:
63,69,88169,1,8,2:0:0:0:
38,58,88255,1,8,2:0:0:0:
37,33,88341,1,8,2:0:0:0:
10,20,88426,1,8,2:0:0:0:
1,135,88512,6,0,B|275:68|275:68|332:112,1,350.999990701676,8|8,2:0|2:0,2:0:0:0:
334,130,88855,2,0,L|213:106,1,116.999996900559,8|8,2:0|2:0,2:0:0:0:
432,0,89026,1,8,2:0:0:0:
462,15,89112,1,8,2:0:0:0:
473,47,89198,2,0,B|431:69|431:69|398:229,1,116.999996900559,8|8,2:0|2:0,2:0:0:0:
448,268,89369,2,0,L|484:385,1,116.999996900559,8|8,2:0|2:0,2:0:0:0:
497,241,89541,6,0,B|470:230|470:230|456:202|456:202|373:171,1,116.999996900559,8|8,2:0|2:0,2:0:0:0:
164,125,89712,1,8,2:0:0:0:
101,161,89798,1,8,2:0:0:0:
35,119,89884,38,0,B|11:63|11:63|25:27,2,89.9999976158145,8|8|8,2:3|2:3|2:3,2:0:0:0:
122,349,90226,2,0,B|146:293|146:293|132:257,2,89.9999976158145,8|8|8,2:3|2:3|2:3,2:0:0:0:
18,305,90569,5,4,2:3:0:0:
42,314,90684,1,0,2:0:0:0:
64,217,90798,37,4,2:3:0:0:
77,204,90912,1,0,2:0:0:0:
38,119,91026,5,4,3:3:0:0:
35,110,91141,1,4,3:0:0:0:
0,33,91255,6,0,B|-5:57|-5:57|507:172|507:172|502:198,3,575.999984741211,6|6|6|6,1:2|1:2|1:2|1:2,2:0:0:0:
0,365,92626,6,0,B|21:249|21:249|410:114|410:114|450:-41,2,647.999982833862,6|6|6,1:2|1:2|1:2,2:0:0:0:
459,290,93655,22,0,L|467:322,1,26.9999992847443,2|0,2:0|2:0,2:0:0:0:
495,331,93826,2,0,L|503:363,1,26.9999992847443,2|0,2:0|2:0,2:0:0:0:
431,384,93998,22,0,B|516:243|516:243|475:188,1,215.999994277954,6|2,1:2|2:0,2:0:0:0:
412,216,94512,1,0,1:2:0:0:
364,150,94683,1,2,2:0:0:0:
353,145,94769,1,0,2:0:0:0:
222,214,95026,22,0,B|104:253|104:253|73:223,1,161.999995708465,2|0,2:0|2:0,2:0:0:0:
125,167,95369,1,2,1:2:0:0:
16,342,95540,21,2,2:0:0:0:
14,328,95626,1,0,2:0:0:0:
45,298,95712,2,0,L|88:359,1,53.9999985694884,2|0,2:0|2:0,2:0:0:0:
116,331,95883,2,0,L|105:384,1,53.9999985694884,2|0,1:2|2:0,2:0:0:0:
188,362,96055,21,2,2:0:0:0:
6,225,96226,1,0,2:0:0:0:
151,156,96398,2,0,B|183:53|183:53|130:-8,1,161.999995708465,8|0,2:0|2:0,2:0:0:0:
74,0,96740,37,2,1:2:0:0:
110,225,96912,1,0,2:0:0:0:
101,240,96998,1,0,2:0:0:0:
30,125,97255,38,0,B|60:104|60:104|187:167|187:167|229:140,1,215.999994277954,2|2,1:2|2:0,2:0:0:0:
250,72,97683,1,0,2:0:0:0:
227,62,97769,2,0,B|256:203|256:203|301:225,1,161.999995708465,2|0,2:0|2:0,2:0:0:0:
331,261,98112,2,0,B|358:307|358:307|308:361,1,107.999997138977,2|2,1:2|2:0,2:0:0:0:
189,252,98455,5,2,2:0:0:0:
475,137,98626,2,0,L|458:65,1,53.9999985694884,2|0,1:2|2:0,2:0:0:0:
477,53,98798,6,0,L|451:208,1,107.999997138977,2|0,2:0|2:0,2:0:0:0:
319,31,99055,38,0,L|293:186,1,107.999997138977,0|0,2:0|2:0,2:0:0:0:
153,4,99312,6,0,L|127:159,1,107.999997138977,0|6,2:0|1:2,2:0:0:0:
402,28,99655,37,0,2:0:0:0:
52,115,99826,2,0,B|61:146|61:146|207:101|267:289,1,269.999992847443,2|0,1:2|2:0,2:0:0:0:
222,352,100169,2,0,B|230:265|323:251|323:251|346:216,1,179.999995231629,2|0,1:2|2:0,2:0:0:0:
479,302,100426,5,2,2:0:0:0:
432,359,100512,2,0,L|302:319,1,89.9999976158143,2|0,1:2|2:0,2:0:0:0:
401,177,100683,2,0,L|531:137,1,89.9999976158143,2|0,2:0|2:0,2:0:0:0:
375,41,100855,6,0,B|272:21|272:21|239:59|199:60,1,179.999995231629,2|2,1:2|2:0,2:0:0:0:
130,34,101112,1,0,2:0:0:0:
130,34,101198,5,2,1:2:0:0:
81,21,101283,1,0,2:0:0:0:
66,69,101369,1,2,2:0:0:0:
119,82,101455,1,0,2:0:0:0:
180,133,101540,37,2,1:2:0:0:
240,200,101626,2,0,P|203:255|203:317,1,89.9999976158143,0|0,2:0|2:0,2:0:0:0:
54,220,101798,5,0,2:0:0:0:
0,299,101883,2,0,P|37:354|37:416,1,89.9999976158143,2|0,1:2|2:0,2:0:0:0:
375,253,102055,2,0,L|233:276,1,89.9999976158143,2|0,2:0|2:0,2:0:0:0:
113,293,102226,5,14,1:2:0:0:
462,362,102398,1,8,2:0:0:0:
462,362,102483,1,8,2:0:0:0:
485,284,102569,5,10,2:0:0:0:
207,145,102740,1,10,2:0:0:0:
296,59,102912,37,10,2:0:0:0:
337,50,102998,1,8,2:0:0:0:
375,45,103083,1,10,2:0:0:0:
418,41,103169,1,8,2:0:0:0:
480,98,103255,5,10,2:0:0:0:
494,182,103340,1,8,2:0:0:0:
406,225,103426,1,10,2:0:0:0:
389,140,103512,1,8,2:0:0:0:
443,145,103598,37,2,2:0:0:0:
45,284,103940,5,2,2:0:0:0:
111,247,104078,1,0,2:0:0:0:
175,209,104198,2,0,P|188:155|189:148,2,44.9999988079071,0|0|0,2:0|2:0|2:0,2:0:0:0:
111,158,104369,37,0,2:0:0:0:
111,158,104455,1,2,2:0:0:0:
25,369,104626,5,2,2:0:0:0:
277,302,104798,2,0,P|338:306|368:276,1,89.9999976158143,2|0,2:0|2:0,2:0:0:0:
512,361,104969,38,0,B|489:348|489:348|488:339|488:339|519:268|519:268|518:260|518:260|227:134|227:134|227:147|227:147|279:178|270:238,1,539.999985694885,6|0,1:2|2:0,2:0:0:0:
409,180,105312,22,0,B|399:190|399:190|138:233|138:233|133:242|133:242|83:272|104:314,1,359.999990463257,10|2,2:0|1:2,2:0:0:0:
108,381,105569,1,2,1:2:0:0:
171,314,105655,22,0,P|123:115|-36:139,1,359.999990463257,2|0,1:2|2:0,2:0:0:0:
74,185,105912,1,2,1:2:0:0:
112,90,105998,2,0,P|11:123|3:181,1,134.999996423721,10|0,2:0|2:0,2:0:0:0:
2,372,106169,22,0,B|18:379|18:379|174:121|516:163,1,539.999985694885,6|0,1:2|2:0,2:0:0:0:
503,96,106512,1,2,2:0:0:0:
503,96,106598,1,0,2:0:0:0:
487,17,106683,22,0,L|447:30,1,26.9999992847443,10|0,2:0|2:0,2:0:0:0:
33,256,106855,2,0,L|58:264,1,26.9999992847443,2|0,2:0|2:0,2:0:0:0:
322,317,107026,21,2,1:2:0:0:
234,382,107112,2,0,L|251:306,1,53.9999985694884,0|0,2:0|2:0,2:0:0:0:
296,97,107283,1,2,2:0:0:0:
228,44,107369,22,0,B|223:68|223:68|294:104|272:206,1,179.999995231629,8|0,2:0|2:0,2:0:0:0:
212,250,107540,1,0,2:0:0:0:
148,201,107626,1,0,2:0:0:0:
193,136,107712,6,0,B|336:186|336:186|350:236|390:242,1,179.999995231629,6|0,1:2|2:0,2:0:0:0:
512,340,107883,2,0,L|392:354,1,89.9999976158143,2|0,2:0|2:0,2:0:0:0:
356,287,108055,22,0,B|376:198|450:183|450:183|462:139,1,179.999995231629,8|2,2:0|2:0,2:0:0:0:
302,0,108312,1,0,2:0:0:0:
248,55,108398,1,2,1:2:0:0:
354,113,108483,22,0,B|379:134|379:134|393:286,1,143.999996185303,0|2,2:0|2:0,2:0:0:0:
148,367,108740,2,0,L|163:293,1,53.9999985694884,8|0,2:0|2:0,2:0:0:0:
235,334,108912,21,2,2:0:0:0:
61,194,109083,2,0,B|46:106|46:106|76:79|76:38,1,134.999996423721,0|0,1:2|2:0,2:0:0:0:
0,35,109255,22,0,B|-21:63|-21:63|-4:104|-4:104|143:84|157:225,2,269.999992847443,2|8|2,2:0|2:0|2:0,2:0:0:0:
259,4,109683,1,0,2:0:0:0:
322,60,109769,2,0,P|280:151|189:106,1,161.999995708466,0|0,1:2|2:0,2:0:0:0:
168,71,109940,1,2,2:0:0:0:
183,63,110026,1,0,2:0:0:0:
256,293,110112,21,8,2:0:0:0:
205,278,110198,1,0,2:0:0:0:
153,261,110283,1,2,2:0:0:0:
101,246,110369,1,0,2:0:0:0:
27,271,110455,6,0,L|21:237,1,17.9999995231628,6|0,1:2|2:0,2:0:0:0:
4,178,110626,2,0,L|299:114,1,179.999995231629,2|0,2:0|2:0,2:0:0:0:
465,86,110798,22,0,L|459:126,1,26.9999992847443,10|0,2:0|2:0,2:0:0:0:
506,195,110969,1,2,2:0:0:0:
396,153,111055,1,0,2:0:0:0:
506,195,111140,22,0,B|498:221|498:221|358:222|317:366,1,269.999992847443,2|0,1:2|2:0,2:0:0:0:
425,248,111398,1,2,2:0:0:0:
485,296,111483,2,0,P|443:343|386:317,1,134.999996423721,8|0,2:0|2:0,2:0:0:0:
237,64,111655,21,10,2:0:0:0:
279,0,111740,1,8,2:0:0:0:
237,64,111826,2,0,L|241:104,1,26.9999992847443,2|0,1:2|2:0,2:0:0:0:
242,382,111998,2,0,L|280:154,1,179.999995231629,2|0,2:0|2:0,2:0:0:0:
318,3,112169,22,0,L|301:60,1,35.9999990463257,10|0,2:0|2:0,2:0:0:0:
181,323,112340,2,0,L|154:87,1,197.999994754791,2|0,2:0|2:0,2:0:0:0:
335,146,112512,21,2,1:2:0:0:
396,200,112598,2,0,L|418:348,2,134.999996423721,0|0|2,2:0|2:0|2:0,2:0:0:0:
507,282,112855,22,0,B|491:291|491:291|345:196|220:221,1,269.999992847443,8|2,2:0|2:0,2:0:0:0:
25,315,113112,1,0,2:0:0:0:
70,378,113198,6,0,P|160:310|126:215,1,179.999995231629,6|0,1:2|2:0,2:0:0:0:
36,28,113369,2,0,B|33:41|33:41|53:136,1,89.9999976158143,2|0,2:0|2:0,2:0:0:0:
5,234,113540,21,8,2:0:0:0:
78,259,113626,1,0,2:0:0:0:
107,181,113712,1,2,2:0:0:0:
27,158,113798,1,0,2:0:0:0:
57,207,113883,21,2,1:2:0:0:
188,153,113969,2,0,B|240:26|240:26|103:113,1,269.999992847443,0|2,2:0|2:0,2:0:0:0:
226,319,114226,2,0,B|291:333|291:333|297:352|297:352|393:371,1,134.999996423721,8|0,2:0|2:0,2:0:0:0:
479,378,114398,21,2,2:0:0:0:
141,350,114569,2,0,L|122:221,1,89.9999976158143,4|0,1:2|2:0,2:0:0:0:
433,144,114740,22,0,L|458:21,1,107.999997138977,2|8,2:0|2:0,2:0:0:0:
390,0,115083,1,0,1:2:0:0:
62,204,115255,22,0,L|54:158,1,35.9999990463257,0|0,1:2|2:0,2:0:0:0:
116,117,115426,1,0,1:2:0:0:
181,161,115512,1,0,1:2:0:0:
255,136,115598,22,0,L|239:-14,1,134.999996423721,12|0,2:0|2:0,2:0:0:0:
263,6,115769,22,0,L|235:196,1,179.999995231629,2|0,2:0|2:0,2:0:0:0:
214,379,115940,6,0,L|251:371,1,26.9999992847443,4|0,1:2|2:0,2:0:0:0:
283,310,116112,2,0,L|320:318,1,26.9999992847443,2|0,2:0|2:0,2:0:0:0:
72,272,116283,22,0,L|109:264,1,26.9999992847443,10|0,2:0|2:0,2:0:0:0:
447,126,116455,2,0,L|484:134,1,26.9999992847443,2|0,2:0|2:0,2:0:0:0:
31,53,116626,22,0,L|-6:45,1,26.9999992847443,2|0,1:2|2:0,2:0:0:0:
81,112,116798,21,2,2:0:0:0:
179,69,116883,1,0,2:0:0:0:
234,125,116969,6,0,L|206:214,1,53.9999985694884,10|0,2:0|2:0,2:0:0:0:
396,316,117140,6,0,L|368:227,1,53.9999985694884,2|0,2:0|2:0,2:0:0:0:
258,0,117312,37,0,1:2:0:0:
260,376,117483,6,0,P|265:324|256:259,1,89.9999976158143,2|0,2:0|2:0,2:0:0:0:
258,0,117655,37,8,2:0:0:0:
252,376,117826,6,0,P|247:324|256:259,1,89.9999976158143,2|0,2:0|2:0,2:0:0:0:
258,0,117998,37,0,1:2:0:0:
257,373,118169,22,0,P|257:326|257:269,1,89.9999976158143,2|0,2:0|2:0,2:0:0:0:
498,384,118340,38,0,P|503:332|494:267,1,89.9999976158143,8|0,2:0|2:0,2:0:0:0:
27,384,118512,6,0,P|22:332|31:267,1,89.9999976158143,2|0,2:0|2:0,2:0:0:0:
214,100,118683,38,0,B|147:108|147:108|130:150|130:150|58:181,1,179.999995231629,0|0,1:2|2:0,2:0:0:0:
26,112,118855,6,0,B|203:189|203:189|211:233|267:271,1,269.999992847443,2|8,2:0|2:0,2:0:0:0:
339,191,119112,1,0,2:0:0:0:
299,123,119198,1,2,2:0:0:0:
376,94,119283,1,0,2:0:0:0:
347,27,119369,38,0,B|311:293|311:293|274:327,1,305.999991893768,2|2,1:2|2:0,2:0:0:0:
414,161,119626,1,0,2:0:0:0:
481,124,119712,2,0,B|540:100|540:100|464:163,1,134.999996423721,8|0,2:0|2:0,2:0:0:0:
166,347,119883,6,0,B|195:343|195:343|216:327|216:327|447:388,1,269.999992847443,2|0,2:0|1:2,2:0:0:0:
511,311,120140,1,0,2:0:0:0:
468,241,120226,2,0,P|394:277|433:342,1,107.999997138977,2|0,2:0|2:0,2:0:0:0:
96,266,120398,2,0,P|62:227|90:142,1,107.999997138977,10|0,2:0|2:0,2:0:0:0:
180,82,120569,5,2,2:0:0:0:
220,13,120655,1,0,2:0:0:0:
204,101,120740,2,0,B|182:182|182:182|139:218,1,125.99999666214,2|0,1:2|2:0,2:0:0:0:
0,384,120912,2,0,B|38:352|38:352|177:334,1,125.99999666214,2|0,2:0|2:0,2:0:0:0:
328,334,121083,21,10,2:0:0:0:
401,324,121169,1,0,2:0:0:0:
390,245,121255,1,2,2:0:0:0:
314,254,121340,1,0,2:0:0:0:
252,384,121426,22,0,L|240:300,1,67.4999982118609,6|0,1:2|2:0,2:0:0:0:
439,48,121598,2,0,L|435:85,1,26.9999992847443,2|0,2:0|2:0,2:0:0:0:
53,5,121769,22,0,L|68:91,1,67.4999982118609,10|0,2:0|2:0,2:0:0:0:
189,255,121940,2,0,L|197:211,1,26.9999992847443,2|0,2:0|2:0,2:0:0:0:
512,189,122112,22,0,L|496:107,1,67.4999982118609,2|0,1:2|2:0,2:0:0:0:
23,332,122283,22,0,L|55:190,1,89.9999976158143,2|0,2:0|2:0,2:0:0:0:
406,0,122455,2,0,L|426:126,1,89.9999976158143,10|0,2:0|2:0,2:0:0:0:
141,126,122626,1,2,2:0:0:0:
119,200,122712,1,0,2:0:0:0:
276,383,122798,38,0,B|303:348|303:348|255:221,1,134.999996423721,0|0,1:2|2:0,2:0:0:0:
4,10,122969,2,0,P|77:9|118:45,1,89.9999976158143,2|0,2:0|2:0,2:0:0:0:
510,172,123140,6,0,L|490:179,1,17.9999995231628,8|0,2:0|2:0,2:0:0:0:
4,374,123312,2,0,P|77:375|118:339,1,89.9999976158143,2|0,2:0|2:0,2:0:0:0:
467,189,123483,6,0,L|447:182,1,17.9999995231628,0|0,1:2|2:0,2:0:0:0:
23,195,123655,2,0,P|79:194|173:198,1,89.9999976158143,2|0,2:0|2:0,2:0:0:0:
376,218,123826,5,8,2:0:0:0:
332,153,123912,1,8,2:0:0:0:
399,118,123998,1,10,2:0:0:0:
360,52,124083,1,8,2:0:0:0:
506,19,124169,6,0,L|332:44,1,134.999996423721,6|0,1:2|2:0,2:0:0:0:
287,81,124512,6,0,L|140:60,1,134.999996423721,6|0,1:2|2:0,2:0:0:0:
5,73,124855,6,0,L|215:24,1,134.999996423721,6|0,1:2|2:0,2:0:0:0:
480,27,125026,2,0,L|282:17,1,134.999996423721,6|0,1:2|2:0,2:0:0:0:
24,10,125198,2,0,L|206:36,1,134.999996423721,6|0,1:2|2:0,2:0:0:0:
249,44,125369,5,2,2:0:0:0:
7,21,126912,22,0,B|17:46|17:46|147:50|160:182,1,233.999993801117,6|2,1:2|2:0,2:0:0:0:
328,147,127169,1,2,2:0:0:0:
260,185,127255,2,0,P|183:233|192:269,1,116.999996900559,10|0,2:0|2:0,2:0:0:0:
64,334,127426,21,0,2:0:0:0:
142,362,127512,1,0,2:0:0:0:
64,334,127598,2,0,B|46:301|46:301|100:96,1,233.999993801117,0|2,1:2|2:0,2:0:0:0:
230,9,127855,21,2,2:0:0:0:
267,80,127940,2,0,B|257:99|257:99|147:72,1,116.999996900559,10|0,2:0|2:0,2:0:0:0:
25,171,128112,1,2,2:0:0:0:
38,201,128198,1,0,2:0:0:0:
101,250,128283,2,0,B|136:225|136:225|117:111,1,116.999996900559,2|0,1:2|2:0,2:0:0:0:
11,0,128455,2,0,B|27:60|66:9|90:96,1,116.999996900559,2|0,2:0|2:0,2:0:0:0:
211,186,128626,21,10,2:0:0:0:
228,192,128712,1,0,2:0:0:0:
277,111,128798,21,2,2:0:0:0:
260,117,128883,1,2,2:0:0:0:
281,246,128969,22,0,L|224:17,1,233.999993801117,2|2,1:2|2:0,2:0:0:0:
345,0,129226,1,0,2:0:0:0:
397,58,129312,2,0,L|347:199,1,116.999996900559,10|2,2:0|2:0,2:0:0:0:
275,337,129483,21,2,2:0:0:0:
344,307,129569,1,0,2:0:0:0:
409,354,129655,2,0,B|437:351|437:351|458:305|528:298,1,116.999996900559,2|0,1:2|2:0,2:0:0:0:
512,384,129826,2,0,P|476:250|366:253,1,233.999993801117,2|10,2:0|2:0,2:0:0:0:
234,148,130083,21,2,2:0:0:0:
204,63,130169,1,2,2:0:0:0:
295,88,130255,1,2,2:0:0:0:
141,156,130340,22,0,B|135:175|135:175|9:199|23:354,1,233.999993801117,2|2,1:2|2:0,2:0:0:0:
79,384,130598,1,2,2:0:0:0:
121,282,130683,2,0,B|107:229|107:229|67:215|57:148,1,116.999996900559,10|0,2:0|2:0,2:0:0:0:
0,85,130855,1,2,2:0:0:0:
15,49,130940,1,0,2:0:0:0:
89,27,131026,38,0,L|72:-17,2,29.249997886181,4|0|0,1:2|2:0|2:0,2:0:0:0:
141,156,131198,53,10,2:0:0:0:
77,105,131283,1,2,2:0:0:0:
156,76,131369,2,0,P|221:48|282:27,1,116.999996900559,2|0,2:0|2:0,2:0:0:0:
400,152,131540,2,0,P|335:124|274:103,1,116.999996900559,2|0,1:2|2:0,2:0:0:0:
492,157,131712,37,2,1:2:0:0:
512,179,131798,1,2,2:0:0:0:
512,232,131883,1,2,1:2:0:0:
459,285,131969,1,2,1:2:0:0:
388,258,132055,22,0,B|368:242|368:242|349:123,1,116.999996900559,10|0,2:0|2:0,2:0:0:0:
493,18,132226,2,0,B|486:44|486:44|433:62|423:130,1,116.999996900559,2|0,2:0|2:0,2:0:0:0:
257,219,132398,22,0,B|259:238|259:238|383:265|395:393,1,233.999993801117,6|2,1:2|2:0,2:0:0:0:
502,265,132655,1,2,2:0:0:0:
439,210,132740,2,0,B|347:227|347:227|318:278,1,116.999996900559,10|0,2:0|2:0,2:0:0:0:
254,360,132912,21,0,2:0:0:0:
165,331,132998,1,0,2:0:0:0:
258,319,133083,2,0,P|125:363|107:231,1,233.999993801117,0|2,1:2|2:0,2:0:0:0:
0,234,133340,21,2,2:0:0:0:
38,310,133426,2,0,P|87:264|44:202,1,116.999996900559,10|0,2:0|2:0,2:0:0:0:
125,45,133598,21,2,2:0:0:0:
197,29,133683,1,0,2:0:0:0:
218,56,133769,2,0,B|203:103|203:103|154:116|156:176,1,116.999996900559,2|0,1:2|2:0,2:0:0:0:
221,197,133940,2,0,B|247:244|247:244|222:149,1,116.999996900559,2|0,2:0|2:0,2:0:0:0:
36,22,134112,21,10,2:0:0:0:
30,39,134198,1,0,2:0:0:0:
84,140,134283,21,2,2:0:0:0:
78,123,134369,1,2,2:0:0:0:
0,123,134455,22,0,L|272:78,1,233.999993801117,2|2,1:2|2:0,2:0:0:0:
359,61,134712,1,0,2:0:0:0:
408,132,134798,2,0,B|321:148|321:148|282:126,1,116.999996900559,10|2,2:0|2:0,2:0:0:0:
451,26,134969,21,2,2:0:0:0:
478,17,135055,1,0,2:0:0:0:
476,106,135140,2,0,B|468:183|429:149|416:233,1,116.999996900559,2|0,1:2|2:0,2:0:0:0:
324,289,135312,2,0,B|348:371|348:371|390:387,1,116.999996900559,2|0,2:0|2:0,2:0:0:0:
156,314,135483,21,10,2:0:0:0:
173,236,135569,1,2,2:0:0:0:
249,241,135655,1,2,2:0:0:0:
234,321,135740,1,2,2:0:0:0:
205,277,135826,22,0,P|335:250|408:308,1,233.999993801117,2|2,1:2|2:0,2:0:0:0:
472,350,136083,1,2,2:0:0:0:
503,280,136169,2,0,B|483:204|483:204|451:193|449:163,1,116.999996900559,10|0,2:0|2:0,2:0:0:0:
360,74,136340,21,2,2:0:0:0:
387,0,136426,1,0,2:0:0:0:
360,74,136512,2,0,B|256:97|256:97|235:169|137:164,1,233.999993801117,4|10,1:2|2:0,2:0:0:0:
3,5,136769,5,2,2:0:0:0:
61,64,136855,2,0,L|191:83,1,116.999996900559,2|0,2:0|2:0,2:0:0:0:
375,197,137026,2,0,L|245:216,1,116.999996900559,2|0,1:2|2:0,2:0:0:0:
40,226,137198,37,2,1:2:0:0:
26,255,137283,1,2,2:0:0:0:
37,315,137369,1,2,1:2:0:0:
106,359,137455,1,2,1:2:0:0:
187,320,137540,22,0,P|158:254|95:269,1,116.999996900559,10|0,2:0|2:0,2:0:0:0:
1,143,137712,2,0,P|73:127|77:71,1,116.999996900559,2|0,2:0|2:0,2:0:0:0:
149,0,137883,22,0,L|138:39,1,35.9999990463257,2|0,2:0|2:0,2:0:0:0:
