osu file format v14

[General]
AudioFilename: audio.mp3
AudioLeadIn: 0
PreviewTime: 44795
Countdown: 0
SampleSet: Normal
StackLeniency: 0.7
Mode: 1
LetterboxInBreaks: 0
WidescreenStoryboard: 1

[Editor]
DistanceSpacing: 0.4
BeatDivisor: 4
GridSize: 16
TimelineZoom: 2.4

[Metadata]
Title:Alma
TitleUnicode:アルマ
Artist::) feat. KAFU
ArtistUnicode:ت feat. 可不
Creator:D3kuu
Version:Kantan
Source:
Tags:japanese electronic j pop jpop j-pop vocaloid ボーカロイド cevio ai vocal synthesizer
BeatmapID:4018005
BeatmapSetID:1942444

[Difficulty]
HPDrainRate:8
CircleSize:5
OverallDifficulty:3.5
ApproachRate:5
SliderMultiplier:1.4
SliderTickRate:1

[Events]
//Background and Video events
0,0,"bg.png",0,27
//Break Periods
2,94709,104452
//Storyboard Layer 0 (Background)
//Storyboard Layer 1 (Fail)
//Storyboard Layer 2 (Pass)
//Storyboard Layer 3 (Foreground)
//Storyboard Layer 4 (Overlay)
//Storyboard Sound Samples

[TimingPoints]
1424,342.857142857143,4,1,0,60,1,0
1424,-125,4,1,0,60,0,0
6138,-125,4,1,0,60,0,0
6309,-125,4,1,0,60,0,0
6481,-125,4,1,0,60,0,0
6652,-125,4,1,0,60,0,0
6824,-125,4,1,0,80,0,0
6995,-125,4,1,0,60,0,0
11966,-125,4,1,0,70,0,0
12309,-125,4,1,0,90,0,0
12481,-125,4,1,0,80,0,0
17795,-125,4,1,0,80,0,0
17966,-125,4,1,0,80,0,0
20538,-125,4,1,0,80,0,0
20709,-125,4,1,0,80,0,0
23281,-125,4,1,0,80,0,0
23452,-125,4,1,0,70,0,0
28766,-125,4,1,0,80,0,0
28937,-125,4,1,0,70,0,0
34252,-125,4,1,0,80,0,0
34423,-125,4,1,0,70,0,0
39738,-125,4,1,0,80,0,0
39909,-125,4,1,0,70,0,0
42309,-125,4,1,0,80,0,0
42481,-125,4,1,0,80,0,0
45052,-125,4,1,0,80,0,0
45138,-125,4,1,0,90,0,1
45223,-125,4,1,0,90,0,1
50709,-125,4,1,0,90,0,1
50881,-125,4,1,0,90,0,1
53452,-125,4,1,0,90,0,1
53624,-125,4,1,0,90,0,1
54738,-125,4,1,0,90,0,0
56281,-125,4,1,0,90,0,1
61681,-125,4,1,0,90,0,1
61853,-125,4,1,0,90,0,1
64424,-125,4,1,0,90,0,1
64595,-125,4,1,0,90,0,1
65881,-125,4,1,0,90,0,0
65966,-125,4,1,0,40,0,0
67166,-125,4,1,0,90,0,0
67338,-125,4,1,0,80,0,0
69909,-125,4,1,0,80,0,0
70081,-125,4,1,0,80,0,0
71966,-125,4,1,0,70,0,0
72652,-125,4,1,0,80,0,0
72824,-125,4,1,0,70,0,0
78138,-125,4,1,0,80,0,0
78310,-125,4,1,0,70,0,0
83624,-125,4,1,0,80,0,0
83795,-125,4,1,0,70,0,0
89109,-125,4,1,0,80,0,0
89281,-125,4,1,0,70,0,0
91681,-125,4,1,0,80,0,0
91852,-125,4,1,0,70,0,0
94424,-125,4,1,0,80,0,0
94595,-125,4,1,0,70,0,0
105565,-125,4,1,0,80,0,0
105738,-125,4,1,0,80,0,0
116366,-125,4,1,0,80,0,0
116452,-125,4,1,0,90,0,1
116537,-125,4,1,0,90,0,1
122023,-125,4,1,0,90,0,1
122195,-125,4,1,0,90,0,1
124766,-125,4,1,0,90,0,1
124938,-125,4,1,0,90,0,1
126052,-125,4,1,0,90,0,0
127595,-125,4,1,0,90,0,1
132995,-125,4,1,0,90,0,1
133167,-125,4,1,0,90,0,1
135738,-125,4,1,0,90,0,1
135909,-125,4,1,0,90,0,1
137195,-125,4,1,0,90,0,0
138138,-125,4,1,0,90,0,0
138481,-125,4,1,0,90,0,0
138652,-125,4,1,0,80,0,0
144309,-125,4,1,0,90,0,0
144481,-125,4,1,0,80,0,0
146709,-125,4,1,0,90,0,0
146881,-125,4,1,0,80,0,0

[HitObjects]
473,168,1424,5,0,0:0:0:0:
252,171,2109,1,8,0:0:0:0:
415,154,2452,1,8,0:0:0:0:
402,141,2795,1,0,0:0:0:0:
258,107,3481,1,0,0:0:0:0:
449,148,4166,1,8,0:0:0:0:
458,149,4852,1,0,0:0:0:0:
468,151,5195,1,0,0:0:0:0:
411,140,5538,1,8,0:0:0:0:
434,154,6224,1,8,0:0:0:0:
279,99,6909,1,4,0:0:0:0:
409,142,7595,1,0,0:0:0:0:
389,164,8281,1,8,0:0:0:0:
443,158,8624,1,8,0:0:0:0:
115,152,8966,1,0,0:0:0:0:
431,157,9652,1,8,0:0:0:0:
447,155,10338,1,8,0:0:0:0:
377,88,11024,1,0,0:0:0:0:
321,168,12052,1,8,0:0:0:0:
200,240,12395,1,4,0:0:0:0:
410,145,13080,1,0,0:0:0:0:
90,151,13595,1,0,0:0:0:0:
438,134,14109,1,8,0:0:0:0:
389,162,14452,1,0,0:0:0:0:
422,138,15481,1,8,0:0:0:0:
380,143,15824,1,0,0:0:0:0:
427,156,16338,1,0,0:0:0:0:
406,142,16852,1,8,0:0:0:0:
387,157,17195,1,8,0:0:0:0:
419,119,17881,1,4,0:0:0:0:
411,151,18566,1,0,0:0:0:0:
453,161,19081,1,8,0:0:0:0:
501,172,19595,1,8,0:0:0:0:
426,157,19938,1,0,0:0:0:0:
357,133,20624,1,4,0:0:0:0:
446,158,21309,1,0,0:0:0:0:
389,154,21824,1,8,0:0:0:0:
376,143,22338,1,0,0:0:0:0:
456,127,23366,1,4,0:0:0:0:
236,150,24052,5,8,0:0:0:0:
181,68,24738,1,0,0:0:0:0:
192,76,25081,1,0,0:0:0:0:
192,76,25424,1,8,0:0:0:0:
206,105,26109,5,0,0:0:0:0:
197,146,26624,1,8,0:0:0:0:
192,117,26966,1,0,0:0:0:0:
156,182,27309,1,0,0:0:0:0:
436,161,27824,1,8,0:0:0:0:
423,144,28166,1,0,0:0:0:0:
486,123,28852,1,4,0:0:0:0:
431,145,29709,1,0,0:0:0:0:
206,185,30052,1,0,0:0:0:0:
354,156,30566,1,8,0:0:0:0:
405,163,30909,1,0,0:0:0:0:
421,160,31252,1,8,0:0:0:0:
433,144,32281,1,0,0:0:0:0:
381,144,32795,1,8,0:0:0:0:
367,164,33309,1,0,0:0:0:0:
416,149,33652,1,8,0:0:0:0:
454,100,34338,1,4,0:0:0:0:
448,160,34852,1,0,0:0:0:0:
426,131,35538,1,8,0:0:0:0:
412,130,36395,1,0,0:0:0:0:
376,133,36738,1,8,0:0:0:0:
258,198,37081,1,0,0:0:0:0:
399,146,37595,1,0,0:0:0:0:
204,68,38281,5,8,0:0:0:0:
475,146,38795,1,0,0:0:0:0:
67,185,39138,1,0,0:0:0:0:
246,202,39481,1,8,0:0:0:0:
393,203,39824,1,4,0:0:0:0:
332,123,40509,1,8,0:0:0:0:
420,160,41195,1,0,0:0:0:0:
390,151,41538,1,8,0:0:0:0:
408,170,41881,1,0,0:0:0:0:
491,132,42395,1,4,0:0:0:0:
406,153,42909,1,0,0:0:0:0:
393,150,43252,1,8,0:0:0:0:
399,180,43766,1,8,0:0:0:0:
360,148,44109,1,8,0:0:0:0:
257,202,44452,1,8,0:0:0:0:
486,117,45138,1,4,0:0:0:0:
444,142,45652,1,8,0:0:0:0:
424,145,45995,1,8,0:0:0:0:
472,149,46509,1,0,0:0:0:0:
472,149,47024,1,8,0:0:0:0:
411,112,47366,1,0,0:0:0:0:
411,155,48052,1,0,0:0:0:0:
446,149,48738,1,8,0:0:0:0:
404,154,49081,1,8,0:0:0:0:
420,163,49424,1,0,0:0:0:0:
180,156,49766,1,8,0:0:0:0:
429,107,50795,1,4,0:0:0:0:
314,140,51138,1,8,0:0:0:0:
314,140,51481,1,8,0:0:0:0:
425,149,52166,1,0,0:0:0:0:
472,162,52509,1,8,0:0:0:0:
433,126,53538,1,4,0:0:0:0:
396,168,54224,1,8,0:0:0:0:
413,144,54738,1,8,0:0:0:0:
437,134,55081,1,8,0:0:0:0:
436,134,55424,1,8,0:0:0:0:
366,159,56281,1,0,0:0:0:0:
451,134,56795,1,8,0:0:0:0:
411,158,57481,1,0,0:0:0:0:
416,160,58166,1,8,0:0:0:0:
435,128,58681,1,8,0:0:0:0:
436,132,59024,1,0,0:0:0:0:
390,156,59709,1,8,0:0:0:0:
322,164,60395,1,0,0:0:0:0:
388,235,60738,1,8,0:0:0:0:
392,126,61766,1,4,0:0:0:0:
445,164,62452,1,8,0:0:0:0:
427,163,62966,1,0,0:0:0:0:
470,150,63481,1,8,0:0:0:0:
451,151,63824,1,8,0:0:0:0:
284,72,64509,1,4,0:0:0:0:
375,128,64852,1,8,0:0:0:0:
404,163,65195,1,0,0:0:0:0:
344,156,65538,1,8,0:0:0:0:
446,129,67252,1,4,0:0:0:0:
411,151,67938,1,0,0:0:0:0:
453,161,68624,1,8,0:0:0:0:
501,172,68967,1,8,0:0:0:0:
426,157,69310,1,0,0:0:0:0:
357,133,69996,1,4,0:0:0:0:
446,158,70681,1,0,0:0:0:0:
389,154,71366,1,8,0:0:0:0:
376,143,71709,1,0,0:0:0:0:
279,190,72052,1,8,0:0:0:0:
456,127,72738,5,4,0:0:0:0:
455,163,73424,1,0,0:0:0:0:
403,147,73938,1,8,0:0:0:0:
438,159,74452,1,8,0:0:0:0:
427,143,74795,1,0,0:0:0:0:
365,137,75481,1,8,0:0:0:0:
199,174,75995,1,0,0:0:0:0:
264,128,76338,1,0,0:0:0:0:
338,136,76681,1,8,0:0:0:0:
433,141,77196,1,8,0:0:0:0:
440,163,77538,1,0,0:0:0:0:
336,163,78224,1,4,0:0:0:0:
152,158,79081,1,0,0:0:0:0:
304,143,79424,1,8,0:0:0:0:
394,130,79938,1,8,0:0:0:0:
394,130,80281,1,8,0:0:0:0:
352,148,80795,1,0,0:0:0:0:
484,148,81309,1,8,0:0:0:0:
429,162,81652,1,0,0:0:0:0:
416,160,82166,1,8,0:0:0:0:
371,129,83709,1,4,0:0:0:0:
448,160,84224,1,0,0:0:0:0:
426,131,84567,1,0,0:0:0:0:
426,131,84910,1,8,0:0:0:0:
412,130,85767,1,0,0:0:0:0:
376,133,86110,1,8,0:0:0:0:
258,198,86453,1,0,0:0:0:0:
399,146,86967,1,0,0:0:0:0:
414,138,87310,1,8,0:0:0:0:
204,68,87653,5,8,0:0:0:0:
475,146,88167,1,0,0:0:0:0:
302,103,88510,1,8,0:0:0:0:
246,202,88853,1,8,0:0:0:0:
393,203,89196,1,4,0:0:0:0:
332,123,89881,1,8,0:0:0:0:
390,151,90910,1,8,0:0:0:0:
408,170,91253,1,0,0:0:0:0:
491,132,91767,1,4,0:0:0:0:
406,153,92281,1,0,0:0:0:0:
393,150,92624,1,8,0:0:0:0:
399,180,93138,1,8,0:0:0:0:
360,148,93481,1,8,0:0:0:0:
257,202,93824,1,8,0:0:0:0:
472,118,94509,1,4,0:0:0:0:
490,107,105652,5,4,0:0:0:0:
337,139,106338,1,8,0:0:0:0:
238,116,106852,1,0,0:0:0:0:
279,200,107366,1,0,0:0:0:0:
346,183,107709,1,8,0:0:0:0:
374,259,108395,1,0,0:0:0:0:
322,188,108738,1,8,0:0:0:0:
213,184,109081,1,8,0:0:0:0:
343,90,109424,1,8,0:0:0:0:
390,118,109766,1,0,0:0:0:0:
384,147,111138,1,0,0:0:0:0:
416,153,111481,1,0,0:0:0:0:
282,115,111824,1,8,0:0:0:0:
365,110,112338,1,0,0:0:0:0:
421,158,112852,1,8,0:0:0:0:
475,169,113195,1,8,0:0:0:0:
465,176,113538,1,8,0:0:0:0:
456,173,113881,1,0,0:0:0:0:
196,33,115081,5,0,0:0:0:0:
336,173,115424,1,0,0:0:0:0:
336,173,115766,1,0,0:0:0:0:
508,126,116452,5,4,0:0:0:0:
444,142,116966,1,8,0:0:0:0:
424,145,117309,1,8,0:0:0:0:
472,149,117823,1,0,0:0:0:0:
472,149,118338,1,8,0:0:0:0:
411,112,118680,1,0,0:0:0:0:
411,155,119366,1,0,0:0:0:0:
446,149,120052,1,8,0:0:0:0:
404,154,120395,1,8,0:0:0:0:
420,163,120738,1,0,0:0:0:0:
180,156,121080,1,0,0:0:0:0:
470,149,121423,1,8,0:0:0:0:
429,107,122109,1,4,0:0:0:0:
314,140,122452,1,8,0:0:0:0:
314,140,122795,1,8,0:0:0:0:
425,149,123480,1,8,0:0:0:0:
472,162,123823,1,0,0:0:0:0:
450,126,124166,1,0,0:0:0:0:
433,126,124852,1,4,0:0:0:0:
396,168,125538,1,8,0:0:0:0:
413,144,126052,1,8,0:0:0:0:
437,134,126395,1,8,0:0:0:0:
436,134,126738,1,8,0:0:0:0:
366,159,127595,1,0,0:0:0:0:
451,134,128109,1,8,0:0:0:0:
411,158,128795,1,0,0:0:0:0:
416,160,129480,1,8,0:0:0:0:
435,128,129995,1,8,0:0:0:0:
436,132,130338,1,0,0:0:0:0:
390,156,131023,1,8,0:0:0:0:
322,164,131709,1,0,0:0:0:0:
388,235,132052,1,8,0:0:0:0:
359,147,132395,1,8,0:0:0:0:
392,126,133080,1,4,0:0:0:0:
445,164,133766,1,8,0:0:0:0:
427,163,134280,1,0,0:0:0:0:
470,150,134795,1,8,0:0:0:0:
451,151,135138,1,8,0:0:0:0:
284,72,135823,1,4,0:0:0:0:
375,128,136166,1,8,0:0:0:0:
404,163,136509,1,0,0:0:0:0:
344,156,136852,1,8,0:0:0:0:
262,127,137195,1,0,0:0:0:0:
431,119,138566,1,4,0:0:0:0:
411,151,139252,1,0,0:0:0:0:
453,161,139938,1,8,0:0:0:0:
501,172,140281,1,8,0:0:0:0:
426,157,140624,1,0,0:0:0:0:
357,133,141310,1,8,0:0:0:0:
446,158,141995,1,0,0:0:0:0:
389,154,142681,1,8,0:0:0:0:
376,143,143024,1,0,0:0:0:0:
375,121,143367,1,0,0:0:0:0:
241,154,144052,1,8,0:0:0:0:
361,117,144395,1,4,0:0:0:0:
453,161,145424,1,8,0:0:0:0:
501,172,145767,1,8,0:0:0:0:
426,157,146110,1,0,0:0:0:0:
357,133,146796,1,4,0:0:0:0:
446,158,147481,1,0,0:0:0:0:
389,154,148166,1,8,0:0:0:0:
376,143,148510,1,0,0:0:0:0:
375,121,148853,1,0,0:0:0:0:
202,162,149366,1,8,0:0:0:0:
