osu file format v14

[General]
AudioFilename: audio.mp3
AudioLeadIn: 0
PreviewTime: 44795
Countdown: 0
SampleSet: Normal
StackLeniency: 0.7
Mode: 1
LetterboxInBreaks: 0
WidescreenStoryboard: 1

[Editor]
DistanceSpacing: 0.4
BeatDivisor: 4
GridSize: 16
TimelineZoom: 2.4

[Metadata]
Title:Alma
TitleUnicode:アルマ
Artist::) feat. KAFU
ArtistUnicode:ت feat. 可不
Creator:D3kuu
Version:Inner Oni
Source:
Tags:japanese electronic j pop jpop j-pop vocaloid ボーカロイド cevio ai vocal synthesizer
BeatmapID:4018004
BeatmapSetID:1942444

[Difficulty]
HPDrainRate:6
CircleSize:5
OverallDifficulty:6
ApproachRate:5
SliderMultiplier:1.4
SliderTickRate:1

[Events]
//Background and Video events
0,0,"bg.png",0,27
//Break Periods
//Storyboard Layer 0 (Background)
//Storyboard Layer 1 (Fail)
//Storyboard Layer 2 (Pass)
//Storyboard Layer 3 (Foreground)
//Storyboard Layer 4 (Overlay)
//Storyboard Sound Samples

[TimingPoints]
1424,342.857142857143,4,1,0,60,1,0
1424,-100,4,1,0,60,0,0
6138,-100,4,1,0,60,0,0
6309,-100,4,1,0,60,0,0
6481,-100,4,1,0,60,0,0
6652,-100,4,1,0,60,0,0
6824,-100,4,1,0,80,0,0
6995,-100,4,1,0,60,0,0
11966,-100,4,1,0,70,0,0
12309,-100,4,1,0,90,0,0
12481,-100,4,1,0,80,0,0
17795,-100,4,1,0,80,0,0
17966,-100,4,1,0,80,0,0
20538,-100,4,1,0,80,0,0
20709,-100,4,1,0,80,0,0
23281,-100,4,1,0,80,0,0
23452,-100,4,1,0,70,0,0
28766,-100,4,1,0,80,0,0
28937,-100,4,1,0,70,0,0
34252,-100,4,1,0,80,0,0
34423,-100,4,1,0,70,0,0
39738,-100,4,1,0,80,0,0
39909,-100,4,1,0,70,0,0
42309,-100,4,1,0,80,0,0
42481,-100,4,1,0,80,0,0
45052,-100,4,1,0,80,0,0
45138,-100,4,1,0,90,0,1
45223,-100,4,1,0,90,0,1
50709,-100,4,1,0,90,0,1
50881,-100,4,1,0,90,0,1
53452,-100,4,1,0,90,0,1
53624,-100,4,1,0,90,0,1
54738,-100,4,1,0,90,0,0
56281,-100,4,1,0,90,0,1
61681,-100,4,1,0,90,0,1
61853,-100,4,1,0,90,0,1
64424,-100,4,1,0,90,0,1
64595,-100,4,1,0,90,0,1
65881,-100,4,1,0,90,0,0
65966,-100,4,1,0,40,0,0
67166,-100,4,1,0,90,0,0
67338,-100,4,1,0,80,0,0
69909,-100,4,1,0,80,0,0
70081,-100,4,1,0,80,0,0
72652,-100,4,1,0,80,0,0
72824,-100,4,1,0,70,0,0
78138,-100,4,1,0,80,0,0
78310,-100,4,1,0,70,0,0
83624,-100,4,1,0,80,0,0
83795,-100,4,1,0,70,0,0
89109,-100,4,1,0,80,0,0
89281,-100,4,1,0,70,0,0
91681,-100,4,1,0,80,0,0
91852,-100,4,1,0,70,0,0
94424,-100,4,1,0,80,0,0
94595,-100,4,1,0,70,0,0
105565,-100,4,1,0,80,0,0
105738,-100,4,1,0,80,0,0
116366,-100,4,1,0,80,0,0
116452,-100,4,1,0,90,0,1
116537,-100,4,1,0,90,0,1
122023,-100,4,1,0,90,0,1
122195,-100,4,1,0,90,0,1
124766,-100,4,1,0,90,0,1
124938,-100,4,1,0,90,0,1
126052,-100,4,1,0,90,0,0
127595,-100,4,1,0,90,0,1
132995,-100,4,1,0,90,0,1
133167,-100,4,1,0,90,0,1
135738,-100,4,1,0,90,0,1
135909,-100,4,1,0,90,0,1
137195,-100,4,1,0,90,0,0
138138,-100,4,1,0,90,0,0
138481,-100,4,1,0,90,0,0
138652,-100,4,1,0,80,0,0
144309,-100,4,1,0,90,0,0
144481,-100,4,1,0,80,0,0
146709,-100,4,1,0,90,0,0
146881,-100,4,1,0,80,0,0

[HitObjects]
473,168,1424,5,0,0:0:0:0:
229,147,1766,1,8,0:0:0:0:
305,165,1938,1,8,0:0:0:0:
252,171,2109,1,0,0:0:0:0:
415,154,2452,1,8,0:0:0:0:
367,148,2624,1,0,0:0:0:0:
402,141,2795,1,0,0:0:0:0:
481,170,3138,1,8,0:0:0:0:
318,222,3309,1,8,0:0:0:0:
246,173,3481,1,0,0:0:0:0:
274,141,3652,1,0,0:0:0:0:
468,160,3824,1,8,0:0:0:0:
460,158,3995,1,8,0:0:0:0:
449,148,4166,1,0,0:0:0:0:
490,148,4509,5,8,0:0:0:0:
402,122,4681,1,8,0:0:0:0:
458,149,4852,1,0,0:0:0:0:
214,37,5195,5,8,0:0:0:0:
215,67,5366,1,0,0:0:0:0:
215,67,5538,1,0,0:0:0:0:
283,173,5881,1,8,0:0:0:0:
434,154,6224,1,0,0:0:0:0:
353,137,6395,1,8,0:0:0:0:
353,137,6566,1,8,0:0:0:0:
353,137,6738,1,8,0:0:0:0:
279,99,6909,1,4,0:0:0:0:
451,151,7252,1,8,0:0:0:0:
419,143,7424,1,8,0:0:0:0:
409,142,7595,1,0,0:0:0:0:
405,138,7681,1,0,0:0:0:0:
404,136,7766,1,8,0:0:0:0:
390,148,7852,1,8,0:0:0:0:
388,138,7938,1,0,0:0:0:0:
390,148,8024,1,0,0:0:0:0:
212,50,8109,1,8,0:0:0:0:
389,164,8281,1,0,0:0:0:0:
465,158,8624,1,8,0:0:0:0:
443,158,8795,1,0,0:0:0:0:
436,152,8966,1,8,0:0:0:0:
433,151,9052,1,8,0:0:0:0:
432,151,9138,1,8,0:0:0:0:
364,147,9224,1,8,0:0:0:0:
292,89,9309,1,0,0:0:0:0:
454,157,9481,1,8,0:0:0:0:
431,157,9652,1,0,0:0:0:0:
455,154,9738,1,8,0:0:0:0:
376,144,9824,1,0,0:0:0:0:
418,164,9909,1,0,0:0:0:0:
323,157,9995,1,8,0:0:0:0:
406,123,10166,1,0,0:0:0:0:
447,155,10338,1,8,0:0:0:0:
441,163,10424,1,0,0:0:0:0:
376,168,10509,1,0,0:0:0:0:
352,128,10595,1,0,0:0:0:0:
446,158,10681,1,8,0:0:0:0:
270,153,10852,1,8,0:0:0:0:
377,88,11024,1,0,0:0:0:0:
321,168,12052,1,8,0:0:0:0:
200,240,12395,1,4,0:0:0:0:
411,142,12738,1,8,0:0:0:0:
411,142,12823,1,0,0:0:0:0:
411,141,12909,1,8,0:0:0:0:
361,139,12995,1,8,0:0:0:0:
410,145,13080,1,0,0:0:0:0:
368,149,13252,1,8,0:0:0:0:
388,112,13338,1,0,0:0:0:0:
326,228,13424,1,0,0:0:0:0:
349,129,13595,1,8,0:0:0:0:
337,178,13681,1,8,0:0:0:0:
286,123,13766,1,0,0:0:0:0:
433,149,13938,1,0,0:0:0:0:
438,134,14109,1,8,0:0:0:0:
461,162,14195,1,0,0:0:0:0:
457,152,14281,1,0,0:0:0:0:
466,144,14366,1,0,0:0:0:0:
470,145,14452,1,8,0:0:0:0:
433,149,14624,1,0,0:0:0:0:
216,171,14709,1,8,0:0:0:0:
303,158,14966,1,0,0:0:0:0:
269,153,15052,1,0,0:0:0:0:
291,111,15138,1,8,0:0:0:0:
421,157,15309,1,0,0:0:0:0:
422,138,15481,1,8,0:0:0:0:
420,138,15566,1,0,0:0:0:0:
418,138,15652,1,8,0:0:0:0:
326,132,15738,1,8,0:0:0:0:
380,143,15824,1,0,0:0:0:0:
352,131,15995,1,8,0:0:0:0:
380,143,16081,1,8,0:0:0:0:
177,109,16166,1,8,0:0:0:0:
407,147,16338,5,0,0:0:0:0:
307,173,16424,1,0,0:0:0:0:
361,129,16509,1,8,0:0:0:0:
122,176,16595,1,0,0:0:0:0:
427,156,16681,1,8,0:0:0:0:
281,111,16852,1,0,0:0:0:0:
417,164,16938,1,8,0:0:0:0:
428,172,17024,1,0,0:0:0:0:
425,172,17109,1,0,0:0:0:0:
387,157,17195,1,8,0:0:0:0:
208,177,17366,1,0,0:0:0:0:
336,138,17452,1,8,0:0:0:0:
336,138,17709,1,8,0:0:0:0:
419,119,17881,1,4,0:0:0:0:
352,154,18224,1,8,0:0:0:0:
349,153,18309,1,0,0:0:0:0:
347,151,18395,1,8,0:0:0:0:
336,138,18481,1,8,0:0:0:0:
411,151,18566,1,0,0:0:0:0:
393,153,18738,1,8,0:0:0:0:
411,151,18824,1,0,0:0:0:0:
255,159,18909,1,0,0:0:0:0:
453,161,19081,1,8,0:0:0:0:
341,171,19166,1,8,0:0:0:0:
352,141,19252,1,0,0:0:0:0:
482,165,19424,1,0,0:0:0:0:
201,89,19595,1,8,0:0:0:0:
314,219,19766,1,0,0:0:0:0:
426,157,19938,1,8,0:0:0:0:
400,127,20024,1,0,0:0:0:0:
400,127,20109,1,0,0:0:0:0:
400,127,20195,1,8,0:0:0:0:
459,163,20452,1,8,0:0:0:0:
401,163,20624,1,4,0:0:0:0:
436,140,20966,1,8,0:0:0:0:
436,140,21052,1,0,0:0:0:0:
436,140,21138,1,8,0:0:0:0:
347,124,21224,1,8,0:0:0:0:
446,158,21309,1,0,0:0:0:0:
307,142,21481,1,8,0:0:0:0:
478,146,21566,1,8,0:0:0:0:
271,116,21652,1,8,0:0:0:0:
389,154,21824,1,0,0:0:0:0:
224,156,21909,1,0,0:0:0:0:
340,148,21995,1,8,0:0:0:0:
415,158,22081,1,0,0:0:0:0:
377,143,22166,1,8,0:0:0:0:
301,94,22338,1,0,0:0:0:0:
427,138,22509,1,8,0:0:0:0:
375,121,22681,1,0,0:0:0:0:
332,136,22766,5,8,0:0:0:0:
332,136,22852,1,8,0:0:0:0:
333,131,22938,1,0,0:0:0:0:
459,163,23195,1,8,0:0:0:0:
456,127,23366,1,4,0:0:0:0:
405,142,23709,1,8,0:0:0:0:
411,149,23881,1,0,0:0:0:0:
406,150,24052,1,0,0:0:0:0:
302,133,24224,1,8,0:0:0:0:
302,133,24309,1,8,0:0:0:0:
430,143,24395,1,8,0:0:0:0:
405,142,24566,1,0,0:0:0:0:
206,183,24738,1,0,0:0:0:0:
470,153,24909,1,8,0:0:0:0:
470,153,25081,1,8,0:0:0:0:
449,134,25252,1,0,0:0:0:0:
446,134,25338,1,0,0:0:0:0:
277,126,25424,1,8,0:0:0:0:
440,131,25509,1,0,0:0:0:0:
405,142,25595,1,8,0:0:0:0:
216,67,25681,1,8,0:0:0:0:
241,128,25766,1,0,0:0:0:0:
391,154,25938,1,8,0:0:0:0:
399,143,26024,1,8,0:0:0:0:
368,154,26109,1,0,0:0:0:0:
306,211,26281,1,8,0:0:0:0:
375,173,26452,1,0,0:0:0:0:
411,150,26624,1,8,0:0:0:0:
356,146,26709,1,8,0:0:0:0:
356,145,26795,1,0,0:0:0:0:
376,132,26966,1,8,0:0:0:0:
188,1,27052,1,8,0:0:0:0:
358,168,27138,1,8,0:0:0:0:
376,132,27309,1,0,0:0:0:0:
456,169,27652,1,8,0:0:0:0:
436,161,27824,1,0,0:0:0:0:
423,153,27995,1,8,0:0:0:0:
351,139,28081,1,8,0:0:0:0:
423,144,28166,1,0,0:0:0:0:
356,143,28252,1,0,0:0:0:0:
216,148,28338,1,8,0:0:0:0:
310,152,28424,1,8,0:0:0:0:
240,142,28509,1,0,0:0:0:0:
390,140,28681,1,8,0:0:0:0:
486,123,28852,1,4,0:0:0:0:
449,158,29195,1,8,0:0:0:0:
424,152,29366,1,0,0:0:0:0:
316,112,29538,1,8,0:0:0:0:
431,145,29709,1,0,0:0:0:0:
372,172,29795,1,0,0:0:0:0:
429,146,29881,1,0,0:0:0:0:
407,132,30052,1,8,0:0:0:0:
183,182,30224,1,0,0:0:0:0:
232,126,30395,1,0,0:0:0:0:
354,156,30566,1,8,0:0:0:0:
392,150,30738,1,0,0:0:0:0:
362,133,30824,1,8,0:0:0:0:
405,163,30909,1,0,0:0:0:0:
366,135,30995,1,8,0:0:0:0:
385,152,31081,1,0,0:0:0:0:
421,160,31252,1,0,0:0:0:0:
329,227,31424,1,8,0:0:0:0:
391,144,31509,1,8,0:0:0:0:
426,121,31595,1,0,0:0:0:0:
311,160,31766,1,8,0:0:0:0:
433,144,31938,1,0,0:0:0:0:
415,146,32109,1,8,0:0:0:0:
335,172,32195,1,8,0:0:0:0:
411,146,32281,1,0,0:0:0:0:
225,89,32452,1,8,0:0:0:0:
228,115,32538,1,8,0:0:0:0:
381,144,32624,1,8,0:0:0:0:
378,144,32795,1,0,0:0:0:0:
436,161,32966,1,8,0:0:0:0:
427,57,33052,1,0,0:0:0:0:
259,127,33138,1,8,0:0:0:0:
266,81,33224,1,0,0:0:0:0:
367,164,33309,1,8,0:0:0:0:
211,170,33481,1,0,0:0:0:0:
321,90,33566,1,0,0:0:0:0:
416,149,33652,1,8,0:0:0:0:
358,88,33738,1,0,0:0:0:0:
345,135,33909,1,8,0:0:0:0:
345,135,34166,1,8,0:0:0:0:
454,100,34338,1,4,0:0:0:0:
480,160,34681,1,8,0:0:0:0:
448,160,34852,1,0,0:0:0:0:
426,131,35195,1,0,0:0:0:0:
220,183,35366,1,8,0:0:0:0:
426,131,35538,1,8,0:0:0:0:
299,193,35881,1,0,0:0:0:0:
354,148,36052,1,8,0:0:0:0:
374,193,36224,1,0,0:0:0:0:
374,193,36309,1,0,0:0:0:0:
412,130,36395,1,0,0:0:0:0:
412,130,36566,1,0,0:0:0:0:
376,133,36738,1,8,0:0:0:0:
376,148,36909,1,0,0:0:0:0:
376,121,36995,1,8,0:0:0:0:
258,198,37081,1,0,0:0:0:0:
218,114,37252,1,8,0:0:0:0:
420,165,37424,1,8,0:0:0:0:
399,146,37595,1,0,0:0:0:0:
414,138,37938,1,0,0:0:0:0:
339,153,38109,1,8,0:0:0:0:
204,68,38281,5,8,0:0:0:0:
473,164,38624,1,0,0:0:0:0:
475,146,38795,1,8,0:0:0:0:
466,144,38966,1,0,0:0:0:0:
365,227,39052,1,8,0:0:0:0:
302,103,39138,1,8,0:0:0:0:
332,132,39224,1,8,0:0:0:0:
337,150,39309,1,0,0:0:0:0:
246,202,39481,1,8,0:0:0:0:
300,144,39652,1,8,0:0:0:0:
408,167,39824,1,4,0:0:0:0:
338,126,40166,1,8,0:0:0:0:
386,168,40338,1,0,0:0:0:0:
332,123,40509,1,8,0:0:0:0:
367,148,40681,1,0,0:0:0:0:
367,148,40766,1,0,0:0:0:0:
331,168,40852,1,8,0:0:0:0:
381,153,41024,1,8,0:0:0:0:
420,160,41195,1,0,0:0:0:0:
366,137,41366,1,8,0:0:0:0:
390,151,41538,1,8,0:0:0:0:
424,163,41709,1,0,0:0:0:0:
333,132,41795,1,8,0:0:0:0:
408,170,41881,1,0,0:0:0:0:
367,97,41966,1,8,0:0:0:0:
390,177,42052,1,0,0:0:0:0:
351,146,42138,1,0,0:0:0:0:
223,153,42224,1,8,0:0:0:0:
491,132,42395,1,4,0:0:0:0:
422,173,42738,1,8,0:0:0:0:
406,153,42909,1,0,0:0:0:0:
396,152,43081,1,8,0:0:0:0:
331,163,43166,1,0,0:0:0:0:
393,150,43252,1,0,0:0:0:0:
390,159,43424,1,8,0:0:0:0:
210,165,43509,1,8,0:0:0:0:
272,108,43595,1,0,0:0:0:0:
399,180,43766,1,8,0:0:0:0:
360,148,44109,1,8,0:0:0:0:
257,202,44452,1,8,0:0:0:0:
342,133,44966,1,8,0:0:0:0:
486,117,45138,1,4,0:0:0:0:
472,149,45481,1,8,0:0:0:0:
444,142,45652,1,0,0:0:0:0:
444,142,45738,1,8,0:0:0:0:
444,142,45824,1,0,0:0:0:0:
287,158,45909,1,0,0:0:0:0:
424,145,45995,1,8,0:0:0:0:
421,146,46166,1,0,0:0:0:0:
188,102,46252,1,0,0:0:0:0:
473,157,46338,1,8,0:0:0:0:
478,162,46424,1,0,0:0:0:0:
472,149,46509,1,8,0:0:0:0:
346,211,46595,1,8,0:0:0:0:
478,160,46681,1,0,0:0:0:0:
417,149,46852,1,8,0:0:0:0:
416,143,46938,1,8,0:0:0:0:
375,155,47024,1,0,0:0:0:0:
455,148,47109,1,8,0:0:0:0:
354,133,47195,1,0,0:0:0:0:
391,138,47281,1,8,0:0:0:0:
411,112,47366,1,0,0:0:0:0:
401,138,47452,1,0,0:0:0:0:
346,130,47538,1,8,0:0:0:0:
346,130,47624,1,0,0:0:0:0:
346,130,47709,1,0,0:0:0:0:
185,161,47795,1,0,0:0:0:0:
346,130,47881,1,8,0:0:0:0:
354,88,47966,1,8,0:0:0:0:
401,148,48052,1,0,0:0:0:0:
456,153,48224,1,8,0:0:0:0:
416,161,48309,1,0,0:0:0:0:
476,138,48395,1,8,0:0:0:0:
431,131,48566,1,0,0:0:0:0:
229,148,48652,1,0,0:0:0:0:
446,149,48738,1,8,0:0:0:0:
332,200,48824,1,8,0:0:0:0:
303,139,48909,1,0,0:0:0:0:
458,163,48995,1,8,0:0:0:0:
404,154,49081,1,0,0:0:0:0:
291,169,49166,1,0,0:0:0:0:
434,168,49252,1,8,0:0:0:0:
366,158,49338,1,0,0:0:0:0:
420,163,49424,1,8,0:0:0:0:
430,167,49595,1,0,0:0:0:0:
463,157,49766,1,8,0:0:0:0:
129,113,49852,1,8,0:0:0:0:
295,200,49938,1,0,0:0:0:0:
296,175,50024,1,0,0:0:0:0:
470,149,50109,1,8,0:0:0:0:
433,189,50195,1,8,0:0:0:0:
346,247,50281,1,0,0:0:0:0:
451,146,50452,1,8,0:0:0:0:
309,114,50624,1,8,0:0:0:0:
429,107,50795,1,4,0:0:0:0:
374,206,50966,1,8,0:0:0:0:
279,142,51052,1,0,0:0:0:0:
314,140,51138,1,8,0:0:0:0:
314,140,51309,1,0,0:0:0:0:
371,180,51395,1,0,0:0:0:0:
314,140,51481,1,8,0:0:0:0:
306,160,51566,1,8,0:0:0:0:
268,138,51652,1,0,0:0:0:0:
414,151,51738,1,8,0:0:0:0:
393,147,51824,1,0,0:0:0:0:
350,132,51995,1,8,0:0:0:0:
344,186,52081,1,8,0:0:0:0:
425,149,52166,1,0,0:0:0:0:
348,298,52252,1,8,0:0:0:0:
472,162,52338,1,8,0:0:0:0:
224,191,52424,1,8,0:0:0:0:
472,162,52509,1,0,0:0:0:0:
452,138,52681,1,8,0:0:0:0:
221,105,52766,1,0,0:0:0:0:
450,126,52852,1,8,0:0:0:0:
404,148,53024,1,0,0:0:0:0:
443,143,53195,1,8,0:0:0:0:
301,156,53366,1,8,0:0:0:0:
433,126,53538,1,4,0:0:0:0:
485,161,53881,1,0,0:0:0:0:
484,155,54052,1,8,0:0:0:0:
483,153,54138,1,0,0:0:0:0:
396,168,54224,1,8,0:0:0:0:
212,188,54309,1,8,0:0:0:0:
396,168,54395,1,0,0:0:0:0:
186,135,54481,1,8,0:0:0:0:
413,144,54566,1,0,0:0:0:0:
413,144,54738,1,8,0:0:0:0:
437,134,55081,1,8,0:0:0:0:
436,134,55424,1,8,0:0:0:0:
408,146,55766,1,8,0:0:0:0:
402,145,55938,1,8,0:0:0:0:
419,162,56109,1,8,0:0:0:0:
366,159,56281,1,0,0:0:0:0:
349,119,56452,1,8,0:0:0:0:
350,123,56538,1,8,0:0:0:0:
484,163,56624,1,0,0:0:0:0:
366,159,56709,1,8,0:0:0:0:
451,134,56795,1,0,0:0:0:0:
303,142,56881,1,0,0:0:0:0:
451,134,56966,1,8,0:0:0:0:
176,159,57138,1,0,0:0:0:0:
176,159,57224,1,0,0:0:0:0:
444,161,57309,1,8,0:0:0:0:
411,158,57481,1,0,0:0:0:0:
430,169,57652,1,8,0:0:0:0:
426,169,57738,1,0,0:0:0:0:
385,145,57824,1,8,0:0:0:0:
330,150,57995,1,0,0:0:0:0:
416,160,58166,1,8,0:0:0:0:
444,161,58252,1,8,0:0:0:0:
429,156,58338,1,0,0:0:0:0:
411,158,58424,1,0,0:0:0:0:
435,128,58509,1,8,0:0:0:0:
435,128,58595,1,8,0:0:0:0:
204,58,58681,1,0,0:0:0:0:
204,58,58766,1,0,0:0:0:0:
435,128,58852,1,8,0:0:0:0:
436,158,58938,1,8,0:0:0:0:
436,132,59024,1,0,0:0:0:0:
351,137,59195,1,8,0:0:0:0:
351,137,59281,1,0,0:0:0:0:
316,151,59366,1,8,0:0:0:0:
310,104,59452,1,0,0:0:0:0:
382,170,59538,1,8,0:0:0:0:
310,104,59624,1,8,0:0:0:0:
390,156,59709,1,0,0:0:0:0:
338,137,59881,1,8,0:0:0:0:
336,132,59966,1,8,0:0:0:0:
336,132,60052,1,8,0:0:0:0:
405,167,60224,1,0,0:0:0:0:
353,227,60395,1,8,0:0:0:0:
378,234,60566,1,8,0:0:0:0:
388,235,60738,1,8,0:0:0:0:
442,143,60909,1,0,0:0:0:0:
442,143,60995,1,0,0:0:0:0:
359,147,61081,1,8,0:0:0:0:
366,133,61166,1,0,0:0:0:0:
368,133,61252,1,0,0:0:0:0:
357,133,61338,1,0,0:0:0:0:
335,182,61424,1,8,0:0:0:0:
296,174,61595,1,8,0:0:0:0:
392,126,61766,1,4,0:0:0:0:
445,164,62109,1,8,0:0:0:0:
487,168,62195,1,0,0:0:0:0:
445,164,62281,1,8,0:0:0:0:
414,167,62366,1,8,0:0:0:0:
445,164,62452,1,0,0:0:0:0:
326,136,62538,1,0,0:0:0:0:
340,161,62624,1,8,0:0:0:0:
340,161,62709,1,0,0:0:0:0:
461,168,62795,1,8,0:0:0:0:
427,163,62966,1,0,0:0:0:0:
341,165,63138,1,8,0:0:0:0:
296,169,63224,1,8,0:0:0:0:
354,166,63309,1,0,0:0:0:0:
363,166,63395,1,0,0:0:0:0:
470,150,63481,1,8,0:0:0:0:
454,158,63652,1,0,0:0:0:0:
308,98,63824,1,8,0:0:0:0:
256,138,63909,1,0,0:0:0:0:
451,152,63995,1,8,0:0:0:0:
351,169,64081,1,8,0:0:0:0:
429,167,64166,1,0,0:0:0:0:
429,167,64338,1,8,0:0:0:0:
284,72,64509,1,4,0:0:0:0:
291,162,64681,1,8,0:0:0:0:
375,128,64852,1,8,0:0:0:0:
443,142,65024,1,0,0:0:0:0:
439,154,65109,1,8,0:0:0:0:
404,163,65195,1,0,0:0:0:0:
373,146,65281,1,0,0:0:0:0:
221,96,65366,1,8,0:0:0:0:
431,148,65452,1,0,0:0:0:0:
382,127,65538,1,8,0:0:0:0:
341,156,65709,1,8,0:0:0:0:
446,129,67252,1,4,0:0:0:0:
436,140,67595,1,8,0:0:0:0:
436,140,67681,1,0,0:0:0:0:
436,140,67767,1,8,0:0:0:0:
347,124,67853,1,8,0:0:0:0:
446,158,67938,1,0,0:0:0:0:
307,142,68110,1,8,0:0:0:0:
478,146,68195,1,8,0:0:0:0:
278,111,68281,1,8,0:0:0:0:
389,154,68453,1,0,0:0:0:0:
224,156,68538,1,0,0:0:0:0:
340,148,68624,1,8,0:0:0:0:
415,158,68710,1,0,0:0:0:0:
377,143,68795,1,8,0:0:0:0:
301,94,68967,1,0,0:0:0:0:
427,138,69138,1,8,0:0:0:0:
375,121,69310,1,0,0:0:0:0:
332,136,69395,5,8,0:0:0:0:
332,136,69481,1,8,0:0:0:0:
333,131,69567,1,0,0:0:0:0:
459,163,69824,1,8,0:0:0:0:
396,125,69995,1,4,0:0:0:0:
436,140,70338,1,8,0:0:0:0:
436,140,70424,1,0,0:0:0:0:
436,140,70510,1,8,0:0:0:0:
347,124,70596,1,8,0:0:0:0:
446,158,70681,1,0,0:0:0:0:
307,142,70853,1,8,0:0:0:0:
478,146,70938,1,8,0:0:0:0:
356,193,71024,1,8,0:0:0:0:
389,154,71196,1,0,0:0:0:0:
224,156,71281,1,0,0:0:0:0:
340,148,71367,1,8,0:0:0:0:
255,138,71538,1,0,0:0:0:0:
389,154,71624,1,8,0:0:0:0:
301,94,71710,1,0,0:0:0:0:
166,161,71795,1,0,0:0:0:0:
427,138,71881,1,8,0:0:0:0:
426,170,71966,1,8,0:0:0:0:
375,121,72053,1,0,0:0:0:0:
456,127,72737,5,4,0:0:0:0:
454,154,73081,1,8,0:0:0:0:
456,163,73252,1,8,0:0:0:0:
455,163,73424,1,0,0:0:0:0:
328,216,73766,1,0,0:0:0:0:
403,147,73938,1,8,0:0:0:0:
468,172,74281,1,0,0:0:0:0:
438,159,74452,1,8,0:0:0:0:
438,159,74624,1,8,0:0:0:0:
427,143,74795,1,0,0:0:0:0:
468,158,74966,1,8,0:0:0:0:
418,163,75138,1,0,0:0:0:0:
414,135,75309,1,0,0:0:0:0:
365,137,75481,1,8,0:0:0:0:
414,189,75824,1,8,0:0:0:0:
406,144,75995,1,8,0:0:0:0:
336,228,76166,1,0,0:0:0:0:
264,128,76338,1,0,0:0:0:0:
394,151,76509,1,8,0:0:0:0:
338,136,76681,1,0,0:0:0:0:
433,141,77024,1,8,0:0:0:0:
419,155,77195,1,0,0:0:0:0:
418,161,77366,1,8,0:0:0:0:
440,163,77538,1,0,0:0:0:0:
429,160,77709,1,0,0:0:0:0:
358,149,77881,1,8,0:0:0:0:
476,167,78052,1,8,0:0:0:0:
336,163,78224,1,4,0:0:0:0:
429,138,78566,1,8,0:0:0:0:
425,158,78738,1,0,0:0:0:0:
446,148,78909,1,8,0:0:0:0:
404,174,79081,1,8,0:0:0:0:
404,174,79252,1,0,0:0:0:0:
304,143,79424,1,8,0:0:0:0:
414,164,79595,1,0,0:0:0:0:
415,173,79766,1,0,0:0:0:0:
394,130,79938,1,8,0:0:0:0:
394,130,80281,1,8,0:0:0:0:
286,187,80452,1,0,0:0:0:0:
352,148,80624,1,0,0:0:0:0:
412,183,80795,1,8,0:0:0:0:
228,213,80966,1,0,0:0:0:0:
484,148,81309,1,8,0:0:0:0:
461,162,81481,1,0,0:0:0:0:
429,162,81652,1,8,0:0:0:0:
486,190,81824,1,0,0:0:0:0:
486,190,81995,1,0,0:0:0:0:
416,160,82166,1,8,0:0:0:0:
391,155,83195,1,8,0:0:0:0:
260,122,83366,1,8,0:0:0:0:
371,129,83709,1,4,0:0:0:0:
480,160,84052,1,8,0:0:0:0:
448,160,84223,1,8,0:0:0:0:
426,131,84566,1,0,0:0:0:0:
220,183,84737,1,0,0:0:0:0:
426,131,84909,1,8,0:0:0:0:
299,193,85252,1,0,0:0:0:0:
354,148,85423,1,8,0:0:0:0:
374,193,85595,1,0,0:0:0:0:
374,193,85680,1,8,0:0:0:0:
412,130,85766,1,0,0:0:0:0:
412,130,85937,1,0,0:0:0:0:
376,133,86109,1,8,0:0:0:0:
376,148,86280,1,0,0:0:0:0:
376,121,86366,1,0,0:0:0:0:
258,198,86452,1,0,0:0:0:0:
286,152,86624,1,8,0:0:0:0:
420,165,86795,1,8,0:0:0:0:
399,146,86966,1,0,0:0:0:0:
414,138,87309,1,0,0:0:0:0:
339,153,87480,1,0,0:0:0:0:
204,68,87652,5,8,0:0:0:0:
473,164,87995,1,0,0:0:0:0:
475,146,88166,1,8,0:0:0:0:
466,144,88337,1,0,0:0:0:0:
196,40,88424,1,0,0:0:0:0:
302,103,88509,1,8,0:0:0:0:
418,172,88595,1,8,0:0:0:0:
337,150,88680,1,0,0:0:0:0:
246,202,88852,1,0,0:0:0:0:
300,144,89023,1,8,0:0:0:0:
408,167,89195,1,4,0:0:0:0:
338,126,89537,1,8,0:0:0:0:
386,168,89709,1,0,0:0:0:0:
332,123,89880,1,8,0:0:0:0:
367,148,90052,1,0,0:0:0:0:
367,148,90137,1,0,0:0:0:0:
331,168,90223,1,8,0:0:0:0:
381,153,90395,1,8,0:0:0:0:
420,160,90566,1,0,0:0:0:0:
390,151,90909,1,8,0:0:0:0:
282,127,91080,1,0,0:0:0:0:
262,144,91166,1,8,0:0:0:0:
408,170,91252,1,0,0:0:0:0:
388,199,91337,1,0,0:0:0:0:
390,177,91423,1,8,0:0:0:0:
331,123,91509,1,0,0:0:0:0:
223,153,91595,1,8,0:0:0:0:
491,132,91766,1,4,0:0:0:0:
422,173,92109,1,8,0:0:0:0:
406,153,92280,1,0,0:0:0:0:
396,152,92452,1,8,0:0:0:0:
266,144,92538,1,8,0:0:0:0:
393,150,92623,1,0,0:0:0:0:
390,159,92795,1,8,0:0:0:0:
491,163,92881,1,0,0:0:0:0:
272,108,92966,1,0,0:0:0:0:
399,180,93137,1,8,0:0:0:0:
360,148,93480,5,8,0:0:0:0:
257,202,93823,1,8,0:0:0:0:
342,133,94337,5,8,0:0:0:0:
486,117,94509,1,4,0:0:0:0:
302,107,94852,1,0,0:0:0:0:
404,156,95024,1,8,0:0:0:0:
341,171,95366,1,0,0:0:0:0:
277,154,95538,1,8,0:0:0:0:
296,288,95709,1,0,0:0:0:0:
410,138,95881,1,0,0:0:0:0:
312,188,96052,1,8,0:0:0:0:
395,99,96395,1,8,0:0:0:0:
352,148,96738,1,0,0:0:0:0:
300,139,96909,1,8,0:0:0:0:
309,106,97081,1,8,0:0:0:0:
309,106,97252,1,8,0:0:0:0:
381,134,97424,1,0,0:0:0:0:
406,140,97766,1,8,0:0:0:0:
416,155,97938,1,8,0:0:0:0:
285,97,98109,1,0,0:0:0:0:
320,119,98281,1,8,0:0:0:0:
290,102,98452,1,0,0:0:0:0:
331,120,98624,1,0,0:0:0:0:
208,52,98795,1,8,0:0:0:0:
319,123,99138,1,0,0:0:0:0:
339,160,99309,1,8,0:0:0:0:
313,117,99481,1,8,0:0:0:0:
360,161,99652,1,0,0:0:0:0:
360,161,99824,1,0,0:0:0:0:
258,146,99995,1,0,0:0:0:0:
366,175,100166,1,8,0:0:0:0:
83,158,100509,1,0,0:0:0:0:
360,143,100681,1,8,0:0:0:0:
446,146,100852,1,0,0:0:0:0:
221,79,101195,1,8,0:0:0:0:
285,142,101366,1,0,0:0:0:0:
457,162,101538,1,8,0:0:0:0:
345,169,101709,1,0,0:0:0:0:
227,86,101881,1,0,0:0:0:0:
247,121,102052,1,8,0:0:0:0:
398,153,102224,1,0,0:0:0:0:
196,44,102566,1,0,0:0:0:0:
417,177,102738,1,8,0:0:0:0:
422,171,102909,1,0,0:0:0:0:
191,220,103081,1,0,0:0:0:0:
407,158,103252,1,8,0:0:0:0:
342,199,103424,1,8,0:0:0:0:
421,136,103595,1,0,0:0:0:0:
391,163,103938,1,0,0:0:0:0:
369,168,104109,1,0,0:0:0:0:
312,136,104281,1,8,0:0:0:0:
357,104,104452,1,0,0:0:0:0:
412,132,104624,1,0,0:0:0:0:
298,190,104795,1,0,0:0:0:0:
480,161,104966,1,8,0:0:0:0:
469,158,105309,1,8,0:0:0:0:
401,120,105652,1,4,0:0:0:0:
404,124,105995,1,0,0:0:0:0:
426,153,106166,1,0,0:0:0:0:
426,153,106338,1,8,0:0:0:0:
426,147,106509,1,8,0:0:0:0:
338,143,106681,1,8,0:0:0:0:
412,169,106852,1,0,0:0:0:0:
466,160,107195,1,8,0:0:0:0:
447,142,107366,1,0,0:0:0:0:
443,142,107538,1,0,0:0:0:0:
429,143,107709,1,8,0:0:0:0:
329,129,107881,1,8,0:0:0:0:
280,153,108052,1,0,0:0:0:0:
366,253,108224,1,8,0:0:0:0:
411,145,108395,1,0,0:0:0:0:
347,112,108738,1,8,0:0:0:0:
419,151,108909,1,8,0:0:0:0:
416,149,109081,1,8,0:0:0:0:
314,182,109252,1,0,0:0:0:0:
425,148,109424,1,0,0:0:0:0:
403,148,109595,1,8,0:0:0:0:
256,164,109766,1,0,0:0:0:0:
305,116,110109,1,0,0:0:0:0:
322,178,110281,1,8,0:0:0:0:
380,126,110452,1,0,0:0:0:0:
303,111,110795,1,0,0:0:0:0:
305,116,110966,1,0,0:0:0:0:
341,148,111138,1,8,0:0:0:0:
369,150,111309,1,8,0:0:0:0:
403,165,111481,1,0,0:0:0:0:
382,197,111652,1,8,0:0:0:0:
403,153,111824,1,0,0:0:0:0:
228,152,111995,1,8,0:0:0:0:
421,166,112338,1,8,0:0:0:0:
346,213,112509,1,0,0:0:0:0:
377,131,112681,1,0,0:0:0:0:
431,142,112852,1,8,0:0:0:0:
225,156,113024,1,0,0:0:0:0:
441,148,113195,1,0,0:0:0:0:
219,60,113366,1,0,0:0:0:0:
333,112,113538,1,8,0:0:0:0:
379,121,113709,1,8,0:0:0:0:
207,59,113881,1,0,0:0:0:0:
313,159,114224,1,8,0:0:0:0:
301,168,114395,1,8,0:0:0:0:
451,153,114566,1,0,0:0:0:0:
457,158,114738,1,8,0:0:0:0:
451,153,114909,1,8,0:0:0:0:
451,153,115081,1,8,0:0:0:0:
216,127,115424,1,8,0:0:0:0:
231,139,115766,1,8,0:0:0:0:
377,168,116281,1,8,0:0:0:0:
508,126,116452,1,4,0:0:0:0:
472,149,116795,1,8,0:0:0:0:
444,142,116966,1,0,0:0:0:0:
444,142,117052,1,0,0:0:0:0:
444,142,117138,1,8,0:0:0:0:
287,158,117223,1,0,0:0:0:0:
424,145,117309,1,8,0:0:0:0:
421,146,117480,1,0,0:0:0:0:
188,102,117566,1,8,0:0:0:0:
473,157,117652,1,0,0:0:0:0:
478,162,117738,1,0,0:0:0:0:
472,149,117823,1,8,0:0:0:0:
346,211,117909,1,8,0:0:0:0:
478,160,117995,1,0,0:0:0:0:
417,149,118166,1,8,0:0:0:0:
416,143,118252,1,0,0:0:0:0:
375,155,118338,1,8,0:0:0:0:
455,148,118423,1,8,0:0:0:0:
354,133,118509,1,0,0:0:0:0:
391,138,118595,1,8,0:0:0:0:
411,112,118680,1,0,0:0:0:0:
401,138,118766,1,0,0:0:0:0:
346,130,118852,1,8,0:0:0:0:
346,130,118938,1,8,0:0:0:0:
346,130,119023,1,0,0:0:0:0:
185,161,119109,1,0,0:0:0:0:
346,130,119195,1,8,0:0:0:0:
354,88,119280,1,8,0:0:0:0:
401,148,119366,1,0,0:0:0:0:
456,153,119538,1,8,0:0:0:0:
416,161,119623,1,0,0:0:0:0:
476,138,119709,1,8,0:0:0:0:
431,131,119880,1,0,0:0:0:0:
229,148,119966,1,0,0:0:0:0:
446,149,120052,1,8,0:0:0:0:
332,200,120138,1,0,0:0:0:0:
303,139,120223,1,0,0:0:0:0:
458,163,120309,1,0,0:0:0:0:
404,154,120395,1,8,0:0:0:0:
291,169,120480,1,8,0:0:0:0:
434,168,120566,1,0,0:0:0:0:
366,158,120652,1,0,0:0:0:0:
420,163,120738,1,8,0:0:0:0:
430,167,120909,1,0,0:0:0:0:
463,157,121080,1,8,0:0:0:0:
129,113,121166,1,8,0:0:0:0:
295,200,121252,1,0,0:0:0:0:
296,175,121338,1,0,0:0:0:0:
470,149,121423,1,8,0:0:0:0:
433,189,121509,1,8,0:0:0:0:
346,247,121595,1,0,0:0:0:0:
451,146,121766,1,8,0:0:0:0:
309,114,121938,1,8,0:0:0:0:
429,107,122109,1,4,0:0:0:0:
374,206,122280,1,8,0:0:0:0:
279,142,122366,1,0,0:0:0:0:
314,140,122452,1,8,0:0:0:0:
314,140,122623,1,0,0:0:0:0:
371,180,122709,1,8,0:0:0:0:
314,140,122795,1,0,0:0:0:0:
306,160,122880,1,0,0:0:0:0:
268,138,122966,1,8,0:0:0:0:
414,151,123052,1,8,0:0:0:0:
393,147,123138,1,0,0:0:0:0:
350,132,123309,1,8,0:0:0:0:
344,186,123395,1,8,0:0:0:0:
425,149,123480,1,0,0:0:0:0:
348,298,123566,1,0,0:0:0:0:
472,162,123652,1,8,0:0:0:0:
224,191,123738,1,8,0:0:0:0:
472,162,123823,1,0,0:0:0:0:
452,138,123995,1,8,0:0:0:0:
221,105,124080,1,8,0:0:0:0:
450,126,124166,1,8,0:0:0:0:
404,148,124338,1,0,0:0:0:0:
443,143,124509,1,8,0:0:0:0:
301,156,124680,1,8,0:0:0:0:
433,126,124852,1,4,0:0:0:0:
485,161,125195,1,0,0:0:0:0:
484,155,125366,1,8,0:0:0:0:
483,153,125452,1,8,0:0:0:0:
396,168,125538,1,0,0:0:0:0:
212,188,125623,1,0,0:0:0:0:
396,168,125709,1,8,0:0:0:0:
186,135,125795,1,8,0:0:0:0:
413,144,125880,1,0,0:0:0:0:
413,144,126052,1,8,0:0:0:0:
437,134,126395,1,8,0:0:0:0:
436,134,126738,1,8,0:0:0:0:
408,146,127080,1,8,0:0:0:0:
402,145,127252,1,8,0:0:0:0:
419,162,127423,1,8,0:0:0:0:
366,159,127595,1,0,0:0:0:0:
349,119,127766,1,8,0:0:0:0:
350,123,127852,1,0,0:0:0:0:
484,163,127938,1,8,0:0:0:0:
366,159,128023,1,8,0:0:0:0:
451,134,128109,1,0,0:0:0:0:
303,142,128195,1,0,0:0:0:0:
451,134,128280,1,8,0:0:0:0:
176,159,128452,1,0,0:0:0:0:
176,159,128538,1,0,0:0:0:0:
444,161,128623,1,8,0:0:0:0:
411,158,128795,1,0,0:0:0:0:
430,169,128966,1,8,0:0:0:0:
426,169,129052,1,0,0:0:0:0:
385,145,129138,1,8,0:0:0:0:
330,150,129309,1,0,0:0:0:0:
416,160,129480,1,8,0:0:0:0:
444,161,129566,1,0,0:0:0:0:
429,156,129652,1,8,0:0:0:0:
411,158,129738,1,8,0:0:0:0:
435,128,129823,1,0,0:0:0:0:
435,128,129909,1,8,0:0:0:0:
204,58,129995,1,0,0:0:0:0:
204,58,130080,1,0,0:0:0:0:
435,128,130166,1,8,0:0:0:0:
436,158,130252,1,8,0:0:0:0:
436,132,130338,1,0,0:0:0:0:
351,137,130509,1,8,0:0:0:0:
351,137,130595,1,8,0:0:0:0:
316,151,130680,1,0,0:0:0:0:
310,104,130766,1,0,0:0:0:0:
382,170,130852,1,8,0:0:0:0:
310,104,130938,1,8,0:0:0:0:
390,156,131023,1,0,0:0:0:0:
338,137,131195,1,8,0:0:0:0:
336,132,131280,1,8,0:0:0:0:
336,132,131366,1,8,0:0:0:0:
405,167,131538,1,0,0:0:0:0:
353,227,131709,1,8,0:0:0:0:
378,234,131880,1,8,0:0:0:0:
388,235,132052,1,8,0:0:0:0:
442,143,132223,1,0,0:0:0:0:
442,143,132309,1,0,0:0:0:0:
359,147,132395,1,8,0:0:0:0:
366,133,132480,1,0,0:0:0:0:
368,133,132566,1,0,0:0:0:0:
357,133,132652,1,0,0:0:0:0:
335,182,132738,1,8,0:0:0:0:
296,174,132909,1,8,0:0:0:0:
392,126,133080,1,4,0:0:0:0:
445,164,133423,1,8,0:0:0:0:
487,168,133509,1,8,0:0:0:0:
445,164,133595,1,0,0:0:0:0:
414,167,133680,1,8,0:0:0:0:
445,164,133766,1,0,0:0:0:0:
326,136,133852,1,0,0:0:0:0:
340,161,133938,1,8,0:0:0:0:
340,161,134023,1,0,0:0:0:0:
461,168,134109,1,8,0:0:0:0:
427,163,134280,1,0,0:0:0:0:
341,165,134452,1,8,0:0:0:0:
296,169,134538,1,0,0:0:0:0:
354,166,134623,1,0,0:0:0:0:
197,177,134709,1,0,0:0:0:0:
470,150,134795,1,8,0:0:0:0:
454,158,134966,1,0,0:0:0:0:
154,101,135138,1,8,0:0:0:0:
256,138,135223,1,8,0:0:0:0:
451,152,135309,1,0,0:0:0:0:
351,169,135395,1,8,0:0:0:0:
429,167,135480,1,0,0:0:0:0:
429,167,135652,1,8,0:0:0:0:
284,72,135823,1,4,0:0:0:0:
291,162,135995,1,8,0:0:0:0:
375,128,136166,1,8,0:0:0:0:
443,142,136338,1,0,0:0:0:0:
439,154,136423,1,0,0:0:0:0:
404,163,136509,1,8,0:0:0:0:
373,146,136595,1,8,0:0:0:0:
221,96,136681,1,0,0:0:0:0:
431,148,136766,1,0,0:0:0:0:
382,127,136852,1,8,0:0:0:0:
341,156,137023,1,8,0:0:0:0:
333,191,137195,1,0,0:0:0:0:
333,191,137366,1,0,0:0:0:0:
333,191,137538,1,0,0:0:0:0:
328,187,137709,1,0,0:0:0:0:
250,194,138052,1,0,0:0:0:0:
406,153,138224,1,8,0:0:0:0:
487,122,138566,1,4,0:0:0:0:
352,154,138909,1,8,0:0:0:0:
349,153,138994,1,0,0:0:0:0:
347,151,139080,1,8,0:0:0:0:
336,138,139166,1,8,0:0:0:0:
411,151,139251,1,0,0:0:0:0:
393,153,139423,1,8,0:0:0:0:
411,151,139509,1,0,0:0:0:0:
274,107,139595,1,0,0:0:0:0:
453,161,139766,1,8,0:0:0:0:
341,171,139851,1,8,0:0:0:0:
352,141,139937,1,0,0:0:0:0:
482,165,140109,1,0,0:0:0:0:
201,89,140280,1,8,0:0:0:0:
330,276,140452,1,0,0:0:0:0:
426,157,140623,1,8,0:0:0:0:
400,127,140709,1,0,0:0:0:0:
400,127,140794,1,0,0:0:0:0:
400,127,140880,1,8,0:0:0:0:
459,163,141137,1,8,0:0:0:0:
401,163,141309,1,0,0:0:0:0:
286,199,141481,1,0,0:0:0:0:
436,140,141651,1,8,0:0:0:0:
436,140,141737,1,0,0:0:0:0:
436,140,141823,1,8,0:0:0:0:
347,124,141909,1,8,0:0:0:0:
446,158,141994,1,0,0:0:0:0:
307,142,142166,1,8,0:0:0:0:
478,146,142251,1,8,0:0:0:0:
357,128,142338,1,8,0:0:0:0:
389,154,142509,1,0,0:0:0:0:
224,156,142594,1,0,0:0:0:0:
340,148,142680,1,8,0:0:0:0:
415,158,142766,1,0,0:0:0:0:
377,143,142851,1,8,0:0:0:0:
301,94,143023,1,0,0:0:0:0:
427,138,143194,1,8,0:0:0:0:
375,121,143366,1,0,0:0:0:0:
332,136,143451,5,8,0:0:0:0:
332,136,143537,1,8,0:0:0:0:
333,131,143623,1,0,0:0:0:0:
459,163,143880,1,8,0:0:0:0:
321,239,144052,1,0,0:0:0:0:
391,134,144395,1,4,0:0:0:0:
347,151,144566,1,8,0:0:0:0:
336,138,144652,1,8,0:0:0:0:
411,151,144737,1,0,0:0:0:0:
393,153,144909,1,8,0:0:0:0:
411,151,144995,1,0,0:0:0:0:
431,163,145081,1,0,0:0:0:0:
453,161,145252,1,8,0:0:0:0:
341,171,145337,1,8,0:0:0:0:
352,141,145423,1,0,0:0:0:0:
482,165,145595,1,0,0:0:0:0:
201,89,145766,1,8,0:0:0:0:
338,215,145938,1,0,0:0:0:0:
426,157,146109,1,8,0:0:0:0:
400,127,146195,1,0,0:0:0:0:
400,127,146280,1,0,0:0:0:0:
400,127,146366,1,8,0:0:0:0:
459,163,146623,1,8,0:0:0:0:
401,163,146795,1,4,0:0:0:0:
436,140,147137,1,8,0:0:0:0:
436,140,147223,1,0,0:0:0:0:
436,140,147309,1,8,0:0:0:0:
347,124,147395,1,8,0:0:0:0:
446,158,147480,1,0,0:0:0:0:
307,142,147652,1,8,0:0:0:0:
478,146,147737,1,8,0:0:0:0:
306,148,147824,1,8,0:0:0:0:
389,154,147995,1,0,0:0:0:0:
224,156,148080,1,0,0:0:0:0:
340,148,148166,1,8,0:0:0:0:
415,158,148252,1,0,0:0:0:0:
377,143,148337,1,8,0:0:0:0:
301,94,148509,1,0,0:0:0:0:
427,138,148680,1,8,0:0:0:0:
375,121,148852,1,0,0:0:0:0:
332,136,148937,5,8,0:0:0:0:
332,136,149023,1,8,0:0:0:0:
333,131,149109,1,0,0:0:0:0:
459,163,149366,1,8,0:0:0:0:
