osu file format v14

[General]
AudioFilename: audio.mp3
AudioLeadIn: 0
PreviewTime: 44795
Countdown: 0
SampleSet: Normal
StackLeniency: 0.7
Mode: 1
LetterboxInBreaks: 0
WidescreenStoryboard: 1

[Editor]
Bookmarks: 144738
DistanceSpacing: 0.4
BeatDivisor: 2
GridSize: 16
TimelineZoom: 2.4

[Metadata]
Title:Alma
TitleUnicode:アルマ
Artist::) feat. KAFU
ArtistUnicode:ت feat. 可不
Creator:D3kuu
Version:Futsuu
Source:
Tags:japanese electronic j pop jpop j-pop vocaloid ボーカロイド cevio ai vocal synthesizer
BeatmapID:4018003
BeatmapSetID:1942444

[Difficulty]
HPDrainRate:7
CircleSize:5
OverallDifficulty:4
ApproachRate:5
SliderMultiplier:1.4
SliderTickRate:1

[Events]
//Background and Video events
0,0,"bg.png",0,27
//Break Periods
2,94709,104452
//Storyboard Layer 0 (Background)
//Storyboard Layer 1 (Fail)
//Storyboard Layer 2 (Pass)
//Storyboard Layer 3 (Foreground)
//Storyboard Layer 4 (Overlay)
//Storyboard Sound Samples

[TimingPoints]
1424,342.857142857143,4,1,0,60,1,0
1424,-111.111111111111,4,1,0,60,0,0
6138,-111.111111111111,4,1,0,60,0,0
6309,-111.111111111111,4,1,0,60,0,0
6481,-111.111111111111,4,1,0,60,0,0
6652,-111.111111111111,4,1,0,60,0,0
6824,-111.111111111111,4,1,0,80,0,0
6995,-111.111111111111,4,1,0,60,0,0
11966,-111.111111111111,4,1,0,70,0,0
12309,-111.111111111111,4,1,0,90,0,0
12481,-111.111111111111,4,1,0,80,0,0
17795,-111.111111111111,4,1,0,80,0,0
17966,-111.111111111111,4,1,0,80,0,0
20538,-111.111111111111,4,1,0,80,0,0
20709,-111.111111111111,4,1,0,80,0,0
23281,-111.111111111111,4,1,0,80,0,0
23452,-111.111111111111,4,1,0,70,0,0
28766,-111.111111111111,4,1,0,80,0,0
28937,-111.111111111111,4,1,0,70,0,0
34252,-111.111111111111,4,1,0,80,0,0
34423,-111.111111111111,4,1,0,70,0,0
39738,-111.111111111111,4,1,0,80,0,0
39909,-111.111111111111,4,1,0,70,0,0
42309,-111.111111111111,4,1,0,80,0,0
42481,-111.111111111111,4,1,0,80,0,0
45052,-111.111111111111,4,1,0,80,0,0
45138,-111.111111111111,4,1,0,90,0,1
45223,-111.111111111111,4,1,0,90,0,1
50709,-111.111111111111,4,1,0,90,0,1
50881,-111.111111111111,4,1,0,90,0,1
53452,-111.111111111111,4,1,0,90,0,1
53624,-111.111111111111,4,1,0,90,0,1
54738,-111.111111111111,4,1,0,90,0,0
56281,-111.111111111111,4,1,0,90,0,1
61681,-111.111111111111,4,1,0,90,0,1
61853,-111.111111111111,4,1,0,90,0,1
64424,-111.111111111111,4,1,0,90,0,1
64595,-111.111111111111,4,1,0,90,0,1
65881,-111.111111111111,4,1,0,90,0,0
65966,-111.111111111111,4,1,0,40,0,0
67166,-111.111111111111,4,1,0,90,0,0
67338,-111.111111111111,4,1,0,80,0,0
69909,-111.111111111111,4,1,0,80,0,0
70081,-111.111111111111,4,1,0,80,0,0
72652,-111.111111111111,4,1,0,80,0,0
72824,-111.111111111111,4,1,0,70,0,0
78138,-111.111111111111,4,1,0,80,0,0
78310,-111.111111111111,4,1,0,70,0,0
83624,-111.111111111111,4,1,0,80,0,0
83795,-111.111111111111,4,1,0,70,0,0
89109,-111.111111111111,4,1,0,80,0,0
89281,-111.111111111111,4,1,0,70,0,0
94424,-111.111111111111,4,1,0,80,0,0
94595,-111.111111111111,4,1,0,70,0,0
105565,-111.111111111111,4,1,0,80,0,0
105738,-111.111111111111,4,1,0,80,0,0
116366,-111.111111111111,4,1,0,80,0,0
116452,-111.111111111111,4,1,0,90,0,1
116537,-111.111111111111,4,1,0,90,0,1
122023,-111.111111111111,4,1,0,90,0,1
122195,-111.111111111111,4,1,0,90,0,1
124766,-111.111111111111,4,1,0,90,0,1
124938,-111.111111111111,4,1,0,90,0,1
126052,-111.111111111111,4,1,0,90,0,0
127595,-111.111111111111,4,1,0,90,0,1
132995,-111.111111111111,4,1,0,90,0,1
133167,-111.111111111111,4,1,0,90,0,1
135738,-111.111111111111,4,1,0,90,0,1
135909,-111.111111111111,4,1,0,90,0,1
137195,-111.111111111111,4,1,0,90,0,0
138138,-111.111111111111,4,1,0,90,0,0
138481,-111.111111111111,4,1,0,90,0,0
138652,-111.111111111111,4,1,0,80,0,0
144309,-111.111111111111,4,1,0,90,0,0
144481,-111.111111111111,4,1,0,80,0,0
146709,-111.111111111111,4,1,0,90,0,0
146881,-111.111111111111,4,1,0,80,0,0

[HitObjects]
473,168,1424,5,0,0:0:0:0:
229,147,1766,1,8,0:0:0:0:
305,165,1938,1,8,0:0:0:0:
252,171,2109,1,0,0:0:0:0:
415,154,2452,1,8,0:0:0:0:
402,141,2795,1,0,0:0:0:0:
258,107,3481,1,0,0:0:0:0:
460,161,3738,1,8,0:0:0:0:
453,158,3995,1,8,0:0:0:0:
449,148,4166,1,0,0:0:0:0:
490,148,4509,5,8,0:0:0:0:
458,149,4852,1,0,0:0:0:0:
468,151,5195,1,0,0:0:0:0:
411,140,5538,1,8,0:0:0:0:
434,154,6224,1,0,0:0:0:0:
353,137,6395,1,0,0:0:0:0:
353,137,6566,1,8,0:0:0:0:
279,99,6909,1,4,0:0:0:0:
451,151,7252,1,8,0:0:0:0:
419,143,7424,1,8,0:0:0:0:
409,142,7595,1,0,0:0:0:0:
388,138,7938,1,8,0:0:0:0:
389,164,8281,1,0,0:0:0:0:
119,163,8452,1,0,0:0:0:0:
465,158,8624,1,8,0:0:0:0:
436,152,8966,1,0,0:0:0:0:
443,150,9309,1,8,0:0:0:0:
431,157,9652,1,0,0:0:0:0:
352,128,9909,1,8,0:0:0:0:
406,123,10166,1,0,0:0:0:0:
447,155,10338,1,8,0:0:0:0:
446,158,10681,1,8,0:0:0:0:
377,88,11024,1,0,0:0:0:0:
321,168,12052,1,8,0:0:0:0:
200,240,12395,1,4,0:0:0:0:
410,145,13080,1,0,0:0:0:0:
388,112,13338,1,0,0:0:0:0:
349,129,13595,1,8,0:0:0:0:
438,134,14109,1,8,0:0:0:0:
389,162,14452,1,0,0:0:0:0:
376,148,14709,1,8,0:0:0:0:
269,153,14966,1,0,0:0:0:0:
422,138,15481,1,8,0:0:0:0:
380,143,15824,1,0,0:0:0:0:
380,143,16081,1,8,0:0:0:0:
407,147,16338,5,0,0:0:0:0:
427,156,16681,1,8,0:0:0:0:
406,142,16938,1,8,0:0:0:0:
387,157,17195,1,0,0:0:0:0:
336,138,17452,1,8,0:0:0:0:
419,119,17881,1,4,0:0:0:0:
411,151,18566,1,0,0:0:0:0:
411,151,18824,1,0,0:0:0:0:
453,161,19081,1,8,0:0:0:0:
482,165,19424,1,0,0:0:0:0:
501,172,19681,1,8,0:0:0:0:
426,157,19938,1,0,0:0:0:0:
400,127,20195,1,8,0:0:0:0:
401,163,20624,1,4,0:0:0:0:
436,140,20966,1,8,0:0:0:0:
446,158,21309,1,0,0:0:0:0:
478,146,21566,1,8,0:0:0:0:
389,154,21824,1,0,0:0:0:0:
377,143,22166,1,8,0:0:0:0:
376,143,22424,1,8,0:0:0:0:
375,121,22681,1,0,0:0:0:0:
333,131,23024,1,8,0:0:0:0:
456,127,23366,1,4,0:0:0:0:
405,142,23709,1,8,0:0:0:0:
406,150,24052,1,0,0:0:0:0:
430,143,24395,1,8,0:0:0:0:
405,142,24566,1,0,0:0:0:0:
470,153,24909,1,8,0:0:0:0:
470,153,25081,1,8,0:0:0:0:
446,134,25424,1,0,0:0:0:0:
368,154,26109,1,0,0:0:0:0:
375,173,26452,1,0,0:0:0:0:
411,150,26624,1,8,0:0:0:0:
376,132,26966,1,0,0:0:0:0:
376,132,27309,1,0,0:0:0:0:
456,169,27652,1,8,0:0:0:0:
436,161,27824,1,0,0:0:0:0:
423,144,28166,1,8,0:0:0:0:
486,123,28852,1,4,0:0:0:0:
449,158,29195,1,8,0:0:0:0:
424,152,29366,1,0,0:0:0:0:
431,145,29709,1,0,0:0:0:0:
429,146,29881,1,0,0:0:0:0:
407,132,30052,1,8,0:0:0:0:
354,156,30566,1,8,0:0:0:0:
405,163,30909,1,0,0:0:0:0:
421,160,31252,1,8,0:0:0:0:
329,227,31424,1,0,0:0:0:0:
433,144,31938,1,0,0:0:0:0:
411,146,32281,1,8,0:0:0:0:
381,144,32624,1,8,0:0:0:0:
378,144,32795,1,0,0:0:0:0:
259,127,33138,1,8,0:0:0:0:
367,164,33309,1,0,0:0:0:0:
416,149,33652,1,8,0:0:0:0:
454,100,34338,1,4,0:0:0:0:
480,160,34681,1,8,0:0:0:0:
448,160,34852,1,0,0:0:0:0:
426,131,35195,1,0,0:0:0:0:
426,131,35538,1,8,0:0:0:0:
412,130,36395,1,0,0:0:0:0:
412,130,36566,1,0,0:0:0:0:
376,133,36738,1,8,0:0:0:0:
258,198,37081,1,0,0:0:0:0:
420,165,37424,1,8,0:0:0:0:
399,146,37595,1,0,0:0:0:0:
414,138,37938,1,0,0:0:0:0:
204,68,38281,5,8,0:0:0:0:
473,164,38624,1,0,0:0:0:0:
475,146,38795,1,8,0:0:0:0:
466,144,38966,1,0,0:0:0:0:
302,103,39138,1,8,0:0:0:0:
246,202,39481,1,8,0:0:0:0:
408,167,39824,1,4,0:0:0:0:
338,126,40166,1,8,0:0:0:0:
332,123,40509,1,8,0:0:0:0:
331,168,40852,1,8,0:0:0:0:
420,160,41195,1,0,0:0:0:0:
390,151,41538,1,8,0:0:0:0:
282,127,41709,1,8,0:0:0:0:
408,170,41881,1,0,0:0:0:0:
491,132,42395,1,4,0:0:0:0:
422,173,42738,1,8,0:0:0:0:
406,153,42909,1,0,0:0:0:0:
393,150,43252,1,8,0:0:0:0:
272,108,43595,1,0,0:0:0:0:
399,180,43766,1,8,0:0:0:0:
360,148,44109,1,8,0:0:0:0:
257,202,44452,1,8,0:0:0:0:
486,117,45138,1,4,0:0:0:0:
440,132,45652,1,0,0:0:0:0:
420,135,45995,1,8,0:0:0:0:
417,136,46166,1,8,0:0:0:0:
468,139,46509,1,0,0:0:0:0:
472,143,46852,1,8,0:0:0:0:
407,102,47024,1,0,0:0:0:0:
468,139,47366,1,8,0:0:0:0:
324,153,47709,1,0,0:0:0:0:
324,171,47881,1,0,0:0:0:0:
407,145,48052,1,0,0:0:0:0:
272,127,48395,5,0,0:0:0:0:
442,139,48738,1,8,0:0:0:0:
280,124,49081,5,0,0:0:0:0:
278,124,49252,1,8,0:0:0:0:
416,153,49424,1,0,0:0:0:0:
459,147,49766,1,8,0:0:0:0:
277,178,50109,1,8,0:0:0:0:
447,136,50452,1,8,0:0:0:0:
305,104,50624,1,8,0:0:0:0:
425,97,50795,1,4,0:0:0:0:
310,130,51138,1,8,0:0:0:0:
310,130,51481,1,0,0:0:0:0:
285,143,51995,5,8,0:0:0:0:
421,139,52166,1,8,0:0:0:0:
468,152,52509,1,0,0:0:0:0:
446,116,52852,1,8,0:0:0:0:
400,138,53024,1,0,0:0:0:0:
439,133,53195,1,8,0:0:0:0:
429,116,53538,1,4,0:0:0:0:
392,158,54224,1,8,0:0:0:0:
392,158,54395,1,8,0:0:0:0:
409,134,54566,1,0,0:0:0:0:
409,134,54738,1,8,0:0:0:0:
433,124,55081,1,8,0:0:0:0:
432,124,55424,1,8,0:0:0:0:
404,136,55766,1,8,0:0:0:0:
398,135,55938,1,8,0:0:0:0:
362,149,56281,1,0,0:0:0:0:
480,153,56624,1,8,0:0:0:0:
447,124,56966,1,0,0:0:0:0:
440,151,57309,1,8,0:0:0:0:
407,148,57481,1,0,0:0:0:0:
412,150,58166,1,8,0:0:0:0:
431,118,58509,1,8,0:0:0:0:
431,118,58681,1,0,0:0:0:0:
431,118,58852,1,0,0:0:0:0:
432,122,59024,1,8,0:0:0:0:
312,141,59366,1,0,0:0:0:0:
386,146,59709,1,8,0:0:0:0:
370,135,60052,1,0,0:0:0:0:
342,232,60395,1,8,0:0:0:0:
374,224,60566,1,8,0:0:0:0:
384,225,60738,1,8,0:0:0:0:
355,137,61081,1,8,0:0:0:0:
388,116,61766,1,4,0:0:0:0:
441,154,62109,1,8,0:0:0:0:
441,154,62452,1,0,0:0:0:0:
457,158,62795,1,8,0:0:0:0:
423,153,62966,1,0,0:0:0:0:
466,140,63481,1,8,0:0:0:0:
447,141,63824,1,8,0:0:0:0:
167,154,63995,1,0,0:0:0:0:
425,157,64166,1,8,0:0:0:0:
280,62,64509,1,4,0:0:0:0:
371,118,64852,1,8,0:0:0:0:
400,153,65195,1,0,0:0:0:0:
340,146,65538,1,8,0:0:0:0:
370,169,65709,1,8,0:0:0:0:
376,114,67252,1,4,0:0:0:0:
436,140,67595,1,8,0:0:0:0:
446,158,67938,1,0,0:0:0:0:
478,146,68195,1,8,0:0:0:0:
389,154,68453,1,0,0:0:0:0:
377,143,68795,1,8,0:0:0:0:
376,143,69053,1,8,0:0:0:0:
375,121,69310,1,0,0:0:0:0:
333,131,69567,1,8,0:0:0:0:
456,127,69995,1,4,0:0:0:0:
436,140,70338,1,8,0:0:0:0:
446,158,70681,1,0,0:0:0:0:
478,146,70938,1,8,0:0:0:0:
389,154,71196,1,0,0:0:0:0:
261,101,71366,1,0,0:0:0:0:
376,143,71709,1,8,0:0:0:0:
375,121,72053,1,0,0:0:0:0:
456,127,72738,1,4,0:0:0:0:
405,142,73081,1,8,0:0:0:0:
406,150,73424,1,0,0:0:0:0:
430,143,73767,1,8,0:0:0:0:
405,142,73938,1,0,0:0:0:0:
470,153,74453,1,8,0:0:0:0:
446,134,74796,1,0,0:0:0:0:
368,154,75481,1,0,0:0:0:0:
375,173,75824,1,0,0:0:0:0:
411,150,75996,1,8,0:0:0:0:
376,132,76338,1,0,0:0:0:0:
376,132,76681,1,0,0:0:0:0:
436,161,77196,1,0,0:0:0:0:
423,144,77538,1,8,0:0:0:0:
358,130,78224,1,4,0:0:0:0:
449,158,78566,1,8,0:0:0:0:
424,152,78737,1,0,0:0:0:0:
431,145,79080,1,0,0:0:0:0:
407,132,79423,1,8,0:0:0:0:
354,156,79937,1,8,0:0:0:0:
405,163,80280,1,0,0:0:0:0:
421,160,80623,1,8,0:0:0:0:
329,227,80795,1,0,0:0:0:0:
433,144,81309,1,0,0:0:0:0:
411,146,81652,1,8,0:0:0:0:
381,144,81995,1,8,0:0:0:0:
378,144,82166,1,0,0:0:0:0:
367,164,82680,1,0,0:0:0:0:
205,77,83024,5,8,0:0:0:0:
454,100,83709,1,4,0:0:0:0:
480,160,84052,1,8,0:0:0:0:
448,160,84223,1,0,0:0:0:0:
426,131,84566,1,0,0:0:0:0:
426,131,84909,1,8,0:0:0:0:
412,130,85766,1,0,0:0:0:0:
412,130,85937,1,0,0:0:0:0:
376,133,86109,1,8,0:0:0:0:
258,198,86452,1,0,0:0:0:0:
420,165,86795,1,8,0:0:0:0:
399,146,86966,1,0,0:0:0:0:
414,138,87309,1,0,0:0:0:0:
204,68,87652,5,8,0:0:0:0:
473,164,87995,1,0,0:0:0:0:
475,146,88166,1,8,0:0:0:0:
466,144,88337,1,0,0:0:0:0:
302,103,88509,1,8,0:0:0:0:
246,202,88852,1,8,0:0:0:0:
408,167,89195,1,4,0:0:0:0:
338,126,89537,1,8,0:0:0:0:
332,123,89880,1,8,0:0:0:0:
331,168,90223,1,8,0:0:0:0:
420,160,90566,1,0,0:0:0:0:
390,151,90909,1,8,0:0:0:0:
282,127,91080,1,8,0:0:0:0:
408,170,91252,1,0,0:0:0:0:
491,132,91766,1,4,0:0:0:0:
422,173,92109,1,8,0:0:0:0:
406,153,92280,1,0,0:0:0:0:
393,150,92623,1,8,0:0:0:0:
272,108,92966,1,0,0:0:0:0:
399,180,93137,1,8,0:0:0:0:
360,148,93480,1,8,0:0:0:0:
257,202,93823,1,8,0:0:0:0:
394,138,94509,1,4,0:0:0:0:
325,166,105652,5,4,0:0:0:0:
309,203,105995,1,8,0:0:0:0:
309,203,106338,1,0,0:0:0:0:
331,241,106509,1,8,0:0:0:0:
350,272,106852,1,0,0:0:0:0:
331,129,107195,1,8,0:0:0:0:
331,129,107366,1,8,0:0:0:0:
201,187,107709,1,0,0:0:0:0:
479,168,108052,1,8,0:0:0:0:
436,188,108395,1,0,0:0:0:0:
446,170,108738,1,8,0:0:0:0:
446,170,108909,1,8,0:0:0:0:
446,170,109081,1,0,0:0:0:0:
427,146,109424,1,8,0:0:0:0:
381,156,109766,1,0,0:0:0:0:
453,143,110795,1,8,0:0:0:0:
390,165,111138,1,0,0:0:0:0:
393,148,111481,1,8,0:0:0:0:
391,145,111652,1,8,0:0:0:0:
391,145,111824,1,0,0:0:0:0:
352,163,111995,1,8,0:0:0:0:
301,146,112338,1,0,0:0:0:0:
460,157,112681,1,8,0:0:0:0:
460,157,112852,1,8,0:0:0:0:
424,162,113195,1,0,0:0:0:0:
375,176,113538,1,8,0:0:0:0:
411,156,113709,1,8,0:0:0:0:
359,136,113881,1,0,0:0:0:0:
390,178,114566,1,0,0:0:0:0:
417,167,114909,1,8,0:0:0:0:
421,170,115081,1,0,0:0:0:0:
235,148,115424,1,0,0:0:0:0:
235,148,115766,1,0,0:0:0:0:
267,116,116452,1,4,0:0:0:0:
440,132,116966,1,0,0:0:0:0:
420,135,117309,1,8,0:0:0:0:
417,136,117480,1,8,0:0:0:0:
468,139,117823,1,0,0:0:0:0:
472,143,118166,1,8,0:0:0:0:
407,102,118338,1,0,0:0:0:0:
468,139,118680,1,8,0:0:0:0:
324,153,119023,1,0,0:0:0:0:
324,171,119195,1,0,0:0:0:0:
407,145,119366,1,0,0:0:0:0:
272,127,119709,5,0,0:0:0:0:
442,139,120052,1,8,0:0:0:0:
280,124,120395,5,0,0:0:0:0:
278,124,120566,1,8,0:0:0:0:
416,153,120738,1,0,0:0:0:0:
459,147,121080,1,8,0:0:0:0:
277,178,121423,1,8,0:0:0:0:
447,136,121766,1,8,0:0:0:0:
305,104,121938,1,8,0:0:0:0:
425,97,122109,1,4,0:0:0:0:
310,130,122452,1,8,0:0:0:0:
310,130,122795,1,0,0:0:0:0:
285,143,123309,5,8,0:0:0:0:
421,139,123480,1,8,0:0:0:0:
468,152,123823,1,0,0:0:0:0:
446,116,124166,1,8,0:0:0:0:
400,138,124338,1,0,0:0:0:0:
439,133,124509,1,8,0:0:0:0:
429,116,124852,1,4,0:0:0:0:
392,158,125538,1,8,0:0:0:0:
392,158,125709,1,8,0:0:0:0:
409,134,125880,1,0,0:0:0:0:
409,134,126052,1,8,0:0:0:0:
433,124,126395,1,8,0:0:0:0:
432,124,126738,1,8,0:0:0:0:
404,136,127080,1,8,0:0:0:0:
398,135,127252,1,8,0:0:0:0:
362,149,127595,1,0,0:0:0:0:
480,153,127938,1,8,0:0:0:0:
447,124,128280,1,0,0:0:0:0:
440,151,128623,1,8,0:0:0:0:
407,148,128795,1,0,0:0:0:0:
412,150,129480,1,8,0:0:0:0:
431,118,129823,1,8,0:0:0:0:
431,118,129995,1,0,0:0:0:0:
431,118,130166,1,0,0:0:0:0:
432,122,130338,1,8,0:0:0:0:
312,141,130680,1,0,0:0:0:0:
386,146,131023,1,8,0:0:0:0:
370,135,131366,1,0,0:0:0:0:
342,232,131709,1,8,0:0:0:0:
374,224,131880,1,8,0:0:0:0:
384,225,132052,1,8,0:0:0:0:
355,137,132395,1,8,0:0:0:0:
388,116,133080,1,4,0:0:0:0:
441,154,133423,1,8,0:0:0:0:
441,154,133766,1,0,0:0:0:0:
457,158,134109,1,8,0:0:0:0:
423,153,134280,1,0,0:0:0:0:
466,140,134795,1,8,0:0:0:0:
447,141,135138,1,8,0:0:0:0:
149,183,135309,1,0,0:0:0:0:
425,157,135480,1,8,0:0:0:0:
280,62,135823,1,4,0:0:0:0:
371,118,136166,1,8,0:0:0:0:
400,153,136509,1,0,0:0:0:0:
340,146,136852,1,8,0:0:0:0:
216,161,137195,1,0,0:0:0:0:
227,156,137366,1,0,0:0:0:0:
230,146,137538,1,0,0:0:0:0:
231,145,137709,1,0,0:0:0:0:
452,154,138224,1,8,0:0:0:0:
376,114,138566,1,4,0:0:0:0:
352,154,138909,1,8,0:0:0:0:
411,151,139251,1,0,0:0:0:0:
411,151,139509,1,0,0:0:0:0:
453,161,139766,1,8,0:0:0:0:
482,165,140109,1,0,0:0:0:0:
501,172,140366,1,8,0:0:0:0:
426,157,140623,1,0,0:0:0:0:
400,127,140880,1,8,0:0:0:0:
401,163,141309,1,0,0:0:0:0:
436,140,141651,1,8,0:0:0:0:
446,158,141994,1,0,0:0:0:0:
478,146,142251,1,8,0:0:0:0:
389,154,142509,1,0,0:0:0:0:
377,143,142851,1,8,0:0:0:0:
376,143,143109,1,8,0:0:0:0:
375,121,143366,1,0,0:0:0:0:
333,131,143623,1,8,0:0:0:0:
352,154,144395,1,4,0:0:0:0:
411,151,144737,1,8,0:0:0:0:
411,151,144995,1,0,0:0:0:0:
453,161,145252,1,0,0:0:0:0:
482,165,145595,1,8,0:0:0:0:
501,172,145852,1,8,0:0:0:0:
426,157,146109,1,0,0:0:0:0:
400,127,146366,1,8,0:0:0:0:
401,163,146795,1,4,0:0:0:0:
436,140,147137,1,8,0:0:0:0:
446,158,147480,1,0,0:0:0:0:
478,146,147737,1,8,0:0:0:0:
389,154,147995,1,0,0:0:0:0:
377,143,148337,1,8,0:0:0:0:
376,143,148595,1,8,0:0:0:0:
375,121,148852,1,0,0:0:0:0:
333,131,149109,1,8,0:0:0:0:
277,153,149366,1,8,0:0:0:0:
