osu file format v14

[General]
AudioFilename: audio.mp3
AudioLeadIn: 0
PreviewTime: 34362
Countdown: 0
SampleSet: Soft
StackLeniency: 0.7
Mode: 0
LetterboxInBreaks: 0
WidescreenStoryboard: 1

[Editor]
Bookmarks: 4705,10191,15676,21162,26648,32133,34876,44305,45848,55448,56819,62305,71905,73276,78762,84248,86991,93848,97962,99162,107391,108933,118533,119905,125391,130876
DistanceSpacing: 1.7
BeatDivisor: 4
GridSize: 8
TimelineZoom: 1.9

[Metadata]
Title:Egonomy
TitleUnicode:エゴノミー
Artist::) feat. KAFU
ArtistUnicode:ت feat. KAFU
Creator:Ryuusei Aika
Version:ent's Another
Source:
Tags:Ego no mii Egonomii me 0ugi ougi shiny braixen entsetzen ent kieg mocaotic seros japanese pop j-pop jpop vocalsynth vocasynth 可不 cevioai
BeatmapID:3571601
BeatmapSetID:1745150

[Difficulty]
HPDrainRate:5.5
CircleSize:3.8
OverallDifficulty:8.5
ApproachRate:9
SliderMultiplier:2.59999990463257
SliderTickRate:1

[Events]
//Background and Video events
0,0,"bg.jpg",0,0
//Break Periods
2,5048,9505
2,57162,61619
2,120248,124705
//Storyboard Layer 0 (Background)
//Storyboard Layer 1 (Fail)
//Storyboard Layer 2 (Pass)
//Storyboard Layer 3 (Foreground)
//Storyboard Layer 4 (Overlay)
//Storyboard Sound Samples

[TimingPoints]
591,342.857142857143,4,2,1,70,1,0
591,-80,4,2,1,70,0,0
1276,-133.333333333333,4,2,1,70,0,0
4362,-100,4,2,1,70,0,0
4705,-100,4,2,1,70,0,1
5048,-100,4,2,1,70,0,0
10362,-117.647058823529,4,2,1,70,0,0
16019,-100,4,2,1,70,0,1
16705,-117.647058823529,4,2,1,70,0,0
21333,-125,4,2,1,70,0,0
21848,-100,4,2,1,70,0,1
22533,-100,4,2,1,70,0,0
22705,-125,4,2,1,70,0,0
26648,-100,4,2,1,70,0,0
32133,-303.030303030303,4,2,1,70,0,0
33505,-117.647058823529,4,2,1,70,0,0
34876,-80,4,2,1,79,0,1
35391,-90.9090909090909,4,2,1,79,0,1
36933,-74.0740740740741,4,2,1,79,0,1
38305,-90.9090909090909,4,2,1,79,0,1
40362,-90.9090909090909,4,2,1,79,0,0
40705,-80,4,2,1,79,0,1
41048,-90.9090909090909,4,2,1,79,0,1
41819,-90.9090909090909,4,2,1,5,0,1
41905,-90.9090909090909,4,2,1,79,0,1
44305,-90.9090909090909,4,2,1,79,0,0
45848,-90.9090909090909,4,2,1,79,0,1
47391,-76.9230769230769,4,2,1,79,0,1
48762,-90.9090909090909,4,2,1,79,0,1
52876,-76.9230769230769,4,2,1,79,0,1
54248,-90.9090909090909,4,2,1,79,0,1
55448,-90.9090909090909,4,2,1,79,0,0
56476,-86.9565217391304,4,2,1,79,0,0
56819,-86.9565217391304,4,2,1,79,0,1
57162,-86.9565217391304,4,2,1,79,0,0
62305,-117.647058823529,4,2,1,79,0,0
68133,-100,4,2,1,79,0,1
68819,-100,4,2,1,79,0,0
69162,-117.647058823529,4,2,1,79,0,0
71905,-303.030303030303,4,2,1,79,0,0
73276,-303.030303030303,4,2,1,50,0,1
75848,-125,4,2,1,50,0,1
78762,-100,4,2,1,60,0,0
81848,-100,4,2,1,70,0,0
84248,-303.030303030303,4,2,1,70,0,0
85619,-100,4,2,1,70,0,0
86991,-500,4,2,1,79,0,1
94191,-133.333333333333,4,2,1,79,0,1
95219,-133.333333333333,4,2,1,79,0,0
97448,-133.333333333333,4,2,1,60,0,0
98305,-80,4,2,1,79,0,1
98562,-80,4,2,1,79,0,0
98648,-80,4,2,1,79,0,1
98819,-80,4,2,1,79,0,0
98905,-80,4,2,1,79,0,1
98991,-80,4,2,1,79,0,0
99162,-83.3333333333333,4,2,1,79,0,1
100019,-68.9655172413793,4,2,1,79,0,1
101391,-83.3333333333333,4,2,1,79,0,1
103448,-83.3333333333333,4,2,1,79,0,0
103791,-74.0740740740741,4,2,1,79,0,1
104133,-83.3333333333333,4,2,1,79,0,1
107391,-83.3333333333333,4,2,1,79,0,0
107733,-83.3333333333333,4,2,1,79,0,1
108591,-83.3333333333333,4,2,1,79,0,0
108933,-83.3333333333333,4,2,1,79,0,1
110476,-71.4285714285714,4,2,1,79,0,1
111848,-83.3333333333333,4,2,1,79,0,1
115962,-71.4285714285714,4,2,1,79,0,1
117333,-83.3333333333333,4,2,1,79,0,1
118533,-83.3333333333333,4,2,1,79,0,0
119562,-76.9230769230769,4,2,1,79,0,0
119905,-76.9230769230769,4,2,1,79,0,1
120248,-76.9230769230769,4,2,1,79,0,0
125391,-76.9230769230769,4,2,1,90,0,1
125733,-74.0740740740741,4,2,1,90,0,1
130876,-100,4,2,1,90,0,0
131047,-100,4,2,1,15,0,0

[Colours]
Combo1 : 191,0,191
Combo2 : 128,128,255
Combo3 : 191,0,96
Combo4 : 128,0,128

[HitObjects]
0,243,591,6,0,L|34:-1,2,243.749991059303,4|4|4,2:1|2:1|2:1,2:0:0:0:
123,263,1276,6,0,L|146:93,2,146.249994635582,4|4|4,2:1|2:1|2:1,2:0:0:0:
256,192,1962,12,2,3333,2:0:0:0:
256,0,3676,5,2,2:0:0:0:
256,0,3848,5,2,2:0:0:0:
256,0,4019,5,2,2:0:0:0:
256,0,4191,5,2,2:0:0:0:
256,0,4362,6,0,L|256:70,1,64.9999976158143,10|0,2:0|2:0,2:0:0:0:
256,192,4705,5,4,3:2:0:0:
402,13,10191,5,0,3:0:0:0:
512,24,10362,2,0,L|382:11,1,110.499995946885,0|0,2:0|3:0,2:0:0:0:
419,108,10705,5,0,2:0:0:0:
255,129,10876,2,0,L|448:104,1,165.749993920327,0|0,3:0|2:0,2:0:0:0:
511,112,11219,6,0,L|460:233,2,110.499995946885,0|0|0,3:0|2:0|3:0,2:0:0:0:
512,384,12248,5,0,3:0:0:0:
512,384,12419,5,0,2:0:0:0:
512,384,12591,6,0,L|371:372,1,110.499995946885,0|0,3:0|2:0,2:0:0:0:
401,374,12848,1,0,2:0:0:0:
401,374,12933,5,0,3:0:0:0:
302,240,13105,2,0,L|323:359,1,110.499995946885,0|0,2:0|3:0,2:0:0:0:
302,240,13448,5,0,2:0:0:0:
265,98,13619,2,0,L|187:263,1,165.749993920327,0|0,3:0|2:0,2:0:0:0:
159,331,13962,6,0,L|44:356,2,110.499995946885,0|0|0,3:0|2:0|3:0,2:0:0:0:
0,140,14991,6,0,L|25:19,1,110.499995946885,0|0,3:0|2:0,2:0:0:0:
22,31,15248,2,0,L|102:11,1,55.2499979734423,0|0,2:0|3:0,2:0:0:0:
85,171,15505,1,0,2:0:0:0:
85,171,15676,2,0,L|62:279,1,110.499995946885,4|0,3:2|2:0,2:0:0:0:
201,59,16019,6,0,L|348:40,1,129.999995231629,0|0,3:0|2:0,2:0:0:0:
215,154,16362,2,0,L|362:135,1,129.999995231629,0|0,3:0|2:0,2:0:0:0:
229,249,16705,6,0,L|376:266,1,110.499995946885,0|0,3:0|2:0,2:0:0:0:
338,261,16962,1,0,2:0:0:0:
338,261,17048,2,0,B|406:349|406:349|483:270,2,220.999991893769,0|0|0,3:0|3:0|3:0,2:0:0:0:
507,122,17991,1,0,2:0:0:0:
507,122,18076,2,0,L|488:7,1,110.499995946885,0|0,3:0|2:0,2:0:0:0:
332,90,18419,5,0,3:0:0:0:
332,90,18591,2,0,L|217:71,1,110.499995946885,0|0,2:0|3:0,2:0:0:0:
189,68,18848,1,0,2:0:0:0:
156,62,18933,2,0,L|41:81,1,110.499995946885,0|0,2:0|3:0,2:0:0:0:
210,275,19448,6,0,L|191:390,1,110.499995946885,0|0,3:0|2:0,2:0:0:0:
104,293,19791,5,2,3:2:0:0:
108,265,19876,1,2,3:2:0:0:
113,238,19962,1,2,3:2:0:0:
117,211,20048,1,2,3:2:0:0:
122,183,20133,1,0,3:0:0:0:
210,275,20305,5,0,2:0:0:0:
308,318,20476,5,2,3:2:0:0:
312,290,20562,1,2,2:0:0:0:
419,340,20733,6,0,L|437:230,1,110.499995946885,0|0,3:0|2:0,2:0:0:0:
436,230,20991,2,0,L|427:175,1,55.2499979734423,2|2,3:2|3:2,2:0:0:0:
405,93,21162,5,0,3:0:0:0:
405,93,21333,2,0,L|267:68,2,103.999996185303,0|8|0,2:0|2:3|3:0,2:0:0:0:
211,139,21848,6,0,B|124:123|124:123|58:79,1,129.999995231629,8|0,2:0|2:0,2:0:0:0:
62,81,22105,1,0,2:0:0:0:
34,63,22191,2,0,B|18:149|18:149|37:226,1,129.999995231629,0|0,2:0|2:0,2:0:0:0:
145,384,22533,5,0,3:0:0:0:
145,384,22705,2,0,L|166:264,2,103.999996185303,0|0|0,2:0|2:0|3:0,2:0:0:0:
279,224,23219,2,0,B|331:214|331:214|381:224,1,103.999996185303,8|0,2:0|3:0,2:0:0:0:
279,328,23562,2,0,B|331:338|331:338|381:328,1,103.999996185303,8|0,2:0|3:0,2:0:0:0:
512,272,23905,6,0,B|485:122|485:122|506:53,1,207.999992370606,0|0,3:0|2:0,2:0:0:0:
387,9,24419,1,0,2:0:0:0:
387,9,24591,2,0,B|333:-7|333:-7|183:19,1,207.999992370606,8|0,2:0|2:0,2:0:0:0:
25,3,25105,1,0,2:0:0:0:
25,3,25191,1,0,2:0:0:0:
25,3,25276,6,0,B|39:52|39:52|24:118,1,103.999996185303,0|0,3:0|2:0,2:0:0:0:
182,133,25619,1,0,2:0:0:0:
182,133,25791,2,0,B|150:174|150:174|-15:219,1,207.999992370606,0|0,3:0|3:0,2:0:0:0:
95,282,26305,2,0,B|146:270|146:270|202:277,1,103.999996185303,8|8,2:0|2:0,2:0:0:0:
222,280,26562,1,8,2:0:0:0:
247,283,26648,6,0,L|390:303,1,129.999995231629,0|0,3:0|2:0,2:0:0:0:
375,301,26905,1,0,0:0:0:0:
375,301,26991,1,0,3:0:0:0:
512,178,27162,1,0,2:0:0:0:
512,178,27333,6,0,L|369:198,1,129.999995231629,0|0,3:0|2:0,2:0:0:0:
357,199,27591,1,0,2:0:0:0:
331,202,27676,2,0,L|188:182,1,129.999995231629,0|0,3:0|2:0,2:0:0:0:
109,25,28019,6,0,B|185:2|185:2|372:127,2,259.999990463257,0|0|0,3:0|3:0|3:0,2:0:0:0:
0,177,29048,2,0,L|137:134,1,129.999995231629,0|0,3:0|3:0,2:0:0:0:
18,351,29391,6,0,L|24:288,1,64.9999976158143,0|0,3:0|2:0,2:0:0:0:
104,288,29562,2,0,L|98:351,1,64.9999976158143,0|0,3:0|2:0,2:0:0:0:
178,351,29733,2,0,L|184:288,1,64.9999976158143,0|0,3:0|2:0,2:0:0:0:
264,288,29905,2,0,L|258:351,1,64.9999976158143,0|0,3:0|2:0,2:0:0:0:
338,351,30076,1,0,3:0:0:0:
340,326,30162,1,0,3:0:0:0:
342,302,30248,1,0,3:0:0:0:
344,278,30333,1,0,3:0:0:0:
346,253,30419,1,0,3:0:0:0:
370,255,30505,1,0,3:0:0:0:
394,257,30591,1,0,3:0:0:0:
418,259,30676,1,0,3:0:0:0:
443,261,30762,5,0,3:0:0:0:
512,0,31276,1,0,3:0:0:0:
512,0,31448,5,0,3:0:0:0:
512,0,31619,5,0,3:0:0:0:
512,0,31791,5,0,3:0:0:0:
512,0,31962,5,0,3:0:0:0:
512,0,32133,6,0,B|533:38|533:38|509:126,1,128.699995279312,0|0,2:0|2:0,2:0:0:0:
469,206,32819,2,0,B|484:291,1,85.7999968528748,0|0,2:0|2:0,2:0:0:0:
512,384,33333,1,0,2:0:0:0:
512,384,33505,6,1,B|403:369|403:369|294:384,2,220.999991893769,0|0|0,3:0|3:0|3:0,2:0:0:0:
306,240,34362,5,0,2:0:0:0:
306,240,34533,5,0,2:0:0:0:
306,240,34705,5,0,2:0:0:0:
306,240,34876,6,0,L|261:-11,1,243.749991059303,4|0,3:2|2:0,2:0:0:0:
262,0,35219,1,8,2:0:0:0:
159,112,35391,2,0,L|72:96,2,71.4999973773957,2|2|0,2:0|2:0|3:0,2:0:0:0:
73,220,35733,1,0,2:0:0:0:
73,220,35905,2,0,L|-13:235,1,71.4999973773957,8|0,2:0|2:0,2:0:0:0:
13,319,36076,2,0,L|87:307,2,71.4999973773957,0|0|0,2:0|2:0|3:0,2:0:0:0:
168,384,36419,5,0,2:0:0:0:
186,275,36591,1,8,2:0:0:0:
186,275,36676,1,0,2:0:0:0:
186,275,36762,1,0,2:0:0:0:
202,166,36933,6,0,L|414:203,3,175.499993562698,2|2|10|2,3:2|2:0|2:0|2:0,2:0:0:0:
512,224,37619,1,2,3:2:0:0:
512,224,37962,5,8,2:0:0:0:
438,115,38133,1,0,2:0:0:0:
438,115,38219,1,0,2:0:0:0:
438,115,38305,2,0,L|453:28,1,71.4999973773957,2|0,3:2|2:0,2:0:0:0:
338,64,38476,2,0,L|300:-16,1,71.4999973773957,2|0,2:0|2:0,2:0:0:0:
226,79,38648,1,10,2:0:0:0:
226,79,38819,2,0,L|58:-18,2,142.999994754791,2|2|0,2:0|3:2|2:0,2:0:0:0:
0,93,39333,5,8,2:0:0:0:
0,92,39505,2,0,L|-13:166,1,71.4999973773957,0|0,2:0|2:0,2:0:0:0:
83,195,39676,2,0,L|96:268,1,71.4999973773957,2|0,3:2|2:0,2:0:0:0:
0,312,39848,2,0,L|-13:385,1,71.4999973773957,2|0,2:0|2:0,2:0:0:0:
112,362,40019,2,0,L|182:349,3,71.4999973773957,8|2|2|2,2:0|2:0|2:0|2:0,2:0:0:0:
269,338,40362,1,4,3:1:0:0:
269,338,40705,6,0,L|276:382,4,40.6249985098839,12|0|0|0|2,2:0|2:0|2:0|2:0|2:0,2:0:0:0:
380,384,41048,2,0,L|354:242,1,142.999994754791,0|0,3:0|2:0,2:0:0:0:
393,176,41305,2,0,L|367:34,1,142.999994754791,2|0,2:0|2:0,2:0:0:0:
443,19,41562,2,0,B|471:182|471:182|459:244,1,214.499992132187,2|0,2:0|2:0,2:0:0:0:
461,230,41905,5,0,2:0:0:0:
499,384,42076,2,0,L|357:358,1,142.999994754791,8|0,2:0|2:0,2:0:0:0:
330,352,42333,1,2,2:0:0:0:
301,345,42419,2,0,L|275:203,1,142.999994754791,2|2,3:2|2:0,2:0:0:0:
228,0,42762,1,10,2:0:0:0:
221,35,42848,1,2,2:0:0:0:
215,70,42933,1,2,2:0:0:0:
208,105,43019,1,2,2:0:0:0:
202,140,43105,6,0,L|131:127,2,71.4999973773957,2|0|0,3:2|2:0|2:0,2:0:0:0:
0,13,43448,2,0,L|30:181,1,142.999994754791,8|2,2:0|2:0,2:0:0:0:
34,181,43705,1,0,2:0:0:0:
41,208,43791,2,0,L|29:279,2,71.4999973773957,2|0|0,3:2|2:0|2:0,2:0:0:0:
0,384,44133,1,8,2:0:0:0:
0,384,44305,1,2,3:2:0:0:
256,336,44648,5,0,3:1:0:0:
350,362,44819,5,0,3:1:0:0:
403,280,44991,5,0,3:1:0:0:
341,204,45162,5,0,3:1:0:0:
249,239,45333,5,0,3:0:0:0:
249,239,45419,1,0,3:0:0:0:
249,239,45505,2,0,L|236:168,1,71.4999973773957,8|0,2:0|2:0,2:0:0:0:
343,24,45848,6,0,L|193:-2,2,142.999994754791,6|2|0,3:2|2:0|3:0,2:0:0:0:
43,120,46362,1,2,2:0:0:0:
43,120,46448,1,2,2:0:0:0:
43,120,46533,2,0,L|192:93,1,142.999994754791,2|0,3:2|2:0,2:0:0:0:
343,24,46876,2,0,L|370:173,1,142.999994754791,10|2,2:0|2:0,2:0:0:0:
368,164,47133,1,0,2:0:0:0:
368,164,47219,1,0,3:0:0:0:
509,282,47391,6,0,B|429:310|429:310|509:338,2,168.999993801117,2|10|2,2:0|2:0|2:0,2:0:0:0:
256,284,47905,2,0,B|336:312|336:312|256:340,2,168.999993801117,2|2|10,3:2|2:0|2:0,2:0:0:0:
151,384,48419,2,0,L|181:210,1,168.999993801117,2|0,2:0|3:0,2:0:0:0:
199,22,48762,6,0,L|214:108,1,71.4999973773957,2|0,2:0|2:0,2:0:0:0:
211,92,48933,2,0,L|20:125,1,142.999994754791,10|0,2:0|2:0,2:0:0:0:
41,123,49191,1,0,2:0:0:0:
13,129,49276,6,0,B|-17:269|-17:269|7:372,1,214.499992132187,2|0,3:2|2:0,2:0:0:0:
27,343,49619,1,10,2:0:0:0:
54,349,49705,1,0,2:0:0:0:
82,354,49791,2,0,B|113:198,1,142.999994754791,2|0,2:0|3:0,2:0:0:0:
212,317,50133,6,0,B|352:344,1,142.999994754791,2|10,2:0|2:0,2:0:0:0:
488,374,50476,2,0,L|496:323,4,35.7499986886979,2|0|2|0|0,2:0|2:0|2:0|2:0|3:0,2:0:0:0:
443,246,50819,1,2,2:0:0:0:
443,246,50991,2,0,B|470:105,1,142.999994754791,10|8,2:0|2:0,2:0:0:0:
477,77,51248,1,8,2:0:0:0:
481,49,51333,6,0,B|340:21,2,142.999994754791,6|2|8,3:2|2:0|2:0,2:0:0:0:
179,147,51848,1,2,2:0:0:0:
179,147,51933,1,0,2:0:0:0:
179,147,52019,2,0,B|320:119,1,142.999994754791,2|0,3:2|2:0,2:0:0:0:
73,15,52362,2,0,B|45:156,1,142.999994754791,10|2,2:0|2:0,2:0:0:0:
46,155,52619,1,0,2:0:0:0:
46,155,52705,1,0,3:0:0:0:
3,282,52876,6,0,B|83:310|83:310|3:338,2,168.999993801117,2|10|2,2:0|2:0|2:0,2:0:0:0:
256,284,53391,2,0,B|176:312|176:312|256:340,2,168.999993801117,2|2|10,3:2|2:0|2:0,2:0:0:0:
361,384,53905,2,0,L|331:210,1,168.999993801117,2|0,2:0|3:0,2:0:0:0:
477,26,54248,6,0,L|463:109,1,71.4999973773957,2|0,2:0|2:0,2:0:0:0:
466,96,54419,2,0,L|496:262,1,142.999994754791,10|0,2:0|3:0,2:0:0:0:
500,264,54676,1,0,3:0:0:0:
506,292,54762,5,2,3:2:0:0:
470,285,54848,1,0,3:0:0:0:
435,279,54933,1,10,2:0:0:0:
400,273,55019,1,8,2:0:0:0:
365,267,55105,2,0,L|294:254,1,71.4999973773957,10|8,2:0|2:0,2:0:0:0:
217,254,55276,2,0,L|147:267,1,71.4999973773957,10|8,2:0|2:0,2:0:0:0:
256,384,55448,5,2,2:0:0:0:
256,384,55791,5,2,2:0:0:0:
256,384,56133,5,2,2:0:0:0:
256,384,56476,6,0,L|256:304,1,74.7499972581864,10|0,2:0|2:0,2:0:0:0:
256,192,56819,5,4,3:2:0:0:
461,354,62305,6,0,L|331:332,1,110.499995946885,4|0,3:1|2:0,2:0:0:0:
370,109,62819,1,0,3:0:0:0:
206,82,62991,6,0,L|380:111,1,165.749993920327,8|0,2:0|2:0,2:0:0:0:
450,118,63333,2,0,L|504:-2,1,110.499995946885,0|0,3:0|2:0,2:0:0:0:
512,243,63676,2,0,B|460:213|460:213|274:244,2,220.999991893769,0|0|8,2:0|3:0|2:0,2:0:0:0:
270,348,64533,2,0,L|378:329,2,110.499995946885,0|0|0,2:0|2:0|2:0,2:0:0:0:
189,286,65048,6,0,L|209:167,1,110.499995946885,0|0,3:0|2:0,2:0:0:0:
140,106,65391,1,0,2:0:0:0:
78,198,65562,6,0,L|140:106,1,110.499995946885,0|8,3:0|2:0,2:0:0:0:
109,14,65905,1,0,2:0:0:0:
14,71,66076,6,0,L|117:10,1,110.499995946885,0|0,3:0|3:0,2:0:0:0:
310,1,66419,2,0,L|214:57,1,110.499995946885,0|0,2:0|2:0,2:0:0:0:
440,35,66762,2,0,B|474:88|474:88|445:253,2,220.999991893769,0|8|0,3:0|2:0|2:0,2:0:0:0:
447,243,67791,2,0,L|426:357,1,110.499995946885,0|0,3:0|2:0,2:0:0:0:
314,212,68133,6,0,B|229:198|229:198|183:212,1,129.999995231629,0|0,2:0|3:0,2:0:0:0:
315,332,68476,2,0,B|230:318|230:318|184:332,1,129.999995231629,8|0,2:0|2:0,2:0:0:0:
27,380,68819,5,0,3:0:0:0:
27,380,68991,1,0,2:0:0:0:
0,252,69162,2,0,L|28:87,1,165.749993920327,0|0,2:0|2:0,2:0:0:0:
28,88,69505,2,0,L|192:59,1,165.749993920327,0|0,3:0|2:0,2:0:0:0:
191,59,69848,2,0,B|348:86|348:86|384:158,2,220.999991893769,8|0|0,2:0|2:0|3:0,2:0:0:0:
126,186,70705,6,0,L|252:163,1,110.499995946885,0|0,2:0|2:0,2:0:0:0:
375,141,71048,1,0,3:0:0:0:
375,141,71219,2,0,L|355:249,2,110.499995946885,8|0|0,2:0|2:0|3:0,2:0:0:0:
507,78,71733,1,0,3:0:0:0:
507,78,71905,6,0,B|538:143|538:143|512:286,1,214.499992132187,0|0,2:0|2:0,2:0:0:0:
512,384,72933,5,0,2:0:0:0:
512,384,73105,5,0,2:0:0:0:
512,384,73276,5,4,3:2:0:0:
439,329,73791,5,0,3:0:0:0:
366,274,74305,5,0,3:0:0:0:
366,274,74476,5,0,2:0:0:0:
366,274,74648,5,8,2:0:0:0:
293,219,75162,5,8,2:0:0:0:
293,219,75505,1,0,3:0:0:0:
293,219,75848,2,0,L|357:136,1,103.999996185303,8|0,2:0|3:0,2:0:0:0:
220,165,76533,5,0,3:0:0:0:
147,110,77048,5,0,3:0:0:0:
147,110,77219,5,0,2:0:0:0:
147,110,77391,5,0,3:0:0:0:
74,55,77905,5,0,3:0:0:0:
1,1,78248,5,8,2:0:0:0:
1,1,78419,5,8,2:0:0:0:
1,1,78591,5,8,2:0:0:0:
0,0,78762,6,0,B|-12:64|-12:64|31:174,1,129.999995231629,4|0,3:1|2:0,2:0:0:0:
11,124,79019,1,0,2:0:0:0:
11,124,79105,1,0,3:0:0:0:
0,312,79276,1,0,2:0:0:0:
0,312,79448,6,0,L|191:348,1,194.999992847443,0|0,3:0|2:0,2:0:0:0:
191,348,79791,1,0,3:0:0:0:
315,260,79962,1,0,2:0:0:0:
315,260,80133,6,0,B|348:68|348:68|426:-8,2,259.999990463257,0|2|0,3:0|3:2|3:0,2:0:0:0:
446,384,80991,1,0,2:0:0:0:
446,384,81076,1,2,2:0:0:0:
446,384,81162,2,0,L|471:242,1,129.999995231629,2|0,3:2|3:0,2:0:0:0:
476,224,81419,1,0,3:0:0:0:
482,192,81505,6,0,L|387:175,1,64.9999976158143,0|0,3:0|2:0,2:0:0:0:
499,111,81676,2,0,L|404:94,1,64.9999976158143,0|0,3:0|2:0,2:0:0:0:
356,82,81848,2,0,L|291:70,1,64.9999976158143,0|0,3:0|2:0,2:0:0:0:
339,163,82019,2,0,L|274:151,1,64.9999976158143,0|0,3:0|2:0,2:0:0:0:
196,134,82191,1,0,3:0:0:0:
171,129,82276,1,0,3:0:0:0:
147,125,82362,1,0,3:0:0:0:
123,121,82448,1,0,3:0:0:0:
99,117,82533,1,0,3:0:0:0:
94,141,82619,1,0,3:0:0:0:
90,165,82705,1,0,3:0:0:0:
86,189,82791,1,0,3:0:0:0:
82,213,82876,5,0,3:0:0:0:
0,384,83391,1,0,3:0:0:0:
0,384,83562,5,0,3:0:0:0:
0,384,83733,5,0,3:0:0:0:
0,384,83905,5,0,3:0:0:0:
0,384,84076,5,0,3:0:0:0:
0,384,84248,6,0,B|-10:299|-10:299|6:249,1,128.699995279312,0|0,2:0|2:0,2:0:0:0:
33,170,84933,2,0,L|16:75,1,85.7999968528748,0|0,2:0|2:0,2:0:0:0:
0,0,85448,1,0,2:0:0:0:
0,0,85619,6,1,B|129:18|129:18|257:0,2,259.999990463257,0|0|0,3:0|3:0|3:0,2:0:0:0:
252,191,86991,6,0,P|255:210|260:192,20,51.9999980926514,4|0|0|0|0|0|0|0|0|0|0|0|0|0|0|0|0|0|0|0|0,3:1|3:0|3:0|3:0|3:0|3:0|3:0|3:0|3:0|3:0|3:0|3:0|3:0|3:0|3:0|3:0|3:0|3:0|3:0|3:0|3:0,3:0:0:0:
321,92,94019,5,0,3:0:0:0:
321,92,94105,1,0,3:0:0:0:
321,92,94191,2,0,L|326:150,1,48.7499982118608,0|0,3:0|2:0,2:0:0:0:
409,87,94362,2,0,L|414:145,1,48.7499982118608,0|0,3:0|2:0,2:0:0:0:
497,82,94533,2,0,L|502:140,1,48.7499982118608,0|0,3:0|2:0,2:0:0:0:
508,215,94705,1,0,3:0:0:0:
508,215,94791,1,0,3:0:0:0:
508,215,94876,2,0,L|512:263,1,48.7499982118608,0|0,3:0|2:0,2:0:0:0:
420,220,95048,2,0,L|424:268,1,48.7499982118608,0|0,3:0|2:0,2:0:0:0:
332,225,95219,6,0,L|337:283,1,48.7499982118608,0|0,2:0|2:0,2:0:0:0:
54,359,97448,5,0,2:0:0:0:
54,359,97619,5,0,2:0:0:0:
54,359,97791,5,0,2:0:0:0:
54,359,97962,5,0,2:0:0:0:
138,216,98305,6,0,B|119:131|119:131|52:80,1,162.499994039536,4|0,3:1|2:0,2:0:0:0:
30,69,98562,1,0,2:0:0:0:
0,55,98648,2,0,B|87:51|87:51|148:-6,1,162.499994039536,4|0,3:1|2:0,2:0:0:0:
142,0,98905,1,4,3:1:0:0:
267,180,99162,2,0,L|248:282,2,77.9999971389772,4|0|0,3:1|2:0|2:0,2:0:0:0:
356,68,99505,5,0,2:0:0:0:
377,193,99676,1,8,2:0:0:0:
377,193,99762,1,0,2:0:0:0:
377,193,99848,1,0,2:0:0:0:
399,319,100019,6,0,L|209:352,3,188.499993085861,2|2|10|2,3:2|2:0|2:0|2:0,2:0:0:0:
58,384,100705,1,2,3:2:0:0:
58,384,101048,5,8,2:0:0:0:
124,262,101219,1,0,2:0:0:0:
124,262,101305,1,0,2:0:0:0:
124,262,101391,2,0,L|140:167,1,77.9999971389772,2|0,3:2|2:0,2:0:0:0:
280,189,101562,2,0,L|224:110,1,77.9999971389772,2|0,2:0|2:0,2:0:0:0:
338,27,101733,1,10,2:0:0:0:
338,27,101905,2,0,L|178:-1,2,155.999994277954,2|2|0,2:0|3:2|2:0,2:0:0:0:
512,0,102419,5,8,2:0:0:0:
512,0,102591,2,0,L|527:86,1,77.9999971389772,0|0,2:0|2:0,2:0:0:0:
437,153,102762,2,0,L|421:239,1,77.9999971389772,2|0,3:2|2:0,2:0:0:0:
512,306,102933,2,0,L|527:392,1,77.9999971389772,2|0,2:0|2:0,2:0:0:0:
396,384,103105,2,0,L|309:368,3,77.9999971389772,8|2|2|2,2:0|2:0|2:0|2:0,2:0:0:0:
234,349,103448,1,4,3:1:0:0:
234,349,103791,6,0,L|245:285,4,43.8749983906746,12|0|0|0|2,2:0|2:0|2:0|2:0|2:0,2:0:0:0:
133,384,104133,2,0,L|164:202,1,155.999994277954,0|0,3:0|2:0,2:0:0:0:
232,192,104391,2,0,L|263:10,1,155.999994277954,2|0,2:0|2:0,2:0:0:0:
182,24,104648,2,0,B|160:140|160:140|94:178|94:178|82:234,1,233.999991416931,2|0,2:0|2:0,2:0:0:0:
85,216,104991,5,0,2:0:0:0:
0,384,105162,2,0,L|165:354,1,155.999994277954,8|0,2:0|2:0,2:0:0:0:
184,352,105419,1,2,2:0:0:0:
215,348,105505,2,0,L|244:182,1,155.999994277954,2|2,3:2|2:0,2:0:0:0:
286,0,105848,1,10,2:0:0:0:
292,38,105933,1,2,2:0:0:0:
299,76,106019,1,2,2:0:0:0:
306,115,106105,1,2,2:0:0:0:
313,153,106191,6,0,L|413:135,2,77.9999971389772,2|0|0,3:2|2:0|2:0,2:0:0:0:
512,0,106533,2,0,L|481:173,1,155.999994277954,8|2,2:0|2:0,2:0:0:0:
477,184,106791,1,0,2:0:0:0:
472,214,106876,2,0,L|485:292,2,77.9999971389772,2|0|0,3:2|2:0|2:0,2:0:0:0:
512,384,107219,1,8,2:0:0:0:
512,384,107391,1,2,3:2:0:0:
166,353,107733,5,0,3:1:0:0:
181,190,107905,5,0,3:1:0:0:
264,332,108076,5,0,3:1:0:0:
115,266,108248,5,0,3:1:0:0:
273,229,108419,5,0,3:0:0:0:
273,229,108505,1,0,3:0:0:0:
273,229,108591,2,0,L|287:148,1,77.9999971389772,8|0,2:0|2:0,2:0:0:0:
301,3,108933,6,0,L|143:30,2,155.999994277954,6|2|0,3:2|2:0|3:0,2:0:0:0:
37,153,109448,1,2,2:0:0:0:
37,153,109533,1,2,2:0:0:0:
37,153,109619,2,0,L|9:-4,1,155.999994277954,2|0,3:2|2:0,2:0:0:0:
152,228,109962,2,0,L|124:385,1,155.999994277954,10|2,2:0|2:0,2:0:0:0:
124,381,110219,1,0,2:0:0:0:
124,381,110305,1,0,3:0:0:0:
318,348,110476,6,0,B|349:262|349:262|343:140,2,181.99999332428,2|10|2,2:0|2:0|2:0,2:0:0:0:
496,348,110991,2,0,B|465:262|465:262|471:140,2,181.99999332428,2|2|10,3:2|2:0|2:0,2:0:0:0:
504,47,111505,2,0,L|309:82,1,181.99999332428,2|0,2:0|3:0,2:0:0:0:
32,71,111848,6,0,L|118:55,1,77.9999971389772,2|0,2:0|2:0,2:0:0:0:
108,57,112019,2,0,L|135:213,1,155.999994277954,10|0,2:0|2:0,2:0:0:0:
142,241,112276,1,0,2:0:0:0:
149,271,112362,6,0,B|159:332|159:332|348:392,1,233.999991416931,2|0,3:2|2:0,2:0:0:0:
333,354,112705,1,10,2:0:0:0:
341,323,112791,1,0,2:0:0:0:
348,293,112876,2,0,L|320:137,1,155.999994277954,2|0,2:0|3:0,2:0:0:0:
242,0,113219,6,0,L|214:153,1,155.999994277954,2|10,2:0|2:0,2:0:0:0:
333,56,113562,2,0,L|371:49,4,38.9999985694886,2|0|2|0|0,2:0|2:0|2:0|2:0|3:0,2:0:0:0:
470,14,113905,1,2,2:0:0:0:
470,14,114076,2,0,L|498:167,1,155.999994277954,10|8,2:0|2:0,2:0:0:0:
505,197,114333,1,8,2:0:0:0:
512,227,114419,6,0,L|484:381,2,155.999994277954,6|2|8,3:2|2:0|2:0,2:0:0:0:
326,342,114933,1,2,2:0:0:0:
326,342,115019,1,0,2:0:0:0:
326,342,115105,2,0,L|298:188,1,155.999994277954,2|0,3:2|2:0,2:0:0:0:
234,46,115448,2,0,L|387:73,1,155.999994277954,10|2,2:0|2:0,2:0:0:0:
387,73,115705,1,0,2:0:0:0:
387,73,115791,1,0,3:0:0:0:
194,348,115962,6,0,B|163:262|163:262|169:140,2,181.99999332428,2|10|2,2:0|2:0|2:0,2:0:0:0:
16,348,116476,2,0,B|47:262|47:262|41:140,2,181.99999332428,2|2|10,3:2|2:0|2:0,2:0:0:0:
8,47,116991,2,0,L|203:82,1,181.99999332428,2|0,2:0|3:0,2:0:0:0:
444,0,117333,6,0,L|349:16,1,77.9999971389772,2|0,2:0|2:0,2:0:0:0:
367,12,117505,2,0,L|335:193,1,155.999994277954,10|0,2:0|3:0,2:0:0:0:
333,196,117762,1,0,3:0:0:0:
328,227,117848,5,0,3:0:0:0:
335,265,117933,1,0,3:0:0:0:
343,303,118019,1,8,2:0:0:0:
350,341,118105,1,8,2:0:0:0:
358,380,118191,2,0,L|436:366,1,77.9999971389772,8|8,2:0|2:0,2:0:0:0:
154,380,118362,2,0,L|76:366,1,77.9999971389772,8|8,2:0|2:0,2:0:0:0:
256,384,118533,5,2,2:0:0:0:
192,248,118876,5,2,2:0:0:0:
320,136,119219,5,2,2:0:0:0:
256,0,119562,6,0,L|256:88,1,84.4999969005585,10|0,2:0|2:0,2:0:0:0:
256,384,119905,5,4,3:2:0:0:
398,39,125391,5,4,3:2:0:0:
439,161,125562,1,0,2:0:0:0:
439,161,125648,1,0,3:0:0:0:
439,161,125733,2,0,L|340:178,1,87.7499967813492,8|0,2:0|2:0,2:0:0:0:
480,283,125905,1,0,3:0:0:0:
480,283,125991,1,0,3:0:0:0:
480,283,126076,5,0,3:0:0:0:
436,290,126162,1,0,3:0:0:0:
393,298,126248,1,0,3:0:0:0:
350,305,126333,2,0,L|251:287,1,87.7499967813492,8|0,2:0|3:0,2:0:0:0:
155,298,126505,2,0,L|139:385,2,87.7499967813492,2|10|10,3:2|3:2|3:2,2:0:0:0:
164,265,126762,6,0,B|184:151|184:151|147:59,1,175.499993562698,0|0,3:0|2:0,2:0:0:0:
141,56,127019,1,8,2:0:0:0:
120,16,127105,6,0,L|206:0,1,87.7499967813492,0|0,3:0|2:0,2:0:0:0:
282,128,127276,1,0,3:0:0:0:
282,128,127362,1,0,3:0:0:0:
282,128,127448,2,0,L|299:35,1,87.7499967813492,8|8,2:0|2:0,2:0:0:0:
421,22,127619,6,0,L|404:114,1,87.7499967813492,8|8,2:0|2:0,2:0:0:0:
464,157,127791,2,0,L|447:249,1,87.7499967813492,0|0,3:0|3:0,2:0:0:0:
506,297,127962,2,0,L|489:389,1,87.7499967813492,8|8,2:0|2:0,2:0:0:0:
363,384,128133,6,0,L|187:354,2,175.499993562698,0|0|8,3:0|3:0|2:0,2:0:0:0:
96,336,128648,1,8,2:0:0:0:
96,336,128733,1,8,2:0:0:0:
96,336,128819,5,0,3:0:0:0:
103,292,128905,1,0,3:0:0:0:
111,249,128991,1,0,3:0:0:0:
118,206,129076,2,0,L|101:111,1,87.7499967813492,8|2,2:0|3:2,2:0:0:0:
131,22,129248,2,0,L|44:6,2,87.7499967813492,2|10|10,3:2|3:2|3:2,2:0:0:0:
165,29,129505,6,0,B|288:50|288:50|347:83,1,175.499993562698,0|0,3:0|2:0,2:0:0:0:
368,100,129762,1,8,2:0:0:0:
404,125,129848,6,0,L|388:210,1,87.7499967813492,0|0,3:0|3:0,2:0:0:0:
280,177,130019,1,0,3:0:0:0:
280,177,130105,1,0,3:0:0:0:
280,177,130191,2,0,L|264:262,1,87.7499967813492,10|10,2:0|2:0,2:0:0:0:
156,229,130362,2,0,L|140:314,1,87.7499967813492,10|10,2:0|3:2,2:0:0:0:
16,366,130533,5,10,2:0:0:0:
23,324,130619,1,10,2:0:0:0:
30,282,130705,1,10,2:0:0:0:
38,241,130791,1,10,2:0:0:0:
45,198,130876,6,0,P|41:132|-12:41,1,129.999995231629,2|0,2:0|2:0,2:0:0:0:
