osu file format v14

[General]
AudioFilename: audio.mp3
AudioLeadIn: 0
PreviewTime: 34362
Countdown: 0
SampleSet: Soft
StackLeniency: 0
Mode: 0
LetterboxInBreaks: 0
WidescreenStoryboard: 1

[Editor]
DistanceSpacing: 0.2
BeatDivisor: 12
GridSize: 8
TimelineZoom: 2.5

[Metadata]
Title:Egonomy
TitleUnicode:エゴノミー
Artist::) feat. KAFU
ArtistUnicode:ت feat. KAFU
Creator:Ryuusei Aika
Version:Shiny Braixen's XwXpert
Source:
Tags:Ego no mii Egonomii me 0ugi ougi shiny braixen entsetzen ent kieg mocaotic seros japanese pop j-pop jpop vocalsynth vocasynth 可不 cevioai
BeatmapID:3587036
BeatmapSetID:1745150

[Difficulty]
HPDrainRate:5.2
CircleSize:4
OverallDifficulty:8.8
ApproachRate:9.3
SliderMultiplier:2.79999990463257
SliderTickRate:1

[Events]
//Background and Video events
0,0,"bg.jpg",0,0
//Break Periods
2,97019,97751
//Storyboard Layer 0 (Background)
//Storyboard Layer 1 (Fail)
//Storyboard Layer 2 (Pass)
//Storyboard Layer 3 (Foreground)
//Storyboard Layer 4 (Overlay)
//Storyboard Sound Samples

[TimingPoints]
591,342.857142857143,4,2,1,70,1,0
4362,-33.3333333333333,4,2,1,70,0,0
4391,-33.3333333333333,4,2,1,5,0,0
4705,-50,4,2,1,70,0,0
5048,-62.5,4,2,1,70,0,0
5305,-71.4285714285714,4,2,1,70,0,0
6804,-71.4285714285714,4,2,1,50,0,0
6890,-71.4285714285714,4,2,1,5,0,0
6933,-55.5555555555556,4,2,1,70,0,0
6975,-55.5555555555556,4,2,1,50,0,0
7061,-55.5555555555556,4,2,1,5,0,0
7105,-45.4545454545455,4,2,1,70,0,0
7147,-45.4545454545455,4,2,1,50,0,0
7190,-45.4545454545455,4,2,1,70,0,0
7233,-45.4545454545455,4,2,1,5,0,0
7276,-38.4615384615385,4,2,1,70,0,0
7318,-38.4615384615385,4,2,1,50,0,0
7361,-38.4615384615385,4,2,1,70,0,0
7404,-38.4615384615385,4,2,1,5,0,0
7448,-50,4,2,1,70,0,0
8133,-62.5,4,2,1,70,0,0
8476,-55.5555555555556,4,2,1,70,0,0
8819,-71.4285714285714,4,2,1,70,0,0
9505,-66.6666666666667,4,2,1,70,0,0
9890,-66.6666666666667,4,2,1,5,0,0
9933,-66.6666666666667,4,2,1,70,0,0
9975,-66.6666666666667,4,2,1,5,0,0
10019,-55.5555555555556,4,2,1,70,0,0
10061,-55.5555555555556,4,2,1,5,0,0
10105,-55.5555555555556,4,2,1,70,0,0
10147,-55.5555555555556,4,2,1,5,0,0
10191,-55.5555555555556,4,2,1,70,0,0
12591,-100,4,2,1,70,0,0
21162,-142.857142857143,4,2,1,70,0,0
26648,-111.111111111111,4,2,1,70,0,0
30762,-76.9230769230769,4,2,1,70,0,0
32133,-1000,4,2,1,70,0,0
33505,-76.9230769230769,4,2,1,70,0,0
34876,-52.6315789473684,4,2,1,79,0,1
35219,-66.6666666666667,4,2,1,79,0,1
36762,-76.9230769230769,4,2,1,79,0,1
36933,-111.111111111111,4,2,1,79,0,1
37061,-111.111111111111,4,2,1,5,0,1
37105,-71.4285714285714,4,2,1,79,0,1
37233,-71.4285714285714,4,2,1,5,0,1
37276,-55.5555555555556,4,2,1,79,0,1
37404,-55.5555555555556,4,2,1,5,0,1
37448,-43.4782608695652,4,2,1,79,0,1
37576,-43.4782608695652,4,2,1,5,0,1
37619,-55.5555555555556,4,2,1,79,0,1
37962,-71.4285714285714,4,2,1,79,0,1
38305,-111.111111111111,4,2,1,79,0,1
38433,-111.111111111111,4,2,1,5,0,1
38476,-71.4285714285714,4,2,1,79,0,1
38604,-71.4285714285714,4,2,1,5,0,1
38648,-55.5555555555556,4,2,1,79,0,1
38776,-55.5555555555556,4,2,1,5,0,1
38819,-43.4782608695652,4,2,1,79,0,1
38947,-43.4782608695652,4,2,1,5,0,1
38991,-55.5555555555556,4,2,1,79,0,1
39676,-71.4285714285714,4,2,1,79,0,1
40362,-71.4285714285714,4,2,1,79,0,0
40705,-500,4,2,1,79,0,1
41005,-500,4,2,1,5,0,0
41048,-71.4285714285714,4,2,1,79,0,1
41262,-71.4285714285714,4,2,1,5,0,0
41305,-62.5,4,2,1,79,0,1
41519,-62.5,4,2,1,5,0,0
41562,-52.6315789473684,4,2,1,79,0,1
41905,-52.6315789473684,4,2,1,79,0,1
42076,-47.6190476190476,4,2,1,79,0,1
42248,-62.5,4,2,1,79,0,1
42419,-55.5555555555556,4,2,1,79,0,1
43448,-58.8235294117647,4,2,1,79,0,1
43791,-66.6666666666667,4,2,1,79,0,1
44305,-62.5,4,2,1,79,0,1
45505,-500,4,2,1,79,0,0
45805,-500,4,2,1,5,0,0
45848,-66.6666666666667,4,2,1,79,0,1
46533,-62.5,4,2,1,79,0,1
47562,-142.857142857143,4,2,1,79,0,1
47905,-76.9230769230769,4,2,1,79,0,1
48591,-71.4285714285714,4,2,1,79,0,1
48933,-62.5,4,2,1,79,0,1
49276,-71.4285714285714,4,2,1,79,0,1
49791,-62.5,4,2,1,79,0,1
50133,-71.4285714285714,4,2,1,79,0,1
51505,-62.5,4,2,1,79,0,1
52876,-100,4,2,1,79,0,1
53391,-71.4285714285714,4,2,1,79,0,1
54248,-83.3333333333333,4,2,1,79,0,1
55448,-83.3333333333333,4,2,1,79,0,0
56476,-50,4,2,1,79,0,0
56505,-50,4,2,1,5,0,0
56819,-50,4,2,1,79,0,0
57162,-66.6666666666667,4,2,1,79,0,0
57419,-76.9230769230769,4,2,1,79,0,0
58876,-71.4285714285714,4,2,1,79,0,0
58918,-71.4285714285714,4,2,1,50,0,0
59004,-71.4285714285714,4,2,1,5,0,0
59048,-55.5555555555556,4,2,1,79,0,0
59090,-55.5555555555556,4,2,1,50,0,0
59176,-55.5555555555556,4,2,1,5,0,0
59219,-45.4545454545455,4,2,1,79,0,0
59261,-45.4545454545455,4,2,1,50,0,0
59304,-45.4545454545455,4,2,1,79,0,0
59347,-45.4545454545455,4,2,1,5,0,0
59391,-38.4615384615385,4,2,1,79,0,0
59433,-38.4615384615385,4,2,1,50,0,0
59476,-38.4615384615385,4,2,1,79,0,0
59519,-38.4615384615385,4,2,1,50,0,0
59562,-71.4285714285714,4,2,1,79,0,0
60933,-66.6666666666667,4,2,1,79,0,0
61619,-62.5,4,2,1,79,0,0
61962,-66.6666666666667,4,2,1,79,0,0
62004,-66.6666666666667,4,2,1,5,0,0
62048,-66.6666666666667,4,2,1,79,0,0
62090,-66.6666666666667,4,2,1,5,0,0
62133,-55.5555555555556,4,2,1,79,0,0
62175,-55.5555555555556,4,2,1,5,0,0
62219,-55.5555555555556,4,2,1,79,0,0
62261,-55.5555555555556,4,2,1,5,0,0
62305,-100,4,2,1,79,0,0
62819,-333.333333333333,4,2,1,79,0,0
63333,-500,4,2,1,79,0,0
65048,-100,4,2,1,79,0,0
65562,-333.333333333333,4,2,1,79,0,0
66076,-500,4,2,1,79,0,0
67791,-100,4,2,1,79,0,0
68305,-333.333333333333,4,2,1,79,0,0
68819,-500,4,2,1,79,0,0
70533,-100,4,2,1,79,0,0
71048,-333.333333333333,4,2,1,79,0,0
71562,-500,4,2,1,79,0,0
73276,-142.857142857143,4,2,1,50,0,0
78762,-111.111111111111,4,2,1,60,0,0
81848,-111.111111111111,4,2,1,70,0,0
82876,-333.333333333332,4,2,1,70,0,0
84248,-1000,4,2,1,70,0,0
85619,-76.9230769230769,4,2,1,70,0,0
86991,-512.820512820513,4,2,1,79,0,1
93848,-512.820512820513,4,2,1,79,0,0
94191,-253.164556962025,4,2,1,79,0,0
98305,-512.820512820513,4,2,1,79,0,1
98648,-168.067226890756,4,2,1,79,0,1
98991,-77.2200772200772,4,2,1,79,0,1
99162,-200,4,2,1,79,0,1
99676,-71.4285714285714,4,2,1,79,0,0
99848,-90.9090909090909,4,2,1,79,0,0
100019,-111.111111111111,4,2,1,79,0,1
100147,-111.111111111111,4,2,1,5,0,1
100191,-71.4285714285714,4,2,1,79,0,1
100319,-71.4285714285714,4,2,1,5,0,1
100362,-55.5555555555556,4,2,1,79,0,1
100490,-55.5555555555556,4,2,1,5,0,1
100533,-43.4782608695652,4,2,1,79,0,1
100661,-43.4782608695652,4,2,1,5,0,1
100705,-55.5555555555556,4,2,1,79,0,1
101048,-76.9230769230769,4,2,1,79,0,1
101219,-100,4,2,1,79,0,1
101391,-111.111111111111,4,2,1,79,0,1
101519,-111.111111111111,4,2,1,5,0,1
101562,-71.4285714285714,4,2,1,79,0,1
101690,-71.4285714285714,4,2,1,5,0,1
101733,-55.5555555555556,4,2,1,79,0,1
101861,-55.5555555555556,4,2,1,5,0,1
101905,-43.4782608695652,4,2,1,79,0,1
102033,-43.4782608695652,4,2,1,5,0,1
102076,-55.5555555555556,4,2,1,79,0,1
102762,-62.5,4,2,1,79,0,1
103276,-83.3333333333333,4,2,1,79,0,1
103448,-83.3333333333333,4,2,1,79,0,0
103791,-500,4,2,1,79,0,1
104091,-500,4,2,1,5,0,0
104133,-71.4285714285714,4,2,1,79,0,1
104348,-71.4285714285714,4,2,1,5,0,0
104391,-62.5,4,2,1,79,0,1
104605,-62.5,4,2,1,5,0,0
104648,-52.6315789473684,4,2,1,79,0,1
104991,-76.9230769230769,4,2,1,79,0,1
105162,-71.4285714285714,4,2,1,79,0,1
105505,-62.5,4,2,1,79,0,1
106533,-76.9230769230769,4,2,1,79,0,1
106876,-83.3333333333333,4,2,1,79,0,1
107391,-66.6666666666667,4,2,1,79,0,1
108591,-500,4,2,1,79,0,0
108891,-500,4,2,1,5,0,0
108933,-55.5555555555556,4,2,1,79,0,1
109619,-62.5,4,2,1,79,0,1
110648,-142.857142857143,4,2,1,79,0,1
110991,-83.3333333333333,4,2,1,79,0,1
111676,-76.9230769230769,4,2,1,79,0,1
113219,-83.3333333333333,4,2,1,79,0,1
114376,-83.3333333333333,4,2,1,79,0,0
114419,-83.3333333333333,4,2,1,79,0,1
114591,-62.5,4,2,1,79,0,1
115962,-100,4,2,1,79,0,1
116476,-76.9230769230769,4,2,1,79,0,1
118533,-76.9230769230769,4,2,1,79,0,0
119562,-33.3333333333333,4,2,1,79,0,0
119591,-33.3333333333333,4,2,1,5,0,0
119905,-50,4,2,1,79,0,0
120248,-66.6666666666667,4,2,1,79,0,0
120505,-76.9230769230769,4,2,1,79,0,0
121962,-62.5,4,2,1,79,0,0
122004,-62.5,4,2,1,50,0,0
122090,-62.5,4,2,1,5,0,0
122133,-50,4,2,1,79,0,0
122175,-50,4,2,1,50,0,0
122261,-50,4,2,1,5,0,0
122305,-41.6666666666667,4,2,1,79,0,0
122347,-41.6666666666667,4,2,1,50,0,0
122390,-41.6666666666667,4,2,1,79,0,0
122433,-41.6666666666667,4,2,1,5,0,0
122476,-35.7142857142857,4,2,1,79,0,0
122518,-35.7142857142857,4,2,1,50,0,0
122561,-35.7142857142857,4,2,1,79,0,0
122604,-35.7142857142857,4,2,1,40,0,0
122648,-55.5555555555556,4,2,1,79,0,0
124019,-66.6666666666667,4,2,1,79,0,0
124705,-62.5,4,2,1,79,0,0
125048,-66.6666666666667,4,2,1,90,0,0
125391,-47.6190476190476,4,2,1,90,0,1
125991,-62.5,4,2,1,90,0,1
127105,-100,4,2,1,90,0,1
127233,-100,4,2,1,5,0,1
127276,-76.9230769230769,4,2,1,90,0,1
127404,-76.9230769230769,4,2,1,5,0,1
127448,-62.5,4,2,1,90,0,1
127576,-62.5,4,2,1,5,0,1
127619,-52.6315789473684,4,2,1,90,0,1
127747,-52.6315789473684,4,2,1,5,0,1
127791,-52.6315789473684,4,2,1,90,0,1
128133,-62.5,4,2,1,90,0,1
129848,-55.5555555555556,4,2,1,90,0,1
130876,-55.5555555555556,4,2,1,90,0,0

[Colours]
Combo1 : 191,0,191
Combo2 : 128,128,255
Combo3 : 191,0,96
Combo4 : 128,0,128

[HitObjects]
386,7,591,5,4,2:1:0:0:
292,355,848,1,4,2:1:0:0:
283,252,1105,1,4,2:1:0:0:
232,132,1276,5,4,2:1:0:0:
132,381,1533,1,4,2:1:0:0:
46,349,1791,1,4,2:1:0:0:
256,192,1962,12,2,3333,2:0:0:0:
390,19,4362,6,0,B|408:13|408:13|402:-8|402:-8|384:-5|384:-5|386:19,1,70.0000002861023,10|0,2:0|2:0,2:0:0:0:
385,6,4705,6,0,B|361:29|361:29|319:104|330:222|330:222|297:237|284:284,1,279.999990463257,4|0,3:2|2:0,2:0:0:0:
171,229,4962,1,0,2:0:0:0:
175,233,5048,2,0,B|195:219|188:196|198:188|198:188|217:176|241:176|241:176|271:209,1,111.999996185303,8|0,2:0|2:0,2:0:0:0:
365,295,5219,1,0,2:0:0:0:
369,299,5305,2,0,B|386:301|386:301|437:347|437:347|484:350,2,97.99999666214,0|0|0,2:0|3:0|3:0,2:0:0:0:
273,367,5562,1,0,3:0:0:0:
277,371,5648,6,0,B|269:328|269:328|187:250,1,97.99999666214,0|10,3:0|3:2,2:0:0:0:
95,237,5819,2,0,B|82:278|82:278|120:385,2,97.99999666214,2|2|2,3:2|3:2|3:2,2:0:0:0:
63,141,6076,6,0,B|209:192|209:192|274:181,1,195.99999332428,0|0,3:0|2:0,2:0:0:0:
237,105,6333,1,0,2:0:0:0:
211,159,6419,6,0,B|357:108|357:108|422:119,1,195.99999332428,8|0,2:0|2:0,2:0:0:0:
381,204,6676,1,0,2:0:0:0:
369,156,6762,6,0,B|405:168|405:168|421:166,3,48.99999833107,0|0|0|0,3:0|2:0|2:0|2:0,2:0:0:0:
381,204,6933,6,0,B|419:245|419:245|442:253,3,62.9999978542328,0|0|0|0,3:0|2:0|2:0|2:0,2:0:0:0:
343,249,7105,6,0,B|360:308|360:308|379:326,3,76.9999973773956,8|0|0|0,2:0|2:0|2:0|2:0,2:0:0:0:
287,274,7276,6,0,B|285:348|285:348|300:376,3,90.9999969005584,0|0|0|0,2:0|2:0|2:0|2:0,2:0:0:0:
246,241,7448,6,0,B|197:304|197:304|27:298|27:298|-6:317,3,279.999990463257,0|0|8|0,3:0|2:0|2:0|2:0,2:0:0:0:
15,197,8048,1,0,2:0:0:0:
20,201,8133,2,0,B|73:219|73:219|34:167,2,111.999996185303,0|0|0,3:0|3:0|3:0,2:0:0:0:
86,99,8391,1,0,3:0:0:0:
108,92,8476,2,0,B|178:73|178:73|189:113|235:144,3,125.999995708466,10|2|2|2,3:2|3:2|3:2|3:2,2:0:0:0:
246,241,8819,6,0,B|401:184|401:184|476:188,1,195.99999332428,0|0,3:0|2:0,2:0:0:0:
500,127,9076,1,0,2:0:0:0:
467,164,9162,6,0,B|326:76|326:76|252:65,1,195.99999332428,8|0,2:0|2:0,2:0:0:0:
235,10,9419,1,0,2:0:0:0:
259,54,9505,6,0,B|267:89|267:89|191:124,1,104.999996423721,0|0,3:0|2:0,2:0:0:0:
113,24,9676,2,0,B|109:-2|109:-2|181:99,1,104.999996423721,0|0,3:0|2:0,2:0:0:0:
85,91,9848,6,0,B|93:114|93:114|89:172,1,52.4999982118607,10|0,2:0|2:0,2:0:0:0:
80,159,9933,6,0,B|85:182|85:182|120:229,1,52.4999982118607,2|0,2:0|2:0,2:0:0:0:
108,231,10019,6,0,B|162:238|162:238|197:264,1,62.9999978542328,2|0,2:0|2:0,2:0:0:0:
205,250,10105,6,0,B|212:196|212:196|238:161,1,62.9999978542328,2|0,2:0|2:0,2:0:0:0:
228,179,10191,5,0,3:0:0:0:
18,384,10362,1,0,2:0:0:0:
18,384,10705,5,0,2:0:0:0:
178,349,10876,1,0,3:0:0:0:
178,349,11219,5,0,3:0:0:0:
361,382,11391,1,0,2:0:0:0:
255,166,12248,5,0,3:0:0:0:
253,152,12419,1,0,2:0:0:0:
249,138,12591,2,0,B|243:97|229:65|229:65|235:52|245:15|245:15|236:-17,1,139.999995231629,0|0,3:0|2:0,2:0:0:0:
321,246,12933,5,0,3:0:0:0:
455,175,13105,1,0,2:0:0:0:
455,175,13448,5,0,2:0:0:0:
249,138,13619,1,0,3:0:0:0:
249,138,13962,5,0,3:0:0:0:
274,371,14133,1,0,2:0:0:0:
240,214,14991,5,0,3:0:0:0:
207,339,15248,1,0,2:0:0:0:
207,346,15333,1,0,3:0:0:0:
249,138,15505,1,0,2:0:0:0:
323,280,15676,5,4,3:2:0:0:
466,239,15848,1,0,2:0:0:0:
240,214,16191,5,0,2:0:0:0:
24,141,16362,1,0,3:0:0:0:
283,79,16705,5,0,3:0:0:0:
497,0,16876,1,0,2:0:0:0:
441,57,17048,6,0,B|427:159|427:159|398:214,1,139.999995231629,0|0,3:0|2:0,2:0:0:0:
365,35,17391,2,0,B|351:137|351:137|322:192,1,139.999995231629,0|0,3:0|2:0,2:0:0:0:
283,15,17733,2,0,B|269:117|269:117|240:172,1,139.999995231629,0|0,3:0|2:0,2:0:0:0:
195,4,17991,1,0,2:0:0:0:
192,19,18076,1,0,3:0:0:0:
164,135,18248,1,0,2:0:0:0:
85,11,18419,5,0,3:0:0:0:
110,248,18591,1,0,2:0:0:0:
25,104,18933,5,0,2:0:0:0:
2,327,19105,1,0,3:0:0:0:
44,188,19448,5,0,3:0:0:0:
81,376,19619,1,0,2:0:0:0:
149,311,19791,6,0,B|173:362|173:362|175:382,3,69.9999976158142,2|2|2|2,3:2|3:2|3:2|3:2,2:0:0:0:
194,253,20133,1,0,3:0:0:0:
233,187,20305,1,0,2:0:0:0:
246,80,20476,6,0,B|292:290|292:290|344:353,1,279.999990463257,2|8,3:2|3:0,2:0:0:0:
483,360,20991,1,2,3:2:0:0:
487,364,21076,1,2,3:2:0:0:
491,368,21162,2,0,B|472:363|472:363|443:256|443:256|404:221,1,146.99999499321,0|0,3:0|2:0,2:0:0:0:
392,180,21505,5,8,2:3:0:0:
396,183,21676,1,0,3:0:0:0:
89,303,22191,5,0,2:0:0:0:
93,306,22362,1,0,2:0:0:0:
400,102,22876,5,0,2:0:0:0:
404,105,23048,1,0,3:0:0:0:
33,361,23562,5,8,2:0:0:0:
37,364,23733,1,0,3:0:0:0:
240,193,23905,6,0,B|257:173|270:164|270:164|307:11,2,195.99999332428,0|0|8,3:0|2:0|2:0,2:0:0:0:
3,282,24933,5,0,2:0:0:0:
7,285,25105,1,0,2:0:0:0:
217,20,25619,5,0,2:0:0:0:
220,24,25791,1,0,3:0:0:0:
15,19,25962,6,0,B|23:45|23:45|17:90|16:124|16:124|35:171,1,146.99999499321,8|0,2:0|2:0,2:0:0:0:
64,229,26305,1,8,2:0:0:0:
68,232,26476,1,8,2:0:0:0:
86,237,26562,1,8,2:0:0:0:
104,242,26648,6,0,B|137:253|137:253|250:394,1,188.999993562699,0|0,3:0|2:0,2:0:0:0:
237,376,26991,2,0,B|277:386|277:386|291:335,1,62.9999978542329,0|0,3:0|2:0,2:0:0:0:
330,311,27162,1,0,2:0:0:0:
307,191,27333,2,0,B|407:221|407:221|429:285,2,125.999995708466,0|0|0,3:0|2:0|3:0,2:0:0:0:
233,206,27848,1,0,2:0:0:0:
478,189,28019,6,0,B|461:171|461:171|424:70|424:70|441:11,1,188.999993562699,0|0,3:0|2:0,2:0:0:0:
507,70,28362,1,0,3:0:0:0:
510,73,28533,1,0,2:0:0:0:
364,124,28705,1,0,3:0:0:0:
367,127,28876,1,0,2:0:0:0:
230,60,29048,1,0,3:0:0:0:
233,63,29219,1,0,3:0:0:0:
208,69,29305,1,0,3:0:0:0:
184,79,29391,6,0,L|159:8,1,62.9999978542329,0|0,3:0|2:0,2:0:0:0:
96,71,29562,2,0,L|71:0,1,62.9999978542329,0|0,3:0|2:0,2:0:0:0:
78,214,29733,6,0,L|149:236,1,62.9999978542329,0|0,3:0|2:0,2:0:0:0:
137,148,29905,2,0,L|208:170,1,62.9999978542329,0|0,3:0|2:0,2:0:0:0:
15,356,30076,5,0,3:0:0:0:
5,325,30162,1,0,3:0:0:0:
0,293,30248,1,0,3:0:0:0:
21,315,30333,1,0,3:0:0:0:
46,342,30419,1,0,3:0:0:0:
71,370,30505,1,0,3:0:0:0:
94,325,30591,1,0,3:0:0:0:
117,280,30676,1,0,3:0:0:0:
139,234,30762,6,0,B|154:212|154:212|434:290|434:290|266:299,1,454.999984502793,0|0,3:0|2:0,2:0:0:0:
294,300,31276,1,0,3:0:0:0:
291,303,31448,1,0,3:0:0:0:
288,306,31619,1,0,3:0:0:0:
285,309,31791,1,0,3:0:0:0:
282,312,31962,1,0,3:0:0:0:
247,94,32133,6,0,B|239:51|239:51|243:50|243:50|241:39|241:39|245:39|245:39|237:2|237:2|240:0|240:0|240:-2,1,104.999996423721,0|0,2:0|2:0,2:0:0:0:
240,0,33505,6,1,B|262:177|262:177|252:378,2,363.999987602234,0|0|0,3:0|3:0|3:0,2:0:0:0:
240,0,34876,6,0,B|148:68|16:169|16:169|23:252|23:252|-21:316,1,398.999986410141,4|0,3:2|2:0,2:0:0:0:
78,383,35219,2,0,B|53:333|53:333|119:235|119:235|151:261|169:272,1,209.999992847443,8|2,2:0|2:0,2:0:0:0:
357,311,35476,1,2,2:0:0:0:
360,314,35562,2,0,B|343:366|343:366|162:383,1,209.999992847443,0|0,3:0|2:0,2:0:0:0:
245,167,35819,1,0,2:0:0:0:
248,170,35905,6,0,B|258:182|258:182|339:223|416:245|416:245|427:275,2,209.999992847443,8|0|0,2:0|2:0|3:0,2:0:0:0:
466,17,36333,1,0,2:0:0:0:
469,20,36419,2,0,B|497:109|497:109|462:100,1,104.999996423721,0|0,2:0|2:0,2:0:0:0:
497,266,36591,2,0,B|468:176|468:176|503:185,1,104.999996423721,8|0,2:0|2:0,2:0:0:0:
288,85,36762,2,0,B|340:131|340:131|311:132,1,90.9999969005585,0|0,2:0|2:0,2:0:0:0:
319,132,36933,6,0,B|307:126|307:126|256:144|256:144|240:194,1,94.4999967813493,2|0,3:2|2:0,2:0:0:0:
247,169,37105,6,0,B|229:177|229:177|156:151|156:151|133:79,1,146.99999499321,2|0,2:0|2:0,2:0:0:0:
140,103,37276,6,0,B|114:98|114:98|29:158|29:158|26:260,1,188.999993562698,10|0,2:0|2:0,2:0:0:0:
27,216,37448,6,0,B|62:217|62:217|160:320|160:320|138:456,1,241.499991774559,2|0,2:0|2:0,2:0:0:0:
149,383,37619,6,0,B|110:360|110:360|361:217|361:217|383:148,1,377.999987125397,2|0,3:2|2:0,2:0:0:0:
387,97,37962,2,0,B|378:54|378:54|309:61,1,97.99999666214,8|0,2:0|2:0,2:0:0:0:
369,344,38133,2,0,B|401:369|401:369|416:372,2,48.99999833107,0|0|0,2:0|2:0|2:0,2:0:0:0:
369,344,38305,6,0,B|366:334|369:316|369:316|409:290|409:290|434:265,1,94.4999967813493,2|0,3:2|2:0,2:0:0:0:
423,277,38476,6,0,B|425:258|447:254|447:254|393:219|393:219|365:156,1,146.99999499321,2|0,2:0|2:0,2:0:0:0:
374,176,38648,6,0,B|361:163|361:163|291:189|240:231|240:231|165:235,1,188.999993562698,10|0,2:0|2:0,2:0:0:0:
208,232,38819,6,0,B|184:236|184:236|133:37|133:37|94:-6,1,241.499991774559,2|0,2:0|2:0,2:0:0:0:
125,28,38991,6,0,B|146:16|146:16|96:255,1,251.999991416931,2|0,3:2|2:0,2:0:0:0:
55,346,39248,1,0,2:0:0:0:
58,349,39333,6,0,B|41:367|41:367|-4:127,1,251.999991416931,8|0,2:0|2:0,2:0:0:0:
13,65,39591,1,0,2:0:0:0:
16,68,39676,6,0,B|-2:57|-2:57|61:-7,1,97.99999666214,2|0,3:2|2:0,2:0:0:0:
125,28,39848,2,0,B|158:95|158:95|169:15,1,97.99999666214,2|0,2:0|2:0,2:0:0:0:
241,16,40019,1,8,2:0:0:0:
284,0,40105,1,2,2:0:0:0:
304,45,40191,2,0,B|332:93|332:93|339:16,1,97.99999666214,2|2,2:0|2:0,2:0:0:0:
435,37,40362,1,4,3:1:0:0:
435,37,40705,6,0,B|450:44|450:44|454:78,1,48.99999833107,12|0,2:0|2:0,2:0:0:0:
453,76,41048,6,0,B|431:120|431:120|469:296|469:296|440:336,1,244.99999165535,0|0,3:0|2:0,2:0:0:0:
460,308,41305,6,0,B|277:259|277:259|268:239|268:239|203:177|203:177,1,279.999990463257,2|0,2:0|2:0,2:0:0:0:
218,191,41562,6,0,B|222:158|222:158|345:89|345:89|340:194|340:194|298:188,1,265.999990940094,2|0,2:0|3:0,2:0:0:0:
169,289,41819,1,0,2:0:0:0:
172,292,41905,2,0,B|122:336|122:336|139:262,1,132.999995470047,0|0,2:0|2:0,2:0:0:0:
181,98,42076,6,0,B|114:0|114:0|84:73,1,146.99999499321,8|0,2:0|2:0,2:0:0:0:
114,157,42248,2,0,B|194:194|194:194|244:187,1,111.999996185303,0|2,2:0|2:0,2:0:0:0:
340,180,42419,6,0,B|373:237|418:255|418:255|413:296,1,125.999995708466,2|0,3:2|2:0,2:0:0:0:
426,357,42591,1,2,2:0:0:0:
217,190,42762,6,0,B|200:253|219:299|219:299|186:324,1,125.999995708466,10|0,2:0|2:0,2:0:0:0:
153,369,42933,1,2,2:0:0:0:
135,103,43105,6,0,B|118:128|118:128|65:126|1:185|1:185|-10:253|0:350|0:350|65:284,1,377.999987125397,2|0,3:2|2:0,2:0:0:0:
135,103,43448,2,0,B|116:65|116:65|45:-4,2,118.999995946884,8|0|2,2:0|2:0|2:0,2:0:0:0:
214,187,43705,1,0,2:0:0:0:
217,190,43791,6,0,B|261:185|261:185|315:115,1,104.999996423721,2|0,3:2|2:0,2:0:0:0:
324,59,43962,2,0,B|365:44|365:44|444:85,1,104.999996423721,0|2,2:0|2:0,2:0:0:0:
459,143,44133,5,8,2:0:0:0:
459,143,44305,2,0,B|380:186|380:186|256:312|256:312|167:331,1,335.999988555908,2|0,3:2|2:0,2:0:0:0:
110,300,44648,5,0,3:1:0:0:
77,298,44819,1,0,3:1:0:0:
58,287,44991,1,0,3:1:0:0:
29,298,45162,1,0,3:1:0:0:
259,62,45333,5,0,3:0:0:0:
247,136,45419,1,0,3:0:0:0:
187,88,45505,2,0,B|169:95|169:95|151:78|151:78|142:75,1,48.99999833107,8|0,2:0|2:0,2:0:0:0:
147,77,45848,6,0,B|115:2|115:2|-23:347|-23:347|27:297,1,524.999982118607,6|0,3:2|2:0,2:0:0:0:
94,251,46362,5,2,2:0:0:0:
341,221,46533,2,0,B|329:227|329:227|265:287|265:287|96:313,1,223.999992370606,2|0,3:2|2:0,2:0:0:0:
97,248,46876,5,10,2:0:0:0:
512,243,47048,2,0,B|523:229|523:229|357:150|357:150|297:154,1,223.999992370606,2|0,2:0|3:0,2:0:0:0:
100,245,47391,5,2,2:0:0:0:
105,240,47476,1,0,2:0:0:0:
110,236,47562,2,0,B|122:210|122:210|149:201,1,48.9999983310699,10|0,2:0|2:0,2:0:0:0:
184,134,47733,2,0,B|181:115|181:115|158:96,1,48.9999983310699,2|0,2:0|2:0,2:0:0:0:
146,21,47905,6,0,B|237:0|237:0|329:-9,2,181.999993801117,2|2|10,3:2|2:0|2:0,2:0:0:0:
78,186,48333,1,0,2:0:0:0:
80,190,48419,2,0,B|22:195|22:195|4:148,1,90.9999969005585,2|0,2:0|2:0,2:0:0:0:
64,110,48591,6,0,B|69:98|69:98|226:92|226:92|278:93,1,195.99999332428,0|2,3:0|2:0,2:0:0:0:
473,182,48848,1,0,2:0:0:0:
476,185,48933,2,0,B|435:192|435:192|342:297|210:317|210:317|194:296|162:280,1,335.999988555908,10|0,2:0|2:0,2:0:0:0:
252,92,49276,6,0,B|323:69|323:69|342:85,2,97.99999666214,2|0|0,3:2|2:0|2:0,2:0:0:0:
245,181,49533,1,0,2:0:0:0:
248,184,49619,2,0,B|192:195|192:195|109:246,1,97.99999666214,10|0,2:0|2:0,2:0:0:0:
64,110,49791,6,0,B|41:131|41:131|-8:354|-8:354|73:248,1,335.999988555908,2|0,2:0|2:0,2:0:0:0:
248,184,50133,2,0,B|217:164|217:164|127:137,1,97.99999666214,2|0,2:0|2:0,2:0:0:0:
187,295,50305,2,0,B|222:285|222:285|302:236,1,97.99999666214,10|0,2:0|2:0,2:0:0:0:
130,72,50476,5,2,2:0:0:0:
492,29,50819,5,2,2:0:0:0:
130,72,50991,1,10,2:0:0:0:
56,49,51162,1,8,2:0:0:0:
46,50,51248,1,8,2:0:0:0:
36,51,51333,5,6,3:2:0:0:
249,51,51505,2,0,B|277:60|277:60|353:206|353:206|279:168,1,223.999992370606,2|8,2:0|2:0,2:0:0:0:
33,54,51848,5,2,2:0:0:0:
360,160,52019,2,0,B|321:285|321:285|330:150,1,223.999992370606,2|0,3:2|2:0,2:0:0:0:
30,57,52362,5,10,2:0:0:0:
445,250,52533,2,0,B|352:297|352:297|310:225|310:225|341:167,1,223.999992370606,2|0,2:0|3:0,2:0:0:0:
401,177,52791,1,0,2:0:0:0:
404,180,52876,6,0,B|405:157|405:157|434:129|434:129|437:103,1,69.9999976158142,2|0,2:0|2:0,2:0:0:0:
370,85,53048,2,0,B|354:68|354:68|356:28|356:28|339:7,1,69.9999976158142,10|0,2:0|2:0,2:0:0:0:
281,46,53219,2,0,B|258:41|258:41|236:8|236:8|210:1,1,69.9999976158142,2|0,2:0|2:0,2:0:0:0:
136,9,53391,6,0,B|230:147|230:147|234:95,2,195.99999332428,2|2|10,3:2|2:0|2:0,2:0:0:0:
19,50,53819,1,0,2:0:0:0:
22,54,53905,2,0,B|32:74|32:74|99:106|99:106|103:99|103:99|175:204,1,195.99999332428,2|0,2:0|3:0,2:0:0:0:
86,206,54162,1,0,2:0:0:0:
89,209,54248,2,0,L|31:323,1,83.9999971389771,2|0,2:0|2:0,2:0:0:0:
38,365,54419,5,10,2:0:0:0:
70,372,54505,1,8,2:0:0:0:
101,361,54591,1,0,3:0:0:0:
140,347,54676,1,0,3:0:0:0:
218,368,54762,2,0,B|268:375|268:375|346:332,1,83.9999971389771,2|0,3:2|3:0,2:0:0:0:
344,301,54933,2,0,B|394:294|394:294|472:337,1,83.9999971389771,10|8,2:0|2:0,2:0:0:0:
485,356,55105,5,10,2:0:0:0:
512,137,55276,1,10,2:0:0:0:
232,8,55448,1,2,2:0:0:0:
257,191,56476,6,0,B|238:186|253:154|269:176|259:191,1,46.6666650772095,10|0,2:0|2:0,2:0:0:0:
257,191,56819,6,0,B|235:204|235:204|201:246|201:246|205:251|205:251|48:297|48:297|56:291|56:291|-18:253|-18:253|-5:257|-5:257|52:219|52:219,1,419.999985694885,4|0,3:2|2:0,2:0:0:0:
55,131,57162,2,0,B|75:128|75:128|133:191,1,104.999996423721,8|0,2:0|2:0,2:0:0:0:
188,134,57333,5,0,2:0:0:0:
191,137,57419,2,0,B|181:97|181:97|203:78|203:78|221:13,2,90.9999969005585,0|0|0,2:0|3:0|3:0,2:0:0:0:
297,278,57676,1,0,3:0:0:0:
300,281,57762,2,0,B|319:286|342:308|342:308|342:317|342:317|364:347|378:385,1,90.9999969005585,0|10,3:0|3:2,2:0:0:0:
503,304,57933,2,0,B|498:323|476:346|476:346|467:346|467:346|437:368|399:382,2,90.9999969005585,2|2|2,3:2|3:2|3:2,2:0:0:0:
508,215,58191,6,0,B|487:195|487:195|426:69|426:69|354:55,1,181.999993801117,0|0,3:0|2:0,2:0:0:0:
333,18,58448,1,0,2:0:0:0:
370,4,58533,6,0,B|349:24|349:24|288:150|288:150|216:164,1,181.999993801117,8|0,2:0|2:0,2:0:0:0:
186,192,58791,1,0,2:0:0:0:
199,227,58876,6,0,B|205:214|205:214|200:187|200:187|217:162,3,48.99999833107,0|0|0|0,3:0|2:0|2:0|2:0,2:0:0:0:
146,237,59048,6,0,B|143:222|143:222|123:204|123:204|122:173,3,62.9999978542328,0|0|0|0,3:0|2:0|2:0|2:0,2:0:0:0:
110,285,59219,6,0,B|97:271|97:271|62:263|62:263|40:230,3,76.9999973773956,8|0|0|0,2:0|2:0|2:0|2:0,2:0:0:0:
104,345,59391,6,0,B|83:340|83:340|45:356|45:356|4:340,3,90.9999969005584,0|0|0|0,2:0|2:0|2:0|2:0,2:0:0:0:
153,370,59562,6,0,B|206:366|206:366|242:321,1,97.99999666214,0|0,3:0|2:0,2:0:0:0:
274,268,59733,2,0,B|323:246|323:246|278:289,1,97.99999666214,0|0,2:0|2:0,2:0:0:0:
339,336,59905,2,0,B|327:321|327:321|269:133,1,195.99999332428,8|0,2:0|2:0,2:0:0:0:
284,75,60162,1,0,2:0:0:0:
309,79,60248,6,0,B|297:48|297:48|244:-12,2,97.99999666214,0|0|0,3:0|3:0|3:0,2:0:0:0:
396,157,60505,1,0,3:0:0:0:
424,153,60591,2,0,B|461:166|461:166|472:162|472:162|494:177|494:177|535:194,3,97.99999666214,10|2|2|2,3:2|3:2|3:2|3:2,2:0:0:0:
383,23,60933,6,0,B|399:68|399:68|554:227,1,209.999992847443,2|2,3:2|2:0,2:0:0:0:
396,157,61191,1,2,2:0:0:0:
309,79,61276,6,0,B|293:124|293:124|138:283,1,209.999992847443,8|0,2:0|2:0,2:0:0:0:
304,287,61533,1,0,2:0:0:0:
307,379,61619,6,0,B|247:345|225:325|225:325|231:280,1,111.999996185303,0|0,3:0|2:0,2:0:0:0:
303,261,61791,2,0,B|352:248|352:248|280:305,1,111.999996185303,0|0,3:0|2:0,2:0:0:0:
227,312,61962,6,0,B|220:321|219:322|219:322|196:323|196:323|173:330,1,52.4999982118607,8|0,2:0|2:0,2:0:0:0:
157,334,62048,6,0,B|146:337|145:337|145:337|135:358|135:358|121:377,1,52.4999982118607,0|0,3:0|2:0,2:0:0:0:
93,378,62133,6,0,B|75:374|72:373|72:373|46:361|46:361|48:325,1,62.9999978542328,0|0,3:0|2:0,2:0:0:0:
40,313,62219,6,0,B|48:297|47:297|48:292|48:292|47:266|47:266|65:239,1,62.9999978542328,0|0,3:0|2:0,2:0:0:0:
72,217,62305,6,0,B|62:200|62:200|42:190|42:190|10:130|10:130|14:128|14:128|30:26|30:26|44:52|44:52|-13:173,1,349.999988079071,4|0,3:1|2:0,2:0:0:0:
169,98,62819,2,0,B|146:141|146:141|136:124|136:124|96:129,1,104.999996423721,0|0,3:0|2:0,2:0:0:0:
304,287,63333,2,0,B|333:270|333:270|363:226|363:226|366:229|366:229|477:176|477:176|451:168|451:168|450:169|450:169|427:169,1,265.999990940094,0|0,3:0|2:0,2:0:0:0:
357,147,65048,6,0,B|342:135|342:135|341:126|341:126|233:8|233:8|279:27|279:27|290:35|290:35|294:100|294:100|319:130,1,349.999988079071,0|0,3:0|2:0,2:0:0:0:
200,160,65562,2,0,B|219:192|219:192|267:203|267:203|283:222,1,104.999996423721,0|0,3:0|2:0,2:0:0:0:
33,91,66076,2,0,B|9:108|9:108|5:304|5:304|10:305|10:305|11:343,1,265.999990940094,0|0,3:0|2:0,2:0:0:0:
82,379,67791,6,0,B|119:367|119:367|125:372|125:372|172:377|172:377|159:262|159:262|153:269|153:269|82:228|82:228|76:306,1,349.999988079071,0|0,3:0|2:0,2:0:0:0:
263,341,68305,2,0,B|276:378|276:378|268:311,1,104.999996423721,0|0,3:0|2:0,2:0:0:0:
247,139,68819,2,0,B|253:124|253:124|243:76|243:76|243:74|243:74|233:-12|233:-12|239:-10|239:-10|255:50|255:50|259:50|259:50|266:89,1,265.999990940094,0|0,3:0|2:0,2:0:0:0:
329,147,70533,6,0,B|303:189|303:189|303:198|304:199|304:199|138:247|138:247|142:250|142:250|160:280|160:280|162:277|162:277|174:184,1,349.999988079071,0|0,3:0|2:0,2:0:0:0:
383,200,71048,2,0,B|417:206|417:206|427:211|427:211|448:215|448:215|457:200|457:200|485:209,1,104.999996423721,0|0,3:0|2:0,2:0:0:0:
501,0,71562,2,0,B|494:13|494:13|477:16|477:16|431:40|431:40|423:57|423:57|435:68|435:68|374:84|374:84,1,181.999993801117,0|0,3:0|2:0,2:0:0:0:
367,85,72762,5,0,2:0:0:0:
361,86,72933,1,0,2:0:0:0:
355,87,73105,1,0,2:0:0:0:
285,341,73276,6,0,B|315:360|315:360|334:350|334:350|430:331,1,146.99999499321,4|0,3:2|2:0,2:0:0:0:
483,287,73619,5,0,2:0:0:0:
487,290,73791,1,0,3:0:0:0:
36,279,74305,5,0,3:0:0:0:
40,282,74476,1,0,2:0:0:0:
461,207,74991,5,0,2:0:0:0:
465,210,75162,1,8,2:0:0:0:
10,359,75676,5,0,2:0:0:0:
14,362,75848,1,8,2:0:0:0:
378,184,76362,5,0,2:0:0:0:
382,187,76533,1,0,3:0:0:0:
87,372,77048,5,0,3:0:0:0:
91,375,77219,1,0,2:0:0:0:
296,16,77733,5,0,2:0:0:0:
299,20,77905,1,0,3:0:0:0:
189,123,78076,5,0,2:0:0:0:
193,127,78162,1,0,2:0:0:0:
197,131,78248,2,8,B|227:138|227:138|251:139,1,48.9999983310699,8|0,2:0|2:0,2:0:0:0:
237,210,78419,2,0,B|267:217|267:217|291:218,1,48.9999983310699,8|0,2:0|2:0,2:0:0:0:
278,291,78591,2,0,B|308:298|308:298|332:299,1,48.9999983310699,8|0,2:0|2:0,2:0:0:0:
385,360,78762,6,0,B|391:351|391:351|479:281|479:281|442:175|442:175|466:149,1,251.999991416932,4|0,3:1|3:0,2:0:0:0:
508,17,79276,2,0,B|497:37|497:37|455:46,1,62.9999978542329,0|0,2:0|2:0,2:0:0:0:
380,0,79448,2,0,B|353:37|353:36|353:36|417:121,1,125.999995708466,0|0,3:0|2:0,2:0:0:0:
243,143,79791,2,0,L|375:172,1,125.999995708466,0|0,3:0|2:0,2:0:0:0:
331,239,80048,1,0,2:0:0:0:
334,242,80133,6,0,B|303:302|303:302|266:300|266:300|191:365,1,188.999993562699,0|2,3:0|2:0,2:0:0:0:
292,380,80476,5,2,3:2:0:0:
295,383,80648,1,0,2:0:0:0:
128,332,80819,1,0,3:0:0:0:
131,335,80991,1,0,2:0:0:0:
252,219,81162,1,2,3:2:0:0:
255,222,81333,1,0,3:0:0:0:
243,225,81419,1,0,3:0:0:0:
231,229,81505,6,0,L|164:252,1,62.9999978542329,0|0,3:0|2:0,2:0:0:0:
128,332,81676,2,0,L|61:355,1,62.9999978542329,0|0,3:0|2:0,2:0:0:0:
0,270,81848,6,0,L|23:203,1,62.9999978542329,0|0,3:0|2:0,2:0:0:0:
103,167,82019,2,0,L|126:100,1,62.9999978542329,0|0,3:0|2:0,2:0:0:0:
65,15,82191,5,0,3:0:0:0:
48,23,82276,1,0,3:0:0:0:
31,31,82362,1,0,3:0:0:0:
14,39,82448,1,0,3:0:0:0:
45,36,82533,1,0,3:0:0:0:
76,33,82619,1,0,3:0:0:0:
107,30,82705,1,0,3:0:0:0:
138,27,82791,1,0,3:0:0:0:
162,7,82876,6,0,B|244:49|244:49|242:27,1,104.999996423722,0|0,3:0|2:0,2:0:0:0:
245,33,83391,1,0,3:0:0:0:
248,30,83562,1,0,3:0:0:0:
251,27,83733,1,0,3:0:0:0:
254,24,83905,1,0,3:0:0:0:
257,21,84076,1,0,3:0:0:0:
232,228,84248,6,0,B|239:272|239:272|235:273|235:273|237:284|237:284|233:284|233:284|241:321|241:321|238:323|238:323|238:325,1,104.999996423721,0|0,2:0|2:0,2:0:0:0:
238,323,85619,6,1,B|228:187|228:187|11:39,2,363.999987602234,0|0|0,3:0|3:0|3:0,2:0:0:0:
275,85,86991,6,0,P|280:105|286:83,20,54.5999981403351,4|0|0|0|0|0|0|0|0|0|0|0|0|0|0|0|0|0|0|0|0,3:1|3:0|3:0|3:0|3:0|3:0|3:0|3:0|3:0|3:0|3:0|3:0|3:0|3:0|3:0|3:0|3:0|3:0|3:0|3:0|3:0,3:0:0:0:
279,7,94019,5,0,3:0:0:0:
282,10,94105,1,0,3:0:0:0:
285,13,94191,2,0,L|314:0,1,27.6499990582467,0|0,3:0|2:0,2:0:0:0:
376,56,94362,2,0,L|371:87,1,27.6499990582467,0|0,3:0|2:0,2:0:0:0:
443,115,94533,2,0,L|463:139,1,27.6499990582467,0|0,3:0|2:0,2:0:0:0:
371,190,94705,2,0,L|380:220,1,27.6499990582467,0|0,3:0|3:0,2:0:0:0:
235,241,94876,1,0,3:0:0:0:
238,244,94962,1,0,3:0:0:0:
241,247,95048,2,0,L|206:255,1,27.6499990582467,0|0,3:0|2:0,2:0:0:0:
56,258,95219,5,0,2:0:0:0:
140,6,98305,6,0,B|144:31|144:31|140:33|140:33|143:48,1,40.9499986052513,4|0,3:1|2:0,2:0:0:0:
471,72,98648,2,0,B|443:77|443:77|429:97|429:97|379:126,1,83.2999971628191,4|0,3:1|2:0,2:0:0:0:
217,195,98905,1,4,3:1:0:0:
220,199,98991,2,0,B|202:192|202:192|153:172|153:172|105:196,1,90.6499969124795,0|0,2:0|2:0,2:0:0:0:
403,381,99162,2,0,B|434:368|434:368|450:370|450:370|452:374|452:374|501:339|501:339|501:346|501:346|536:342,1,139.999995231629,4|0,3:1|2:0,2:0:0:0:
507,255,99591,1,0,2:0:0:0:
510,258,99676,6,0,B|455:236|455:236|434:292,1,97.99999666214,8|0,2:0|2:0,2:0:0:0:
296,277,99848,2,0,B|243:293|243:293|234:332,1,76.9999973773957,0|0,2:0|2:0,2:0:0:0:
238,314,100019,6,0,B|225:337|225:337|186:351|186:351|187:349|187:349|169:369,1,94.4999967813493,2|0,3:2|2:0,2:0:0:0:
171,366,100191,6,0,B|61:380|61:380|7:358,1,146.99999499321,2|0,2:0|2:0,2:0:0:0:
27,366,100362,6,0,B|185:311|185:311|204:333,1,188.999993562698,10|0,2:0|2:0,2:0:0:0:
199,327,100533,6,0,B|160:293|160:293|50:275|50:275|57:291|57:291|0:264|0:264|-24:201,1,241.499991774559,2|0,2:0|2:0,2:0:0:0:
2,264,100705,6,0,B|7:239|7:239|179:186|179:186|182:179|182:179|330:184|330:184|353:142,1,377.999987125397,2|0,3:2|2:0,2:0:0:0:
329,96,101048,2,0,B|297:37|297:37|249:28,1,90.9999969005585,8|0,2:0|2:0,2:0:0:0:
96,36,101219,2,0,L|123:126,1,69.9999976158142,0|0,2:0|2:0,2:0:0:0:
116,103,101391,6,0,B|80:147|80:147|21:139,1,94.4999967813493,2|0,3:2|2:0,2:0:0:0:
42,141,101562,6,0,B|66:100|66:100|76:108|76:108|67:61|67:61|102:32,1,146.99999499321,2|0,2:0|2:0,2:0:0:0:
96,36,101733,6,0,B|167:21|167:21|167:13|167:13|331:42,1,188.999993562698,10|0,2:0|2:0,2:0:0:0:
274,32,101905,6,0,B|294:75|294:75|262:282,1,241.499991774559,2|0,2:0|2:0,2:0:0:0:
264,267,102076,6,0,B|290:283|290:283|367:279|367:279|363:275|363:275|400:237|400:237|441:211|441:211|370:191,1,251.999991416931,2|0,3:2|2:0,2:0:0:0:
355,139,102333,1,0,2:0:0:0:
358,142,102419,2,0,B|331:125|331:125|254:129|254:129|258:133|258:133|221:171|221:171|180:197|180:197|251:217,1,251.999991416931,8|0,2:0|2:0,2:0:0:0:
184,279,102676,1,0,2:0:0:0:
187,282,102762,6,0,B|192:356|192:356|149:318,1,111.999996185303,2|0,3:2|2:0,2:0:0:0:
43,218,102933,2,0,B|15:160|15:160|15:225,1,111.999996185303,2|0,2:0|2:0,2:0:0:0:
11,305,103105,1,8,2:0:0:0:
25,338,103191,1,2,2:0:0:0:
116,338,103276,2,0,B|165:361|165:361|163:316,1,83.9999971389771,2|2,2:0|2:0,2:0:0:0:
264,267,103448,1,4,3:1:0:0:
264,267,103791,6,0,B|289:271|289:271|307:290,1,48.99999833107,12|0,2:0|2:0,2:0:0:0:
305,288,104133,6,0,B|319:345|319:345|348:337|348:337|402:389|402:389|441:311,1,244.99999165535,0|0,3:0|2:0,2:0:0:0:
438,316,104391,6,0,B|403:276|403:276|401:266|401:266|298:143|298:143|258:223,1,279.999990463257,2|0,2:0|2:0,2:0:0:0:
273,194,104648,6,0,B|301:271|301:271|395:220|395:220|417:118,1,265.999990940094,2|0,2:0|3:0,2:0:0:0:
486,34,104905,1,0,2:0:0:0:
489,37,104991,2,0,B|515:5|515:5|460:29,1,90.9999969005585,0|0,2:0|2:0,2:0:0:0:
329,0,105162,6,0,B|347:88|347:88|385:123,1,97.99999666214,8|0,2:0|2:0,2:0:0:0:
273,194,105333,2,0,B|219:178|219:178|196:128,1,97.99999666214,0|2,2:0|2:0,2:0:0:0:
218,14,105505,6,0,B|191:6|191:6|135:24|116:51|116:51,1,111.999996185303,2|0,3:2|2:0,2:0:0:0:
104,127,105676,1,2,2:0:0:0:
273,194,105848,6,0,B|254:215|254:215|248:273|265:302|265:302,1,111.999996185303,10|0,2:0|2:0,2:0:0:0:
330,344,106019,1,2,2:0:0:0:
411,144,106191,6,0,B|416:195|446:293|501:314|501:314|491:260|390:233,1,335.999988555908,2|0,3:2|2:0,2:0:0:0:
330,344,106533,2,0,B|289:330|283:266|283:266|298:253|298:253|291:214|241:149,1,181.999993801117,8|2,2:0|2:0,2:0:0:0:
254,81,106791,1,0,2:0:0:0:
257,84,106876,6,0,B|231:61|231:61|157:54,1,83.9999971389771,2|0,3:2|2:0,2:0:0:0:
21,110,107048,2,0,B|53:114|53:114|125:130,1,83.9999971389771,0|2,2:0|2:0,2:0:0:0:
151,197,107219,1,8,2:0:0:0:
151,197,107391,6,0,B|185:315|185:315|179:330|179:330|261:384|261:384|350:337,1,314.999989271164,2|0,3:2|2:0,2:0:0:0:
390,297,107733,5,0,3:1:0:0:
422,305,107905,1,0,3:1:0:0:
443,300,108076,1,0,3:1:0:0:
467,320,108248,1,0,3:1:0:0:
275,72,108419,5,0,3:0:0:0:
314,139,108505,1,0,3:0:0:0:
363,80,108591,2,0,B|389:80|389:80|409:62,1,48.99999833107,8|0,2:0|2:0,2:0:0:0:
406,64,108933,6,0,B|445:26|445:26|508:46|508:46|516:37|516:37|478:237|478:237|333:315|333:315|327:299|327:299|395:185,1,629.999978542328,6|0,3:2|2:0,2:0:0:0:
422,142,109448,5,2,2:0:0:0:
110,243,109619,2,0,B|176:239|176:239|183:246|183:246|224:242|224:242|257:206|257:206|316:178,1,223.999992370606,2|0,3:2|2:0,2:0:0:0:
419,142,109962,5,10,2:0:0:0:
49,132,110133,2,0,B|116:99|116:99|165:128|165:128|160:131|160:131|211:141|211:141|179:173,1,223.999992370606,2|0,2:0|3:0,2:0:0:0:
416,142,110476,5,2,2:0:0:0:
412,142,110562,1,0,2:0:0:0:
408,141,110648,2,0,B|378:140|378:140|342:116,1,48.9999983310699,10|0,2:0|2:0,2:0:0:0:
315,51,110819,2,0,B|301:65|301:65|273:73,1,48.9999983310699,2|0,2:0|2:0,2:0:0:0:
167,21,110991,6,0,B|54:16|54:16|-42:-15,2,167.999994277954,2|2|10,3:2|2:0|2:0,2:0:0:0:
273,73,111419,1,0,2:0:0:0:
276,76,111505,2,0,B|285:100|285:100|286:128|286:128|291:131|291:131|279:182,1,83.9999971389771,2|0,2:0|2:0,2:0:0:0:
262,332,111676,2,0,B|250:334|250:334|143:235|143:235|140:222|140:222|244:288,1,272.999990701676,0|0,3:0|2:0,2:0:0:0:
317,270,112019,2,0,B|282:309|282:309|279:300|279:300|101:347|101:347|61:390,1,272.999990701676,10|0,2:0|2:0,2:0:0:0:
3,254,112362,6,0,B|3:232|3:232|28:214|28:214|66:151|66:151|12:75,1,181.999993801117,2|0,3:2|2:0,2:0:0:0:
124,77,112619,1,0,2:0:0:0:
126,81,112705,2,0,B|156:96|156:96|203:31,1,90.9999969005585,10|0,2:0|2:0,2:0:0:0:
362,60,112876,2,0,B|395:127|395:127|384:174|384:174|364:208|364:208|376:209|376:209|308:259|308:259|321:276,1,272.999990701676,2|0,2:0|2:0,2:0:0:0:
373,323,113219,6,0,B|350:364|350:364|266:315,1,83.9999971389771,2|0,2:0|2:0,2:0:0:0:
226,179,113391,2,0,B|250:134|250:134|341:187,1,83.9999971389771,10|0,2:0|2:0,2:0:0:0:
432,271,113562,5,2,2:0:0:0:
3,254,113905,5,2,2:0:0:0:
371,322,114076,1,10,2:0:0:0:
432,271,114248,5,8,2:0:0:0:
448,275,114333,1,8,2:0:0:0:
464,279,114419,5,6,3:2:0:0:
226,179,114591,2,0,B|192:189|192:189|114:161|114:161|114:181|114:181|204:212,1,223.999992370606,2|8,2:0|2:0,2:0:0:0:
467,282,114933,5,2,2:0:0:0:
196,209,115105,2,0,B|142:229|142:229|150:231|150:231|65:249|65:249|72:247|72:247|103:274|103:274|208:295,1,223.999992370606,2|0,3:2|2:0,2:0:0:0:
470,285,115448,5,10,2:0:0:0:
126,278,115619,2,0,B|-28:325|-28:325|-13:336|-13:336|70:314,1,223.999992370606,2|0,2:0|3:0,2:0:0:0:
98,365,115876,1,0,2:0:0:0:
101,368,115962,6,0,B|114:387|114:387|128:368|128:368|142:361|142:361|130:328,1,69.9999976158142,2|0,2:0|2:0,2:0:0:0:
220,357,116133,2,0,B|238:371|238:371|245:348|245:348|256:337|256:337|235:309,1,69.9999976158142,10|0,2:0|2:0,2:0:0:0:
327,319,116305,2,0,B|349:322|349:322|345:299|345:299|350:284|350:284|318:270,1,69.9999976158142,2|0,2:0|2:0,2:0:0:0:
368,206,116476,6,0,B|350:197|350:197|248:221|248:221|201:204|201:204|130:262,2,181.999993801117,2|2|10,3:2|2:0|2:0,2:0:0:0:
374,84,116905,1,0,2:0:0:0:
377,87,116991,2,0,B|386:114|386:114|370:119|369:118|382:122|382:122|453:172|453:172|503:240|503:240|425:174,1,272.999990701676,2|0,2:0|2:0,2:0:0:0:
303,68,117333,2,0,B|292:55|292:55|291:55|374:1,1,90.9999969005585,2|0,2:0|2:0,2:0:0:0:
485,82,117505,2,0,L|197:27,1,272.999990701676,10|0,2:0|2:0,2:0:0:0:
131,25,117848,5,0,3:0:0:0:
100,49,117933,1,0,3:0:0:0:
79,80,118019,1,8,2:0:0:0:
35,93,118105,1,8,2:0:0:0:
8,182,118191,2,0,B|7:208|7:208|15:215|15:215|28:269|28:269,1,90.9999969005585,8|8,2:0|2:0,2:0:0:0:
107,381,118362,2,0,B|106:355|106:355|114:348|114:348|127:294|127:294,1,90.9999969005585,8|8,2:0|2:0,2:0:0:0:
195,208,118533,1,2,2:0:0:0:
465,207,119562,6,0,B|439:200|439:200|458:186|458:186|464:206,1,70.0000002861023,10|0,2:0|2:0,2:0:0:0:
463,204,119905,6,0,B|446:201|446:201|442:194|442:194|367:139|367:139|352:140|352:140|395:42|395:42|394:69|394:69|422:-16|422:-16|474:2|474:2|477:15|477:15|415:58,1,419.999985694885,4|0,3:2|2:0,2:0:0:0:
500,84,120248,2,0,B|504:138|504:138|446:63,1,104.999996423721,8|0,2:0|2:0,2:0:0:0:
294,89,120419,5,0,2:0:0:0:
286,82,120505,2,0,B|278:57|278:57|282:44|282:44|262:17|262:17|253:-25,2,90.9999969005585,0|0|0,2:0|3:0|3:0,2:0:0:0:
242,191,120762,1,0,3:0:0:0:
247,209,120848,2,0,B|243:226|243:226|223:253|223:253|227:266|227:266|219:291,1,90.9999969005585,0|10,3:0|3:2,2:0:0:0:
151,322,121019,2,0,B|160:376|160:376|224:356,2,90.9999969005585,2|2|2,3:2|3:2|3:2,2:0:0:0:
170,190,121276,6,0,B|125:207|125:207|117:184|117:184|56:172|56:172|90:109,1,181.999993801117,0|0,3:0|2:0,2:0:0:0:
229,0,121533,1,0,2:0:0:0:
258,0,121619,6,0,B|254:47|254:47|279:48|279:48|308:102|308:102|358:50,1,181.999993801117,8|0,2:0|2:0,2:0:0:0:
482,151,121876,1,0,2:0:0:0:
466,127,121962,6,0,B|438:139|438:139|409:160,3,55.9999980926514,0|0|0|0,3:0|2:0|2:0|2:0,2:0:0:0:
420,195,122133,6,0,B|380:200|380:200|347:197,3,69.9999976158142,0|0|0|0,3:0|2:0|2:0|2:0,2:0:0:0:
319,175,122305,6,0,B|282:200|282:200|247:239,3,83.999997138977,8|0|0|0,2:0|2:0|2:0|2:0,2:0:0:0:
268,280,122476,6,0,B|217:320|217:320|169:344,3,97.99999666214,0|0|0|0,2:0|2:0|2:0|2:0,2:0:0:0:
152,350,122648,6,0,B|103:307|103:307|95:308|95:308|55:212|55:212|61:207|61:207|-27:144,3,251.999991416931,0|0|8|0,3:0|2:0|2:0|2:0,2:0:0:0:
114,122,123248,1,0,2:0:0:0:
118,126,123333,2,0,B|149:70|149:70|138:165,2,125.999995708466,0|0|0,3:0|2:0|3:0,2:0:0:0:
244,202,123591,1,0,2:0:0:0:
248,204,123676,2,0,B|235:230|235:230|190:245|190:245|167:262|167:262|118:228,3,125.999995708466,10|2|2|2,3:2|3:2|3:2|3:2,2:0:0:0:
255,363,124019,6,0,B|270:335|270:335|454:247,1,209.999992847443,0|0,3:0|2:0,2:0:0:0:
503,316,124276,1,0,2:0:0:0:
423,308,124362,6,0,B|408:280|408:280|224:192,1,209.999992847443,8|0,2:0|2:0,2:0:0:0:
154,239,124619,1,0,2:0:0:0:
247,203,124705,6,0,B|264:168|264:168|265:146|265:146|309:90,1,111.999996185303,0|0,3:0|2:0,2:0:0:0:
164,148,124876,2,0,B|158:126|158:126|76:82,1,111.999996185303,0|0,3:0|2:0,2:0:0:0:
79,191,125048,6,0,B|69:198|69:198|66:206|66:206|57:212|57:212|52:214|39:223|39:223|40:225|40:225,7,52.4999982118607,10|0|2|0|2|0|2|0,2:0|2:0|2:0|2:0|2:0|2:0|2:0|2:0,2:0:0:0:
40,224,125391,6,0,B|28:256|28:256|25:248|25:248|8:360|8:360|83:352|83:352|83:342|83:342|156:364,1,293.99998998642,4|0,3:2|2:0,2:0:0:0:
209,311,125648,1,0,3:0:0:0:
212,314,125733,2,0,B|238:334|238:334|315:285|315:285|313:291|313:291|344:256|344:254|340:228|344:216|354:204|356:201|356:191|356:191|362:190|362:190|367:283,1,293.99998998642,8|0,2:0|2:0,2:0:0:0:
440,235,125991,6,0,B|471:248|469:255|469:273|460:342|448:296|441:298|434:284|427:282|425:271|420:267,2,111.999996185303,0|0|0,3:0|3:0|2:0,2:0:0:0:
339,65,126248,1,0,2:0:0:0:
342,68,126333,2,0,B|338:64|338:64|306:57|326:66|305:84|305:84|278:135|278:135|280:131|280:131|292:139|263:192|253:206|255:217|255:217|255:217|290:230,1,223.999992370606,8|2,2:0|3:2,2:0:0:0:
413,98,126591,2,0,B|425:109|425:109|428:77|417:31|417:31|397:9,1,111.999996185303,10|10,3:2|3:2,2:0:0:0:
440,235,126762,6,0,B|453:231|453:231|512:195,7,55.9999980926514,0|0|0|0|0|0|8|0,3:0|2:0|2:0|2:0|2:0|2:0|2:0|2:0,2:0:0:0:
489,209,127105,6,0,B|469:204|469:204|438:192|438:192|429:196|425:198|421:197|414:188|413:188|399:188|398:189|398:189|387:190|381:191,1,104.999996423721,0|0,3:0|2:0,2:0:0:0:
384,236,127276,6,0,B|371:253|371:253|357:261|346:265|333:265|333:256|333:256|304:260|298:261|290:254|290:254|273:270|272:271|257:271,1,136.499995350838,0|0,3:0|2:0,2:0:0:0:
285,295,127448,6,0,B|268:306|268:306|258:304|258:304|248:294|248:293|248:293|214:282|200:280|199:280|198:280|198:280|203:288|204:288|204:288|188:283|178:281|167:279|161:279|156:277|151:273|148:272|137:268,1,167.999994277954,8|0,2:0|2:0,2:0:0:0:
116,291,127619,6,0,B|115:283|115:283|107:278|99:275|94:273|89:271|89:271|91:264|91:264|60:225|60:225|59:225|48:227|45:227|45:227|42:207|41:200|37:196|36:196|36:196|35:196|17:193|6:189|39:175|13:164|10:151,1,199.499993205071,8|0,2:0|2:0,2:0:0:0:
0,113,127791,6,0,B|3:102|3:102|49:112|28:140|28:140|48:135|42:145|35:158|35:158|35:161|35:161|23:218|23:218|41:246|44:256|34:281|17:301|19:320|37:353|41:359|41:359|46:369|50:373,1,265.999990940094,0|8,3:0|2:0,2:0:0:0:
95,355,128048,1,8,2:0:0:0:
170,377,128133,6,0,B|184:361|184:361|168:323|168:322|168:322|211:330|211:330|241:305|282:313|282:313|277:318|277:318|307:318|331:345|331:345,1,223.999992370606,0|0,3:0|3:0,2:0:0:0:
467,205,128391,1,0,3:0:0:0:
470,208,128476,2,0,B|456:224|456:224|472:262|472:263|472:263|429:255|429:255|399:280|358:272|358:272|363:267|363:267|333:267|309:240|309:240,1,223.999992370606,8|8,2:0|2:0,2:0:0:0:
197,134,128733,5,8,2:0:0:0:
200,137,128819,2,0,B|194:135|194:135|187:132|174:126|174:126|167:130|160:132|160:132|134:142|131:165|131:165|70:181|65:183,2,111.999996185303,0|0|0,3:0|3:0|3:0,2:0:0:0:
380,191,129076,1,8,2:0:0:0:
383,194,129162,2,0,B|398:177|398:177|399:156|399:156|406:173|406:173|387:103,1,111.999996185303,2|2,3:2|3:2,2:0:0:0:
401,22,129333,1,10,3:2:0:0:
415,19,129419,1,10,3:2:0:0:
512,82,129505,6,0,B|481:69|481:69|458:75|458:75|468:77|468:77|429:65|419:36|369:48|367:48|355:48|341:52|332:56|326:57|326:57|305:43|305:43|325:63|325:63|241:40,1,335.999988555908,0|8,3:0|2:0,2:0:0:0:
80,25,129848,6,0,L|45:107,3,62.9999978542328,0|0|0|0,3:0|2:0|3:0|2:0,2:0:0:0:
44,36,130019,6,0,L|120:84,3,62.9999978542328,0|0|0|0,3:0|2:0|3:0|2:0,2:0:0:0:
110,145,130191,6,0,B|137:165|137:165|178:137,3,62.9999978542328,10|0|10|0,2:0|2:0|2:0|2:0,2:0:0:0:
214,161,130362,6,0,B|186:170|186:170|161:148,3,62.9999978542328,10|0|10|0,2:0|2:0|3:2|2:0,2:0:0:0:
261,45,130533,6,0,L|296:127,3,62.9999978542328,10|0|10|0,2:0|2:0|2:0|2:0,2:0:0:0:
297,56,130705,6,0,L|220:104,3,62.9999978542328,10|0|10|0,2:0|2:0|2:0|2:0,2:0:0:0:
147,237,130876,5,2,2:0:0:0:
