osu file format v14

[General]
AudioFilename: audio.mp3
AudioLeadIn: 0
PreviewTime: 34362
Countdown: 0
SampleSet: Soft
StackLeniency: 0.6
Mode: 0
LetterboxInBreaks: 0
WidescreenStoryboard: 1

[Editor]
DistanceSpacing: 0.3
BeatDivisor: 4
GridSize: 32
TimelineZoom: 2.2

[Metadata]
Title:Egonomy
TitleUnicode:エゴノミー
Artist::) feat. KAFU
ArtistUnicode:ت feat. KAFU
Creator:Ryuusei Aika
Version:0ugi's Ultra
Source:
Tags:Ego no mii Egonomii me 0ugi ougi shiny braixen entsetzen ent kieg mocaotic seros japanese pop j-pop jpop vocalsynth vocasynth 可不 cevioai
BeatmapID:3595696
BeatmapSetID:1745150

[Difficulty]
HPDrainRate:4.6
CircleSize:3.8
OverallDifficulty:9
ApproachRate:9.6
SliderMultiplier:2.39999990463257
SliderTickRate:1

[Events]
//Background and Video events
0,0,"bg.jpg",0,0
//Break Periods
//Storyboard Layer 0 (Background)
//Storyboard Layer 1 (Fail)
//Storyboard Layer 2 (Pass)
//Storyboard Layer 3 (Foreground)
//Storyboard Layer 4 (Overlay)
//Storyboard Sound Samples

[TimingPoints]
591,342.857142857143,4,2,1,70,1,0
591,-57.1428571428571,4,2,1,70,0,0
1276,-66.6666666666667,4,2,1,70,0,0
4362,-200,4,2,1,70,0,0
4705,-55.5555555555556,4,2,1,70,0,0
5048,-50,4,2,1,70,0,0
5391,-62.5,4,2,1,70,0,0
5648,-55.5555555555556,4,2,1,70,0,0
5819,-41.6666666666667,4,2,1,70,0,0
6248,-62.5,4,2,1,70,0,0
6419,-55.5555555555556,4,2,1,70,0,0
6762,-41.6666666666667,4,2,1,70,0,0
7276,-55.5555555555556,4,2,1,70,0,0
7448,-45.4545454545455,4,2,1,70,0,0
7619,-62.5,4,2,1,70,0,0
7791,-50,4,2,1,70,0,0
8133,-62.5,4,2,1,70,0,0
8391,-55.5555555555556,4,2,1,70,0,0
8562,-41.6666666666667,4,2,1,70,0,0
8991,-62.5,4,2,1,70,0,0
9162,-55.5555555555556,4,2,1,70,0,0
9505,-38.4615384615385,4,2,1,70,0,0
10191,-100,4,2,1,70,0,0
12248,-133.333333333333,4,2,1,70,0,0
12933,-100,4,2,1,70,0,0
14476,-133.333333333333,4,2,1,70,0,0
15676,-100,4,2,1,70,0,0
15848,-66.6666666666667,4,2,1,70,0,0
16019,-33.3333333333333,4,2,1,70,0,0
16191,-50,4,2,1,70,0,0
16362,-40,4,2,1,70,0,0
16533,-66.6666666666667,4,2,1,70,0,0
16705,-100,4,2,1,70,0,0
17391,-133.333333333333,4,2,1,70,0,0
18419,-100,4,2,1,70,0,0
21162,-66.6666666666667,4,2,1,70,0,0
21848,-80,4,2,1,70,0,0
22533,-66.6666666666667,4,2,1,70,0,0
23219,-100,4,2,1,70,0,0
23905,-66.6666666666667,4,2,1,70,0,0
24591,-80,4,2,1,70,0,0
25276,-66.6666666666667,4,2,1,70,0,0
25962,-100,4,2,1,70,0,0
26648,-66.6666666666667,4,2,1,70,0,0
31105,-133.333333333333,4,2,1,70,0,0
31448,-200,4,2,1,70,0,0
33505,-50,4,2,1,70,0,0
34362,-250,4,2,1,70,0,0
34876,-50,4,2,1,79,0,0
40362,-100,4,2,1,79,0,0
40705,-40,4,2,1,79,0,0
41048,-50,4,2,1,79,0,0
43619,-66.6666666666667,4,2,1,79,0,0
44648,-100,4,2,1,79,0,0
45848,-50,4,2,1,79,0,0
56476,-250,4,2,1,79,0,0
56819,-55.5555555555556,4,2,1,79,0,0
57162,-50,4,2,1,79,0,0
57505,-62.5,4,2,1,79,0,0
57762,-55.5555555555556,4,2,1,79,0,0
57933,-41.6666666666667,4,2,1,79,0,0
58362,-62.5,4,2,1,79,0,0
58533,-55.5555555555556,4,2,1,79,0,0
58876,-41.6666666666667,4,2,1,79,0,0
59391,-55.5555555555556,4,2,1,79,0,0
59562,-62.5,4,2,1,79,0,0
59733,-45.4545454545455,4,2,1,79,0,0
59905,-62.5,4,2,1,79,0,0
60505,-55.5555555555556,4,2,1,79,0,0
60676,-41.6666666666667,4,2,1,79,0,0
61105,-62.5,4,2,1,79,0,0
61276,-55.5555555555556,4,2,1,79,0,0
61619,-41.6666666666667,4,2,1,79,0,0
62305,-100,4,2,1,79,0,0
62648,-133.333333333333,4,2,1,79,0,0
62991,-56.4971751412429,4,2,1,79,0,0
63333,-75.187969924812,4,2,1,79,0,0
63505,-66.6666666666667,4,2,1,79,0,0
64019,-142.857142857143,4,2,1,79,0,0
64362,-83.3333333333333,4,2,1,79,0,0
64876,-71.4285714285714,4,2,1,79,0,0
65048,-100,4,2,1,79,0,0
65391,-133.333333333333,4,2,1,79,0,0
65733,-100,4,2,1,79,0,0
65905,-76.9230769230769,4,2,1,79,0,0
66762,-66.6666666666667,4,2,1,79,0,0
66933,-100,4,2,1,79,0,0
67448,-83.3333333333333,4,2,1,79,0,0
68133,-50,4,2,1,79,0,0
68305,-80,4,2,1,79,0,0
68476,-50,4,2,1,79,0,0
68648,-133.333333333333,4,2,1,79,0,0
68991,-83.3333333333333,4,2,1,79,0,0
69162,-100,4,2,1,79,0,0
69505,-133.333333333333,4,2,1,79,0,0
69848,-66.6666666666667,4,2,1,79,0,0
70191,-133.333333333333,4,2,1,79,0,0
70533,-100,4,2,1,79,0,0
71219,-76.9230769230769,4,2,1,79,0,0
71391,-66.6666666666667,4,2,1,79,0,0
71562,-133.333333333333,4,2,1,79,0,0
71905,-500,4,2,1,79,0,0
73276,-50,4,2,1,50,0,0
78762,-66.6666666666667,4,2,1,60,0,0
81848,-66.6666666666667,4,2,1,70,0,0
83219,-133.333333333333,4,2,1,70,0,0
83562,-200,4,2,1,70,0,0
85619,-50,4,2,1,70,0,0
86991,-444.444438557566,4,2,1,79,0,0
94191,-100,4,2,1,79,0,0
94533,-66.6666666666667,4,2,1,79,0,0
97448,-100,4,2,1,60,0,0
98305,-50,4,2,1,79,0,0
98648,-66.6666666666667,4,2,1,79,0,0
98905,-100,4,2,1,79,0,0
99162,-50,4,2,1,79,0,0
103448,-100,4,2,1,79,0,0
103791,-40,4,2,1,79,0,0
104133,-50,4,2,1,79,0,0
106705,-66.6666666666667,4,2,1,79,0,0
107733,-100,4,2,1,79,0,0
108933,-50,4,2,1,79,0,0
118362,-500,4,2,1,79,0,0
119562,-250,4,2,1,79,0,0
119905,-55.5555555555556,4,2,1,79,0,0
120248,-50,4,2,1,79,0,0
120591,-62.5,4,2,1,79,0,0
120848,-55.5555555555556,4,2,1,79,0,0
121019,-41.6666666666667,4,2,1,79,0,0
121448,-62.5,4,2,1,79,0,0
121619,-55.5555555555556,4,2,1,79,0,0
121962,-41.6666666666667,4,2,1,79,0,0
122476,-55.5555555555556,4,2,1,79,0,0
122648,-45.4545454545455,4,2,1,79,0,0
122819,-62.5,4,2,1,79,0,0
122991,-50,4,2,1,79,0,0
123333,-62.5,4,2,1,79,0,0
123591,-55.5555555555556,4,2,1,79,0,0
123762,-41.6666666666667,4,2,1,79,0,0
124191,-62.5,4,2,1,79,0,0
124362,-55.5555555555556,4,2,1,79,0,0
124705,-41.6666666666667,4,2,1,79,0,0
125047,-41.6666666666667,4,2,1,90,0,0
125391,-55.5555555555556,4,2,1,90,0,0
125733,-50,4,2,1,90,0,0
126076,-62.5,4,2,1,90,0,0
126333,-55.5555555555556,4,2,1,90,0,0
126505,-41.6666666666667,4,2,1,90,0,0
127105,-50,4,2,1,90,0,0
127448,-45.4545454545455,4,2,1,90,0,0
127791,-41.6666666666667,4,2,1,90,0,0
128133,-45.4545454545455,4,2,1,90,0,0
128476,-62.5,4,2,1,90,0,0
128819,-55.5555555555556,4,2,1,90,0,0
129076,-50,4,2,1,90,0,0
129248,-38.4615384615385,4,2,1,90,0,0
129848,-33.3333333333333,4,2,1,90,0,0
130191,-28.5714285714286,4,2,1,90,0,0
130533,-25,4,2,1,90,0,0

[Colours]
Combo1 : 191,0,191
Combo2 : 128,128,255
Combo3 : 191,0,96
Combo4 : 128,0,128

[HitObjects]
39,132,591,6,0,B|39:157|39:157|182:223|182:223|205:205,1,209.99999165535,4|0,2:1|2:0,2:0:0:0:
270,161,848,6,0,B|291:128|291:128|477:98,1,209.99999165535,4|0,2:1|2:0,2:0:0:0:
486,84,1105,6,0,B|492:112|492:112|459:200,1,104.999995827675,4|0,2:1|2:0,2:0:0:0:
453,348,1276,6,0,B|427:343|427:343|365:229|365:229|371:206,1,179.999992847443,4|0,2:1|2:0,2:0:0:0:
454,193,1533,6,0,B|328:272|328:272|313:350,1,179.999992847443,4|0,2:1|2:0,2:0:0:0:
272,364,1791,6,0,B|221:374|221:374|174:333,1,89.9999964237213,4|0,2:1|2:0,2:0:0:0:
256,192,1962,12,2,3333,2:0:0:0:
9,17,4362,6,0,P|30:26|8:21,1,59.9999976158143,10|0,2:0|2:0,2:0:0:0:
19,21,4705,6,0,P|69:30|80:103,1,107.999995708466,4|0,3:2|2:0,2:0:0:0:
164,170,4876,2,0,P|221:141|211:82,1,107.999995708466,0|0,2:0|2:0,2:0:0:0:
79,87,5048,6,0,B|89:108|89:108|165:116|238:171|221:309,1,239.999990463257,8|0,2:0|2:0,2:0:0:0:
124,383,5305,1,0,2:0:0:0:
90,343,5391,2,0,B|111:291|111:291|144:278|168:228,1,95.9999961853028,0|0,3:0|3:0,2:0:0:0:
289,190,5562,5,0,3:0:0:0:
357,243,5648,2,0,B|424:258|424:258|478:191,1,107.999995708466,0|10,3:0|3:2,2:0:0:0:
358,88,5819,6,0,B|246:118|246:118|202:87,2,143.999994277954,2|2|2,3:2|3:2|3:2,2:0:0:0:
508,29,6076,5,0,3:0:0:0:
289,190,6248,2,0,P|332:251|374:228,1,95.9999961853028,0|0,2:0|2:0,2:0:0:0:
494,40,6419,6,0,P|365:129|395:219,1,215.999991416931,8|0,2:0|2:0,2:0:0:0:
512,277,6676,1,0,2:0:0:0:
501,383,6762,6,0,B|484:355|484:355|274:338|274:338|244:304,2,287.999988555908,0|0|8,3:0|3:0|2:0,2:0:0:0:
315,374,7191,1,0,2:0:0:0:
315,374,7276,2,0,B|346:222,1,107.999995708466,0|0,2:0|2:0,2:0:0:0:
215,112,7448,6,0,P|291:159|263:221,1,131.999994754791,0|0,3:0|2:0,2:0:0:0:
244,304,7619,2,0,P|188:311|171:348,1,95.9999961853028,0|0,2:0|2:0,2:0:0:0:
179,351,7791,6,0,P|193:255|213:185,1,119.999995231629,8|0,2:0|2:0,2:0:0:0:
118,120,7962,1,0,2:0:0:0:
50,83,8048,1,0,2:0:0:0:
0,146,8133,2,0,B|52:158|52:158|64:182|94:196,1,95.9999961853028,0|0,3:0|3:0,2:0:0:0:
232,6,8305,5,0,3:0:0:0:
308,38,8391,2,0,B|321:103|321:103|270:160,1,107.999995708466,0|10,3:0|3:2,2:0:0:0:
193,372,8562,6,0,B|171:358|171:358|130:201,2,143.999994277954,2|2|2,3:2|3:2|3:2,2:0:0:0:
217,155,8819,5,0,3:0:0:0:
0,337,8991,2,0,P|35:296|93:308,1,95.9999961853028,0|0,2:0|2:0,2:0:0:0:
255,228,9162,6,0,P|149:109|99:168,1,215.999991416931,8|0,2:0|2:0,2:0:0:0:
24,19,9419,1,0,2:0:0:0:
0,123,9505,6,0,B|100:91|100:91|101:76|101:76|296:13,2,311.999987602234,0|0|10,3:0|3:0|2:0,2:0:0:0:
201,19,9933,1,2,2:0:0:0:
224,73,10019,1,2,2:0:0:0:
300,99,10105,1,2,2:0:0:0:
367,32,10191,6,0,L|446:11,1,59.9999976158143,0|0,3:0|2:0,2:0:0:0:
503,64,10362,2,0,L|357:137,1,119.999995231629,0|0,2:0|3:0,2:0:0:0:
351,236,10705,6,0,L|413:183,1,59.9999976158143,0|0,2:0|2:0,2:0:0:0:
486,209,10876,2,0,L|384:336,1,119.999995231629,0|0,3:0|2:0,2:0:0:0:
201,238,11219,6,0,B|198:228|198:228|200:196|200:196|235:170,1,59.9999976158143,0|0,3:0|2:0,2:0:0:0:
275,280,11391,2,0,B|298:294|298:294|276:395,1,119.999995231629,0|0,2:0|3:0,2:0:0:0:
100,272,11905,5,0,3:0:0:0:
214,185,12248,2,0,P|184:141|126:152,1,89.9999964237216,0|0,3:0|2:0,2:0:0:0:
56,116,12591,2,0,P|69:61|109:38,1,89.9999964237216,0|0,3:0|2:0,2:0:0:0:
178,14,12848,5,0,2:0:0:0:
178,14,12933,2,0,L|252:50,1,59.9999976158143,0|0,3:0|2:0,2:0:0:0:
181,146,13105,2,0,L|98:41,1,119.999995231629,0|0,2:0|3:0,2:0:0:0:
350,117,13448,6,0,L|401:180,1,59.9999976158143,0|0,2:0|2:0,2:0:0:0:
289,244,13619,2,0,L|258:113,1,119.999995231629,0|0,3:0|2:0,2:0:0:0:
508,342,13962,6,0,B|471:372|471:372|452:362,1,59.9999976158143,0|0,3:0|2:0,2:0:0:0:
376,348,14133,2,0,B|374:259|374:259|387:251|387:251|437:271,1,119.999995231629,0|0,2:0|3:0,2:0:0:0:
471,194,14476,6,0,P|436:147|398:151,2,89.9999964237216,0|0|0,2:0|3:0|2:0,2:0:0:0:
326,84,14991,2,0,B|364:85|387:65|387:65|400:32,1,89.9999964237216,0|0,3:0|2:0,2:0:0:0:
498,10,15248,1,0,2:0:0:0:
498,10,15333,2,0,P|487:70|447:61,1,89.9999964237216,0|0,3:0|2:0,2:0:0:0:
218,202,15676,6,0,L|274:147,1,59.9999976158143,4|0,3:2|2:0,2:0:0:0:
327,258,15848,2,0,L|195:278,1,89.9999964237213,0|0,2:0|2:0,2:0:0:0:
141,292,16019,6,0,L|213:60,1,179.999992847443,0|0,3:0|2:0,2:0:0:0:
173,97,16191,2,0,L|189:240,1,119.999995231629,0|0,2:0|2:0,2:0:0:0:
34,352,16362,6,0,L|201:279,1,149.999994039536,0|0,3:0|2:0,2:0:0:0:
185,315,16533,2,0,L|52:270,1,89.9999964237213,0|0,2:0|2:0,2:0:0:0:
24,230,16705,6,0,B|7:215|7:215|-3:162,1,59.9999976158143,0|0,3:0|2:0,2:0:0:0:
110,26,16876,2,0,B|97:38|97:38|73:125|73:125|35:149,1,119.999995231629,0|0,2:0|3:0,2:0:0:0:
232,39,17391,6,0,P|298:57|290:141,1,134.999994635582,0|0,3:0|2:0,2:0:0:0:
284,148,17733,2,0,P|351:220|384:198,1,134.999994635582,0|0,3:0|2:0,2:0:0:0:
376,207,18076,2,0,P|437:203|444:240,1,89.9999964237216,0|0,3:0|2:0,2:0:0:0:
439,383,18419,6,0,L|353:327,1,59.9999976158143,0|0,3:0|2:0,2:0:0:0:
448,236,18591,2,0,L|515:353,1,119.999995231629,0|0,2:0|3:0,2:0:0:0:
289,266,18933,6,0,L|234:178,1,59.9999976158143,0|0,2:0|2:0,2:0:0:0:
359,136,19105,2,0,L|370:270,1,119.999995231629,0|0,3:0|2:0,2:0:0:0:
142,99,19448,6,0,B|177:87|177:87|181:79|181:79|237:64,1,59.9999976158143,0|0,3:0|2:0,2:0:0:0:
328,26,19619,2,0,B|278:96|278:96|279:161,1,119.999995231629,0|2,2:0|3:2,2:0:0:0:
268,136,19876,1,2,3:2:0:0:
257,142,19962,1,2,3:2:0:0:
246,148,20048,1,2,3:2:0:0:
235,154,20133,1,0,3:0:0:0:
394,237,20305,1,0,2:0:0:0:
182,246,20476,5,2,3:2:0:0:
193,249,20562,1,2,2:0:0:0:
204,252,20648,2,0,L|221:328,1,59.9999976158143,0|0,2:0|3:0,2:0:0:0:
235,384,20819,1,8,3:0:0:0:
35,255,20991,5,2,3:2:0:0:
18,180,21076,1,2,3:2:0:0:
3,107,21162,2,0,P|41:67|100:94,1,89.9999964237213,0|0,3:0|2:0,2:0:0:0:
131,123,21333,2,0,P|213:190|258:120,1,179.999992847443,0|8,2:0|2:3,2:0:0:0:
253,154,21676,1,0,3:0:0:0:
423,198,21848,6,0,P|455:163|429:115,1,74.9999970197678,8|0,2:0|2:0,2:0:0:0:
400,80,22019,2,0,P|461:28|520:84,2,149.999994039536,0|0|0,2:0|2:0|2:0,2:0:0:0:
512,312,22533,6,0,P|451:303|443:244,1,89.9999964237213,0|0,3:0|2:0,2:0:0:0:
375,243,22705,2,0,P|289:293|316:359,1,179.999992847443,0|0,2:0|2:0,2:0:0:0:
309,353,23048,1,0,3:0:0:0:
205,258,23219,2,0,P|192:195|168:123,2,119.999995231629,8|0|8,2:0|3:0|2:0,2:0:0:0:
268,177,23733,1,0,3:0:0:0:
15,349,23905,6,0,P|87:321|81:262,1,89.9999964237213,0|0,3:0|2:0,2:0:0:0:
59,244,24076,2,0,P|157:233|154:323,1,179.999992847443,0|0,2:0|2:0,2:0:0:0:
171,294,24419,1,0,2:0:0:0:
238,194,24591,6,0,P|270:154|225:105,1,74.9999970197678,8|0,2:0|2:0,2:0:0:0:
204,91,24762,2,0,P|125:54|135:-9,1,149.999994039536,0|0,2:0|2:0,2:0:0:0:
127,1,25105,1,0,2:0:0:0:
292,0,25276,6,0,P|327:50|366:34,1,89.9999964237213,0|0,3:0|2:0,2:0:0:0:
424,56,25448,2,0,P|522:78|505:147,1,179.999992847443,0|0,2:0|2:0,2:0:0:0:
512,136,25791,1,0,3:0:0:0:
310,273,25962,2,0,P|375:259|490:233,1,179.999992847443,8|0,2:0|2:0,2:0:0:0:
485,233,26305,1,8,2:0:0:0:
319,175,26476,5,8,2:0:0:0:
309,122,26562,1,8,2:0:0:0:
301,65,26648,2,0,P|433:120|362:213,1,269.999989271164,0|0,3:0|2:0,2:0:0:0:
359,270,26991,2,0,P|410:318|462:276,1,89.9999964237213,0|0,3:0|2:0,2:0:0:0:
512,214,27162,1,0,2:0:0:0:
483,381,27333,6,0,P|354:348|268:339,2,179.999992847443,0|0|0,3:0|2:0|3:0,2:0:0:0:
283,215,27848,1,0,2:0:0:0:
191,376,28019,6,0,P|161:331|192:279,1,89.9999964237213,0|0,3:0|2:0,2:0:0:0:
273,220,28191,2,0,P|249:282|240:336,1,89.9999964237213,0|0,2:0|2:0,2:0:0:0:
314,351,28362,6,0,P|344:306|313:254,1,89.9999964237213,0|0,3:0|2:0,2:0:0:0:
164,100,28533,2,0,P|188:162|197:216,1,89.9999964237213,0|0,2:0|2:0,2:0:0:0:
243,304,28705,5,0,3:0:0:0:
264,52,28876,1,0,2:0:0:0:
33,164,29048,1,0,3:0:0:0:
193,184,29219,1,0,3:0:0:0:
20,374,29391,6,0,P|42:335|83:281,1,89.9999964237213,0|0,3:0|2:0,2:0:0:0:
104,206,29562,2,0,P|88:278|87:323,1,89.9999964237213,0|0,3:0|2:0,2:0:0:0:
176,366,29733,6,0,P|144:315|131:261,1,89.9999964237213,0|0,3:0|2:0,2:0:0:0:
160,140,29905,2,0,P|193:208|218:231,1,89.9999964237213,0|0,3:0|2:0,2:0:0:0:
364,300,30076,6,0,P|310:302|260:277,1,89.9999964237213,0|0,3:0|3:0,2:0:0:0:
197,35,30248,2,0,P|238:94|294:101,1,89.9999964237213,0|0,3:0|3:0,2:0:0:0:
444,158,30419,5,0,3:0:0:0:
505,118,30505,1,0,3:0:0:0:
512,55,30591,1,0,3:0:0:0:
481,16,30676,1,0,3:0:0:0:
468,7,30762,6,0,P|362:91|276:219,1,269.999989271164,0|0,3:0|2:0,2:0:0:0:
284,200,31105,6,0,P|302:145|279:95,1,89.9999964237216,8|0,3:0|3:0,2:0:0:0:
247,48,31448,2,0,B|258:24|258:24|301:14,2,59.9999976158143,0|0|0,3:0|3:0|3:0,2:0:0:0:
249,56,31962,1,0,3:0:0:0:
372,166,32133,6,0,P|429:178|497:204,1,119.999995231629,0|0,2:0|2:0,2:0:0:0:
486,199,32648,1,0,2:0:0:0:
368,242,32819,6,0,P|412:255|450:272,1,59.9999976158143,0|0,2:0|2:0,2:0:0:0:
425,260,33162,1,0,2:0:0:0:
502,290,33333,1,0,2:0:0:0:
306,344,33505,6,1,B|294:327|294:327|243:319|243:319|207:133|207:133|320:109|320:109|277:153|303:229,2,479.999980926514,0|0|0,3:0|3:0|3:0,2:0:0:0:
221,350,34362,6,0,L|159:370,2,47.9999980926514,0|0|0,2:0|2:0|2:0,2:0:0:0:
361,287,34876,6,0,P|303:133|123:216,1,359.999985694885,4|0,3:2|2:0,2:0:0:0:
71,104,35219,2,0,P|-2:45|47:-11,1,119.999995231629,8|0,2:0|2:0,2:0:0:0:
174,10,35391,5,2,2:0:0:0:
198,0,35476,1,2,2:0:0:0:
263,44,35562,2,0,B|216:217|216:217|183:234|169:292,1,239.999990463257,0|0,3:0|2:0,2:0:0:0:
316,384,35819,1,0,2:0:0:0:
316,384,35905,2,0,P|245:302|206:330,1,119.999995231629,8|0,2:0|2:0,2:0:0:0:
53,237,36076,5,0,2:0:0:0:
12,301,36162,1,0,2:0:0:0:
45,372,36248,2,0,B|235:329|235:329|265:261,1,239.999990463257,0|0,3:0|2:0,2:0:0:0:
296,144,36505,5,0,2:0:0:0:
365,110,36591,2,0,B|400:184|400:184|368:228,1,119.999995231629,8|0,2:0|2:0,2:0:0:0:
422,354,36762,5,0,2:0:0:0:
492,381,36848,1,0,2:0:0:0:
422,354,36933,2,0,B|355:337|397:306|310:271,1,119.999995231629,2|0,3:2|2:0,2:0:0:0:
183,177,37105,5,2,2:0:0:0:
126,229,37191,1,0,2:0:0:0:
183,177,37276,2,0,B|240:138|187:117|266:61,1,119.999995231629,10|0,2:0|2:0,2:0:0:0:
490,81,37448,2,0,L|350:102,1,119.999995231629,2|0,2:0|2:0,2:0:0:0:
12,0,37619,6,0,B|16:32|16:32|157:73|157:73|184:41|242:49,1,239.999990463257,2|0,3:2|2:0,2:0:0:0:
330,184,37876,1,0,2:0:0:0:
264,229,37962,2,0,B|239:139|239:139|194:116,1,119.999995231629,8|0,2:0|2:0,2:0:0:0:
31,160,38133,5,0,2:0:0:0:
1,231,38219,1,0,2:0:0:0:
59,285,38305,2,0,P|123:249|116:186,1,119.999995231629,2|0,3:2|2:0,2:0:0:0:
324,170,38476,2,0,B|416:199|416:199|443:256,1,119.999995231629,2|0,2:0|2:0,2:0:0:0:
141,52,38648,6,0,P|208:88|207:150,1,119.999995231629,10|0,2:0|2:0,2:0:0:0:
413,242,38819,2,0,B|497:217|497:217|523:168,1,119.999995231629,2|0,2:0|2:0,2:0:0:0:
472,22,38991,5,2,3:2:0:0:
452,10,39076,1,0,2:0:0:0:
394,33,39162,2,0,B|401:101|442:71|446:162,1,119.999995231629,0|0,2:0|2:0,2:0:0:0:
274,271,39333,6,0,B|305:249|305:249|469:308|469:308|481:365,1,239.999990463257,8|0,2:0|2:0,2:0:0:0:
275,384,39591,1,0,2:0:0:0:
275,384,39676,2,0,L|257:247,1,119.999995231629,2|0,3:2|2:0,2:0:0:0:
236,49,39848,5,2,2:0:0:0:
257,32,39933,1,0,2:0:0:0:
332,31,40019,5,8,2:0:0:0:
388,83,40105,1,2,2:0:0:0:
443,139,40191,5,2,2:0:0:0:
420,210,40276,1,2,2:0:0:0:
379,234,40362,6,0,B|352:231|352:231|266:164|266:164|269:135|253:109,1,179.999992847443,4|0,3:1|2:0,2:0:0:0:
322,65,40705,6,0,B|77:122|77:122|29:104|37:49,1,299.999988079071,12|2,2:0|2:0,2:0:0:0:
189,15,40962,5,2,2:0:0:0:
125,59,41048,2,0,P|157:138|209:149,1,119.999995231629,0|0,3:0|2:0,2:0:0:0:
46,291,41219,5,0,2:0:0:0:
22,260,41305,2,0,P|54:210|121:202,1,119.999995231629,2|8,2:0|2:0,2:0:0:0:
324,291,41476,5,0,2:0:0:0:
371,356,41562,2,0,B|305:367|261:307|310:277|248:208|159:242,1,239.999990463257,2|0,2:0|3:0,2:0:0:0:
468,242,41819,5,0,2:0:0:0:
468,242,41905,2,0,B|374:256|374:256|344:308,1,119.999995231629,0|0,2:0|2:0,2:0:0:0:
113,384,42076,6,0,B|174:368|135:332|233:302,1,119.999995231629,8|0,2:0|2:0,2:0:0:0:
276,147,42248,1,0,2:0:0:0:
211,105,42333,1,2,2:0:0:0:
276,147,42419,2,0,B|338:158|317:109|419:123,1,119.999995231629,2|0,3:2|2:0,2:0:0:0:
128,200,42591,6,0,B|179:236|181:182|267:238,1,119.999995231629,2|0,2:0|2:0,2:0:0:0:
415,24,42762,2,0,B|446:78|470:30|525:118,1,119.999995231629,10|0,2:0|2:0,2:0:0:0:
361,277,42933,5,2,2:0:0:0:
380,199,43019,1,0,2:0:0:0:
460,209,43105,2,0,B|282:296|282:296|274:363,1,239.999990463257,2|0,3:2|2:0,2:0:0:0:
203,384,43362,5,0,2:0:0:0:
203,384,43448,2,0,L|176:251,1,119.999995231629,8|0,2:0|2:0,2:0:0:0:
442,263,43619,2,0,L|417:352,1,89.9999964237213,2|0,2:0|2:0,2:0:0:0:
290,207,43791,5,2,3:2:0:0:
259,163,43876,2,0,B|117:131|117:131|102:149|78:157,1,179.999992847443,0|2,2:0|2:0,2:0:0:0:
37,97,44133,2,0,B|-8:41|-8:41|8:7,1,89.9999964237213,8|0,2:0|2:0,2:0:0:0:
87,12,44305,6,0,B|135:121|137:247|137:247|213:311,1,269.999989271164,2|0,3:2|2:0,2:0:0:0:
203,329,44648,2,0,B|262:313|262:313|233:262,3,119.999995231629,0|0|0|0,3:1|3:1|3:1|3:1,2:0:0:0:
14,384,45333,5,0,3:0:0:0:
6,367,45419,1,0,3:0:0:0:
37,294,45505,6,0,B|135:262|116:350|206:359,1,179.999992847443,8|0,2:0|2:0,2:0:0:0:
283,384,45848,6,0,L|262:256,1,119.999995231629,6|0,3:2|2:0,2:0:0:0:
355,173,46019,2,0,B|338:183|330:201|330:201|171:159|171:159|166:139|128:107,1,239.999990463257,2|0,2:0|3:0,2:0:0:0:
103,68,46276,5,0,2:0:0:0:
82,64,46362,1,2,2:0:0:0:
20,108,46448,1,2,2:0:0:0:
28,189,46533,6,0,B|226:126|226:126|243:72,1,239.999990463257,2|0,3:2|2:0,2:0:0:0:
291,2,46791,1,0,2:0:0:0:
339,25,46876,2,0,L|363:164,1,119.999995231629,10|0,2:0|2:0,2:0:0:0:
369,297,47048,2,0,B|397:312|397:312|466:147|466:147|439:134,1,239.999990463257,2|0,2:0|3:0,2:0:0:0:
318,368,47305,5,0,2:0:0:0:
318,368,47391,2,0,L|480:335,1,119.999995231629,2|0,2:0|2:0,2:0:0:0:
321,221,47562,2,0,L|203:244,1,119.999995231629,10|0,2:0|2:0,2:0:0:0:
77,363,47733,5,2,2:0:0:0:
123,350,47819,1,0,2:0:0:0:
195,329,47905,2,0,B|12:246|12:246|2:195,1,239.999990463257,2|2,3:2|2:0,2:0:0:0:
82,123,48162,1,0,2:0:0:0:
106,131,48248,2,0,B|130:225|130:225|116:246|105:287,1,119.999995231629,10|0,2:0|2:0,2:0:0:0:
279,286,48419,5,2,2:0:0:0:
280,339,48505,1,0,2:0:0:0:
344,376,48591,2,0,B|364:360|364:360|397:185|397:185|464:155,1,239.999990463257,0|2,3:0|2:0,2:0:0:0:
452,26,48848,5,0,2:0:0:0:
512,75,48933,2,0,B|527:172|527:172|518:157|435:103,1,119.999995231629,10|0,2:0|2:0,2:0:0:0:
336,120,49105,5,0,2:0:0:0:
332,86,49191,1,0,2:0:0:0:
264,45,49276,2,0,B|234:162|234:162|380:238,1,239.999990463257,2|0,3:2|2:0,2:0:0:0:
472,262,49533,5,0,2:0:0:0:
503,334,49619,2,0,B|409:368|409:368|401:357|394:353,1,119.999995231629,10|0,2:0|2:0,2:0:0:0:
259,369,49791,5,2,2:0:0:0:
280,341,49876,1,0,2:0:0:0:
257,268,49962,2,0,B|86:329|86:329|78:359|46:375,1,239.999990463257,0|2,3:0|2:0,2:0:0:0:
152,337,50219,5,0,2:0:0:0:
152,337,50305,2,0,B|139:309|139:309|35:289,1,119.999995231629,10|0,2:0|2:0,2:0:0:0:
6,54,50476,6,0,B|-7:66|-7:66|17:179,1,119.999995231629,2|2,2:0|2:0,2:0:0:0:
27,178,50648,2,0,B|212:128|212:128|247:53,1,239.999990463257,0|2,3:0|2:0,2:0:0:0:
185,19,50905,1,0,2:0:0:0:
165,13,50991,5,10,2:0:0:0:
92,44,51076,1,8,2:0:0:0:
81,126,51162,5,8,2:0:0:0:
141,178,51248,1,8,2:0:0:0:
147,255,51333,6,0,B|235:284|235:284|282:248,1,119.999995231629,6|0,3:2|2:0,2:0:0:0:
284,373,51505,2,0,B|318:186|318:186|301:177|285:149,1,239.999990463257,2|8,2:0|2:0,2:0:0:0:
310,69,51762,5,0,2:0:0:0:
320,47,51848,1,2,2:0:0:0:
387,5,51933,1,0,2:0:0:0:
459,37,52019,6,0,B|516:36|516:97|516:97|396:133|396:133|384:161,1,239.999990463257,2|0,3:2|2:0,2:0:0:0:
222,197,52276,1,2,2:0:0:0:
256,267,52362,2,0,B|351:297|351:297|361:314,1,119.999995231629,10|0,2:0|2:0,2:0:0:0:
494,184,52533,6,0,B|516:212|516:212|472:370|472:370|431:386,1,239.999990463257,2|0,2:0|3:0,2:0:0:0:
353,323,52791,1,0,2:0:0:0:
353,323,52876,2,0,L|327:191,1,119.999995231629,2|0,2:0|2:0,2:0:0:0:
427,0,53048,6,0,B|419:18|419:18|345:29|331:107,1,119.999995231629,10|0,2:0|2:0,2:0:0:0:
95,87,53219,5,2,2:0:0:0:
180,78,53305,1,0,2:0:0:0:
99,91,53391,2,0,B|106:106|106:106|262:134|243:290,1,239.999990463257,2|2,3:2|2:0,2:0:0:0:
172,371,53648,5,0,2:0:0:0:
133,384,53733,2,0,B|153:291|153:291|196:253,1,119.999995231629,10|0,2:0|2:0,2:0:0:0:
380,267,53905,1,2,2:0:0:0:
398,282,53991,1,0,2:0:0:0:
448,345,54076,6,0,B|411:354|396:385|396:385|257:356|257:356|222:302,1,239.999990463257,0|2,3:0|2:0,2:0:0:0:
69,175,54333,1,0,2:0:0:0:
1,209,54419,2,0,L|29:331,1,119.999995231629,10|0,2:0|2:0,2:0:0:0:
336,168,54591,2,0,L|308:290,1,119.999995231629,0|0,3:0|2:0,2:0:0:0:
71,100,54762,2,0,L|99:222,1,119.999995231629,2|0,3:2|3:0,2:0:0:0:
439,115,54933,2,0,L|411:237,1,119.999995231629,10|8,2:0|2:0,2:0:0:0:
144,15,55105,2,0,L|172:137,1,119.999995231629,10|8,2:0|2:0,2:0:0:0:
486,5,55276,6,0,B|508:57|508:57|452:119,1,119.999995231629,10|8,2:0|2:0,2:0:0:0:
501,9,56476,6,0,L|489:87,1,71.9999971389771,10|0,2:0|2:0,2:0:0:0:
512,0,56819,6,0,P|339:71|342:196,1,323.999987125397,4|0,3:2|2:0,2:0:0:0:
493,99,57162,2,0,B|489:109|489:109|417:127|414:197,1,119.999995231629,8|0,2:0|2:0,2:0:0:0:
224,364,57333,5,0,2:0:0:0:
188,292,57419,1,0,2:0:0:0:
250,246,57505,2,0,B|314:268|314:268|317:290|335:305,1,95.9999961853028,0|0,3:0|3:0,2:0:0:0:
451,380,57676,5,0,3:0:0:0:
500,318,57762,2,0,B|513:240|513:240|492:221,1,107.999995708466,0|10,3:0|3:2,2:0:0:0:
316,47,57933,6,0,B|308:72|308:72|343:212,2,143.999994277954,2|2|2,3:2|3:2|3:2,2:0:0:0:
427,0,58191,5,0,3:0:0:0:
250,156,58362,2,0,P|207:139|190:96,1,95.9999961853028,0|0,2:0|2:0,2:0:0:0:
116,5,58533,6,0,P|17:27|-1:127,1,215.999991416931,8|0,2:0|2:0,2:0:0:0:
188,292,58791,1,0,2:0:0:0:
134,352,58876,6,0,B|99:323|99:323|120:137|120:137|53:85,2,287.999988555908,0|0|8,3:0|3:0|2:0,2:0:0:0:
31,231,59305,1,0,2:0:0:0:
31,231,59391,2,0,L|170:192,1,107.999995708466,0|0,2:0|2:0,2:0:0:0:
237,384,59562,6,0,P|287:352|288:299,1,95.9999961853028,0|0,3:0|2:0,2:0:0:0:
317,107,59733,2,0,L|351:272,1,131.999994754791,0|0,2:0|2:0,2:0:0:0:
337,246,59905,2,0,P|283:203|287:164,1,95.9999961853028,8|0,2:0|2:0,2:0:0:0:
463,42,60076,5,0,2:0:0:0:
512,102,60162,1,0,2:0:0:0:
468,165,60248,2,0,B|405:149|405:149|395:159|376:163,1,95.9999961853028,0|0,3:0|3:0,2:0:0:0:
157,52,60419,5,0,3:0:0:0:
143,135,60505,2,0,B|222:114|222:114|250:59,1,107.999995708466,0|10,3:0|3:2,2:0:0:0:
351,290,60676,6,0,B|342:265|342:265|179:211,2,143.999994277954,2|2|2,3:2|3:2|3:2,2:0:0:0:
191,333,60933,5,2,3:2:0:0:
303,138,61105,2,0,P|361:162|352:220,1,95.9999961853028,2|2,2:0|2:0,2:0:0:0:
399,356,61276,6,0,P|518:295|494:205,1,215.999991416931,8|0,2:0|2:0,2:0:0:0:
379,63,61533,1,0,2:0:0:0:
306,20,61619,6,0,B|205:57|205:57|192:86|192:86|53:156,2,287.999988555908,0|0|8,3:0|3:0|2:0,2:0:0:0:
149,50,62048,1,0,3:0:0:0:
127,83,62133,1,0,3:0:0:0:
135,162,62219,1,0,3:0:0:0:
215,216,62305,6,0,B|278:184|239:164|319:130,1,119.999995231629,4|0,3:1|2:0,2:0:0:0:
315,129,62648,6,0,P|369:149|354:223,1,134.999994635582,0|0,2:0|2:0,2:0:0:0:
355,229,62991,2,0,B|306:346|398:324|396:293|575:246|420:125,1,318.599987339974,8|0,2:0|2:0,2:0:0:0:
460,147,63333,2,0,P|472:104|516:93,1,79.799996829033,0|0,3:0|2:0,2:0:0:0:
509,84,63505,2,0,B|503:34|480:58|402:10,1,89.9999964237213,0|0,2:0|2:0,2:0:0:0:
438,21,63676,2,0,B|343:68|383:60|329:85|355:60|232:97,1,179.999992847443,0|0,2:0|2:0,2:0:0:0:
264,77,64019,6,0,B|237:155|214:112|196:190,1,125.99999499321,0|0,3:0|2:0,2:0:0:0:
190,193,64362,2,0,P|202:242|248:235,1,71.9999971389771,8|0,2:0|2:0,2:0:0:0:
226,263,64533,2,0,P|212:309|199:357,1,71.9999971389771,0|0,2:0|2:0,2:0:0:0:
196,341,64705,2,0,P|156:363|130:331,1,71.9999971389771,0|0,2:0|2:0,2:0:0:0:
130,341,64876,2,0,P|122:306|97:254,1,83.99999666214,0|0,2:0|2:0,2:0:0:0:
91,268,65048,2,0,B|33:248|79:219|-33:183,1,119.999995231629,0|0,3:0|2:0,2:0:0:0:
9,184,65391,6,0,P|51:157|24:98,1,89.9999964237216,0|0,2:0|3:0,2:0:0:0:
58,112,65733,6,0,P|97:74|123:81,1,59.9999976158143,8|0,2:0|2:0,2:0:0:0:
110,67,65905,2,0,B|174:89|131:111|188:134|255:121,1,155.999993801117,0|0,2:0|3:0,2:0:0:0:
254,112,66248,6,0,B|221:61|272:-5|410:64|366:141,1,233.999990701676,0|0,3:0|2:0,2:0:0:0:
382,143,66591,2,0,P|378:181|427:206,1,77.9999969005585,0|0,2:0|2:0,2:0:0:0:
422,208,66762,2,0,P|469:162|518:126,1,89.9999964237213,0|0,3:0|2:0,2:0:0:0:
493,137,66933,2,0,P|470:91|438:92,1,59.9999976158143,0|0,2:0|2:0,2:0:0:0:
457,101,67105,6,0,P|484:186|513:290,1,179.999992847443,8|0,2:0|2:0,2:0:0:0:
508,297,67448,2,0,P|422:374|433:250,1,287.999988555908,0|0,2:0|3:0,2:0:0:0:
423,246,68133,6,0,P|323:251|313:316,1,119.999995231629,0|0,2:0|2:0,2:0:0:0:
255,376,68305,2,0,P|236:337|265:283,1,74.9999970197678,0|0,3:0|2:0,2:0:0:0:
332,207,68476,2,0,P|247:190|218:136,1,119.999995231629,8|0,2:0|2:0,2:0:0:0:
203,37,68648,2,0,P|247:55|225:123,1,89.9999964237216,0|0,2:0|3:0,2:0:0:0:
267,95,68991,6,0,P|318:79|367:70,1,71.9999971389771,0|0,2:0|2:0,2:0:0:0:
348,67,69162,2,0,B|406:113|445:134|523:160,1,179.999992847443,0|0,2:0|2:0,2:0:0:0:
501,164,69505,2,0,P|444:143|360:119,1,134.999994635582,0|0,3:0|2:0,2:0:0:0:
362,114,69848,2,0,B|263:168|326:168|135:272,1,269.999989271164,8|0,2:0|2:0,2:0:0:0:
153,278,70191,2,0,P|219:241|306:200,1,134.999994635582,0|0,2:0|2:0,2:0:0:0:
285,216,70533,2,0,B|297:270|321:238|349:348,1,119.999995231629,0|0,3:0|2:0,2:0:0:0:
347,333,71048,6,0,P|363:289|391:249,1,59.9999976158143,0|0,3:0|2:0,2:0:0:0:
381,271,71219,2,0,B|423:259|407:239|477:227,1,77.9999969005585,8|0,2:0|2:0,2:0:0:0:
462,230,71391,2,0,P|435:155|394:165,1,89.9999964237213,0|0,2:0|2:0,2:0:0:0:
376,115,71562,6,0,P|350:124|324:133,1,44.9999982118608,0|0,3:0|2:0,2:0:0:0:
372,103,71733,2,0,P|346:112|320:121,1,44.9999982118608,0|0,3:0|2:0,2:0:0:0:
289,0,71905,6,0,B|288:32|278:19|278:53,2,47.9999980926514,0|0|0,2:0|2:0|2:0,2:0:0:0:
200,56,72762,5,0,2:0:0:0:
200,56,72933,1,0,2:0:0:0:
200,56,73105,1,0,2:0:0:0:
309,125,73276,6,0,L|273:11,1,119.999995231629,4|0,3:2|2:0,2:0:0:0:
27,149,73791,6,0,L|51:32,1,119.999995231629,0|0,3:0|2:0,2:0:0:0:
269,204,74305,6,0,L|241:339,1,119.999995231629,0|0,3:0|2:0,2:0:0:0:
131,384,74648,6,0,L|95:247,1,119.999995231629,8|0,2:0|2:0,2:0:0:0:
350,194,75162,6,0,L|395:336,1,119.999995231629,8|0,2:0|2:0,2:0:0:0:
447,154,75505,6,0,L|475:22,1,119.999995231629,0|0,3:0|2:0,2:0:0:0:
332,116,75848,6,0,L|303:253,1,119.999995231629,8|0,2:0|2:0,2:0:0:0:
235,276,76019,6,0,L|202:137,1,119.999995231629,0|0,3:0|2:0,2:0:0:0:
10,138,76533,6,0,L|34:17,1,119.999995231629,0|0,3:0|2:0,2:0:0:0:
198,139,77048,6,0,L|164:282,1,119.999995231629,0|0,3:0|2:0,2:0:0:0:
283,384,77391,6,0,L|244:225,1,119.999995231629,0|0,3:0|2:0,2:0:0:0:
490,297,77905,6,0,L|515:165,1,119.999995231629,0|0,3:0|2:0,2:0:0:0:
384,141,78248,6,8,L|343:-3,1,119.999995231629,8|0,2:0|2:0,2:0:0:0:
368,138,78419,6,0,L|327:-6,1,119.999995231629,8|0,2:0|2:0,2:0:0:0:
352,136,78591,6,0,L|311:-8,1,119.999995231629,8|0,2:0|2:0,2:0:0:0:
239,13,78762,6,0,P|122:110|173:176,1,269.999989271164,4|0,3:1|2:0,2:0:0:0:
137,249,79105,2,0,P|159:269|142:336,1,89.9999964237213,0|0,3:0|2:0,2:0:0:0:
0,384,79276,1,0,2:0:0:0:
57,259,79448,6,0,P|163:298|276:328,1,179.999992847443,0|0,3:0|2:0,2:0:0:0:
389,375,79791,2,0,P|428:332|403:293,1,89.9999964237213,0|0,3:0|2:0,2:0:0:0:
475,249,79962,2,0,P|421:196|387:218,1,89.9999964237213,0|0,2:0|2:0,2:0:0:0:
410,207,80133,6,0,P|463:353|472:411,1,179.999992847443,0|0,3:0|2:0,2:0:0:0:
313,207,80476,2,0,P|331:151|378:135,1,89.9999964237213,2|0,3:2|2:0,2:0:0:0:
452,0,80648,2,0,P|427:53|412:117,1,89.9999964237213,0|0,2:0|2:0,2:0:0:0:
410,207,80819,5,0,3:0:0:0:
259,0,80991,1,0,2:0:0:0:
512,66,81162,1,2,3:2:0:0:
355,137,81333,5,0,3:0:0:0:
350,126,81419,1,0,3:0:0:0:
344,118,81505,6,0,P|311:173|300:214,1,89.9999964237213,0|0,3:0|2:0,2:0:0:0:
357,290,81676,2,0,P|307:251|298:188,1,89.9999964237213,0|0,3:0|2:0,2:0:0:0:
201,76,81848,6,0,P|223:154|253:186,1,89.9999964237213,0|0,3:0|2:0,2:0:0:0:
488,193,82019,2,0,P|417:233|374:214,1,89.9999964237213,0|0,3:0|2:0,2:0:0:0:
332,0,82191,6,0,P|284:62|272:110,1,89.9999964237213,0|0,3:0|3:0,2:0:0:0:
238,281,82362,2,0,B|139:245|206:210|45:169,1,179.999992847443,0|0,3:0|3:0,2:0:0:0:
0,276,82619,1,0,3:0:0:0:
6,288,82705,6,0,L|100:270,1,89.9999964237213,0|0,3:0|3:0,2:0:0:0:
237,186,82876,2,0,P|192:73|10:47,1,269.999989271164,0|0,3:0|2:0,2:0:0:0:
59,30,83219,6,0,B|77:77|96:56|110:112,1,89.9999964237216,8|0,2:3|3:0,2:0:0:0:
47,157,83562,2,0,B|20:170|20:170|0:147,2,59.9999976158143,0|0|0,3:0|3:0|3:0,2:0:0:0:
44,147,84076,1,0,3:0:0:0:
174,223,84248,6,0,P|209:236|294:279,1,119.999995231629,0|0,2:0|2:0,2:0:0:0:
283,272,84762,1,0,2:0:0:0:
150,294,84933,6,0,P|190:314|221:333,1,59.9999976158143,0|0,2:0|2:0,2:0:0:0:
203,321,85276,1,0,2:0:0:0:
276,357,85448,1,0,2:0:0:0:
31,384,85619,6,1,B|64:377|74:342|74:342|55:254|55:254|73:204|123:211|123:211|280:267|280:267|233:266|205:316,2,479.999980926514,0|0|0,3:0|3:0|3:0,2:0:0:0:
256,32,86991,6,0,P|261:51|267:31,20,53.9999985694885,4|0|0|0|0|0|0|0|0|0|0|0|0|0|0|0|0|0|0|0|0,3:1|3:0|3:0|3:0|3:0|3:0|3:0|3:0|3:0|3:0|3:0|3:0|3:0|3:0|3:0|3:0|3:0|3:0|3:0|3:0|3:0,3:0:0:0:
318,115,94019,5,0,3:0:0:0:
339,123,94105,1,0,3:0:0:0:
365,135,94191,2,0,P|342:182|335:211,1,59.9999976158143,0|0,3:0|2:0,2:0:0:0:
293,252,94362,2,0,P|316:284|328:323,1,59.9999976158143,0|0,3:0|2:0,2:0:0:0:
361,378,94533,6,0,P|412:340|409:291,1,89.9999964237213,0|0,3:0|2:0,2:0:0:0:
224,208,94705,1,0,3:0:0:0:
189,220,94791,1,0,3:0:0:0:
152,236,94876,2,0,P|107:187|136:137,1,89.9999964237213,0|0,3:0|2:0,2:0:0:0:
256,0,95048,2,0,P|282:34|271:77,1,89.9999964237213,0|0,3:0|2:0,2:0:0:0:
188,51,95219,5,0,2:0:0:0:
40,254,97448,6,0,B|121:278|51:317|70:278|89:275|113:263|85:265|58:313|164:307,2,119.999995231629,0|0|0,2:0|2:0|2:0,2:0:0:0:
1,320,97962,2,0,P|110:260|209:228,1,179.999992847443,0|0,2:0|2:0,2:0:0:0:
112,350,98305,6,0,P|267:158|180:113,1,359.999985694885,4|0,3:1|2:0,2:0:0:0:
323,106,98648,6,0,P|371:25|446:97,1,179.999992847443,4|0,3:1|2:0,2:0:0:0:
490,113,98905,6,0,P|464:128|488:194,1,59.9999976158143,4|0,3:1|2:0,2:0:0:0:
444,167,99162,6,0,B|456:51|334:-14|209:16|177:108|177:108|255:108|266:176,1,479.999980926514,4|0,3:1|2:0,2:0:0:0:
303,277,99591,1,0,2:0:0:0:
234,307,99676,2,0,B|217:293|217:293|192:187,1,119.999995231629,8|0,2:0|2:0,2:0:0:0:
85,81,99848,5,0,2:0:0:0:
10,47,99933,1,0,2:0:0:0:
85,81,100019,2,0,B|146:49|94:34|192:1,1,119.999995231629,2|0,3:2|2:0,2:0:0:0:
331,69,100191,5,2,2:0:0:0:
391,116,100276,1,0,2:0:0:0:
331,69,100362,2,0,B|265:89|291:42|198:88,1,119.999995231629,10|0,2:0|2:0,2:0:0:0:
0,128,100533,2,0,L|29:269,1,119.999995231629,2|0,2:0|2:0,2:0:0:0:
182,361,100705,6,0,B|198:346|219:340|219:340|258:136,1,239.999990463257,2|0,3:2|2:0,2:0:0:0:
65,174,100962,1,0,2:0:0:0:
24,245,101048,2,0,B|112:264|112:264|132:305,1,119.999995231629,8|0,2:0|2:0,2:0:0:0:
344,337,101219,5,0,2:0:0:0:
392,272,101305,1,0,2:0:0:0:
335,219,101391,2,0,P|267:251|285:314,1,119.999995231629,2|0,3:2|2:0,2:0:0:0:
248,384,101562,2,0,L|222:229,1,119.999995231629,2|0,2:0|2:0,2:0:0:0:
148,5,101733,6,0,P|216:46|171:102,1,119.999995231629,10|0,2:0|2:0,2:0:0:0:
266,287,101905,2,0,L|292:132,1,119.999995231629,2|0,2:0|2:0,2:0:0:0:
499,18,102076,6,0,B|490:38|490:38|341:86|341:86|265:10,1,239.999990463257,2|0,3:2|2:0,2:0:0:0:
403,27,102333,1,0,2:0:0:0:
419,40,102419,2,0,B|447:97|447:97|402:165,1,119.999995231629,8|0,2:0|2:0,2:0:0:0:
231,252,102591,5,0,2:0:0:0:
225,238,102676,1,0,2:0:0:0:
204,166,102762,2,0,B|359:215|359:215|370:263|418:266,1,239.999990463257,2|2,3:2|2:0,2:0:0:0:
497,287,103019,1,0,2:0:0:0:
510,309,103105,5,8,2:0:0:0:
440,347,103191,1,2,2:0:0:0:
364,369,103276,5,2,2:0:0:0:
315,311,103362,1,2,2:0:0:0:
303,283,103448,6,0,B|347:167|347:167|321:132|337:83,1,179.999992847443,4|0,3:1|2:0,2:0:0:0:
413,120,103791,6,0,B|342:168|263:173|263:173|202:317,1,299.999988079071,12|2,2:0|2:0,2:0:0:0:
80,368,104048,5,2,2:0:0:0:
28,306,104133,2,0,P|45:243|123:238,1,119.999995231629,0|0,3:0|2:0,2:0:0:0:
231,38,104305,5,0,2:0:0:0:
157,11,104391,1,2,2:0:0:0:
122,83,104476,2,0,P|139:146|217:151,1,119.999995231629,8|0,2:0|2:0,2:0:0:0:
302,262,104648,6,0,B|321:239|317:210|317:210|445:158|445:158|493:172|481:205,1,239.999990463257,2|0,2:0|3:0,2:0:0:0:
425,341,104905,1,0,2:0:0:0:
405,321,104991,2,0,B|425:247|425:247|397:196,1,119.999995231629,0|0,2:0|2:0,2:0:0:0:
512,83,105162,6,0,L|360:43,1,119.999995231629,8|0,2:0|2:0,2:0:0:0:
261,134,105333,1,0,2:0:0:0:
186,162,105419,1,2,2:0:0:0:
261,134,105505,2,0,B|278:193|302:164|324:248,1,119.999995231629,2|0,3:2|2:0,2:0:0:0:
115,325,105676,6,0,B|56:342|84:366|1:388,1,119.999995231629,2|0,2:0|2:0,2:0:0:0:
225,261,105848,2,0,B|195:314|232:311|188:386,1,119.999995231629,10|0,2:0|2:0,2:0:0:0:
28,191,106019,5,2,2:0:0:0:
2,115,106105,1,0,2:0:0:0:
61,61,106191,2,0,B|227:119|227:119|292:42,1,239.999990463257,2|0,3:2|2:0,2:0:0:0:
341,35,106448,5,0,2:0:0:0:
341,35,106533,2,0,L|372:173,1,119.999995231629,8|0,2:0|2:0,2:0:0:0:
174,295,106705,2,0,L|200:182,1,89.9999964237213,2|0,2:0|2:0,2:0:0:0:
431,223,106876,5,2,3:2:0:0:
394,261,106962,1,0,2:0:0:0:
368,249,107048,2,0,P|324:233|261:279,1,89.9999964237213,0|2,2:0|2:0,2:0:0:0:
141,375,107219,2,0,B|99:338|99:338|103:315|88:272,1,89.9999964237213,8|0,2:0|2:0,2:0:0:0:
20,213,107391,6,0,P|137:154|89:13,1,269.999989271164,2|0,3:2|2:0,2:0:0:0:
37,57,107733,2,0,B|21:121|21:121|77:67,3,119.999995231629,0|0|0|0,3:1|3:1|3:1|3:1,2:0:0:0:
207,21,108419,5,0,3:0:0:0:
222,13,108505,1,0,3:0:0:0:
306,17,108591,6,0,B|265:128|218:75|199:184,1,179.999992847443,8|0,2:0|2:0,2:0:0:0:
257,283,108933,6,0,B|268:299|268:299|345:316|345:316|371:301,1,119.999995231629,6|0,3:2|2:0,2:0:0:0:
315,197,109105,2,0,B|295:185|277:168|277:168|107:209|107:209|81:262,1,239.999990463257,2|0,2:0|3:0,2:0:0:0:
23,249,109362,5,0,2:0:0:0:
15,271,109448,1,2,2:0:0:0:
54,341,109533,1,2,2:0:0:0:
134,330,109619,6,0,B|161:305|161:305|190:149|190:149|261:110,1,239.999990463257,2|0,3:2|2:0,2:0:0:0:
377,57,109876,1,0,2:0:0:0:
392,107,109962,2,0,B|299:88|299:88|281:49,1,119.999995231629,10|0,2:0|2:0,2:0:0:0:
45,113,110133,2,0,B|9:102|9:102|142:-1|142:-1|150:32,1,239.999990463257,2|0,2:0|3:0,2:0:0:0:
152,229,110391,5,0,2:0:0:0:
152,229,110476,2,0,L|131:86,1,119.999995231629,2|0,2:0|2:0,2:0:0:0:
338,0,110648,2,0,L|303:128,1,119.999995231629,10|0,2:0|2:0,2:0:0:0:
268,270,110819,5,2,2:0:0:0:
259,301,110905,1,0,2:0:0:0:
313,358,110991,2,0,B|495:310|495:310|458:307|441:278,1,239.999990463257,2|2,3:2|2:0,2:0:0:0:
232,150,111248,5,0,2:0:0:0:
252,181,111333,2,0,B|338:212|338:212|350:268,1,119.999995231629,10|0,2:0|2:0,2:0:0:0:
471,140,111505,2,0,L|500:13,1,119.999995231629,2|0,2:0|2:0,2:0:0:0:
333,40,111676,6,0,B|298:40|282:28|282:28|143:117|143:117|146:162,1,239.999990463257,0|2,3:0|2:0,2:0:0:0:
16,76,111933,1,0,2:0:0:0:
73,21,112019,2,0,L|205:58,1,119.999995231629,10|0,2:0|2:0,2:0:0:0:
289,256,112191,5,0,2:0:0:0:
261,234,112276,1,0,2:0:0:0:
240,158,112362,2,0,B|331:135|331:135|250:314,1,239.999990463257,2|0,3:2|2:0,2:0:0:0:
133,384,112619,5,0,2:0:0:0:
60,357,112705,2,0,B|38:283|38:283|64:264|52:216,1,119.999995231629,10|0,2:0|2:0,2:0:0:0:
5,163,112876,6,0,B|11:207|11:207|233:319,1,239.999990463257,2|0,2:0|3:0,2:0:0:0:
388,305,113133,1,0,2:0:0:0:
388,305,113219,2,0,B|406:360|406:360|299:396,1,119.999995231629,2|0,2:0|2:0,2:0:0:0:
206,349,113391,2,0,B|204:331|204:331|344:299,1,119.999995231629,10|0,2:0|2:0,2:0:0:0:
478,317,113562,6,0,L|517:184,1,119.999995231629,2|2,2:0|2:0,2:0:0:0:
506,182,113733,2,0,B|473:160|473:160|225:214,2,239.999990463257,0|2|10,3:0|2:0|2:0,2:0:0:0:
422,215,114162,5,8,2:0:0:0:
400,137,114248,1,8,2:0:0:0:
374,62,114333,1,8,2:0:0:0:
392,43,114419,6,0,B|371:118|371:118|337:137|337:165,1,119.999995231629,6|0,3:2|2:0,2:0:0:0:
241,286,114591,2,0,B|211:270|211:270|172:124|172:124|196:99|185:62,1,239.999990463257,2|8,2:0|2:0,2:0:0:0:
132,12,114848,5,0,2:0:0:0:
98,2,114933,1,2,2:0:0:0:
27,32,115019,1,0,2:0:0:0:
0,109,115105,6,0,B|27:118|27:118|31:136|31:136|232:203,1,239.999990463257,2|0,3:2|2:0,2:0:0:0:
341,146,115362,1,2,2:0:0:0:
382,214,115448,2,0,B|360:290|360:290|337:288|310:314,1,119.999995231629,10|0,2:0|2:0,2:0:0:0:
187,384,115619,6,0,B|157:370|157:370|209:132,1,239.999990463257,2|0,2:0|3:0,2:0:0:0:
44,235,115876,1,0,2:0:0:0:
44,235,115962,2,0,B|52:258|52:258|194:305,1,119.999995231629,2|0,2:0|2:0,2:0:0:0:
425,97,116133,6,0,B|413:110|413:110|386:60|319:64,1,119.999995231629,10|0,2:0|2:0,2:0:0:0:
87,84,116305,5,2,2:0:0:0:
166,50,116391,1,0,2:0:0:0:
87,84,116476,2,0,B|99:99|99:99|121:18|194:-23|307:16,1,239.999990463257,2|2,3:2|2:0,2:0:0:0:
341,146,116733,5,0,2:0:0:0:
307,174,116819,2,0,B|221:153|221:153|205:113,1,119.999995231629,10|0,2:0|2:0,2:0:0:0:
6,253,116991,5,2,2:0:0:0:
0,280,117076,1,0,2:0:0:0:
46,345,117162,2,0,B|119:318|119:318|132:284|132:284|283:246,1,239.999990463257,0|2,3:0|2:0,2:0:0:0:
442,221,117419,5,0,2:0:0:0:
507,264,117505,2,0,L|479:380,1,119.999995231629,10|0,2:0|2:0,2:0:0:0:
209,123,117676,2,0,L|237:239,1,119.999995231629,0|0,3:0|2:0,2:0:0:0:
430,89,117848,5,0,3:0:0:0:
414,148,117933,1,0,3:0:0:0:
229,51,118019,5,8,2:0:0:0:
238,87,118105,1,8,2:0:0:0:
375,15,118191,5,8,2:0:0:0:
367,37,118276,1,8,2:0:0:0:
289,0,118362,6,0,L|294:19,1,11.9999995231628,8|8,2:0|2:0,2:0:0:0:
17,351,119562,6,0,L|94:365,1,71.9999971389771,10|0,2:0|2:0,2:0:0:0:
4,362,119905,6,0,P|-8:238|193:192,1,323.999987125397,4|0,3:2|2:0,2:0:0:0:
0,112,120248,2,0,B|4:122|4:122|76:140|79:210,1,119.999995231629,8|0,2:0|2:0,2:0:0:0:
272,259,120419,5,0,2:0:0:0:
314,320,120505,1,0,2:0:0:0:
254,371,120591,2,0,L|140:344,1,95.9999961853028,0|0,3:0|3:0,2:0:0:0:
79,290,120762,5,0,3:0:0:0:
4,309,120848,2,0,B|-12:291|-12:291|4:170,1,107.999995708466,0|10,3:0|3:2,2:0:0:0:
113,35,121019,6,0,B|127:44|127:44|161:207,2,143.999994277954,2|2|2,3:2|3:2|3:2,2:0:0:0:
40,0,121276,5,0,3:0:0:0:
168,248,121448,2,0,P|237:193|211:139,1,95.9999961853028,0|0,2:0|2:0,2:0:0:0:
421,89,121619,6,0,P|446:141|328:239,1,215.999991416931,8|0,2:0|2:0,2:0:0:0:
260,299,121876,1,0,2:0:0:0:
319,359,121962,6,0,B|348:327|348:327|304:133|304:133|243:117,2,287.999988555908,0|0|8,3:0|3:0|2:0,2:0:0:0:
236,195,122391,1,0,2:0:0:0:
236,195,122476,2,0,L|376:259,1,107.999995708466,0|0,2:0|2:0,2:0:0:0:
479,8,122648,6,0,P|410:40|422:116,1,131.999994754791,0|0,3:0|2:0,2:0:0:0:
480,227,122819,2,0,P|518:182|494:143,1,95.9999961853028,0|0,2:0|2:0,2:0:0:0:
497,144,122991,6,0,L|369:177,1,119.999995231629,8|0,2:0|2:0,2:0:0:0:
324,335,123162,1,0,2:0:0:0:
254,371,123248,1,0,2:0:0:0:
209,306,123333,2,0,B|227:244|227:244|245:245|262:229,1,95.9999961853028,0|0,3:0|2:0,2:0:0:0:
83,55,123505,5,0,3:0:0:0:
122,124,123591,2,0,B|202:140|202:140|230:201,1,107.999995708466,0|10,2:0|3:2,2:0:0:0:
376,253,123762,6,0,B|499:231|499:231|517:170,2,143.999994277954,2|2|2,3:2|3:2|3:2,2:0:0:0:
503,370,124019,5,0,3:0:0:0:
304,313,124191,2,0,P|323:262|388:254,1,95.9999961853028,0|0,2:0|2:0,2:0:0:0:
392,134,124362,6,0,P|338:29|223:42,1,215.999991416931,8|0,2:0|2:0,2:0:0:0:
59,164,124619,1,0,2:0:0:0:
53,251,124705,6,0,B|174:202|174:202|180:178|180:178|301:125,2,287.999988555908,0|0|10,3:0|3:0|2:0,2:0:0:0:
153,173,125133,1,2,2:0:0:0:
200,191,125219,1,2,2:0:0:0:
235,260,125305,1,2,2:0:0:0:
190,334,125391,6,0,P|243:374|342:248,1,215.999991416931,4|0,3:2|2:0,2:0:0:0:
432,286,125648,1,0,3:0:0:0:
512,384,125733,2,0,B|495:379|495:379|486:316|400:296,1,119.999995231629,8|0,2:0|2:0,2:0:0:0:
310,229,125905,5,0,3:0:0:0:
278,155,125991,1,0,3:0:0:0:
341,112,126076,2,0,B|394:136|394:136|403:161|428:172,1,95.9999961853028,0|0,3:0|2:0,2:0:0:0:
512,94,126248,5,0,3:0:0:0:
512,10,126333,2,0,B|495:20|495:20|456:139,1,107.999995708466,8|0,2:0|3:0,2:0:0:0:
320,344,126505,6,0,B|353:235|353:235|326:191,2,143.999994277954,2|10|10,3:2|3:2|3:2,2:0:0:0:
215,376,126762,5,0,3:0:0:0:
457,211,126933,1,0,2:0:0:0:
469,240,127019,1,8,2:0:0:0:
425,279,127105,6,0,B|331:249|331:249|286:185,3,119.999995231629,0|0|0|0,3:0|2:0|3:0|3:0,2:0:0:0:
243,161,127448,6,0,B|199:149|199:149|58:199,3,131.999994754791,8|8|8|8,2:0|2:0|2:0|2:0,2:0:0:0:
44,218,127791,6,0,B|25:198|25:198|48:109|48:109|106:92,3,143.999994277954,0|0|8|8,3:0|3:0|2:0|2:0,2:0:0:0:
114,3,128133,6,0,P|153:56|225:47,1,131.999994754791,0|0,3:0|2:0,2:0:0:0:
318,231,128305,1,0,3:0:0:0:
387,195,128391,1,0,3:0:0:0:
356,125,128476,2,0,L|229:158,1,95.9999961853028,8|0,2:0|2:0,2:0:0:0:
107,384,128648,5,8,2:0:0:0:
71,315,128733,1,8,2:0:0:0:
134,268,128819,2,0,B|154:198|154:198|177:189|190:165,1,107.999995708466,0|0,3:0|3:0,2:0:0:0:
311,50,128991,5,0,3:0:0:0:
387,26,129076,2,0,B|468:54|468:54|496:108,1,119.999995231629,8|2,2:0|3:2,2:0:0:0:
373,249,129248,6,0,B|351:231|351:231|197:265,2,155.999993801117,2|10|10,3:2|3:2|3:2,2:0:0:0:
162,351,129505,5,0,3:0:0:0:
13,88,129676,1,0,3:0:0:0:
53,22,129762,1,8,2:0:0:0:
122,56,129848,6,0,B|144:85|144:85|97:247,3,179.999992847443,0|0|0|0,3:0|3:0|3:0|3:0,2:0:0:0:
40,295,130191,6,0,B|55:280|62:264|62:264|294:222,3,209.99999165535,10|10|10|10,2:0|2:0|2:0|3:2,2:0:0:0:
450,375,130533,6,0,B|429:357|428:335|428:335|296:292|296:292|266:322|224:309,3,239.999990463257,10|10|10|10,2:0|2:0|2:0|2:0,2:0:0:0:
511,325,130876,5,2,2:0:0:0:
