osu file format v14

[General]
AudioFilename: audio.mp3
AudioLeadIn: 0
PreviewTime: 59464
Countdown: 0
SampleSet: Soft
StackLeniency: 0.7
Mode: 0
LetterboxInBreaks: 0
WidescreenStoryboard: 0

[Editor]
DistanceSpacing: 0.1
BeatDivisor: 4
GridSize: 8
TimelineZoom: 1

[Metadata]
Title:Traveler's Tale
TitleUnicode:Traveler's Tale
Artist:(riya)eufonius
ArtistUnicode:(riya)eufonius
Creator:TheMaroon47
Version:Insane
Source:ISLAND
Tags:アイランド island frontwing visual novel game
BeatmapID:1923874
BeatmapSetID:921304

[Difficulty]
HPDrainRate:7
CircleSize:4
OverallDifficulty:7
ApproachRate:8.5
SliderMultiplier:1.4
SliderTickRate:1

[Events]
//Background and Video events
0,0,"rsz_931924.jpg",0,0
//Break Periods
//Storyboard Layer 0 (Background)
//Storyboard Layer 1 (Fail)
//Storyboard Layer 2 (Pass)
//Storyboard Layer 3 (Foreground)
//Storyboard Sound Samples

[TimingPoints]
0,428.571428571429,4,2,0,35,1,0
60321,-55.5555555555556,4,2,0,35,0,0
61304,-100,4,2,0,35,0,0

[HitObjects]
96,136,321,5,0,0:0:0:0:
392,136,750,1,0,0:0:0:0:
208,240,964,6,0,L|304:240,1,70
256,136,1607,1,0,0:0:0:0:
168,272,1821,5,0,0:0:0:0:
352,272,2035,1,0,0:0:0:0:
168,168,2250,1,0,0:0:0:0:
352,168,2464,1,0,0:0:0:0:
96,104,2678,1,0,0:0:0:0:
416,104,2892,1,0,0:0:0:0:
256,288,3321,1,0,0:0:0:0:
64,56,3750,5,0,0:0:0:0:
112,192,3964,1,0,0:0:0:0:
176,56,4178,1,0,0:0:0:0:
224,192,4392,1,0,0:0:0:0:
344,136,4821,2,0,L|344:208,1,61.2500005841255
232,224,5250,5,0,0:0:0:0:
216,232,5357,1,0,0:0:0:0:
208,224,5464,1,0,0:0:0:0:
144,224,5678,1,0,0:0:0:0:
80,224,5892,1,0,0:0:0:0:
80,304,6107,1,0,0:0:0:0:
80,144,6321,1,0,0:0:0:0:
144,288,6750,1,0,0:0:0:0:
200,288,7178,6,0,P|256:224|288:328,1,210
400,320,8250,1,0,0:0:0:0:
400,264,8464,1,0,0:0:0:0:
400,216,8678,2,0,L|296:104,1,140
208,72,9321,2,0,L|120:72,1,70
64,192,9964,1,0,0:0:0:0:
256,192,10178,1,0,0:0:0:0:
288,48,10392,5,0,0:0:0:0:
296,56,10500,1,0,0:0:0:0:
304,64,10607,1,0,0:0:0:0:
384,56,10821,1,0,0:0:0:0:
288,136,11035,1,0,0:0:0:0:
448,56,11250,1,0,0:0:0:0:
424,128,11464,2,0,P|376:200|312:168,1,140
320,272,12107,2,0,P|376:312|392:240,1,140
400,192,12750,2,0,L|352:136,2,70
288,136,13392,1,0,0:0:0:0:
336,48,13607,1,0,0:0:0:0:
240,224,13821,1,0,0:0:0:0:
144,136,14035,6,0,P|144:64|216:64,1,140
288,56,14678,2,0,P|360:72|376:144,1,140
376,144,15321,1,0,0:0:0:0:
376,160,15535,2,0,P|392:232|328:232,1,140
304,232,16178,1,0,0:0:0:0:
256,232,16392,1,0,0:0:0:0:
208,232,16821,1,0,0:0:0:0:
152,128,17250,5,0,0:0:0:0:
216,128,17464,2,0,L|296:128,1,70
328,128,17892,1,0,0:0:0:0:
408,128,18107,1,0,0:0:0:0:
424,120,18214,1,0,0:0:0:0:
440,128,18321,1,0,0:0:0:0:
136,248,18750,2,0,L|224:248,2,70
320,248,19392,1,0,0:0:0:0:
352,248,19607,1,0,0:0:0:0:
376,248,19821,1,0,0:0:0:0:
448,232,20250,6,0,P|448:192|400:168,2,70
448,112,20892,2,0,L|304:112,1,140
288,112,21535,1,0,0:0:0:0:
200,112,21964,2,0,P|144:112|160:128,1,140
144,224,22607,1,0,0:0:0:0:
184,224,22821,1,0,0:0:0:0:
216,224,23035,1,0,0:0:0:0:
296,224,23250,2,0,P|344:176|392:224,1,140
416,288,23785,1,0,0:0:0:0:
400,288,23892,2,0,L|304:288,1,70
72,288,24321,6,0,L|216:288,1,140
208,216,24964,2,0,L|64:216,1,140
56,216,25607,1,0,0:0:0:0:
88,160,25821,2,0,P|136:128|192:176,1,140
200,184,26464,1,0,0:0:0:0:
216,200,26678,1,0,0:0:0:0:
296,104,27321,6,0,L|360:104,2,35
392,104,27750,2,0,P|392:192|288:184,1,210
224,112,28821,2,0,L|152:112,3,70
96,224,29892,5,0,0:0:0:0:
144,288,30107,1,0,0:0:0:0:
192,224,30321,1,0,0:0:0:0:
232,288,30535,1,0,0:0:0:0:
240,296,30642,1,0,0:0:0:0:
248,288,30750,1,0,0:0:0:0:
304,224,30964,6,0,L|304:128,2,70
368,152,31607,2,0,L|368:232,1,70
368,264,32035,2,0,L|296:264,1,70
240,264,32464,1,0,0:0:0:0:
208,264,32678,2,0,L|112:264,1,70
120,264,33107,5,0,0:0:0:0:
112,256,33214,1,0,0:0:0:0:
104,264,33321,1,0,0:0:0:0:
104,200,33535,1,0,0:0:0:0:
144,200,33750,1,0,0:0:0:0:
248,184,33964,5,0,0:0:0:0:
256,192,34071,1,0,0:0:0:0:
264,184,34178,1,0,0:0:0:0:
312,192,34392,1,0,0:0:0:0:
320,80,34607,2,0,L|176:80,1,140
176,176,35250,2,0,L|320:176,1,140
320,256,35892,1,0,0:0:0:0:
200,256,36107,1,0,0:0:0:0:
200,104,36321,5,0,0:0:0:0:
296,104,36535,2,0,P|336:104|360:120,2,70
368,192,37178,2,0,P|341:263|256:264,1,140
176,320,37821,1,0,0:0:0:0:
160,320,37928,1,0,0:0:0:0:
144,320,38035,2,0,P|144:248|160:320,1,210
296,304,39107,2,0,L|384:304,2,70
296,240,39750,1,0,0:0:0:0:
360,240,39964,5,0,0:0:0:0:
368,232,40071,1,0,0:0:0:0:
376,240,40178,1,0,0:0:0:0:
440,240,40392,1,0,0:0:0:0:
448,152,40607,6,0,P|424:64|376:64,2,140
360,160,41678,1,0,0:0:0:0:
296,96,41892,2,0,L|200:96,2,70
152,96,42535,1,0,0:0:0:0:
136,88,42642,1,0,0:0:0:0:
128,96,42750,1,0,0:0:0:0:
40,104,42964,5,0,0:0:0:0:
128,296,43178,1,0,0:0:0:0:
216,104,43392,1,0,0:0:0:0:
296,296,43607,1,0,0:0:0:0:
392,104,43821,1,0,0:0:0:0:
456,296,44035,1,0,0:0:0:0:
392,208,44250,5,0,0:0:0:0:
360,208,44357,1,0,0:0:0:0:
328,208,44464,1,0,0:0:0:0:
296,208,44571,1,0,0:0:0:0:
264,208,44678,1,0,0:0:0:0:
208,208,44892,6,0,P|96:208|96:136,1,210
184,64,45750,2,0,P|256:88|272:152,1,140
232,208,46392,1,0,0:0:0:0:
232,200,46500,1,0,0:0:0:0:
224,208,46607,1,0,0:0:0:0:
304,96,46821,5,0,0:0:0:0:
352,264,47035,1,0,0:0:0:0:
408,96,47250,1,0,0:0:0:0:
456,264,47464,1,0,0:0:0:0:
400,192,47678,1,0,0:0:0:0:
384,184,47785,1,0,0:0:0:0:
384,200,47892,1,0,0:0:0:0:
304,96,48107,5,0,0:0:0:0:
272,96,48321,2,0,L|176:96,2,70
160,96,48964,2,0,P|72:104|72:168,1,140
64,232,49607,2,0,P|144:240|176:176,1,140
216,144,50250,1,0,0:0:0:0:
256,256,50464,1,0,0:0:0:0:
296,136,50678,1,0,0:0:0:0:
176,192,50892,5,0,0:0:0:0:
192,192,51000,1,0,0:0:0:0:
208,192,51107,1,0,0:0:0:0:
248,192,51214,2,0,L|304:192,4,35
344,96,51750,6,0,L|432:96,1,70
416,312,52178,2,0,L|336:312,1,70
344,168,52607,2,0,L|440:168,1,70
424,240,53035,2,0,L|328:240,1,70
256,288,53464,2,0,L|256:208,1,70
208,88,53892,2,0,L|208:168,1,70
136,288,54321,2,0,L|136:216,1,70
64,88,54750,2,0,L|64:168,1,70
144,112,55178,6,0,L|232:112,3,70
336,112,56035,1,0,0:0:0:0:
160,280,56250,1,0,0:0:0:0:
160,112,56464,1,0,0:0:0:0:
336,280,56678,1,0,0:0:0:0:
256,192,56892,12,0,58178,0:0:0:0:
160,96,58392,5,0,0:0:0:0:
352,96,58821,1,0,0:0:0:0:
256,296,59250,1,0,0:0:0:0:
192,192,59678,5,0,0:0:0:0:
224,192,59785,1,0,0:0:0:0:
256,192,59892,1,0,0:0:0:0:
288,192,60000,1,0,0:0:0:0:
320,192,60107,1,0,0:0:0:0:
198,74,60321,6,0,B|237:116|304:112|553:171|157:205|-212:247|520:390|312:231,1,525.000020027161
368,224,61392,1,0,0:0:0:0:
400,224,61607,1,0,0:0:0:0:
432,224,61821,1,0,0:0:0:0:
456,144,62035,2,0,P|432:56|304:72,1,210
112,256,62892,2,0,L|184:192,3,70
216,128,63750,6,0,L|312:128,1,70
296,224,64178,2,0,L|216:224,1,70
152,192,64607,1,0,0:0:0:0:
360,192,64821,1,0,0:0:0:0:
256,288,65035,1,0,0:0:0:0:
216,192,65250,2,0,P|256:152|280:216,1,140
176,272,65892,1,0,0:0:0:0:
336,272,66107,1,0,0:0:0:0:
256,80,66321,1,0,0:0:0:0:
216,184,66535,5,0,0:0:0:0:
256,160,66642,1,0,0:0:0:0:
288,184,66750,1,0,0:0:0:0:
272,224,66857,1,0,0:0:0:0:
232,224,66964,1,0,0:0:0:0:
160,168,67178,6,0,L|160:232,2,35
344,168,67607,2,0,L|344:208,2,35
96,168,68035,2,0,L|96:224,2,35
408,168,68464,2,0,L|408:208,2,35
416,288,68892,5,0,0:0:0:0:
328,88,69107,1,0,0:0:0:0:
256,288,69321,1,0,0:0:0:0:
72,288,69535,2,0,P|120:208|192:200,1,140
224,208,70178,1,0,0:0:0:0:
208,144,70392,2,0,P|256:104|304:160,1,140
368,96,71035,2,0,L|368:176,1,70
368,184,71464,1,0,0:0:0:0:
304,256,71678,5,0,0:0:0:0:
208,256,71892,1,0,0:0:0:0:
120,216,72107,1,0,0:0:0:0:
120,200,72214,1,0,0:0:0:0:
120,184,72321,1,0,0:0:0:0:
240,88,72535,5,0,0:0:0:0:
256,80,72642,1,0,0:0:0:0:
264,88,72750,1,0,0:0:0:0:
328,256,72964,5,0,0:0:0:0:
336,248,73071,1,0,0:0:0:0:
344,256,73178,1,0,0:0:0:0:
440,272,73392,5,0,0:0:0:0:
440,248,73500,1,0,0:0:0:0:
440,224,73607,1,0,0:0:0:0:
440,200,73714,1,0,0:0:0:0:
440,176,73821,1,0,0:0:0:0:
440,152,73928,1,0,0:0:0:0:
440,128,74035,6,0,P|408:56|352:56,1,140
344,88,74678,1,0,0:0:0:0:
176,88,74892,1,0,0:0:0:0:
240,192,75107,1,0,0:0:0:0:
256,184,75214,1,0,0:0:0:0:
272,192,75321,1,0,0:0:0:0:
368,192,75535,2,0,L|440:192,1,70
456,192,75964,1,0,0:0:0:0:
456,128,76178,2,0,L|360:128,1,70
304,128,76607,2,0,L|304:64,7,35
208,80,77464,5,0,0:0:0:0:
312,288,77678,1,0,0:0:0:0:
208,288,77892,1,0,0:0:0:0:
304,80,78107,1,0,0:0:0:0:
144,192,78321,1,0,0:0:0:0:
368,192,78535,1,0,0:0:0:0:
256,288,78750,1,0,0:0:0:0:
192,120,78964,2,0,P|256:88|304:128,1,140
312,144,79607,1,0,0:0:0:0:
184,72,79821,6,0,P|96:80|56:144,1,140
64,128,80464,1,0,0:0:0:0:
200,128,80678,1,0,0:0:0:0:
128,192,80892,2,0,L|184:248,2,70
384,192,81535,2,0,L|320:256,2,70
336,72,82178,1,0,0:0:0:0:
176,72,82392,1,0,0:0:0:0:
208,152,82607,6,0,P|256:104|312:152,1,140
312,224,83250,2,0,P|256:280|192:232,1,140
104,192,83892,1,0,0:0:0:0:
408,192,84107,1,0,0:0:0:0:
192,80,84321,5,0,0:0:0:0:
320,80,84535,1,0,0:0:0:0:
128,192,84750,1,0,0:0:0:0:
384,192,84964,1,0,0:0:0:0:
192,304,85178,1,0,0:0:0:0:
320,304,85392,1,0,0:0:0:0:
192,192,85607,1,0,0:0:0:0:
320,192,85821,1,0,0:0:0:0:
80,96,86035,6,0,L|160:96,1,70
424,288,86464,2,0,L|344:288,1,70
80,288,86892,2,0,L|176:288,1,70
432,96,87321,2,0,L|352:96,1,70
112,128,87750,5,0,0:0:0:0:
376,64,87964,1,0,0:0:0:0:
144,280,88178,1,0,0:0:0:0:
400,216,88392,1,0,0:0:0:0:
128,144,88607,1,0,0:0:0:0:
304,264,88821,1,0,0:0:0:0:
216,56,89035,1,0,0:0:0:0:
392,160,89250,1,0,0:0:0:0:
104,192,89678,6,0,P|160:128|224:136,2,140
152,288,90750,1,0,0:0:0:0:
360,288,90964,1,0,0:0:0:0:
440,192,91178,6,0,P|384:136|336:192,1,140
64,192,91821,2,0,P|144:240|184:192,1,140
208,80,92464,2,0,L|304:80,2,70
136,192,93107,1,0,0:0:0:0:
376,192,93321,1,0,0:0:0:0:
256,312,93535,1,0,0:0:0:0:
256,64,93750,2,0,L|256:136,2,70
136,192,94392,5,0,0:0:0:0:
152,184,94500,1,0,0:0:0:0:
168,192,94607,1,0,0:0:0:0:
328,192,94821,1,0,0:0:0:0:
208,264,95035,2,0,P|280:304|320:272,2,140
80,192,96107,2,0,P|136:136|200:136,1,140
256,264,96750,2,0,P|320:264|344:240,2,70
240,256,97392,1,0,0:0:0:0:
80,144,98035,6,0,P|144:80|192:80,1,140
440,152,98678,2,0,P|408:88|336:88,1,140
256,192,99321,1,0,0:0:0:0:
80,264,99535,2,0,P|168:312|192:280,1,140
384,256,100178,2,0,L|304:192,2,70
400,272,100821,1,0,0:0:0:0:
64,256,101035,5,0,0:0:0:0:
136,104,101250,1,0,0:0:0:0:
216,256,101464,1,0,0:0:0:0:
304,104,101678,5,0,0:0:0:0:
320,96,101785,1,0,0:0:0:0:
336,104,101892,1,0,0:0:0:0:
376,272,102107,1,0,0:0:0:0:
128,272,102321,1,0,0:0:0:0:
256,104,102535,1,0,0:0:0:0:
256,272,102750,1,0,0:0:0:0:
80,192,102964,6,0,L|224:192,1,140
408,192,103607,2,0,L|328:192,1,70
160,280,104035,1,0,0:0:0:0:
256,80,104250,1,0,0:0:0:0:
352,280,104464,1,0,0:0:0:0:
256,192,104678,1,0,0:0:0:0:
256,192,104892,12,0,110250,0:0:0:0:
