osu file format v14

[General]
AudioFilename: audio.mp3
AudioLeadIn: 0
PreviewTime: 59464
Countdown: 0
SampleSet: Soft
StackLeniency: 0.7
Mode: 0
LetterboxInBreaks: 0
WidescreenStoryboard: 1

[Editor]
DistanceSpacing: 0.1
BeatDivisor: 4
GridSize: 8
TimelineZoom: 1

[Metadata]
Title:Traveler's Tale
TitleUnicode:Traveler's Tale
Artist:(riya)eufonius
ArtistUnicode:(riya)eufonius
Creator:TheMaroon47
Version:Hard
Source:ISLAND
Tags:アイランド island frontwing visual novel game
BeatmapID:1923873
BeatmapSetID:921304

[Difficulty]
HPDrainRate:4
CircleSize:3.5
OverallDifficulty:6
ApproachRate:6
SliderMultiplier:1.4
SliderTickRate:1

[Events]
//Background and Video events
0,0,"rsz_931924.jpg",0,0
//Break Periods
//Storyboard Layer 0 (Background)
//Storyboard Layer 1 (Fail)
//Storyboard Layer 2 (Pass)
//Storyboard Layer 3 (Foreground)
//Storyboard Sound Samples

[TimingPoints]
0,428.571428571429,4,2,0,35,1,0
60321,-55.5555555555556,4,2,0,35,0,0
61304,-100,4,2,0,35,0,0

[HitObjects]
176,80,321,5,0,0:0:0:0:
352,176,964,1,0,0:0:0:0:
184,272,1178,1,0,0:0:0:0:
360,240,1821,5,0,0:0:0:0:
320,136,2035,1,0,0:0:0:0:
80,168,2678,6,0,L|160:104,1,70
176,248,3321,1,0,0:0:0:0:
336,296,3750,6,0,P|344:256|392:232,1,70
384,136,4178,1,0,0:0:0:0:
304,64,4392,1,0,0:0:0:0:
112,88,4821,2,0,P|144:144|176:144,1,70
136,256,5464,5,0,0:0:0:0:
336,160,5892,1,0,0:0:0:0:
136,160,6321,2,0,P|184:104|248:104,1,140
176,128,7178,6,0,P|240:80|336:152,1,210
352,248,8464,2,0,L|256:248,1,70
104,144,9107,2,0,L|168:104,1,70
224,160,9535,1,0,0:0:0:0:
104,240,9964,1,0,0:0:0:0:
232,192,10392,6,0,L|288:192,2,35
368,120,11035,2,0,P|408:168|368:224,1,140
320,288,11892,1,0,0:0:0:0:
184,288,12107,2,0,P|96:288|96:240,1,140
112,136,12750,2,0,L|192:136,1,70
312,136,13392,1,0,0:0:0:0:
117,138,14035,6,0,P|202:90|261:115,1,140
358,194,14678,2,0,P|310:276|242:271,1,140
383,158,15535,2,0,P|372:87|302:66,1,140
184,144,16178,1,0,0:0:0:0:
136,144,16392,1,0,0:0:0:0:
56,144,16821,1,0,0:0:0:0:
128,264,17250,5,0,0:0:0:0:
224,304,17464,2,0,L|320:304,4,70
376,240,18750,5,0,0:0:0:0:
272,208,18964,1,0,0:0:0:0:
232,120,19392,1,0,0:0:0:0:
320,96,19607,2,0,P|376:120|384:136,1,70
96,128,20250,6,0,L|168:80,3,70
240,144,21321,2,0,L|160:200,1,70
144,288,21964,2,0,L|296:288,1,140
344,256,22821,5,0,0:0:0:0:
400,216,23035,1,0,0:0:0:0:
344,176,23250,1,0,0:0:0:0:
384,120,23464,2,0,L|312:120,3,70
112,64,24321,6,0,P|112:152|88:128,1,210
88,256,25392,1,0,0:0:0:0:
176,192,25821,2,0,L|320:192,1,140
336,96,26464,1,0,0:0:0:0:
216,96,26678,1,0,0:0:0:0:
120,160,27321,6,0,P|80:192|104:224,1,70
184,232,27750,2,0,P|192:280|56:288,1,210
88,240,28821,2,0,L|88:168,3,70
168,104,30107,6,0,L|264:104,1,70
264,104,30535,1,0,0:0:0:0:
360,128,30750,5,0,0:0:0:0:
376,128,30964,2,0,P|376:208|336:208,2,140
296,72,32035,1,0,0:0:0:0:
176,64,32250,2,0,P|120:96|176:128,1,140
96,216,33107,1,0,0:0:0:0:
152,216,33321,1,0,0:0:0:0:
208,216,33535,1,0,0:0:0:0:
304,224,33964,6,0,L|304:136,3,70
208,80,35035,2,0,P|160:80|144:120,1,70
64,160,35678,2,0,P|104:240|176:248,1,140
352,256,36535,6,0,P|320:176|272:184,1,140
288,96,37178,1,0,0:0:0:0:
384,96,37607,1,0,0:0:0:0:
240,88,38035,6,0,P|136:96|192:160,1,210
152,240,39107,1,0,0:0:0:0:
288,224,39535,1,0,0:0:0:0:
128,144,39964,2,0,L|208:120,1,70
336,96,40607,5,0,0:0:0:0:
336,248,41035,1,0,0:0:0:0:
184,240,41464,2,0,P|112:232|120:168,1,140
184,128,42107,1,0,0:0:0:0:
312,80,42535,2,0,P|376:104|384:176,1,140
