osu file format v14

[General]
AudioFilename: audio.mp3
AudioLeadIn: 0
PreviewTime: 101998
Countdown: 0
SampleSet: Normal
StackLeniency: 0.7
Mode: 0
LetterboxInBreaks: 0
WidescreenStoryboard: 1

[Editor]
DistanceSpacing: 1.8
BeatDivisor: 4
GridSize: 4
TimelineZoom: 1

[Metadata]
Title:Future Cndy (Xignality Remix)
TitleUnicode:Future Cαndy (Xignality Remix)
Artist:(YUCe)
ArtistUnicode:ゆーしえ (YUC’e)
Creator:plmnbvz
Version:Endless
Source:
Tags:
BeatmapID:1136023
BeatmapSetID:536396

[Difficulty]
HPDrainRate:6
CircleSize:4.2
OverallDifficulty:8
ApproachRate:9.7
SliderMultiplier:1.4
SliderTickRate:1

[Events]
//Background and Video events
0,0,"wallhaven-275117.jpg",0,0
//Break Periods
//Storyboard Layer 0 (Background)
//Storyboard Layer 1 (Fail)
//Storyboard Layer 2 (Pass)
//Storyboard Layer 3 (Foreground)
//Storyboard Sound Samples

[TimingPoints]
3000,333.333333333333,4,1,0,100,1,0
45666,333.333333333333,4,1,0,100,1,1
88332,333.333333333333,4,1,0,100,1,0

[HitObjects]
172,192,2999,6,2,P|200:232|228:244,2,70
256,104,3499,1,0,0:0:0:0:
344,192,3666,2,2,P|316:232|288:244,2,70
256,156,4166,1,0,0:0:0:0:
160,80,4333,5,0,0:0:0:0:
160,80,4416,1,0,0:0:0:0:
160,80,4499,1,0,0:0:0:0:
332,44,4666,1,2,0:0:0:0:
400,200,4833,1,0,0:0:0:0:
240,244,4999,6,2,P|192:264|168:268,2,70
388,240,5499,1,0,0:0:0:0:
324,328,5666,1,2,0:0:0:0:
256,244,5833,1,0,0:0:0:0:
168,324,5999,1,2,0:0:0:0:
84,240,6166,5,2,0:0:0:0:
84,240,6249,1,0,0:0:0:0:
84,240,6333,1,2,0:0:0:0:
328,196,6499,1,2,0:0:0:0:
216,136,6666,1,2,0:0:0:0:
312,52,6833,1,0,0:0:0:0:
412,136,6999,5,2,0:0:0:0:
412,136,7083,1,0,0:0:0:0:
412,136,7166,1,0,0:0:0:0:
168,188,7333,6,2,P|139:169|129:136,2,70
168,188,7749,1,0,0:0:0:0:
168,188,7833,1,0,0:0:0:0:
288,216,7999,1,2,0:0:0:0:
364,80,8166,1,0,0:0:0:0:
300,300,8333,6,2,P|264:320|228:328,2,70,2|0|2,0:0|0:0|0:0,0:0:0:0:
300,300,8749,1,0,0:0:0:0:
300,300,8833,1,0,0:0:0:0:
396,212,8999,1,2,0:0:0:0:
364,80,9166,1,2,0:0:0:0:
228,256,9333,5,2,0:0:0:0:
228,256,9416,1,0,0:0:0:0:
228,256,9499,1,0,0:0:0:0:
184,160,9666,6,2,P|212:120|240:108,2,70
264,204,10166,1,0,0:0:0:0:
344,248,10333,2,2,P|316:288|288:300,2,70
336,156,10833,1,0,0:0:0:0:
284,88,10999,5,2,0:0:0:0:
284,88,11083,1,0,0:0:0:0:
284,88,11166,1,0,0:0:0:0:
204,48,11333,1,2,0:0:0:0:
140,112,11499,1,0,0:0:0:0:
108,196,11666,6,2,P|60:216|36:220,2,70
276,144,12166,1,0,0:0:0:0:
352,252,12333,1,2,0:0:0:0:
208,324,12499,1,0,0:0:0:0:
96,244,12666,1,2,0:0:0:0:
64,108,12833,5,2,0:0:0:0:
64,108,12916,1,0,0:0:0:0:
64,108,12999,1,2,0:0:0:0:
148,164,13166,1,2,0:0:0:0:
220,104,13333,1,2,0:0:0:0:
296,152,13499,1,0,0:0:0:0:
400,84,13666,5,2,0:0:0:0:
400,84,13749,1,0,0:0:0:0:
400,84,13833,1,0,0:0:0:0:
208,204,13999,6,2,P|236:252|256:252,2,70
208,204,14416,1,0,0:0:0:0:
208,204,14499,1,0,0:0:0:0:
324,60,14666,1,2,0:0:0:0:
408,192,14833,1,0,0:0:0:0:
304,284,14999,6,2,P|340:304|376:312,2,70,2|0|2,0:0|0:0|0:0,0:0:0:0:
304,284,15416,1,0,0:0:0:0:
304,284,15499,1,0,0:0:0:0:
316,156,15666,1,2,0:0:0:0:
220,260,15833,1,2,0:0:0:0:
96,192,15999,5,2,0:0:0:0:
96,192,16083,1,0,0:0:0:0:
96,192,16166,1,0,0:0:0:0:
188,88,16333,6,2,P|160:48|132:36,2,70
256,148,16833,1,0,0:0:0:0:
328,192,16999,6,2,P|356:232|384:244,2,70
196,248,17499,1,0,0:0:0:0:
168,112,17666,5,2,0:0:0:0:
168,112,17749,1,0,0:0:0:0:
168,112,17833,1,0,0:0:0:0:
264,204,17999,1,2,0:0:0:0:
284,72,18166,1,0,0:0:0:0:
336,276,18333,6,2,P|288:296|264:300,2,70
308,128,18833,1,0,0:0:0:0:
444,248,18999,1,2,0:0:0:0:
264,216,19166,1,0,0:0:0:0:
168,320,19333,1,2,0:0:0:0:
80,216,19499,5,2,0:0:0:0:
80,216,19583,1,0,0:0:0:0:
80,216,19666,1,2,0:0:0:0:
204,200,19833,1,2,0:0:0:0:
100,128,19999,1,2,0:0:0:0:
148,244,20166,1,0,0:0:0:0:
188,124,20333,5,2,0:0:0:0:
292,52,20499,1,0,0:0:0:0:
192,208,20666,6,2,P|220:256|240:256,2,70
192,208,21083,1,0,0:0:0:0:
192,208,21166,1,0,0:0:0:0:
292,112,21333,1,2,0:0:0:0:
404,200,21499,1,0,0:0:0:0:
304,296,21666,6,2,P|268:316|232:324,2,70,2|0|2,0:0|0:0|0:0,0:0:0:0:
304,296,22083,1,0,0:0:0:0:
304,296,22166,1,0,0:0:0:0:
432,176,22333,1,2,0:0:0:0:
276,68,22499,1,2,0:0:0:0:
260,212,22666,5,2,0:0:0:0:
260,212,22749,1,0,0:0:0:0:
260,212,22833,1,0,0:0:0:0:
132,264,22999,6,2,P|160:304|188:316,2,70
256,188,23499,1,0,0:0:0:0:
380,120,23666,6,2,P|352:80|324:68,2,70
216,280,24166,1,0,0:0:0:0:
124,172,24333,5,2,0:0:0:0:
124,172,24416,1,0,0:0:0:0:
124,172,24499,1,0,0:0:0:0:
224,76,24666,1,2,0:0:0:0:
340,292,24833,1,0,0:0:0:0:
344,176,24999,6,2,P|392:156|416:152,2,70
236,84,25499,1,0,0:0:0:0:
412,64,25666,1,2,0:0:0:0:
412,248,25833,1,0,0:0:0:0:
204,284,25999,1,2,0:0:0:0:
80,216,26166,5,2,0:0:0:0:
80,216,26249,1,0,0:0:0:0:
80,216,26333,1,2,0:0:0:0:
308,220,26499,1,2,0:0:0:0:
144,352,26666,1,2,0:0:0:0:
340,344,26833,1,0,0:0:0:0:
228,276,26999,5,2,0:0:0:0:
228,276,27083,1,0,0:0:0:0:
228,276,27166,1,0,0:0:0:0:
196,148,27333,6,2,P|224:100|244:100,2,70
196,148,27749,1,0,0:0:0:0:
196,148,27833,1,0,0:0:0:0:
156,276,27999,1,2,0:0:0:0:
332,228,28166,1,0,0:0:0:0:
368,64,28333,6,2,P|404:44|440:36,2,70,2|0|2,0:0|0:0|0:0,0:0:0:0:
368,64,28749,1,0,0:0:0:0:
368,64,28833,1,0,0:0:0:0:
116,72,28999,1,2,0:0:0:0:
232,136,29166,1,2,0:0:0:0:
116,204,29333,5,2,0:0:0:0:
116,204,29416,1,0,0:0:0:0:
116,204,29499,1,0,0:0:0:0:
224,284,29666,6,2,P|252:324|280:336,2,70
392,324,30166,1,0,0:0:0:0:
392,192,30333,2,2,P|364:152|336:140,2,70
316,304,30833,1,0,0:0:0:0:
160,96,30999,5,0,0:0:0:0:
160,96,31083,1,0,0:0:0:0:
160,96,31166,1,0,0:0:0:0:
316,52,31333,1,2,0:0:0:0:
268,176,31499,1,0,0:0:0:0:
188,280,31666,6,2,P|154:271|122:256,2,70
384,188,32166,1,0,0:0:0:0:
352,316,32333,1,2,0:0:0:0:
468,252,32499,1,0,0:0:0:0:
268,192,32666,1,2,0:0:0:0:
144,304,32833,5,2,0:0:0:0:
144,304,32916,1,0,0:0:0:0:
144,304,32999,1,2,0:0:0:0:
72,176,33166,1,2,0:0:0:0:
360,120,33333,1,2,0:0:0:0:
152,44,33499,1,0,0:0:0:0:
348,288,33666,5,2,0:0:0:0:
348,288,33749,1,0,0:0:0:0:
348,288,33833,1,0,0:0:0:0:
292,176,33999,6,2,P|262:160|255:126,1,70
80,84,34333,1,0,0:0:0:0:
116,292,34499,1,0,0:0:0:0:
260,104,34666,1,2,0:0:0:0:
288,192,34999,5,8,0:0:0:0:
376,164,35166,1,8,0:0:0:0:
324,280,35333,2,0,L|272:348,1,70
287,194,35666,5,8,0:0:0:0:
377,174,35833,1,8,0:0:0:0:
316,285,35999,2,0,L|258:348,1,70
287,197,36333,5,8,0:0:0:0:
379,185,36499,1,8,0:0:0:0:
307,290,36666,2,0,L|244:348,1,70
286,200,36999,5,8,0:0:0:0:
379,196,37166,1,8,0:0:0:0:
298,294,37333,2,0,L|231:346,1,70
286,202,37666,5,8,0:0:0:0:
378,206,37833,1,8,0:0:0:0:
289,297,37999,2,0,L|217:344,1,70
285,205,38333,5,8,0:0:0:0:
376,217,38499,1,8,0:0:0:0:
280,300,38666,2,0,L|204:340,1,70
283,208,38999,5,8,0:0:0:0:
373,227,39166,1,8,0:0:0:0:
270,302,39333,2,0,L|191:335,1,70
282,210,39666,5,8,0:0:0:0:
370,237,39833,1,8,0:0:0:0:
261,303,39999,2,0,L|179:328,1,70
88,76,40333,6,2,B|52:120|116:160|116:160,1,70
216,188,40666,1,2,0:0:0:0:
216,188,40749,1,0,0:0:0:0:
216,188,40833,1,8,0:0:0:0:
348,196,40999,6,2,B|384:152|320:112|320:112,1,70
220,84,41333,1,2,0:0:0:0:
220,84,41416,1,0,0:0:0:0:
220,84,41499,1,8,0:0:0:0:
80,184,41666,6,2,B|16:214|80:254|56:233,1,70
180,282,41999,1,2,0:0:0:0:
180,282,42083,1,0,0:0:0:0:
180,282,42166,1,8,0:0:0:0:
296,282,42333,6,2,B|276:300|340:260|312:230,1,70
188,196,42666,1,2,0:0:0:0:
188,196,42749,1,0,0:0:0:0:
188,196,42833,1,8,0:0:0:0:
408,212,42999,1,2,0:0:0:0:
408,212,43083,1,0,0:0:0:0:
408,212,43166,1,8,0:0:0:0:
172,120,43333,1,2,0:0:0:0:
172,120,43416,1,0,0:0:0:0:
172,120,43499,1,8,0:0:0:0:
384,72,43666,1,2,0:0:0:0:
384,72,43749,1,0,0:0:0:0:
384,72,43833,1,8,0:0:0:0:
176,288,43999,1,2,0:0:0:0:
176,288,44083,1,0,0:0:0:0:
176,288,44166,1,8,0:0:0:0:
76,72,44333,1,0,0:0:0:0:
408,168,44666,1,0,0:0:0:0:
368,224,44833,1,0,0:0:0:0:
304,256,44999,1,0,0:0:0:0:
80,80,45333,1,4,0:0:0:0:
384,56,45666,5,0,0:0:0:0:
384,56,45749,1,0,0:0:0:0:
384,56,45832,1,0,0:0:0:0:
404,196,45999,1,4,0:0:0:0:
304,292,46166,6,0,L|232:304,1,70
96,208,46499,1,0,0:0:0:0:
148,64,46666,2,0,L|240:48,1,70,4|0,0:0|0:0,0:0:0:0:
364,168,46999,5,0,0:0:0:0:
364,168,47082,1,0,0:0:0:0:
364,168,47166,1,0,0:0:0:0:
276,312,47332,6,4,P|212:320|184:312,1,70,0|0,0:0|0:0,0:0:0:0:
88,200,47666,1,0,0:0:0:0:
160,56,47832,1,0,0:0:0:0:
352,64,47999,6,0,P|381:82|400:111,1,70
348,280,48332,1,0,0:0:0:0:
348,280,48416,1,0,0:0:0:0:
348,280,48499,1,0,0:0:0:0:
164,323,48666,6,0,P|134:305|115:276,1,70
328,120,48999,1,0,0:0:0:0:
428,276,49166,1,0,0:0:0:0:
104,224,49332,6,2,P|92:180|112:144,1,70
200,80,49665,5,0,0:0:0:0:
200,80,49749,1,0,0:0:0:0:
200,80,49832,1,0,0:0:0:0:
224,300,49999,1,0,0:0:0:0:
360,72,50165,6,0,B|372:116|362:139|352:152,1,70
320,308,50499,1,0,0:0:0:0:
264,192,50665,1,0,0:0:0:0:
432,304,50832,1,0,0:0:0:0:
380,144,50999,5,0,0:0:0:0:
380,144,51082,1,0,0:0:0:0:
380,144,51165,1,0,0:0:0:0:
200,288,51332,6,0,L|116:284,1,70
168,88,51665,1,0,0:0:0:0:
332,216,51832,1,0,0:0:0:0:
312,76,51999,5,0,0:0:0:0:
312,76,52082,1,0,0:0:0:0:
312,76,52165,1,0,0:0:0:0:
200,184,52332,1,0,0:0:0:0:
236,48,52499,1,0,0:0:0:0:
352,236,52665,5,0,0:0:0:0:
352,236,52749,1,0,0:0:0:0:
352,236,52832,1,0,0:0:0:0:
216,340,52999,1,0,0:0:0:0:
116,208,53165,6,0,P|101:187|112:140,1,70
236,88,53499,1,0,0:0:0:0:
376,100,53665,2,0,P|392:136|368:164,1,70
316,284,53999,1,0,0:0:0:0:
316,284,54082,1,0,0:0:0:0:
316,284,54165,1,0,0:0:0:0:
192,292,54332,1,0,0:0:0:0:
132,180,54499,1,0,0:0:0:0:
252,212,54665,1,0,0:0:0:0:
188,104,54832,1,0,0:0:0:0:
312,88,54999,2,0,P|364:120|352:148,1,70
160,324,55332,1,0,0:0:0:0:
160,324,55415,1,0,0:0:0:0:
160,324,55499,1,0,0:0:0:0:
416,252,55665,1,0,0:0:0:0:
