osu file format v14

[General]
AudioFilename: audio.mp3
AudioLeadIn: 0
PreviewTime: 42749
Countdown: 1
SampleSet: Soft
StackLeniency: 0.4
Mode: 0
LetterboxInBreaks: 0
WidescreenStoryboard: 0

[Editor]
Bookmarks: 10826,21493,42832,64165,74832,85499
DistanceSpacing: 0.9
BeatDivisor: 12
GridSize: 16
TimelineZoom: 2.5

[Metadata]
Title:Human (colate remix)
TitleUnicode:Human (colate remix)
Artist:(P)
ArtistUnicode:椎名もた (ぽわぽわP)
Creator:Kocari
Version:Insane
Source:
Tags:
BeatmapID:1207196
BeatmapSetID:569483

[Difficulty]
HPDrainRate:7
CircleSize:4
OverallDifficulty:8
ApproachRate:9
SliderMultiplier:1.8
SliderTickRate:1

[Events]
//Background and Video events
0,0,"51021764_p0.png",0,0
//Break Periods
//Storyboard Layer 0 (Background)
//Storyboard Layer 1 (Fail)
//Storyboard Layer 2 (Pass)
//Storyboard Layer 3 (Foreground)
//Storyboard Sound Samples

[TimingPoints]
166,333.333333333333,4,2,0,60,1,0
166,-166.666666666667,4,2,0,60,0,0
10832,-142.857142857143,4,2,0,60,0,0
21499,-125,4,2,0,60,0,0
32165,-111.111111111111,4,2,0,60,0,0
36165,-142.857142857143,4,2,0,60,0,0
37499,-111.111111111111,4,2,0,60,0,0
42832,-100,4,2,0,60,0,1
64165,-100,4,2,0,60,0,0
74832,-83.3333333333333,4,2,0,60,0,0
77499,-71.4285714285714,4,2,0,60,0,0

[HitObjects]
136,278,166,5,0,0:0:0:0:
182,192,499,1,0,0:0:0:0:
136,278,832,1,0,0:0:0:0:
136,278,999,2,0,L|28:268,1,107.999996704102
182,192,1499,2,0,L|290:182,1,107.999996704102
363,119,2165,1,0,0:0:0:0:
431,186,2499,1,0,0:0:0:0:
434,294,2832,6,0,L|431:186,1,107.999996704102
363,119,3499,1,0,0:0:0:0:
363,119,3665,2,0,L|365:11,1,107.999996704102
295,179,4165,6,0,P|244:193|196:168,1,107.999996704102
99,178,4832,2,0,P|149:192|197:168,1,107.999996704102
204,61,5499,6,0,L|196:183,2,107.999996704102
204,61,6332,1,0,0:0:0:0:
251,224,6832,2,0,P|199:207|149:229,1,107.999996704102
102,311,7499,1,0,0:0:0:0:
22,255,7832,1,0,0:0:0:0:
28,147,8165,2,0,L|21:254,1,107.999996704102
89,71,8832,1,0,0:0:0:0:
89,71,8999,1,0,0:0:0:0:
173,118,9332,1,0,0:0:0:0:
173,118,9499,6,0,L|230:121,1,53.9999983520508
196,199,9832,2,0,L|253:202,1,53.9999983520508
226,282,10165,2,0,L|283:285,1,53.9999983520508
257,362,10498,2,0,L|314:365,1,53.9999983520508
446,260,10832,6,0,L|458:127,1,125.999996154785
420,53,11332,1,0,0:0:0:0:
349,190,11499,2,0,P|315:196|282:179,1,62.9999980773926
360,48,11832,2,0,P|394:42|427:59,1,62.9999980773926
289,185,12165,2,0,L|284:111,1,62.9999980773926
119,151,12499,1,0,0:0:0:0:
119,151,12832,1,0,0:0:0:0:
179,86,12999,1,0,0:0:0:0:
59,215,13165,2,0,L|63:277,1,62.9999980773926
196,348,13499,6,0,L|134:342,2,62.9999980773926
265,293,13999,1,0,0:0:0:0:
265,293,14165,2,0,L|391:302,1,125.999996154785
333,211,14665,1,0,0:0:0:0:
391,302,14832,2,0,L|471:307,1,62.9999980773926
333,211,15165,2,0,L|413:216,1,62.9999980773926
277,116,15499,2,0,L|357:121,1,62.9999980773926
235,37,15832,1,0,0:0:0:0:
189,195,15999,1,0,0:0:0:0:
62,91,16165,6,0,P|122:75|174:110,1,125.999996154785
189,195,16665,1,0,0:0:0:0:
158,277,16832,2,0,P|98:293|46:258,1,125.999996154785
189,195,17332,2,0,L|259:194,1,62.9999980773926
281,110,17665,1,0,0:0:0:0:
221,276,17832,2,0,L|158:276,1,62.9999980773926
281,110,18165,1,0,0:0:0:0:
251,194,18332,1,0,0:0:0:0:
221,276,18499,2,0,L|158:276,1,62.9999980773926
281,110,18832,6,0,L|343:110,2,62.9999980773926
401,43,19332,1,0,0:0:0:0:
468,100,19499,2,0,P|484:160|455:216,1,125.999996154785
326,271,19999,1,0,0:0:0:0:
326,271,20165,2,0,L|397:264,1,62.9999980773926
263,277,20499,2,0,L|334:270,1,62.9999980773926
200,283,20832,2,0,L|271:276,1,62.9999980773926
144,211,21165,1,0,0:0:0:0:
78,304,21499,6,0,P|105:242|71:168,1,144
77,31,22165,1,0,0:0:0:0:
136,94,22332,2,0,L|286:76,1,144
362,135,22832,2,0,L|347:209,1,72
362,135,23165,2,0,L|377:64,1,72
443,237,23499,2,0,L|427:307,1,72
443,237,23832,2,0,L|457:166,1,72
264,145,24165,6,0,P|312:159|364:131,1,108
350,54,24499,2,0,P|302:40|250:68,1,108
190,113,24832,2,0,L|117:110,1,72
24,219,25165,2,0,L|95:221,1,72
155,318,25499,6,0,L|303:314,1,144
367,149,26165,2,0,L|357:231,1,72
442,231,26499,2,0,L|450:302,1,72
433,102,26832,6,0,P|382:67|303:98,1,144
260,162,27332,1,0,0:0:0:0:
260,162,27499,2,0,L|184:156,1,72
97,56,27832,2,0,L|168:50,1,72
26,163,28165,6,0,P|1:116|14:65,1,108
97,56,28499,2,0,P|121:102|108:153,1,108
19,235,28832,2,0,L|27:163,1,72
19,235,29165,2,0,L|10:306,1,72
130,350,29499,6,0,L|127:278,2,72
192,203,29999,1,0,0:0:0:0:
265,271,30165,2,0,L|342:277,1,72
469,193,30499,2,0,L|391:186,1,72
289,117,30832,6,0,L|284:6,1,108
258,25,31165,2,0,L|252:114,1,72
221,225,31499,5,0,0:0:0:0:
232,258,31540,1,0,0:0:0:0:
203,272,31582,1,0,0:0:0:0:
186,240,31624,1,0,0:0:0:0:
221,225,31665,5,0,0:0:0:0:
265,239,31707,1,0,0:0:0:0:
273,292,31749,1,0,0:0:0:0:
238,319,31790,1,0,0:0:0:0:
183,318,31832,5,0,0:0:0:0:
146,284,31874,1,0,0:0:0:0:
143,231,31915,1,0,0:0:0:0:
170,186,31957,1,0,0:0:0:0:
224,178,31999,5,0,0:0:0:0:
272,204,32040,1,0,0:0:0:0:
303,248,32082,1,0,0:0:0:0:
303,248,32124,1,0,0:0:0:0:
303,248,32165,6,0,L|440:241,1,121.499996292114
465,161,32499,2,0,L|343:167,1,121.499996292114
287,94,32832,2,0,P|235:66|175:82,1,121.499996292114
68,68,33165,2,0,P|120:96|177:81,1,121.499996292114
68,68,33499,6,0,L|73:196,1,121.499996292114
10,293,33832,2,0,L|72:189,1,121.499996292114
72,188,34165,2,0,L|135:292,1,121.499996292114
134,291,34499,2,0,P|193:277|244:321,1,121.499996292114
239,310,34832,6,0,L|256:181,1,121.499996292114
188,87,35165,2,0,L|254:188,1,121.499996292114
254,188,35499,2,0,L|320:86,1,121.499996292114
320,85,35832,2,0,P|377:62|429:85,1,121.499996292114
473,154,36165,6,0,B|495:216|448:255|448:255|478:321|478:321|413:289|413:289|372:344|299:326,1,377.999988464356
185,335,37499,6,0,L|334:327,1,121.499996292114
337,246,37832,2,0,L|215:252,1,121.499996292114
239,166,38165,2,0,L|388:158,1,121.499996292114
360,159,38499,1,0,0:0:0:0:
360,159,38832,6,0,L|238:165,1,121.499996292114
172,106,39165,2,0,P|113:89|61:122,1,121.499996292114
64,117,39499,2,0,P|123:134|175:101,1,121.499996292114
171,105,39832,2,0,L|158:229,1,121.499996292114
151,341,40165,6,0,L|281:328,1,121.499996292114
278,212,40499,2,0,L|158:225,1,121.499996292114
171,105,40832,2,0,L|291:92,1,121.499996292114
354,29,41165,2,0,P|410:57|469:36,1,121.499996292114
463,40,41499,6,0,L|458:95,1,40.4999987640381
387,145,41665,6,0,L|398:276,2,121.499996292114
387,145,42332,1,0,0:0:0:0:
131,204,42499,1,0,0:0:0:0:
84,275,42832,5,0,0:0:0:0:
67,260,42873,1,0,0:0:0:0:
54,241,42915,1,0,0:0:0:0:
47,220,42956,1,0,0:0:0:0:
46,198,42998,1,0,0:0:0:0:
50,176,43040,1,0,0:0:0:0:
60,156,43081,1,0,0:0:0:0:
76,139,43123,1,0,0:0:0:0:
94,127,43165,1,0,0:0:0:0:
116,120,43206,1,0,0:0:0:0:
138,120,43248,1,0,0:0:0:0:
160,125,43290,1,0,0:0:0:0:
180,135,43331,1,0,0:0:0:0:
196,151,43373,1,0,0:0:0:0:
208,170,43415,1,0,0:0:0:0:
214,192,43456,1,0,0:0:0:0:
213,215,43499,6,0,L|197:320,1,90
199,303,43749,1,0,0:0:0:0:
199,303,43832,1,0,0:0:0:0:
311,383,43999,2,0,L|327:278,1,90
460,192,44332,2,0,P|393:201|347:152,1,135
348,117,44665,1,0,0:0:0:0:
212,282,44832,2,0,L|304:277,1,90
417,61,45165,1,0,0:0:0:0:
384,36,45249,1,0,0:0:0:0:
344,28,45332,1,0,0:0:0:0:
304,38,45415,1,0,0:0:0:0:
275,67,45499,6,0,L|183:72,1,90
112,242,45832,2,0,L|122:150,1,90
122,153,46082,1,0,0:0:0:0:
122,153,46165,1,0,0:0:0:0:
28,25,46332,2,0,L|34:122,1,90
49,292,46665,2,0,P|110:272|172:315,1,135
168,347,46999,1,0,0:0:0:0:
326,308,47165,2,0,L|335:212,1,90
334,218,47415,1,0,0:0:0:0:
334,218,47499,1,0,0:0:0:0:
459,342,47665,6,0,L|414:344,1,45
326,308,47832,2,0,L|282:306,1,45
200,257,47999,2,0,L|155:259,1,45
69,47,48165,6,0,P|91:109|75:174,1,135
75,174,48500,2,0,P|137:151|202:167,1,135
202,167,48832,1,0,0:0:0:0:
295,100,48999,1,0,0:0:0:0:
295,100,49082,1,0,0:0:0:0:
295,100,49165,1,0,0:0:0:0:
359,348,49332,6,0,B|390:275|390:275|381:211,1,135
373,180,49665,1,0,0:0:0:0:
473,287,49832,2,0,L|459:197,1,90
459,198,50082,1,0,0:0:0:0:
459,198,50165,1,0,0:0:0:0:
295,100,50332,1,0,0:0:0:0:
459,198,50499,2,0,P|475:157|465:110,1,90
160,110,50832,6,0,L|325:97,1,135
295,100,51165,1,0,0:0:0:0:
268,236,51332,1,0,0:0:0:0:
268,236,51415,1,0,0:0:0:0:
268,236,51499,1,0,0:0:0:0:
268,236,51665,2,0,L|273:297,1,45
186,384,51832,2,0,L|182:339,1,45
271,280,51999,6,0,L|416:264,1,135
436,239,52332,1,0,0:0:0:0:
361,69,52499,2,0,L|351:168,1,90
351,158,52749,1,0,0:0:0:0:
351,158,52832,1,0,0:0:0:0:
223,172,52999,1,0,0:0:0:0:
436,239,53165,1,0,0:0:0:0:
361,69,53332,1,0,0:0:0:0:
275,280,53499,6,0,B|193:304|193:304|134:292,1,135
13,308,53832,2,0,B|95:284|95:284|143:293,1,135
143,293,54165,1,0,0:0:0:0:
223,172,54332,1,0,0:0:0:0:
223,172,54415,1,0,0:0:0:0:
223,172,54499,1,0,0:0:0:0:
88,182,54665,6,0,L|240:170,1,135
222,171,54999,1,0,0:0:0:0:
384,71,55165,2,0,P|341:57|299:71,1,90
299,70,55415,1,0,0:0:0:0:
299,70,55499,1,0,0:0:0:0:
377,261,55665,1,0,0:0:0:0:
384,71,55832,1,0,0:0:0:0:
222,171,55999,1,0,0:0:0:0:
433,323,56165,6,0,P|458:262|435:201,1,135
318,200,56499,2,0,P|294:261|320:321,1,135
320,321,56832,2,0,L|172:317,1,135
145,313,57165,1,0,0:0:0:0:
42,181,57332,2,0,B|31:262|31:262|51:330,1,135
46,313,57665,1,0,0:0:0:0:
171,119,57832,2,0,L|167:23,1,90
167,29,58082,1,0,0:0:0:0:
167,29,58166,1,0,0:0:0:0:
42,181,58332,6,0,L|96:173,1,45
171,119,58499,2,0,L|220:123,1,45
283,193,58665,2,0,L|342:182,1,45
441,316,58832,6,0,P|422:252|454:189,1,135
450,193,59165,2,0,P|386:212|323:180,1,135
326,184,59499,1,0,0:0:0:0:
171,119,59665,2,0,L|179:208,1,90
67,315,59999,6,0,B|122:304|122:304|190:326|190:326|265:321,1,180
326,184,60499,1,0,0:0:0:0:
242,322,60665,1,0,0:0:0:0:
398,327,60832,1,0,0:0:0:0:
398,327,60915,1,0,0:0:0:0:
398,327,60999,1,0,0:0:0:0:
256,231,61165,2,0,P|241:167|305:105,1,135
326,184,61499,6,0,L|470:172,1,135
429,85,61832,2,0,L|285:97,1,135
294,96,62165,1,0,0:0:0:0:
121,125,62332,1,0,0:0:0:0:
193,21,62499,1,0,0:0:0:0:
294,96,62665,1,0,0:0:0:0:
71,51,62832,5,0,0:0:0:0:
43,80,62915,1,0,0:0:0:0:
31,119,62999,1,0,0:0:0:0:
39,158,63082,1,0,0:0:0:0:
67,186,63165,2,0,L|66:250,1,45
160,276,63332,2,0,L|159:340,1,45
236,203,63499,2,0,B|289:187|289:187|329:194,1,90
323,192,63749,1,0,0:0:0:0:
323,192,63832,1,0,0:0:0:0:
160,276,63999,1,0,0:0:0:0:
380,285,64165,5,0,0:0:0:0:
396,269,64206,1,0,0:0:0:0:
409,251,64248,1,0,0:0:0:0:
418,230,64289,1,0,0:0:0:0:
423,208,64331,1,0,0:0:0:0:
423,186,64373,1,0,0:0:0:0:
418,164,64414,1,0,0:0:0:0:
409,143,64456,1,0,0:0:0:0:
396,125,64498,1,0,0:0:0:0:
379,110,64539,1,0,0:0:0:0:
360,99,64581,1,0,0:0:0:0:
338,92,64623,1,0,0:0:0:0:
314,87,64665,2,0,L|249:90,1,45
233,194,64832,6,0,L|326:191,2,90
29,263,65332,2,0,B|93:240|93:240|172:266,1,135
156,260,65665,2,0,L|147:364,1,90
148,349,65915,1,0,0:0:0:0:
149,350,65999,1,0,0:0:0:0:
233,194,66165,1,0,0:0:0:0:
133,88,66332,1,0,0:0:0:0:
29,263,66499,1,0,0:0:0:0:
233,194,66665,1,0,0:0:0:0:
66,138,66832,6,0,P|59:47|143:8,1,180
233,194,67332,1,0,0:0:0:0:
222,95,67499,2,0,L|121:87,1,90
132,87,67749,1,0,0:0:0:0:
132,87,67832,1,0,0:0:0:0:
233,194,67999,2,0,L|334:202,1,90
345,288,68332,2,0,L|256:281,1,90
280,366,68665,1,0,0:0:0:0:
280,366,68832,2,0,L|381:374,1,90
256,281,69165,2,0,L|165:285,1,90
74,281,69415,1,0,0:0:0:0:
74,281,69499,6,0,P|138:290|83:255,1,180
74,281,69999,1,0,0:0:0:0:
66,176,70165,2,0,P|109:166|152:178,2,90
246,184,70665,2,0,B|267:115|229:59|229:59|219:108,1,180
200,256,71165,2,0,P|246:270|300:248,1,90
285,259,71415,1,0,0:0:0:0:
285,259,71499,1,0,0:0:0:0:
295,99,71665,1,0,0:0:0:0:
409,183,71832,1,0,0:0:0:0:
295,99,71999,1,0,0:0:0:0:
457,259,72165,6,0,P|491:208|469:122,1,135
409,183,72499,2,0,L|313:179,1,90
295,99,72749,1,0,0:0:0:0:
295,99,72832,2,0,L|199:95,1,90
139,29,73165,1,0,0:0:0:0:
62,163,73332,6,0,B|51:109|51:109|60:75,2,90
258,271,73832,1,0,0:0:0:0:
258,271,73915,2,0,L|118:265,1,135
123,265,74332,1,0,0:0:0:0:
62,163,74499,1,0,0:0:0:0:
329,323,74832,6,0,P|342:297|338:254,1,53.9999983520508
297,194,74999,2,0,P|271:181|228:185,1,53.9999983520508
343,272,75165,2,0,P|369:285|412:281,1,53.9999983520508
457,215,75332,1,0,0:0:0:0:
466,188,75415,1,0,0:0:0:0:
474,163,75499,1,0,0:0:0:0:
421,57,75665,1,0,0:0:0:0:
391,133,75832,2,0,P|446:136|489:100,1,107.999996704102
323,63,76165,6,0,L|267:66,1,53.9999983520508
308,103,76332,2,0,L|252:106,1,53.9999983520508
297,136,76499,2,0,L|241:139,1,53.9999983520508
102,102,76665,1,0,0:0:0:0:
134,98,76748,1,0,0:0:0:0:
167,95,76832,1,0,0:0:0:0:
64,23,76999,1,0,0:0:0:0:
78,188,77165,2,0,P|113:243|134:182,1,161.999995056153
78,188,77499,6,0,L|83:253,1,62.9999980773926
218,333,77665,2,0,L|213:268,1,62.9999980773926
280,161,77832,2,0,B|337:136|337:136|406:151,1,125.999996154785
348,231,78082,1,0,0:0:0:0:
348,231,78165,1,0,0:0:0:0:
478,35,78332,2,0,L|472:97,1,62.9999980773926
445,352,78499,2,0,B|450:331|450:331|442:309|442:309|449:288|449:288|440:267|440:267|440:226,1,125.999996154785
326,58,78832,5,0,0:0:0:0:
245,249,78999,1,0,0:0:0:0:
245,249,79082,1,0,0:0:0:0:
145,80,79249,1,0,0:0:0:0:
145,80,79332,1,0,0:0:0:0:
79,149,79499,1,0,0:0:0:0:
129,174,79582,1,0,0:0:0:0:
185,169,79665,1,0,0:0:0:0:
227,131,79749,2,0,L|242:62,1,62.9999980773926
158,18,79915,2,0,L|145:80,1,62.9999980773926
220,345,80165,6,0,L|282:335,1,62.9999980773926
232,313,80332,2,0,L|294:303,1,62.9999980773926
249,275,80499,2,0,L|311:265,1,62.9999980773926
