osu file format v14

[General]
AudioFilename: audio.mp3
AudioLeadIn: 0
PreviewTime: 75988
Countdown: 0
SampleSet: Soft
StackLeniency: 0.4
Mode: 0
LetterboxInBreaks: 0
EpilepsyWarning: 1
WidescreenStoryboard: 1

[Editor]
Bookmarks: 1572,12238,22905,33571,44238,54905,65571,76238,86905,97571,113470
DistanceSpacing: 0.4
BeatDivisor: 4
GridSize: 8
TimelineZoom: 2.3

[Metadata]
Title:crepuscular rays
TitleUnicode:crepuscular rays
Artist:(K)NoW_NAME
ArtistUnicode:(K)NoW_NAME
Creator:Realazy
Version:ashes and illusions
Source:灰と幻想のグリムガル
Tags:[_Space_] LowAccuracySS Shunao ShogunMoon Gabe Veus Hai to Gensou no Grimgar ashes and illusions best ost
BeatmapID:1362551
BeatmapSetID:642706

[Difficulty]
HPDrainRate:6
CircleSize:4.5
OverallDifficulty:8.5
ApproachRate:9.2
SliderMultiplier:1.89
SliderTickRate:1

[Events]
//Background and Video events
0,0,"animebutwithouttheanime.jpg",0,0
//Break Periods
//Storyboard Layer 0 (Background)
//Storyboard Layer 1 (Fail)
//Storyboard Layer 2 (Pass)
//Storyboard Layer 3 (Foreground)
Sprite,Foreground,Centre,"sb\ring.png",545,287 F,2,234,734,1,0 S,2,234,734,1,0.2 P,0,234,734,A
Sprite,Foreground,Centre,"sb\ring.png",526,286 F,2,586,1086,1,0 S,2,586,1086,1,0.2 P,0,586,1086,A
Sprite,Foreground,Centre,"sb\ring.png",427,347 F,2,743,1243,1,0 S,2,743,1243,1,0.2 P,0,743,1243,A
Sprite,Foreground,Centre,"sb\ring.png",407,346 F,2,822,1322,1,0 S,2,822,1322,1,0.2 P,0,822,1322,A
Sprite,Foreground,Centre,"sb\ring.png",388,345 F,2,901,1401,1,0 S,2,901,1401,1,0.2 P,0,901,1401,A
Sprite,Foreground,Centre,"sb\ring.png",347,174 F,2,1067,1567,1,0 S,2,1067,1567,1,0.2 P,0,1067,1567,A
Sprite,Foreground,Centre,"sb\ring.png",388,345 F,2,1234,1734,1,0 S,2,1234,1734,1,0.2 P,0,1234,1734,A
Sprite,Foreground,Centre,"sb\ring.png",347,174 F,2,1400,1900,1,0 S,2,1400,1900,1,0.2 P,0,1400,1900,A
Sprite,Foreground,Centre,"sb\ring.png",178,322 F,2,75739,76239,1,0 S,2,75739,76239,1,0.2 P,0,75739,76239,A
Sprite,Foreground,Centre,"sb\ring.png",228,335 F,2,75822,76322,1,0 S,2,75822,76322,1,0.2 P,0,75822,76322,A
Sprite,Foreground,Centre,"sb\ring.png",278,348 F,2,75905,76405,1,0 S,2,75905,76405,1,0.2 P,0,75905,76405,A
Sprite,Foreground,Centre,"sb\ring.png",511,210 F,2,76072,76572,1,0 S,2,76072,76572,1,0.2 P,0,76072,76572,A
Sprite,Foreground,Centre,"sb\ring.png",461,223 F,2,76155,76655,1,0 S,2,76155,76655,1,0.2 P,0,76155,76655,A
//Storyboard Sound Samples

[TimingPoints]
234,352.941176470588,4,2,4,50,1,0
586,315.789473684211,4,2,4,50,1,0
743,-100,4,2,1,50,0,0
901,333.333333333333,4,2,4,50,1,0
1567,333.333333333333,4,2,1,40,1,0
1567,-117.647058823529,4,2,1,40,0,0
10566,-153.846153846153,4,2,2,55,0,0
10900,-117.647058823529,4,2,1,50,0,0
11566,-117.647058823529,4,2,3,60,0,0
12257,332.594235033259,4,2,1,40,1,0
12257,-117.647058823529,4,2,1,40,0,0
21237,-153.846153846153,4,2,2,55,0,0
21569,-117.647058823529,4,2,1,40,0,0
22900,333.333333333333,4,2,1,40,1,0
22900,-117.647058823529,4,2,1,40,0,0
24566,-117.647058823529,4,2,2,50,0,0
24733,-117.647058823529,4,2,1,50,0,0
25233,-133.333333333333,4,2,2,50,0,0
25483,-133.333333333333,4,2,2,5,0,0
25566,-117.647058823529,4,2,1,50,0,0
29899,-117.647058823529,4,2,2,50,0,0
30066,-117.647058823529,4,2,1,50,0,0
30566,-133.333333333333,4,2,2,50,0,0
30816,-133.333333333333,4,2,2,5,0,0
30899,-117.647058823529,4,2,1,50,0,0
31899,-153.846153846153,4,2,2,60,0,0
32233,-153.846153846153,4,2,1,50,0,0
32566,-117.647058823529,4,2,2,50,0,0
33399,-117.647058823529,4,2,3,50,0,0
33566,-117.647058823529,4,2,1,50,0,0
35233,-117.647058823529,4,2,2,50,0,0
35399,-117.647058823529,4,2,1,50,0,0
35899,-117.647058823529,4,2,2,50,0,0
36233,-117.647058823529,4,2,1,50,0,0
37649,-117.647058823529,4,2,1,5,0,0
37733,-105.263157894737,4,2,1,55,0,0
37983,-105.263157894737,4,2,1,5,0,0
38066,-95.238095238095,4,2,1,60,0,0
38566,-95.238095238095,4,2,2,50,0,0
38899,-117.647058823529,4,2,1,50,0,0
42566,-153.846153846153,4,2,2,50,0,0
43066,-153.846153846153,4,2,1,50,0,0
43233,-105.263157894737,4,2,2,50,0,0
43483,-105.263157894737,4,2,1,50,0,0
44251,333.333333333333,4,2,1,50,1,0
44251,-117.647058823529,4,2,1,50,0,0
44667,-117.647058823529,4,2,1,5,0,0
44751,-117.647058823529,4,2,1,50,0,0
45001,-117.647058823529,4,2,1,5,0,0
45084,-133.333333333333,4,2,1,50,0,0
46917,-117.647058823529,4,2,1,50,0,0
47334,-117.647058823529,4,2,1,5,0,0
47417,-117.647058823529,4,2,1,50,0,0
47667,-117.647058823529,4,2,1,5,0,0
47751,-133.333333333333,4,2,1,50,0,0
47917,-133.333333333333,4,2,2,50,0,0
48084,-133.333333333333,4,2,0,50,0,0
48417,-133.333333333333,4,2,1,50,0,0
49417,-133.333333333333,4,2,2,50,0,0
49584,-117.647058823529,4,2,1,50,0,0
50000,-117.647058823529,4,2,1,5,0,0
50084,-117.647058823529,4,2,1,50,0,0
50334,-117.647058823529,4,2,1,5,0,0
50417,-133.333333333333,4,2,1,50,0,0
50584,-133.333333333333,4,2,2,50,0,0
50917,-117.647058823529,4,2,2,50,0,0
51584,-133.333333333333,4,2,2,45,0,0
52250,-117.647058823529,4,2,1,50,0,0
52667,-117.647058823529,4,2,1,5,0,0
52750,-117.647058823529,4,2,1,50,0,0
53000,-117.647058823529,4,2,1,5,0,0
53084,-117.647058823529,4,2,1,50,0,0
53250,-153.846153846153,4,2,1,50,0,0
53917,-133.333333333333,4,2,1,50,0,0
54250,-117.647058823529,4,2,3,50,0,0
54907,333.333333333333,4,2,1,50,1,0
54907,-105.263157894737,4,2,1,50,0,0
55240,-117.647058823529,4,2,3,50,0,0
55407,-117.647058823529,4,2,1,50,0,0
55573,-117.647058823529,4,2,3,50,0,0
57407,-105.263157894737,4,2,1,50,0,0
57574,-117.647058823529,4,2,1,50,0,0
57907,-117.647058823529,4,2,3,50,0,0
58074,-117.647058823529,4,2,1,50,0,0
58240,-117.647058823529,4,2,3,50,0,0
59157,-117.647058823529,4,2,1,50,0,0
59574,-117.647058823529,4,2,3,50,0,0
60240,-117.647058823529,4,2,1,50,0,0
60574,-117.647058823529,4,2,3,50,0,0
62074,-117.647058823529,4,2,1,50,0,0
62157,-117.647058823529,4,2,3,50,0,0
62907,-117.647058823529,4,2,1,50,0,0
64907,-117.647058823529,4,2,0,50,0,0
65574,-133.333333333333,4,2,1,40,0,0
67407,-153.846153846153,4,2,1,40,0,0
68240,-133.333333333333,4,2,1,40,0,0
70074,-153.846153846153,4,2,1,40,0,0
70907,-133.333333333333,4,2,1,40,0,0
72740,-153.846153846153,4,2,1,40,0,0
73574,-133.333333333333,4,2,1,40,0,0
74740,-144.927536231884,4,2,1,40,0,0
75102,340.909090909091,4,2,1,40,1,0
75442,297.029702970297,4,2,1,40,1,0
75739,333.333333333333,4,2,3,55,1,0
75739,-153.846153846153,4,2,3,55,0,0
76250,333.333333333333,4,2,2,70,1,0
76250,-100,4,2,2,70,0,0
76416,-100,4,2,5,70,0,0
76568,333.333333333333,4,2,5,70,1,0
77568,333.333333333333,4,2,5,70,1,0
78080,333.333333333333,4,2,5,70,1,0
78913,337.078651685393,4,2,5,70,1,0
80414,331.491712707182,4,2,5,70,1,0
80746,-111.111111111111,4,2,5,70,0,0
81067,338.983050847458,4,2,5,70,1,0
81574,333.889816360601,4,2,1,70,1,0
81740,-100,4,2,5,70,0,0
83749,333.333333333333,4,2,5,70,1,0
84249,333.333333333333,4,2,1,70,1,0
84416,-100,4,2,5,70,0,0
85416,-111.111111111111,4,2,1,70,0,0
85916,-133.333333333333,4,2,3,70,0,0
86249,-100,4,2,5,70,0,0
86915,333.333333333333,4,2,1,70,1,0
86915,-90.9090909090909,4,2,1,70,0,0
87083,-90.9090909090909,4,2,5,70,0,0
89581,-90.9090909090909,4,2,1,75,0,0
89748,-90.9090909090909,4,2,5,75,0,0
92248,-90.9090909090909,4,2,1,75,0,0
92415,-90.9090909090909,4,2,5,75,0,0
92757,329.67032967033,4,2,5,75,1,0
92757,-90.9090909090909,4,2,5,75,0,0
93581,333.333333333333,4,2,5,75,1,0
93581,-90.9090909090909,4,2,5,75,0,0
94914,-90.9090909090909,4,2,1,75,0,0
95081,-90.9090909090909,4,2,5,75,0,0
97572,333.333333333333,4,2,2,60,1,0
97572,-142.857142857143,4,2,2,60,0,0
98905,-111.111111111111,4,2,1,50,0,0
99770,333.333333333333,4,2,1,50,1,0
100436,324.324324324324,4,2,1,50,1,0
101572,333.333333333333,4,2,1,50,1,0
106905,-111.111111111111,4,2,3,50,0,0
107905,-133.333333333333,4,2,1,40,0,0
109498,324.324324324324,4,2,1,40,1,0
109579,324.324324324324,4,2,1,30,1,0
109579,-133.333333333333,4,2,1,30,0,0
111038,-133.333333333333,4,2,1,20,0,0
112173,-133.333333333333,4,2,1,10,0,0
113470,-133.333333333333,4,2,1,5,0,0

[Colours]
Combo1 : 240,186,136
Combo2 : 240,112,108
Combo3 : 130,174,242
Combo4 : 168,120,188

[HitObjects]
481,231,234,5,4,0:0:0:0:
462,230,586,1,4,0:0:0:0:
363,291,743,5,8,0:3:0:0:
343,290,822,1,8,0:3:0:0:
324,289,901,1,8,0:3:0:0:
283,118,1067,1,8,0:3:0:0:
324,289,1234,1,8,0:3:0:0:
283,118,1400,1,8,0:3:0:0:
134,264,1567,6,0,P|78:211|87:134,1,160.650003064156,14|8,0:0|0:3,0:0:0:0:
159,182,2067,1,10,0:0:0:0:
159,182,2401,5,8,0:0:0:0:
7,91,2567,1,8,0:3:0:0:
85,102,2734,1,8,0:0:0:0:
160,74,2901,1,0,0:0:0:0:
206,11,3067,1,8,0:0:0:0:
159,182,3234,1,8,0:3:0:0:
235,156,3401,1,2,0:3:0:0:
243,156,3484,1,0,0:3:0:0:
250,156,3567,1,2,0:3:0:0:
258,156,3651,1,0,0:3:0:0:
266,156,3734,1,8,0:0:0:0:
436,202,3901,1,8,0:3:0:0:
486,140,4067,1,0,0:0:0:0:
313,308,4234,6,0,P|236:325|165:293,1,160.650003064156,14|8,0:2|0:3,0:0:0:0:
155,205,4734,1,10,0:0:0:0:
155,205,5067,5,8,0:0:0:0:
164,383,5234,1,8,0:3:0:0:
194,309,5401,1,8,0:0:0:0:
253,254,5567,1,0,0:3:0:0:
330,232,5734,1,8,0:0:0:0:
155,205,5901,1,8,0:3:0:0:
108,139,6067,1,2,0:3:0:0:
108,130,6151,1,0,0:0:0:0:
108,121,6234,1,2,0:3:0:0:
108,112,6317,1,0,0:0:0:0:
108,104,6401,1,8,0:0:0:0:
252,5,6567,1,8,0:3:0:0:
183,47,6734,1,0,0:3:0:0:
421,86,6901,6,0,B|436:124|421:163|421:163|405:202|421:241,1,160.650003064156,14|8,0:0|0:3,0:0:0:0:
503,204,7401,1,10,0:0:0:0:
503,204,7734,5,8,0:0:0:0:
337,122,7901,1,8,0:3:0:0:
262,152,8067,1,8,0:0:0:0:
231,77,8234,1,0,0:0:0:0:
306,47,8401,1,8,0:0:0:0:
142,114,8567,1,8,0:3:0:0:
92,177,8734,1,2,0:3:0:0:
90,185,8817,1,2,0:3:0:0:
89,193,8901,1,2,0:3:0:0:
88,201,8984,1,2,0:3:0:0:
87,209,9067,1,8,0:0:0:0:
121,380,9234,1,8,0:3:0:0:
84,308,9401,1,0,0:0:0:0:
312,377,9567,6,0,L|473:368,1,160.650003064156,14|8,0:0|0:3,0:0:0:0:
511,288,10067,1,10,0:0:0:0:
511,288,10401,1,8,0:0:0:0:
302,205,10566,2,0,L|424:198,1,122.849994376374,10|2,0:0|0:3,0:0:0:0:
510,208,11067,1,8,0:0:0:0:
302,205,11234,5,8,0:3:0:0:
338,109,11401,1,8,0:0:0:0:
343,85,11484,1,8,0:0:0:0:
348,61,11567,5,8,0:0:0:0:
149,242,11733,1,8,0:0:0:0:
406,324,11901,1,8,0:0:0:0:
225,125,12066,1,8,0:0:0:0:
198,83,12150,1,8,0:0:0:0:
170,42,12257,6,0,P|123:104|45:110,1,160.650003064156,14|8,0:0|0:3,0:0:0:0:
78,19,12755,1,10,0:0:0:0:
78,19,13088,5,8,0:0:0:0:
7,176,13254,1,8,0:3:0:0:
63,123,13421,1,8,0:0:0:0:
140,104,13587,1,0,0:0:0:0:
217,130,13753,1,8,0:0:0:0:
78,19,13919,1,8,0:3:0:0:
158,5,14086,1,2,0:3:0:0:
166,5,14169,1,2,0:3:0:0:
174,4,14252,1,2,0:3:0:0:
182,4,14335,1,2,0:3:0:0:
190,4,14418,1,8,0:0:0:0:
349,81,14585,1,8,0:3:0:0:
291,24,14751,1,0,0:0:0:0:
454,188,14917,6,0,B|419:288|419:288|437:340,1,160.650003064156,14|8,0:0|0:3,0:0:0:0:
512,291,15416,1,10,0:0:0:0:
512,291,15749,5,8,0:0:0:0:
360,383,15915,1,8,0:3:0:0:
408,317,16081,1,8,0:0:0:0:
416,239,16248,1,0,0:0:0:0:
383,169,16414,1,8,0:0:0:0:
512,291,16580,1,8,0:3:0:0:
457,349,16747,1,2,0:3:0:0:
449,348,16830,1,2,0:3:0:0:
440,347,16913,1,2,0:3:0:0:
432,346,16996,1,2,0:3:0:0:
424,345,17079,1,8,0:0:0:0:
251,305,17245,1,8,0:3:0:0:
308,361,17412,1,0,0:0:0:0:
114,218,17578,6,0,P|150:149|118:78,1,160.650003064156,14|8,0:0|0:3,0:0:0:0:
60,146,18077,1,10,0:0:0:0:
60,146,18409,5,8,0:0:0:0:
173,9,18576,1,8,0:3:0:0:
143,83,18742,1,8,0:0:0:0:
165,161,18908,1,0,0:0:0:0:
230,206,19075,1,8,0:0:0:0:
60,146,19241,1,8,0:3:0:0:
5,204,19407,1,2,0:3:0:0:
5,212,19490,1,2,0:3:0:0:
5,220,19574,1,2,0:3:0:0:
5,227,19657,1,2,0:3:0:0:
6,235,19740,1,8,0:0:0:0:
152,334,19906,1,8,0:3:0:0:
168,255,20072,1,0,0:0:0:0:
380,377,20239,6,0,P|367:299|397:227,1,160.650003064156,14|8,0:0|0:3,0:0:0:0:
461,164,20738,1,10,0:0:0:0:
461,164,21070,1,0,0:0:0:0:
326,76,21237,2,0,L|203:72,1,122.849994376374,10|2,0:0|0:3,0:0:0:0:
135,13,21735,1,8,0:0:0:0:
38,175,21902,5,8,0:3:0:0:
205,246,22068,1,4,0:3:0:0:
205,246,22151,1,0,0:3:0:0:
205,246,22234,1,8,0:0:0:0:
95,96,22401,1,8,3:0:0:0:
27,334,22567,1,8,3:0:0:0:
51,294,22650,1,8,3:0:0:0:
78,257,22733,1,4,3:0:0:0:
104,219,22816,1,4,3:0:0:0:
132,180,22900,6,0,P|201:147|274:176,1,160.650003064156,14|8,0:0|0:3,0:0:0:0:
328,243,23400,1,10,0:0:0:0:
328,243,23733,5,2,0:0:0:0:
396,79,23900,1,8,0:3:0:0:
462,226,24066,6,0,L|464:144,1,80.3250015320778,10|0,0:0|0:0,0:0:0:0:
501,52,24400,1,0,0:0:0:0:
362,160,24566,1,10,0:0:0:0:
405,298,24733,2,0,L|402:337,1,40.1625007660389,2|0,0:3|0:3,0:3:0:0:
315,320,24899,2,0,L|312:359,1,40.1625007660389,2|2,0:3|0:3,0:3:0:0:
226,342,25066,1,8,0:0:0:0:
129,188,25233,2,0,P|135:137|172:100,1,106.3125040555,10|0,0:0|0:0,0:0:0:0:
206,89,25566,6,0,P|128:80|80:18,1,160.650003064156,14|8,0:0|0:3,0:0:0:0:
0,85,26066,2,0,L|4:165,1,80.3250015320778,10|0,0:0|0:0,0:0:0:0:
75,278,26399,1,2,0:0:0:0:
214,171,26566,1,8,0:3:0:0:
269,238,26733,6,0,P|194:255|134:205,1,160.650003064156,10|8,0:0|0:0,0:0:0:0:
69,58,27233,1,10,0:3:0:0:
195,44,27399,1,2,0:3:0:0:
203,44,27483,1,2,0:3:0:0:
210,44,27566,1,2,0:3:0:0:
218,44,27649,1,2,0:3:0:0:
226,44,27733,1,8,0:0:0:0:
386,116,27899,1,8,0:3:0:0:
341,0,28066,1,2,0:0:0:0:
268,159,28233,6,0,P|267:238|303:309,1,160.650003064156,14|8,0:0|0:3,0:0:0:0:
370,368,28733,1,10,0:0:0:0:
370,368,29066,5,10,0:0:0:0:
423,199,29233,1,8,0:3:0:0:
430,319,29399,1,0,0:0:0:0:
243,260,29566,5,2,0:0:0:0:
250,140,29733,1,8,0:0:0:0:
303,309,29899,1,10,0:0:0:0:
177,180,30066,6,0,L|176:220,1,40.1625007660389,2|2,0:3|0:3,0:0:0:0:
110,109,30233,2,0,L|110:68,1,40.1625007660389,2|2,0:3|0:3,0:0:0:0:
198,190,30399,1,8,0:0:0:0:
322,98,30566,2,0,L|427:111,1,106.3125040555,10|0,0:0|0:0,0:0:0:0:
460,95,30899,6,0,P|418:160|440:235,1,160.650003064156,14|8,0:0|0:3,0:0:0:0:
510,291,31399,1,10,0:0:0:0:
510,291,31733,1,10,0:0:0:0:
352,351,31899,2,0,L|240:299,1,122.849994376374,10|2,0:0|0:3,0:0:0:0:
161,309,32399,1,8,0:0:0:0:
145,153,32566,6,0,P|148:180|144:206,2,53.5500010213852,10|0|0,0:0|0:0|0:0,0:0:0:0:
200,92,32899,2,0,P|219:90|239:92,1,40.1625007660389,2|0,0:0|0:0,0:0:0:0:
265,170,33066,2,0,P|246:172|226:170,1,40.1625007660389,2|0,0:0|0:0,0:0:0:0:
83,5,33233,1,8,0:0:0:0:
2,179,33399,1,8,0:3:0:0:
11,221,33483,1,8,0:3:0:0:
20,261,33566,6,0,P|90:228|160:262,1,160.650003064156,14|8,0:0|0:3,0:0:0:0:
233,326,34066,1,10,0:0:0:0:
233,326,34399,5,10,0:0:0:0:
409,332,34566,1,8,0:3:0:0:
280,251,34733,1,8,0:0:0:0:
413,178,34899,1,0,0:0:0:0:
280,251,35066,1,8,0:0:0:0:
456,257,35233,1,10,0:0:0:0:
370,99,35399,6,0,B|329:99,1,40.1625007660389,2|2,0:0|0:3,0:0:0:0:
229,19,35566,1,2,0:3:0:0:
229,19,35649,1,2,0:3:0:0:
229,19,35733,2,0,L|188:19,1,40.1625007660389,2|0,0:0|0:0,0:0:0:0:
44,116,35899,2,0,L|39:196,1,80.3250015320778,10|0,0:0|0:0,0:0:0:0:
156,351,36233,6,0,P|198:286|275:277,1,160.650003064156,14|8,0:0|0:3,0:0:0:0:
357,312,36733,1,10,0:0:0:0:
357,312,37066,5,10,0:0:0:0:
497,233,37233,1,8,0:3:0:0:
357,312,37399,6,0,L|350:191,1,120.487502298117,2|0,0:0|0:0,0:0:0:0:
364,108,37733,6,0,P|424:102|430:163,1,134.662496404123,2|0,0:0|0:0,0:0:0:0:
350,191,38066,6,0,B|269:191|269:191|225:217|225:217|158:216,1,198.449993943787,2|0,0:0|0:0,0:0:0:0:
61,154,38483,1,0,0:0:0:0:
44,136,38566,2,0,L|48:36,1,99.2249969718934,10|0,0:0|0:0,0:0:0:0:
34,288,38899,6,0,P|81:225|158:216,1,160.650003064156,14|8,0:0|0:3,0:0:0:0:
242,247,39399,1,10,0:0:0:0:
242,247,39733,5,10,0:0:0:0:
396,335,39899,1,8,0:3:0:0:
302,368,40066,1,0,0:0:0:0:
335,212,40233,6,0,P|342:172|337:132,1,80.3250015320778,2|8,0:0|0:0,0:0:0:0:
329,118,40483,1,0,0:0:0:0:
319,105,40566,1,8,0:3:0:0:
140,70,40733,1,0,0:0:0:0:
190,189,40899,1,2,0:0:0:0:
140,70,41066,1,8,0:0:0:0:
71,233,41233,1,8,0:3:0:0:
140,70,41399,1,0,0:0:0:0:
159,296,41566,6,0,L|317:270,1,160.650003064156,14|8,0:0|0:3,0:0:0:0:
401,299,42066,1,10,0:0:0:0:
401,299,42399,1,0,0:0:0:0:
330,136,42566,2,0,P|287:93|230:72,1,122.849994376374,10|0,0:0|0:0,0:0:0:0:
140,70,43066,1,8,0:0:0:0:
270,319,43233,6,0,L|264:230,1,89.7749976027489,12|0,0:0|0:0,0:0:0:0:
245,242,43483,1,10,0:0:0:0:
225,254,43566,1,8,0:3:0:0:
138,270,43733,1,8,3:0:0:0:
79,215,43899,1,4,3:0:0:0:
80,141,44066,1,0,3:0:0:0:
207,47,44251,6,0,P|302:74|390:34,1,200.812503830195,14|0,0:0|0:0,0:0:0:0:
418,8,44751,2,0,P|405:67|425:122,1,120.487502298117,10|0,0:0|0:0,0:0:0:0:
481,202,45084,6,0,L|472:272,1,70.8750027036668,4|0,0:3|0:0,0:0:0:0:
465,317,45334,1,8,0:3:0:0:
457,363,45417,1,8,0:3:0:0:
226,340,45584,2,0,L|217:268,1,70.8750027036668,8|0,0:3|0:0,0:0:0:0:
211,224,45834,1,8,0:3:0:0:
202,179,45917,1,8,0:3:0:0:
126,110,46084,1,4,0:3:0:0:
22,286,46251,5,8,0:3:0:0:
73,275,46334,1,8,0:3:0:0:
124,264,46417,1,8,0:3:0:0:
372,241,46584,1,8,0:3:0:0:
258,17,46751,1,8,0:3:0:0:
264,67,46834,1,8,0:3:0:0:
274,122,46917,6,0,P|266:220|200:294,1,200.812503830195,14|0,0:0|0:0,0:0:0:0:
173,322,47417,2,0,P|230:306|288:322,1,120.487502298117,10|0,0:0|0:0,0:0:0:0:
315,340,47751,1,8,0:0:0:0:
512,148,47917,5,12,0:0:0:0:
375,22,48084,1,8,0:3:0:0:
380,57,48167,1,0,0:3:0:0:
385,92,48250,1,4,0:3:0:0:
468,278,48417,1,8,0:3:0:0:
342,222,48584,2,0,L|270:216,1,70.8750027036668,2|0,0:3|0:0,0:0:0:0:
130,347,48917,1,8,0:3:0:0:
45,234,49084,2,0,L|30:265,2,35.4375013518334,8|0|2,0:0|0:0|0:0,0:0:0:0:
153,74,49417,2,0,L|160:108,1,35.4375013518334,10|0,0:0|0:0,0:0:0:0:
204,236,49584,6,0,P|294:275|387:248,1,200.812503830195,14|0,0:0|0:0,0:0:0:0:
416,225,50084,2,0,P|399:281|415:338,1,120.487502298117,10|0,0:0|0:0,0:0:0:0:
437,366,50417,1,0,0:0:0:0:
494,134,50584,2,0,L|511:103,2,35.4375013518334,10|0|2,0:0|0:0|0:0,0:0:0:0:
320,275,50917,6,0,P|318:328|328:380,2,107.10000204277,8|8|8,0:0|0:0|0:0,0:0:0:0:
155,229,51584,2,0,P|159:277|150:323,2,94.5000036048891,8|8|8,0:3|0:3|0:3,0:0:0:0:
18,61,52250,6,0,P|112:89|207:58,1,200.812503830195,14|0,0:0|0:0,0:0:0:0:
232,32,52750,2,0,P|216:89|234:145,1,120.487502298117,10|0,0:0|0:0,0:0:0:0:
253,176,53084,1,8,0:0:0:0:
473,97,53250,6,0,L|381:86,1,92.1374957822802,14|0,0:0|0:0,0:0:0:0:
352,92,53584,1,8,0:0:0:0:
432,313,53750,1,8,0:3:0:0:
445,200,53917,2,0,L|372:202,1,70.8750027036668,2|0,0:3|0:0,0:0:0:0:
162,314,54250,1,8,0:3:0:0:
162,314,54334,2,0,P|171:276|166:236,1,80.3250015320778,2|8,0:0|0:3,0:0:0:0:
148,203,54584,1,8,0:0:0:0:
34,263,54750,2,0,L|74:269,1,40.1625007660389,10|0,0:0|0:0,0:0:0:0:
275,286,54907,6,0,P|245:203|271:119,1,179.549995205498,14|6,0:0|0:0,0:0:0:0:
313,55,55407,1,2,0:3:0:0:
115,20,55573,2,0,P|132:57|135:97,1,80.3250015320778,12|0,0:0|0:0,0:0:0:0:
160,258,55907,5,6,0:0:0:0:
136,257,55990,1,0,0:0:0:0:
112,258,56074,2,0,L|71:258,1,40.1625007660389,2|0,0:0|0:0,0:0:0:0:
29,334,56240,2,0,L|109:335,1,80.3250015320778,14|0,0:0|0:0,0:0:0:0:
133,336,56490,1,2,0:3:0:0:
156,338,56574,1,6,0:0:0:0:
290,234,56740,1,2,0:3:0:0:
189,47,56907,1,12,0:0:0:0:
165,225,57074,5,0,0:0:0:0:
239,140,57240,2,0,L|278:143,1,40.1625007660389,6|0,0:0|0:0,0:0:0:0:
189,47,57407,2,0,L|145:42,1,44.8874988013745,2|0,0:0|0:0,0:0:0:0:
313,55,57574,6,0,P|367:110|362:188,1,160.650003064156,14|6,0:0|0:0,0:0:0:0:
288,250,58074,1,10,0:0:0:0:
486,331,58240,2,0,L|482:250,1,80.3250015320778,14|0,0:0|0:0,0:0:0:0:
362,188,58574,1,6,0:0:0:0:
364,214,58657,1,2,0:0:0:0:
365,242,58740,2,0,L|368:322,1,80.3250015320778,2|4,0:0|0:0,0:0:0:0:
209,375,59074,1,2,0:0:0:0:
209,375,59157,2,0,P|224:317|208:260,1,120.487502298117,8|8,0:0|0:0,0:0:0:0:
34,160,59574,1,12,0:0:0:0:
159,58,59740,6,0,L|152:138,1,80.3250015320778,2|4,0:0|0:0,0:0:0:0:
0,76,60074,1,8,0:0:0:0:
252,49,60240,6,0,P|324:79|356:150,1,160.650003064156,14|4,0:0|0:0,0:0:0:0:
360,247,60740,1,2,0:0:0:0:
478,55,60907,2,0,P|487:132|442:196,1,160.650003064156,12|4,0:0|0:0,0:0:0:0:
360,247,61407,1,0,0:0:0:0:
486,316,61574,1,6,0:3:0:0:
327,363,61740,6,0,L|286:360,1,40.1625007660389,2|2,0:0|0:3,0:0:0:0:
319,249,61907,2,0,L|360:247,1,40.1625007660389,6|0,0:0|0:0,0:0:0:0:
166,300,62074,1,2,0:0:0:0:
166,300,62157,1,2,0:0:0:0:
166,300,62240,2,0,P|178:263|170:224,1,80.3250015320778,14|0,0:0|0:0,0:0:0:0:
78,61,62574,2,0,P|65:98|73:137,1,80.3250015320778,4|0,0:0|0:0,0:0:0:0:
306,96,62907,6,0,L|146:103,1,160.650003064156,14|8,0:0|0:0,0:0:0:0:
73,137,63324,1,2,0:0:0:0:
97,169,63407,1,8,0:3:0:0:
109,208,63490,1,0,0:0:0:0:
107,248,63574,1,2,0:0:0:0:
92,285,63657,1,0,0:0:0:0:
65,314,63740,2,0,L|105:315,1,40.1625007660389,10|2,0:0|0:0,0:0:0:0:
275,348,63907,6,0,P|256:273|300:208,1,160.650003064156,14|8,0:0|0:0,0:0:0:0:
509,157,64407,1,8,0:3:0:0:
389,2,64574,2,0,L|374:121,1,120.487502298117,8|4,0:0|0:3,0:0:0:0:
383,152,64907,1,4,3:0:0:0:
423,247,65074,1,8,3:0:0:0:
454,321,65240,1,8,0:3:0:0:
454,321,65574,5,10,0:0:0:0:
384,284,65740,1,0,0:0:0:0:
307,299,65907,1,0,0:0:0:0:
208,198,66074,2,0,P|205:127|244:68,1,141.750005407334,2|8,0:0|0:0,0:0:0:0:
195,7,66574,1,0,0:0:0:0:
80,90,66740,2,0,L|108:231,1,141.750005407334,2|8,0:0|0:0,0:0:0:0:
93,306,67240,1,0,0:0:0:0:
244,265,67407,2,0,L|305:269,1,61.4249971881868,2|8,0:0|0:0,0:0:0:0:
377,349,67740,2,0,L|315:344,1,61.4249971881868,2|0,0:0|0:0,0:0:0:0:
395,266,68074,1,2,0:0:0:0:
395,266,68157,1,0,0:0:0:0:
395,266,68240,5,10,0:0:0:0:
440,202,68407,1,0,0:0:0:0:
418,127,68574,1,0,0:0:0:0:
301,46,68740,2,0,L|159:44,1,141.750005407334,2|8,0:0|0:0,0:0:0:0:
93,1,69240,1,0,0:0:0:0:
31,127,69407,2,0,P|25:196|62:255,1,141.750005407334,2|8,0:0|0:0,0:0:0:0:
133,294,69907,1,0,0:0:0:0:
260,160,70074,2,0,L|137:168,1,122.849994376374,2|8,0:0|0:0,0:0:0:0:
144,175,70740,1,2,0:0:0:0:
144,175,70824,1,0,0:0:0:0:
144,175,70907,5,10,0:0:0:0:
172,249,71074,1,0,0:0:0:0:
135,318,71240,1,0,0:0:0:0:
271,359,71407,2,0,P|320:311|388:318,1,141.750005407334,2|8,0:0|0:0,0:0:0:0:
452,365,71907,1,0,0:0:0:0:
504,233,72074,2,0,L|501:91,1,141.750005407334,2|8,0:0|0:0,0:0:0:0:
455,29,72574,1,0,0:0:0:0:
333,103,72740,2,0,P|304:97|273:98,1,61.4249971881868,2|8,0:0|0:0,0:0:0:0:
223,190,73074,2,0,P|254:196|284:195,1,61.4249971881868,2|0,0:0|0:0,0:0:0:0:
178,100,73407,1,2,0:0:0:0:
178,100,73490,1,0,0:0:0:0:
178,100,73574,5,2,0:0:0:0:
115,146,73740,1,0,0:0:0:0:
37,141,73907,1,0,0:0:0:0:
85,273,74074,2,0,P|152:253|217:277,1,141.750005407334,2|8,0:0|0:0,0:0:0:0:
283,320,74574,1,0,0:0:0:0:
350,180,74740,2,0,P|299:134|230:138,1,141.750005407334,2|0,0:0|0:0,0:0:0:0:
156,165,75272,1,0,0:0:0:0:
156,165,75516,6,0,L|158:117,2,47.25,2|10|8,0:0|0:0|0:0,0:0:0:0:
114,266,75739,1,8,0:0:0:0:
164,279,75822,1,8,0:0:0:0:
214,292,75905,1,8,0:0:0:0:
447,154,76072,1,8,0:0:0:0:
397,167,76155,1,8,0:0:0:0:
347,180,76250,5,14,0:0:0:0:
243,70,76416,1,2,0:0:0:0:
497,141,76568,1,6,0:0:0:0:
378,288,76734,2,0,B|283:281,1,94.5,10|0,0:0|0:0,0:0:0:0:
116,311,77067,5,0,0:0:0:0:
347,180,77234,1,6,0:0:0:0:
168,118,77401,2,0,L|175:212,1,94.5,10|0,0:0|0:0,0:0:0:0:
183,382,77734,5,0,0:0:0:0:
73,136,77901,1,6,0:0:0:0:
262,138,78080,2,0,P|331:126|379:75,1,141.75,10|0,0:0|0:0,0:0:0:0:
410,6,78413,1,10,0:0:0:0:
397,51,78496,1,0,0:0:0:0:
395,98,78580,1,4,0:0:0:0:
406,144,78663,1,0,0:0:0:0:
428,186,78746,1,2,0:0:0:0:
459,221,78830,1,0,0:0:0:0:
499,246,78913,5,2,0:0:0:0:
475,96,79081,1,0,0:0:0:0:
251,239,79250,1,6,0:0:0:0:
424,280,79418,2,0,L|428:185,1,94.5,10|0,0:0|0:0,0:0:0:0:
322,51,79755,5,0,0:0:0:0:
126,229,79924,1,6,0:0:0:0:
231,383,80092,2,0,P|278:384|319:361,1,94.5,10|0,0:0|0:0,0:0:0:0:
411,217,80414,5,0,0:0:0:0:
167,316,80580,1,6,0:0:0:0:
231,146,80746,2,0,L|238:231,1,85.0499974044801,10|8,0:0|0:0,0:0:0:0:
319,362,81067,1,8,0:0:0:0:
401,147,81236,1,4,0:0:0:0:
245,238,81405,1,14,0:0:0:0:
245,238,81490,1,14,0:0:0:0:
245,238,81574,5,14,0:0:0:0:
379,309,81740,1,0,0:0:0:0:
307,53,81907,1,6,0:0:0:0:
144,148,82074,2,0,L|144:242,1,94.5,10|0,0:0|0:0,0:0:0:0:
220,374,82408,5,0,0:0:0:0:
9,214,82575,1,6,0:0:0:0:
131,70,82742,2,0,P|178:75|212:106,1,94.5,10|0,0:0|0:0,0:0:0:0:
291,236,83076,5,0,0:0:0:0:
467,38,83243,1,6,0:0:0:0:
279,3,83410,2,0,L|288:97,1,94.5,10|0,0:0|0:0,0:0:0:0:
362,252,83749,1,10,0:0:0:0:
404,0,83916,1,6,0:0:0:0:
498,184,84083,1,10,0:0:0:0:
498,184,84166,1,10,0:0:0:0:
498,184,84249,5,14,0:0:0:0:
384,71,84416,1,0,0:0:0:0:
308,323,84583,1,6,0:0:0:0:
410,163,84749,2,0,P|365:150|321:166,1,94.5,10|0,0:0|0:0,0:0:0:0:
218,276,85083,5,0,0:0:0:0:
303,25,85249,1,6,0:0:0:0:
470,109,85416,2,0,B|452:167|452:167|475:273,1,170.09999480896,10|0,0:0|0:0,0:0:0:0:
285,356,85916,2,0,L|298:250,1,106.3125040555,12|0,0:0|0:0,0:0:0:0:
321,166,86249,5,14,0:0:0:0:
279,175,86333,1,2,0:0:0:0:
237,165,86416,2,0,L|193:145,1,47.25,6|0,0:0|0:0,0:0:0:0:
81,88,86583,1,10,0:0:0:0:
95,132,86666,1,0,0:0:0:0:
99,179,86749,1,6,0:0:0:0:
94,226,86833,1,6,0:0:0:0:
77,269,86916,6,0,P|122:243|173:247,1,103.950003172302,14|8,0:0|0:0,0:0:0:0:
441,338,87249,1,4,0:0:0:0:
278,174,87416,6,0,L|290:380,1,207.900006344605,8|0,0:0|0:0,0:0:0:0:
453,217,87916,1,6,0:0:0:0:
453,217,87999,1,2,0:0:0:0:
453,217,88081,6,0,L|443:60,1,155.925004758454,10|0,0:0|0:0,0:0:0:0:
366,15,88415,2,0,P|340:22|314:23,1,51.9750015861512,2|0,0:0|0:0,0:0:0:0:
195,85,88581,2,0,P|219:77|245:76,1,51.9750015861512,6|0,0:0|0:0,0:0:0:0:
154,3,88748,6,0,P|104:88|160:169,1,207.900006344605,10|8,0:0|0:0,0:0:0:0:
453,217,89248,1,4,0:0:0:0:
249,324,89415,1,2,0:0:0:0:
211,320,89498,1,2,0:0:0:0:
175,316,89581,5,14,0:0:0:0:
195,85,89748,1,2,0:0:0:0:
453,217,89915,1,4,0:0:0:0:
219,209,90081,5,2,0:0:0:0:
357,18,90248,1,2,0:0:0:0:
353,247,90415,1,8,0:0:0:0:
86,172,90581,1,6,0:0:0:0:
298,94,90748,1,2,0:0:0:0:
17,123,90915,6,0,P|1:171|15:220,1,103.950003172302,2|0,0:0|0:0,0:0:0:0:
244,384,91249,1,6,0:0:0:0:
293,163,91416,2,0,L|86:171,1,207.900006344605,10|8,0:0|0:0,0:0:0:0:
305,324,91916,1,4,0:0:0:0:
305,324,92248,6,0,B|311:288|311:288|304:268|304:268|316:223,1,103.950003172302,14|0,0:0|0:0,0:0:0:0:
497,12,92581,1,6,0:0:0:0:
284,14,92757,2,0,L|276:118,1,103.950003172302,10|0,0:0|0:0,0:0:0:0:
385,283,93086,1,8,0:0:0:0:
147,132,93251,2,0,L|134:28,1,103.950003172302,6|0,0:0|0:0,0:0:0:0:
54,243,93581,6,0,P|28:235|3:234,1,51.9750015861512,2|0,0:0|0:0,0:0:0:0:
132,297,93748,2,0,P|156:289|182:288,1,51.9750015861512,10|0,0:0|0:0,0:0:0:0:
385,283,93915,1,6,0:0:0:0:
385,283,93998,1,2,0:0:0:0:
385,283,94081,2,0,P|286:269|249:178,1,207.900006344605,10|0,0:0|0:0,0:0:0:0:
472,5,94581,2,0,P|455:54|462:105,1,103.950003172302,6|0,0:0|0:0,0:0:0:0:
251,9,94914,6,0,L|147:-1,1,103.950003172302,14|0,0:0|0:0,0:0:0:0:
108,15,95164,1,2,0:0:0:0:
70,30,95248,1,6,0:0:0:0:
249,176,95414,1,8,0:0:0:0:
140,325,95581,5,2,0:0:0:0:
132,283,95664,1,2,0:0:0:0:
142,242,95748,2,0,L|162:194,1,51.9750015861512,10|0,0:0|0:0,0:0:0:0:
272,72,95914,2,0,L|221:85,1,51.9750015861512,6|0,0:0|0:0,0:0:0:0:
9,167,96081,1,8,0:0:0:0:
293,331,96248,6,0,P|369:340|437:305,1,155.925004758454,14|0,0:0|0:0,0:0:0:0:
452,284,96581,1,4,0:3:0:0:
510,383,96748,1,8,0:3:0:0:
324,129,96914,1,4,0:0:0:0:
246,198,97081,1,4,0:3:0:0:
166,170,97248,1,8,0:3:0:0:
166,170,97572,5,12,0:0:0:0:
327,292,97905,1,8,0:0:0:0:
327,292,98238,6,0,L|217:280,2,110.249996635437,8|4|4,0:3|0:3|0:3,0:3:0:0:
396,259,98905,6,0,P|423:182|372:118,1,170.09999480896,14|0,0:0|0:0,0:0:0:0:
228,111,99405,2,0,L|185:109,1,42.52499870224,2|0,0:3|0:0,0:0:0:0:
185,109,99770,5,8,0:0:0:0:
271,314,99936,1,8,0:3:0:0:
271,314,100269,5,8,0:0:0:0:
94,180,100436,1,8,0:3:0:0:
94,180,100760,5,8,0:0:0:0:
180,384,100922,1,8,0:3:0:0:
314,208,101084,1,8,0:3:0:0:
271,314,101246,2,0,L|251:270,1,47.25,2|0,0:0|0:0,0:0:0:0:
207,164,101408,2,0,L|179:203,1,47.25,10|0,0:0|0:0,0:0:0:0:
97,335,101572,6,0,P|17:294|12:204,1,189,14|0,0:0|0:0,0:0:0:0:
55,117,102072,1,10,0:0:0:0:
90,246,102238,1,0,0:0:0:0:
151,78,102405,1,8,0:0:0:0:
186,304,102572,1,8,0:3:0:0:
256,192,102738,1,8,0:0:0:0:
256,192,102822,1,8,0:0:0:0:
256,192,102905,5,8,0:0:0:0:
445,237,103072,2,0,L|473:274,2,47.25,8|0|8,0:3|0:0|0:0,0:0:0:0:
415,199,103322,1,8,0:3:0:0:
385,161,103405,1,8,0:3:0:0:
253,325,103572,2,0,P|212:304|165:301,1,94.5,4|0,0:3|0:0,0:0:0:0:
124,315,103822,1,8,0:3:0:0:
81,335,103905,1,8,0:3:0:0:
127,106,104072,1,8,0:3:0:0:
169,132,104155,1,8,0:3:0:0:
210,158,104238,6,0,P|299:177|363:112,1,189,14|0,0:0|0:0,0:0:0:0:
365,10,104738,1,10,0:0:0:0:
365,10,105072,5,8,0:0:0:0:
427,231,105238,2,0,L|421:325,1,94.5,8|0,0:3|0:0,0:0:0:0:
506,231,105572,5,10,0:0:0:0:
282,185,105738,2,0,P|235:185|195:210,1,94.5,8|0,0:3|0:0,0:0:0:0:
185,225,105988,1,0,0:0:0:0:
176,242,106072,5,10,0:0:0:0:
70,75,106238,2,0,P|116:73|159:92,1,94.5,8|0,0:0|0:0,0:0:0:0:
173,102,106488,1,4,0:3:0:0:
184,115,106572,1,4,0:3:0:0:
264,308,106738,1,8,0:3:0:0:
433,123,106905,5,12,0:3:0:0:
132,261,107072,1,8,0:0:0:0:
132,261,107238,1,8,0:0:0:0:
500,231,107405,5,12,0:3:0:0:
225,46,107572,1,8,0:0:0:0:
225,46,107738,1,8,0:0:0:0:
482,314,107905,6,0,B|453:304|411:285|402:216|434:179|434:179|389:245|315:246|315:246|242:246|197:314|197:314|230:275|226:194|163:179|136:177,1,637.875024333001,6|0,0:0|0:0,0:0:0:0:
118,176,109498,1,2,0:0:0:0:
100,172,109579,6,0,B|66:130|77:67|129:42|129:42|33:55|15:185|47:216|66:232|66:232|88:251|102:285|98:323,1,496.125018925668,2|0,0:0|0:0,0:0:0:0:
96,339,110795,1,0,0:0:0:0:
94,356,110876,1,0,0:0:0:0:
92,373,110957,1,2,0:0:0:0:
256,192,111038,12,0,113470,0:0:0:0:
