osu file format v14

[General]
AudioFilename: audio.mp3
AudioLeadIn: 0
PreviewTime: -1
Countdown: 0
SampleSet: None
StackLeniency: 0.7
Mode: 0
LetterboxInBreaks: 0
WidescreenStoryboard: 0

[Editor]
Bookmarks: 272,3191,5786,16489,35624,45678,54435,75840,96597,106651,115408,137137,157245,162435,171191,197786,208489,211083
DistanceSpacing: 1.9
BeatDivisor: 4
GridSize: 8
TimelineZoom: 1.8

[Metadata]
Title:Welcome to chaos (Short Ver.)
TitleUnicode:Welcome to chaos (Short Ver.)
Artist:(K)NoW_NAME
ArtistUnicode:(K)NoW_NAME
Creator:Lovelyexe
Version:4,49*
Source:
Tags:dorohedoro anime japanese op opening j-rock jrock rock welcome to chaos know_name (k)now_name know name k now name
BeatmapID:3632445
BeatmapSetID:1774060

[Difficulty]
HPDrainRate:5
CircleSize:4
OverallDifficulty:7
ApproachRate:8.3
SliderMultiplier:1.6
SliderTickRate:1

[Events]
//Background and Video events
0,0,"1Welcome to chaos.png",0,0
//Break Periods
2,35905,44974
//Storyboard Layer 0 (Background)
//Storyboard Layer 1 (Fail)
//Storyboard Layer 2 (Pass)
//Storyboard Layer 3 (Foreground)
//Storyboard Layer 4 (Overlay)
//Storyboard Sound Samples

[TimingPoints]
-700,324.324324324324,4,2,1,100,1,0
272,-250,4,2,1,60,0,0
3191,-117.647058823529,4,2,1,80,0,0
16489,-117.647058823529,4,2,1,85,0,0
52651,-1000,4,2,1,85,0,0
54435,-153.846153846153,4,2,1,85,0,1
55083,-100,4,2,1,85,0,1
75840,-100,4,2,1,85,0,0

[Colours]
Combo1 : 182,27,10
Combo2 : 185,92,0
Combo3 : 0,159,0
Combo4 : 206,176,11

[HitObjects]
176,136,354,5,0,0:0:0:0:
256,104,516,1,0,0:0:0:0:
256,152,678,2,0,P|280:200|272:240,1,96
272,239,1327,2,0,P|288:264|376:256,1,128
375,256,2137,2,0,P|400:216|392:160,1,96
396,169,2786,2,0,P|352:128|336:128,1,80
256,56,3354,5,8,1:2:0:0:
232,40,3435,1,8,1:2:0:0:
208,64,3516,1,8,1:2:0:0:
184,40,3597,1,8,1:2:0:0:
152,48,3678,2,4,L|152:136,1,68.0000012969971,4|4,1:2|1:2,1:2:0:0:
168,184,4002,5,8,1:2:0:0:
192,160,4083,1,8,1:2:0:0:
216,184,4164,1,8,1:2:0:0:
248,168,4245,1,8,1:2:0:0:
280,176,4327,2,4,L|280:248,1,68.0000012969971,4|4,1:2|1:2,1:2:0:0:
416,248,4651,5,8,1:2:0:0:
432,216,4732,1,8,1:2:0:0:
416,184,4813,1,8,1:2:0:0:
432,152,4894,1,8,1:2:0:0:
416,120,4975,2,4,L|336:120,1,68.0000012969971,4|4,1:2|1:2,1:2:0:0:
400,80,5381,5,8,1:2:0:0:
312,128,5624,1,4,1:2:0:0:
112,112,5948,5,8,1:3:0:0:
216,104,6110,1,2,1:2:0:0:
128,152,6272,2,10,P|176:192|176:240,1,102.000001945496,10|10,1:2|1:2,1:2:0:0:
280,200,6678,1,8,1:3:0:0:
368,144,6840,1,2,1:2:0:0:
264,160,7002,2,10,P|232:128|248:72,1,102.000001945496,10|10,1:2|1:2,1:2:0:0:
144,48,7408,5,8,1:3:0:0:
240,72,7570,1,2,1:2:0:0:
136,88,7732,2,10,P|152:136|208:168,1,102.000001945496,10|10,1:2|1:2,1:2:0:0:
280,120,8137,5,8,1:3:0:0:
376,160,8299,1,2,1:2:0:0:
272,152,8462,2,4,B|264:160|256:160|264:168|256:168|264:176|256:176|264:184|256:184|264:192|256:192|264:200|256:200|264:208|248:216|264:224|240:224|256:240|232:240|248:248,1,102.000001945496,4|4,1:2|1:2,1:2:0:0:
352,240,8867,5,8,1:3:0:0:
448,216,9029,1,2,1:2:0:0:
344,208,9191,2,10,P|320:144|288:120,1,102.000001945496,10|10,1:2|1:2,1:2:0:0:
192,112,9597,5,8,1:3:0:0:
88,120,9759,1,2,1:2:0:0:
184,144,9921,2,10,P|160:176|88:232,1,102.000001945496,10|10,1:2|1:2,1:2:0:0:
208,248,10327,5,8,1:3:0:0:
304,216,10489,1,2,1:2:0:0:
224,280,10651,2,10,B|256:296|256:304|264:304|264:312|272:304|272:312|280:304|280:312|296:312|296:320|312:312|312:328,1,102.000001945496,10|10,1:2|1:2,1:2:0:0:
400,272,11056,5,2,1:2:0:0:
432,232,11137,1,2,1:2:0:0:
416,184,11218,1,2,1:2:0:0:
416,184,11299,2,8,B|392:176|392:160|384:168|384:176|384:176|368:184|368:176|376:160|384:152|360:176|352:192|320:160,1,102.000001945496,8|8,1:2|1:2,1:2:0:0:
280,88,11705,5,8,1:2:0:0:
184,64,11867,1,2,1:2:0:0:
264,120,12029,2,4,B|232:136|256:144|240:152|232:152|248:160|264:160|240:168|224:168|248:176|256:184|232:192|240:200|248:216|224:208,1,102.000001945496,4|4,1:2|1:2,1:2:0:0:
128,192,12435,5,8,1:2:0:0:
24,208,12597,1,2,1:2:0:0:
128,224,12759,2,10,P|168:264|224:264,1,102.000001945496,10|10,1:2|1:2,1:2:0:0:
304,216,13164,5,8,1:2:0:0:
384,152,13327,1,2,1:2:0:0:
288,192,13489,2,10,P|256:144|200:128,1,102.000001945496,10|10,1:2|1:2,1:2:0:0:
136,64,13894,5,8,1:2:0:0:
240,64,14056,1,2,1:2:0:0:
144,104,14218,2,10,P|184:144|240:168,1,102.000001945496,10|10,1:2|1:2,1:2:0:0:
152,232,14624,5,8,1:2:0:0:
256,240,14786,1,2,1:2:0:0:
168,192,14948,2,10,P|144:152|176:96,1,102.000001945496,10|10,1:2|1:2,1:2:0:0:
264,120,15354,5,8,0:0:0:0:
240,216,15516,1,8,0:0:0:0:
288,128,15678,2,4,P|328:184|368:176,3,102.000001945496,4|4|4|4,1:2|1:2|1:2|1:2,1:2:0:0:
256,192,17543,5,2,1:2:0:0:
256,192,17705,2,8,P|256:144|312:128,1,102.000001945496,8|8,1:2|1:2,1:2:0:0:
248,40,18110,1,2,1:2:0:0:
248,40,18272,2,10,P|200:40|168:80,1,102.000001945496,10|10,1:2|1:2,1:2:0:0:
64,80,18678,5,10,1:2:0:0:
64,80,18840,2,2,P|104:144|136:152,1,102.000001945496,2|2,1:2|1:2,1:2:0:0:
216,192,19245,1,2,1:2:0:0:
216,192,19408,2,4,P|264:160|328:152,1,102.000001945496,4|4,1:2|1:2,1:2:0:0:
391,95,19813,5,2,1:2:0:0:
512,184,19975,1,8,1:2:0:0:
480,184,20056,1,8,1:2:0:0:
448,184,20137,1,8,1:2:0:0:
391,95,20299,2,2,P|336:64|288:72,1,102.000001945496,2|2,1:2|1:2,1:2:0:0:
272,96,20624,5,0,0:0:0:0:
272,96,20705,2,0,P|256:152|240:152,1,68.0000012969971
136,136,21029,1,0,0:0:0:0:
200,240,21191,1,0,0:0:0:0:
320,240,21354,1,0,0:0:0:0:
320,240,21516,6,2,P|296:200|240:168,1,102.000001945496,2|2,1:2|1:2,1:2:0:0:
224,176,21840,1,8,1:2:0:0:
224,176,21921,2,2,P|168:144|128:64,1,136.000002593994,2|2,1:2|1:2,1:2:0:0:
256,64,22408,5,8,0:0:0:0:
352,136,22570,1,8,0:0:0:0:
352,192,22732,1,8,0:0:0:0:
352,192,22894,2,0,P|304:216|272:200,1,68.0000012969971
256,232,23137,1,0,0:0:0:0:
256,232,23218,2,0,P|256:288|272:296,1,68.0000012969971
136,272,23543,5,8,1:3:0:0:
64,176,23705,1,8,1:3:0:0:
168,240,23867,2,2,P|160:192|208:144,1,102.000001945496
190,151,24191,1,8,0:0:0:0:
190,151,24272,2,2,P|160:168|176:248,1,102.000001945496
272,280,24678,6,4,P|336:264|376:184,1,136.000002593994,4|4,1:2|1:2,1:2:0:0:
319,97,25245,1,2,0:0:0:0:
319,97,25408,2,2,P|287:132|210:131,1,102.000001945496
216,167,25732,1,8,0:0:0:0:
194,199,25813,1,8,0:0:0:0:
191,236,25894,1,8,0:0:0:0:
211,261,25975,2,4,L|283:239,1,68.0000012969971
391,201,26299,6,2,L|295:232,1,68.0000012969971
252,123,26624,2,2,L|287:208,1,68.0000012969971
192,272,26948,2,0,L|328:224,1,136.000002593994
344,248,27435,1,8,0:0:0:0:
344,248,27516,1,8,1:3:0:0:
344,248,27597,1,8,1:2:0:0:
384,136,27759,6,0,P|352:96|304:96,2,102.000001945496
320,144,28408,2,0,P|280:176|264:168,3,68.0000012969971
270,172,29056,5,2,1:2:0:0:
168,240,29218,1,8,1:3:0:0:
168,240,29299,1,8,1:3:0:0:
160,120,29462,2,10,P|128:168|72:192,1,102.000001945496,10|10,1:3|1:3,1:3:0:0:
96,312,29867,2,4,P|152:304|208:336,1,102.000001945496,4|4,1:3|1:3,1:3:0:0:
312,296,30272,5,8,0:0:0:0:
312,176,30435,1,8,0:0:0:0:
432,208,30597,1,8,1:3:0:0:
328,264,30759,1,8,1:3:0:0:
208,240,30921,5,8,0:0:0:0:
152,136,31083,1,8,0:0:0:0:
88,256,31245,1,8,1:3:0:0:
224,184,31408,1,8,1:3:0:0:
224,184,31570,2,0,P|248:128|288:104,1,102.000001945496
288,120,31894,5,2,1:3:0:0:
288,120,31975,1,2,1:3:0:0:
288,120,32056,2,0,P|232:136|192:128,1,68.0000012969971
223,135,32299,2,2,P|176:136|112:200,1,136.000002593994,2|2,1:3|1:3,1:3:0:0:
113,194,32786,1,4,0:0:0:0:
192,296,32948,5,8,0:0:0:0:
248,272,33110,1,8,0:0:0:0:
352,224,33272,5,8,1:3:0:0:
328,176,33435,1,8,1:3:0:0:
264,112,33597,5,8,0:0:0:0:
216,144,33759,1,8,0:0:0:0:
128,184,33921,5,8,1:3:0:0:
160,232,34083,1,4,1:3:0:0:
248,232,34245,5,8,0:0:0:0:
248,280,34408,1,8,0:0:0:0:
96,240,34570,2,0,L|176:240,1,68.0000012969971
112,272,34813,2,0,L|192:272,1,68.0000012969971
264,184,35137,2,0,L|344:184,1,68.0000012969971
280,224,35381,2,0,L|440:224,1,136.000002593994
56,136,45678,6,8,P|120:96|224:72,1,170.000003242493,8|8,1:3|1:3,1:3:0:0:
312,72,46245,1,8,0:0:0:0:
272,168,46408,1,8,0:0:0:0:
376,160,46570,1,8,0:0:0:0:
352,288,46732,6,8,P|312:264|248:256,1,102.000001945496,8|8,1:3|1:3,1:3:0:0:
257,255,47137,1,8,0:0:0:0:
160,216,47299,1,8,0:0:0:0:
264,216,47462,1,8,0:0:0:0:
312,128,47624,2,8,P|376:168|368:232,1,136.000002593994,8|8,1:3|1:3,1:3:0:0:
416,280,48110,5,8,0:0:0:0:
312,280,48272,1,8,0:0:0:0:
368,368,48435,1,8,0:0:0:0:
232,320,48597,6,8,P|176:288|152:224,1,136.000002593994,8|8,1:3|1:3,1:3:0:0:
216,144,49083,1,8,0:0:0:0:
112,144,49245,1,8,0:0:0:0:
208,176,49408,1,8,0:0:0:0:
288,240,49570,6,0,P|352:192|384:136,1,136.000002593994
320,64,50056,1,8,0:0:0:0:
224,32,50218,1,8,0:0:0:0:
168,120,50381,1,8,0:0:0:0:
264,160,50543,2,0,P|320:176|328:232,1,102.000001945496,0|0,1:3|1:3,1:3:0:0:
232,224,50948,5,8,0:0:0:0:
128,224,51110,1,8,0:0:0:0:
128,328,51272,1,8,0:0:0:0:
232,320,51435,2,0,B|288:320|320:288|328:264,2,102.000001945496,0|0|0,1:3|1:3|1:3,1:3:0:0:
216,240,52002,5,8,0:0:0:0:
208,208,52083,1,8,0:0:0:0:
216,176,52164,1,8,0:0:0:0:
232,152,52245,1,8,0:0:0:0:
256,136,52327,1,8,0:0:0:0:
288,128,52408,1,8,0:0:0:0:
320,120,52489,1,8,0:0:0:0:
352,128,52570,1,8,0:0:0:0:
352,128,52651,2,4,P|360:168|368:208,1,80
248,240,54597,6,0,P|200:192|192:96,1,155.999992858887
256,120,55245,1,8,0:0:0:0:
376,248,55408,1,8,0:0:0:0:
200,264,55570,2,8,P|152:232|120:128,1,160,8|8,1:3|1:3,1:3:0:0:
280,64,56056,5,8,0:0:0:0:
176,208,56218,1,8,1:3:0:0:
176,32,56381,1,8,1:2:0:0:
304,152,56543,1,8,1:2:0:0:
336,328,56705,6,2,P|432:296|480:336,1,160
448,152,57191,1,8,1:2:0:0:
272,152,57354,1,2,1:2:0:0:
448,144,57516,1,2,1:2:0:0:
272,144,57678,1,8,1:2:0:0:
280,320,57840,6,2,P|224:256|200:200,2,120
384,176,58489,1,8,0:0:0:0:
384,0,58651,1,8,0:0:0:0:
208,0,58813,1,2,1:3:0:0:
208,0,58975,2,2,P|200:64|112:120,1,160,2|2,1:3|1:3,1:3:0:0:
127,118,59462,5,8,0:0:0:0:
288,184,59624,1,8,1:3:0:0:
128,264,59786,1,8,1:3:0:0:
224,112,59948,1,8,0:0:0:0:
360,248,60110,2,4,P|296:248|184:296,1,160
96,144,60597,6,2,L|168:216,1,80,2|2,1:2|1:2,1:2:0:0:
128,144,60840,2,0,L|184:200,1,80,0|0,1:2|1:2,1:2:0:0:
352,160,61164,2,2,L|288:96,1,80,2|2,1:2|1:2,1:2:0:0:
320,160,61408,2,0,L|264:104,1,80,0|0,1:2|1:2,1:2:0:0:
200,264,61732,2,2,L|304:264,1,80,2|2,1:2|1:2,1:2:0:0:
224,296,61975,2,0,L|328:296,1,80,0|0,1:2|1:2,1:2:0:0:
264,328,62218,2,8,L|368:328,2,80,8|8|8,1:2|1:2|1:2,1:2:0:0:
408,232,62705,5,8,0:0:0:0:
328,120,62867,1,8,0:0:0:0:
464,120,63029,1,8,0:0:0:0:
328,120,63191,1,2,0:0:0:0:
408,232,63354,2,4,P|408:288|344:344,1,120
272,240,63759,5,2,0:0:0:0:
272,240,63921,1,2,0:0:0:0:
272,240,64083,1,2,0:0:0:0:
136,256,64245,2,8,P|144:176|96:128,1,120
232,64,64651,5,8,0:0:0:0:
248,104,64813,1,2,0:0:0:0:
296,112,64975,1,8,0:0:0:0:
296,200,65137,5,8,1:2:0:0:
256,208,65299,1,2,1:2:0:0:
224,168,65462,1,8,1:2:0:0:
200,304,65624,6,4,P|256:328|256:352,2,80
320,240,66110,1,2,0:0:0:0:
320,104,66272,1,8,1:2:0:0:
336,240,66435,1,8,1:2:0:0:
336,104,66597,1,2,0:0:0:0:
440,192,66759,6,2,P|480:248|456:328,1,120
344,336,67164,1,8,0:0:0:0:
320,328,67327,1,8,0:0:0:0:
288,304,67489,1,8,0:0:0:0:
272,280,67651,1,8,0:0:0:0:
272,240,67813,1,8,0:0:0:0:
296,200,67975,2,2,P|360:168|376:136,1,80
272,64,68299,5,8,0:0:0:0:
176,160,68462,1,8,0:0:0:0:
352,176,68624,1,8,0:0:0:0:
272,184,68786,1,4,0:0:0:0:
272,184,68948,2,8,P|240:256|200:280,1,120,8|8,1:3|1:3,1:3:0:0:
192,208,69354,5,8,1:2:0:0:
192,208,69516,2,8,P|136:128|96:104,1,120,8|8,1:3|1:3,1:3:0:0:
88,248,69921,1,8,1:2:0:0:
88,248,70083,2,8,P|128:296|192:288,1,120,8|8,1:3|1:3,1:3:0:0:
296,224,70489,1,2,0:0:0:0:
296,224,70651,2,2,P|344:184|400:176,1,120,2|2,1:2|1:2,1:2:0:0:
368,240,71056,6,2,P|368:288|312:360,1,120,2|2,1:2|1:2,1:2:0:0:
304,280,71462,2,2,P|224:264|208:200,1,120,2|2,1:2|1:2,1:2:0:0:
272,224,71867,2,8,P|272:176|192:120,1,120
208,192,72272,2,4,P|184:224|184:320,1,120
208,312,72597,5,2,0:0:0:0:
240,328,72759,1,0,0:0:0:0:
272,320,72921,1,0,0:0:0:0:
304,312,73083,2,0,B|352:240|360:200|352:160|320:120|288:96|272:88|240:112|240:120|240:136|240:144|240:160|232:152|232:136|232:120|216:120|200:128|184:128|168:144|144:168|144:184|152:240|168:280|256:328|288:320,2,560
256,192,75516,12,0,76570,0:0:0:0:
