osu file format v14

[General]
AudioFilename: audio.mp3
AudioLeadIn: 0
PreviewTime: 54279
Countdown: 0
SampleSet: Soft
StackLeniency: 0.7
Mode: 0
LetterboxInBreaks: 0
EpilepsyWarning: 1
WidescreenStoryboard: 1

[Editor]
Bookmarks: 197,5711,17386,35549,45927,55008,75765
DistanceSpacing: 1.8
BeatDivisor: 4
GridSize: 4
TimelineZoom: 2

[Metadata]
Title:Welcome to Chaos (TV Size)
TitleUnicode:Welcome トゥ 混沌 (TV Size)
Artist:(K)NoW_NAME
ArtistUnicode:(K)NoW_NAME
Creator:Hantrik
Version:NeKro's Extra
Source:ドロヘドロ
Tags:jrock j-rock female vocalist anime japanese op opening dorohedoro know_name know name nekroman4ik kuyusu irohas -eternal- カオス
BeatmapID:2714701
BeatmapSetID:1306479

[Difficulty]
HPDrainRate:5
CircleSize:5
OverallDifficulty:8.5
ApproachRate:9
SliderMultiplier:1.7
SliderTickRate:1

[Events]
//Background and Video events
0,0,"BG.jpg",0,0
//Break Periods
2,37694,40109
2,42883,44974
//Storyboard Layer 0 (Background)
//Storyboard Layer 1 (Fail)
//Storyboard Layer 2 (Pass)
//Storyboard Layer 3 (Foreground)
//Storyboard Layer 4 (Overlay)
//Storyboard Sound Samples

[TimingPoints]
-775,324.324324324324,4,2,1,30,1,0
522,-666.666666666667,4,2,1,30,0,0
3116,-125,4,2,1,50,0,0
5711,-100,4,2,1,60,0,0
16089,-100,4,2,1,60,0,0
16414,-100,4,2,1,60,0,0
17386,-111.111111111111,4,2,1,40,0,0
17630,-111.111111111111,4,2,1,5,0,0
17711,-111.111111111111,4,2,1,40,0,0
20224,-111.111111111111,4,2,1,5,0,0
20305,-111.111111111111,4,2,1,40,0,0
20873,-111.111111111111,4,2,1,5,0,0
20954,-111.111111111111,4,2,1,40,0,0
22819,-111.111111111111,4,2,1,5,0,0
22900,-111.111111111111,4,2,1,40,0,0
24116,-111.111111111111,4,2,1,5,0,0
24197,-111.111111111111,4,2,1,40,0,0
25089,-111.111111111111,4,2,1,5,0,0
25170,-111.111111111111,4,2,1,40,0,0
28981,-111.111111111111,4,2,1,40,0,0
29062,-111.111111111111,4,2,1,40,0,0
30927,-111.111111111111,4,2,1,5,0,0
31008,-111.111111111111,4,2,1,40,0,0
32954,-100,4,2,1,40,0,0
35549,-1000,4,2,1,50,0,0
36197,-1000,4,2,1,50,0,0
45441,-1000,4,2,1,50,0,0
45603,-1000,4,2,1,60,0,0
45927,-100,4,2,1,60,0,0
51116,-90.9090909090909,4,2,1,60,0,0
51197,-90.9090909090909,4,2,1,5,0,0
51440,-90.9090909090909,4,2,1,60,0,0
51521,-90.9090909090909,4,2,1,5,0,0
51765,-90.9090909090909,4,2,1,60,0,0
51846,-90.9090909090909,4,2,1,5,0,0
52089,-90.9090909090909,4,2,1,60,0,0
52170,-90.9090909090909,4,2,1,5,0,0
52413,-90.9090909090909,4,2,1,60,0,0
52494,-90.9090909090909,4,2,1,5,0,0
52576,-90.9090909090909,4,2,1,60,0,0
52657,-90.9090909090909,4,2,1,5,0,0
52738,-90.9090909090909,4,2,1,60,0,0
52819,-90.9090909090909,4,2,1,5,0,0
52900,-90.9090909090909,4,2,1,60,0,0
52981,-90.9090909090909,4,2,1,5,0,0
53062,-83.3333333333333,4,2,1,60,0,0
53143,-83.3333333333333,4,2,1,5,0,0
53224,-83.3333333333333,4,2,1,60,0,0
53305,-83.3333333333333,4,2,1,5,0,0
53386,-83.3333333333333,4,2,1,60,0,0
53467,-83.3333333333333,4,2,1,5,0,0
53549,-83.3333333333333,4,2,1,60,0,0
53630,-83.3333333333333,4,2,1,5,0,0
54359,-250,4,2,1,60,0,0
54927,-250,4,2,1,5,0,0
55008,-76.9230769230769,4,2,1,70,0,1
71873,-76.9230769230769,4,2,1,70,0,1
71954,-76.9230769230769,4,2,1,5,0,1
72521,-76.9230769230769,4,2,1,70,0,1
72603,-76.9230769230769,4,2,1,5,0,1
73170,-142.857142857143,4,2,1,70,0,1
74224,-142.857142857143,4,2,1,5,0,1
74305,-142.857142857143,4,2,1,70,0,1
74467,-76.9230769230769,4,2,1,70,0,1
74711,-58.8235294117647,4,2,1,70,0,1
74873,-58.8235294117647,4,2,1,5,0,1
74954,-50,4,2,1,70,0,1
75116,-90.9090909090909,4,2,1,70,0,1
75765,-100,4,2,1,60,0,0
86143,-125,4,2,1,30,0,0
86630,-399.999999999997,4,2,1,30,0,0
88252,-399.999999999997,4,2,1,20,0,0

[Colours]
Combo1 : 242,134,68
Combo2 : 165,52,61
Combo3 : 242,170,128
Combo4 : 166,51,61

[HitObjects]
163,219,522,6,0,L|113:208,3,50.9999984436036,4|0|0|0,1:2|0:0|0:0|0:0,0:0:0:0:
411,153,3116,6,0,P|415:136|423:121,1,34,8|8,1:2|1:2,0:0:0:0:
317,37,3278,2,0,P|324:52|329:68,1,34,8|8,1:2|1:2,0:0:0:0:
417,24,3440,1,8,1:2:0:0:
429,308,3765,6,0,P|390:320|370:321,1,34,8|8,1:2|1:2,0:0:0:0:
336,377,3927,2,0,P|297:365|277:364,1,34,8|8,1:2|1:2,0:0:0:0:
229,348,4089,1,8,1:2:0:0:
45,259,4413,5,8,1:2:0:0:
41,248,4494,1,8,1:2:0:0:
40,238,4575,1,8,1:2:0:0:
37,228,4656,1,8,1:2:0:0:
36,218,4737,5,8,1:2:0:0:
0,153,4900,1,8,1:2:0:0:
38,90,5062,1,8,1:2:0:0:
113,90,5224,1,0,1:0:0:0:
150,156,5386,1,8,1:2:0:0:
497,381,5711,6,0,B|394:365|452:330|336:317,1,170,4|10,1:2|1:2,0:0:0:0:
248,211,6197,1,2,0:0:0:0:
342,139,6359,2,0,P|363:176|359:217,1,85,2|2,1:2|0:0,0:0:0:0:
212,375,6684,2,0,P|205:334|191:274,1,85,10|2,1:2|0:0,0:0:0:0:
38,82,7008,5,2,1:2:0:0:
248,211,7170,1,2,0:0:0:0:
39,362,7332,1,10,1:2:0:0:
102,301,7495,1,10,1:2:0:0:
102,301,7657,2,0,L|119:130,1,170,2|10,1:2|1:2,0:0:0:0:
37,1,8143,1,2,0:0:0:0:
37,1,8305,6,0,P|28:44|42:88,1,85,2|2,1:2|0:0,0:0:0:0:
193,163,8630,2,0,L|294:146,1,85,10|2,1:2|0:0,0:0:0:0:
455,87,8954,5,2,1:2:0:0:
387,49,9116,1,2,0:0:0:0:
492,19,9278,5,10,1:2:0:0:
380,181,9440,1,2,0:0:0:0:
469,316,9603,6,0,B|485:335|512:350|512:350|457:333|395:325,1,170,2|10,1:2|1:2,0:0:0:0:
380,181,10089,1,10,1:2:0:0:
474,121,10251,2,0,P|490:160|486:202,1,85,8|8,1:2|1:2,0:0:0:0:
315,346,10495,1,8,1:2:0:0:
308,338,10576,2,0,P|293:299|297:257,1,85,8|8,1:2|1:2,0:0:0:0:
220,180,10819,1,8,1:2:0:0:
209,175,10900,6,0,B|101:199|101:199|72:233|104:267,1,170,4|10,1:2|1:2,0:0:0:0:
215,256,11386,1,2,0:0:0:0:
76,123,11549,2,0,P|73:80|59:36,1,85,2|2,1:2|0:0,0:0:0:0:
215,256,11873,2,0,L|199:340,1,85,10|2,1:2|0:0,0:0:0:0:
313,175,12197,5,2,1:2:0:0:
121,281,12359,1,2,0:0:0:0:
287,384,12522,1,10,1:2:0:0:
209,175,12684,1,10,1:2:0:0:
209,175,12846,2,0,B|108:171|149:125|40:127,1,170,2|10,1:2|1:2,0:0:0:0:
49,126,13333,1,2,0:0:0:0:
236,35,13495,5,2,1:2:0:0:
300,0,13657,2,0,B|317:38|317:38|301:77,1,85,2|8,0:0|1:2,0:0:0:0:
187,127,13981,5,2,0:0:0:0:
121,95,14143,2,0,B|105:134|105:134|123:172,1,85,2|0,1:2|0:0,0:0:0:0:
276,229,14468,5,10,1:2:0:0:
342,197,14630,2,0,B|357:236|357:236|339:274,1,85,2|0,0:0|1:0,0:0:0:0:
221,324,14954,5,2,0:0:0:0:
155,292,15116,2,0,B|139:331|139:331|157:369,1,85,10|8,1:2|1:2,0:0:0:0:
177,384,15359,1,8,1:2:0:0:
177,384,15440,1,8,1:2:0:0:
55,227,15603,5,8,1:2:0:0:
55,227,15684,1,8,1:2:0:0:
55,227,15765,2,0,L|-3:241,3,42.5,8|8|8|8,1:2|1:2|1:2|1:2,0:0:0:0:
483,121,17386,6,0,B|494:104|494:104|401:124,1,114.749996498108,4|0,1:2|0:0,0:0:0:0:
347,164,17711,2,0,L|269:152,1,76.4999976654053,10|0,1:2|0:0,0:0:0:0:
198,95,18035,2,0,L|186:17,1,76.4999976654053,2|2,3:2|1:2,0:0:0:0:
38,111,18359,1,10,1:2:0:0:
95,164,18521,1,2,0:0:0:0:
13,266,18684,5,2,1:2:0:0:
13,266,18846,1,2,0:0:0:0:
13,266,19008,2,0,P|91:276|149:348,1,152.999995330811,10|0,1:2|3:0,0:0:0:0:
332,260,19494,1,2,1:2:0:0:
258,214,19657,2,0,P|246:253|255:296,1,76.4999976654053,10|0,1:2|0:0,0:0:0:0:
408,384,19981,6,0,L|422:267,1,114.749996498108,2|0,1:2|0:0,0:0:0:0:
441,199,20305,2,0,P|479:219|512:226,1,76.4999976654053,10|0,1:2|0:0,0:0:0:0:
388,88,20630,2,0,P|325:97|281:142,1,114.749996498108,2|0,3:2|0:0,0:0:0:0:
220,98,20954,2,0,L|210:21,1,76.4999976654053,10|0,1:2|0:0,0:0:0:0:
187,7,21197,1,8,1:2:0:0:
187,7,21278,6,0,P|147:16|111:20,1,76.4999976654053,2|2,1:2|0:0,0:0:0:0:
0,133,21603,2,0,P|48:138|86:247,1,152.999995330811,10|0,1:2|3:0,0:0:0:0:
7,351,22089,1,0,1:0:0:0:
7,351,22251,2,0,P|54:331|110:327,1,76.4999976654053,8|0,1:2|3:0,0:0:0:0:
200,255,22576,6,0,L|327:276,1,114.749996498108,4|0,1:2|0:0,0:0:0:0:
376,310,22900,2,0,P|387:347|395:407,1,76.4999976654053,10|0,1:2|0:0,0:0:0:0:
503,260,23224,2,0,P|492:227|485:184,1,76.4999976654053,2|0,3:2|1:0,0:0:0:0:
385,26,23549,1,10,1:2:0:0:
478,57,23711,1,2,0:0:0:0:
365,140,23873,6,0,L|242:161,1,114.749996498108,2|0,1:2|0:0,0:0:0:0:
190,125,24197,2,0,P|181:84|190:51,1,76.4999976654053,10|0,1:2|0:0,0:0:0:0:
90,0,24521,5,2,1:2:0:0:
0,173,24684,1,8,1:2:0:0:
48,223,24846,2,0,P|108:234|170:268,1,114.749996498108,8|0,1:2|0:0,0:0:0:0:
214,302,25170,6,0,P|252:295|296:288,1,76.4999976654053,4|0,1:2|0:0,0:0:0:0:
356,309,25494,2,0,L|342:391,1,76.4999976654053,10|0,1:2|0:0,0:0:0:0:
512,344,25819,1,2,3:2:0:0:
445,277,25981,1,2,1:2:0:0:
501,203,26143,2,0,P|508:164|513:127,1,76.4999976654053,10|2,1:2|0:0,0:0:0:0:
396,4,26467,5,2,1:2:0:0:
396,4,26630,1,2,0:0:0:0:
396,4,26792,2,0,P|343:51|379:137,1,152.999995330811,10|0,1:2|3:0,0:0:0:0:
233,222,27278,1,2,1:2:0:0:
180,157,27440,2,0,P|215:139|255:141,1,76.4999976654053,10|2,1:2|0:0,0:0:0:0:
91,243,27765,6,0,L|14:229,1,76.4999976654053,2|0,1:2|0:0,0:0:0:0:
149,384,28089,2,0,P|163:354|152:310,1,76.4999976654053,10|0,1:2|0:0,0:0:0:0:
277,213,28413,2,0,P|284:256|293:301,1,76.4999976654053,2|0,3:2|1:0,0:0:0:0:
386,354,28738,2,0,P|423:322|496:342,1,114.749996498108,10|8,1:2|1:2,0:0:0:0:
480,344,29062,6,0,L|466:263,1,76.4999976654053,2|0,1:2|0:0,0:0:0:0:
405,136,29386,2,0,B|322:154|367:192|265:215,1,152.999995330811,10|2,1:2|3:2,0:0:0:0:
67,168,29873,1,0,1:0:0:0:
143,101,30035,2,0,P|152:144|167:195,1,76.4999976654053,12|2,1:2|0:0,0:0:0:0:
277,74,30359,6,0,P|286:31|301:-20,1,76.4999976654053,4|0,1:2|0:0,0:0:0:0:
405,136,30684,2,0,B|415:191|415:191|417:194|417:194|428:248,1,114.749996498108,10|0,1:2|0:0,0:0:0:0:
468,303,31008,2,0,P|418:295|385:322,1,76.4999976654053,2|0,3:2|1:0,0:0:0:0:
294,384,31332,1,10,1:2:0:0:
226,359,31494,1,2,0:0:0:0:
223,225,31657,5,2,1:2:0:0:
291,196,31819,1,2,0:0:0:0:
226,359,31981,2,0,L|62:340,1,152.999995330811,10|8,1:2|1:2,0:0:0:0:
143,262,32467,2,0,L|136:222,2,38.2499988327027,8|8|10,1:2|1:2|1:2,0:0:0:0:
31,155,32792,2,0,L|38:115,1,38.2499988327027,10|8,1:2|1:2,0:0:0:0:
0,50,32954,6,0,L|103:31,1,85,4|0,1:2|0:0,0:0:0:0:
229,153,33278,2,0,L|145:137,1,85,10|0,1:2|0:0,0:0:0:0:
325,14,33603,1,2,1:2:0:0:
325,14,33765,1,0,1:0:0:0:
325,14,33927,2,0,L|340:97,1,85,10|0,1:2|0:0,0:0:0:0:
429,209,34251,5,2,1:2:0:0:
512,314,34413,1,10,1:2:0:0:
426,384,34576,1,10,1:2:0:0:
311,265,34738,5,8,1:2:0:0:
311,265,34900,1,0,1:0:0:0:
219,384,35062,5,8,1:2:0:0:
117,297,35224,1,12,1:2:0:0:
6,384,35386,1,0,0:0:0:0:
6,384,35467,1,8,1:2:0:0:
6,384,35549,6,0,L|-1:349,3,34,4|0|0|0,1:2|0:0|0:0|0:0,0:0:0:0:
120,221,40738,6,0,L|127:186,3,34
297,0,45603,5,8,1:2:0:0:
295,12,45684,1,8,1:2:0:0:
293,25,45765,1,8,1:2:0:0:
291,37,45846,1,8,1:2:0:0:
289,50,45927,6,0,L|304:139,1,85,4|0,1:2|0:0,0:0:0:0:
427,283,46251,2,0,P|436:242|415:206,1,85,10|0,1:2|0:0,0:0:0:0:
260,300,46576,1,10,1:2:0:0:
317,370,46738,1,2,0:0:0:0:
317,370,46900,2,0,L|228:385,1,85,10|2,1:2|0:0,0:0:0:0:
45,278,47224,6,0,P|87:283|128:294,1,85,10|0,1:2|0:0,0:0:0:0:
45,106,47549,2,0,P|87:101|128:90,1,85,10|0,1:2|0:0,0:0:0:0:
277,0,47873,1,10,1:2:0:0:
277,0,48035,2,0,P|294:40|282:84,1,85,2|8,0:0|1:2,0:0:0:0:
225,174,48359,1,10,1:2:0:0:
225,174,48440,1,8,0:0:0:0:
225,174,48521,5,10,1:2:0:0:
297,208,48684,1,2,0:0:0:0:
406,96,48846,5,10,1:2:0:0:
294,129,49008,1,2,0:0:0:0:
445,321,49170,5,10,1:2:0:0:
369,165,49332,1,2,0:0:0:0:
370,364,49494,5,10,1:2:0:0:
447,165,49657,1,2,0:0:0:0:
445,321,49819,5,10,1:2:0:0:
327,271,49981,1,2,0:0:0:0:
221,358,50143,5,10,1:2:0:0:
149,381,50305,1,2,0:0:0:0:
37,333,50467,5,10,1:2:0:0:
82,189,50630,1,2,0:0:0:0:
128,44,50792,1,8,1:2:0:0:
128,44,50954,1,10,1:2:0:0:
315,0,51116,6,0,B|322:23|322:23|326:25|326:25|330:43,1,46.7500014266968,10|0,1:2|0:0,0:0:0:0:
193,135,51440,2,0,B|186:157|186:157|182:159|182:159|177:177,1,46.7500014266968,10|0,1:2|0:0,0:0:0:0:
325,251,51765,2,0,B|332:274|332:274|336:276|336:276|340:294,1,46.7500014266968,10|0,1:2|0:0,0:0:0:0:
174,342,52089,2,0,B|168:364|168:364|164:366|164:366|159:384,1,46.7500014266968,10|0,1:2|0:0,0:0:0:0:
159,384,52413,6,0,B|164:366|164:366|168:364|168:364|174:342,1,46.7500014266968,2|0,1:2|0:0,0:0:0:0:
340,294,52576,2,0,B|336:276|336:276|332:274|332:274|326:252,1,46.7500014266968,8|0,1:2|0:0,0:0:0:0:
177,177,52738,2,0,B|182:159|182:159|186:157|186:157|193:135,1,46.7500014266968,8|0,1:2|0:0,0:0:0:0:
330,43,52900,2,0,B|326:25|326:25|322:23|322:23|316:1,1,46.7500014266968,8|0,1:2|0:0,0:0:0:0:
206,44,53062,6,0,B|152:27,1,50.9999984436036,0|0,1:0|0:0,0:0:0:0:
352,152,53224,6,0,B|432:126,1,50.9999984436036,8|0,1:2|0:0,0:0:0:0:
142,272,53386,6,0,B|77:252,1,50.9999984436036,8|0,1:2|0:0,0:0:0:0:
378,384,53549,6,0,B|431:367,1,50.9999984436036,12|0,1:2|0:0,0:0:0:0:
69,260,54359,6,0,P|53:230|71:260,1,119
69,242,55008,5,14,1:2:0:0:
241,141,55170,1,2,1:2:0:0:
165,88,55332,5,10,1:2:0:0:
229,297,55494,1,2,1:2:0:0:
321,79,55657,5,10,1:2:0:0:
172,203,55819,1,2,1:2:0:0:
426,245,55981,5,10,1:2:0:0:
241,141,56143,1,2,1:2:0:0:
417,0,56305,6,0,B|458:16|458:16|432:88,1,110.499994941712,10|2,1:2|1:2,0:0:0:0:
270,313,56630,2,0,B|229:297|229:297|251:234,1,110.499994941712,10|2,1:2|1:2,0:0:0:0:
426,245,56954,6,0,L|443:354,1,110.499994941712,8|2,1:2|1:2,0:0:0:0:
218,123,57278,2,0,L|200:13,1,110.499994941712,8|0,1:2|1:0,0:0:0:0:
3,202,57603,6,0,P|74:207|113:229,1,110.499994941712,10|2,1:2|1:2,0:0:0:0:
364,313,57927,1,10,1:2:0:0:
149,384,58089,1,2,1:2:0:0:
333,115,58251,6,0,L|315:225,1,110.499994941712,10|0,1:2|1:0,0:0:0:0:
95,49,58576,1,10,1:2:0:0:
164,19,58738,1,2,1:2:0:0:
25,187,58900,5,10,1:2:0:0:
219,255,59062,1,0,1:0:0:0:
25,338,59224,5,8,1:2:0:0:
177,180,59386,1,0,1:0:0:0:
282,375,59549,5,8,1:2:0:0:
102,219,59711,1,0,1:0:0:0:
364,156,59873,5,8,1:2:0:0:
143,296,60035,1,2,1:2:0:0:
412,359,60197,5,14,1:2:0:0:
246,141,60359,1,2,1:2:0:0:
287,73,60521,1,10,1:2:0:0:
367,76,60684,1,2,1:2:0:0:
444,159,60846,6,0,L|419:294,1,110.499994941712,10|0,1:2|1:0,0:0:0:0:
266,32,61170,2,0,L|241:167,1,110.499994941712,10|0,1:2|1:0,0:0:0:0:
3,267,61494,6,0,L|28:402,1,110.499994941712,10|0,1:2|1:0,0:0:0:0:
245,140,61819,1,10,1:2:0:0:
148,102,61981,2,0,L|173:237,1,110.499994941712,2|8,1:2|1:2,0:0:0:0:
384,47,62305,6,0,L|359:182,2,110.499994941712,0|8|0,1:0|1:2|1:0,0:0:0:0:
168,210,62792,6,0,B|220:233|220:233|271:212,1,110.499994941712,14|0,1:2|1:0,0:0:0:0:
61,49,63116,1,8,1:2:0:0:
0,110,63278,2,0,P|-12:163|1:215,2,110.499994941712,2|10|0,1:2|1:2|1:0,0:0:0:0:
119,342,63765,2,0,L|245:320,1,110.499994941712,10|0,1:2|1:0,0:0:0:0:
438,116,64089,5,10,1:2:0:0:
397,42,64251,1,0,3:0:0:0:
402,230,64413,5,8,1:2:0:0:
512,75,64576,1,8,3:2:0:0:
288,194,64738,5,0,3:0:0:0:
480,380,64900,1,12,1:2:0:0:
363,155,65062,5,12,1:2:0:0:
320,300,65224,1,2,0:0:0:0:
320,300,65386,6,0,P|250:340|254:389,1,110.499994941712,14|2,1:2|1:2,0:0:0:0:
16,174,65711,2,0,L|131:193,1,110.499994941712,10|2,1:2|1:2,0:0:0:0:
336,14,66035,2,0,L|226:32,1,110.499994941712,10|2,1:2|1:2,0:0:0:0:
459,205,66359,1,10,1:2:0:0:
459,205,66521,6,0,B|498:185|498:185|471:124,1,110.499994941712,2|8,1:2|1:2,0:0:0:0:
283,328,66846,1,2,1:2:0:0:
350,355,67008,1,10,1:2:0:0:
298,193,67170,6,0,B|266:167|266:167|186:208,1,110.499994941712,2|8,1:2|1:2,0:0:0:0:
0,366,67494,1,2,1:2:0:0:
0,366,67657,2,0,L|108:384,1,110.499994941712,8|0,1:2|1:0,0:0:0:0:
0,253,67981,6,0,L|61:233,1,55.2499974708558,14|0,1:2|0:0,0:0:0:0:
105,186,68143,1,2,1:2:0:0:
121,18,68306,6,0,L|69:1,1,55.2499974708558,10|0,1:2|0:0,0:0:0:0:
174,68,68468,1,2,1:2:0:0:
298,193,68630,6,0,L|359:173,1,55.2499974708558,10|0,1:2|0:0,0:0:0:0:
403,126,68792,1,2,1:2:0:0:
226,50,68954,6,0,L|165:70,1,55.2499974708558,10|0,1:2|0:0,0:0:0:0:
121,117,69116,1,2,1:2:0:0:
350,175,69278,5,10,1:2:0:0:
418,21,69440,1,0,1:0:0:0:
464,236,69603,5,8,1:2:0:0:
357,66,69765,1,0,1:0:0:0:
364,288,69927,5,8,1:2:0:0:
507,123,70089,1,0,1:0:0:0:
443,310,70251,5,8,1:2:0:0:
350,175,70413,1,2,1:2:0:0:
242,368,70576,5,14,1:2:0:0:
166,358,70738,1,2,1:2:0:0:
121,296,70900,1,10,1:2:0:0:
141,223,71062,1,2,1:2:0:0:
276,74,71224,6,0,L|297:182,1,110.499994941712,10|0,1:2|1:0,0:0:0:0:
80,3,71549,2,0,L|58:111,1,110.499994941712,10|0,1:2|1:0,0:0:0:0:
131,308,71873,6,0,L|146:394,1,55.2499974708558,4|0,1:2|0:0,0:0:0:0:
141,319,72521,6,0,L|156:405,1,55.2499974708558,12|0,1:2|0:0,0:0:0:0:
295,154,73170,5,8,1:2:0:0:
256,192,73251,12,0,74224,0:0:0:0:
444,147,74305,5,0,1:0:0:0:
451,138,74386,1,0,1:0:0:0:
457,129,74467,70,0,P|442:86|368:85,1,110.499994941712,12|0,1:2|0:0,0:0:0:0:
324,4,74711,6,0,P|275:38|302:113,1,144.500002756119,12|0,1:2|0:0,0:0:0:0:
229,204,74954,6,0,P|307:226|363:167,1,170,12|8,1:2|1:2,0:0:0:0:
362,123,75197,5,0,1:0:0:0:
362,123,75278,1,0,1:0:0:0:
362,123,75359,1,0,1:0:0:0:
362,123,75440,1,12,1:2:0:0:
27,113,75765,6,0,B|8:91|22:56|22:56|129:34,1,170,4|10,1:2|1:2,0:0:0:0:
251,158,76251,1,2,0:0:0:0:
164,222,76413,2,0,P|143:185|147:144,1,85,2|2,1:2|0:0,0:0:0:0:
257,32,76738,2,0,L|361:51,1,85,10|2,1:2|0:0,0:0:0:0:
445,0,77062,5,2,1:2:0:0:
491,221,77224,1,2,0:0:0:0:
283,124,77386,1,10,1:2:0:0:
424,100,77549,1,10,1:2:0:0:
424,100,77711,2,0,L|393:267,1,170,2|10,1:2|1:2,0:0:0:0:
479,384,78197,1,2,0:0:0:0:
479,384,78359,6,0,P|492:343|479:294,1,85,2|2,1:2|0:0,0:0:0:0:
318,217,78684,2,0,P|269:228|217:234,1,85,10|2,1:2|0:0,0:0:0:0:
85,343,79008,5,2,1:2:0:0:
154,369,79170,1,2,0:0:0:0:
30,221,79332,5,10,1:2:0:0:
137,172,79494,1,2,0:0:0:0:
104,60,79657,6,0,B|-9:39|-9:39|45:69,1,170,2|10,1:2|1:2,0:0:0:0:
137,172,80143,1,10,1:2:0:0:
38,263,80305,2,0,P|22:224|26:182,1,85,8|8,1:2|1:2,0:0:0:0:
197,38,80549,1,8,1:2:0:0:
204,46,80630,2,0,P|219:85|215:127,1,85,8|8,1:2|1:2,0:0:0:0:
290,203,80873,1,8,1:2:0:0:
296,212,80954,6,0,B|396:210|355:158|464:160,1,170,4|10,1:2|1:2,0:0:0:0:
297,128,81440,1,2,0:0:0:0:
438,247,81603,2,0,L|454:337,1,85,2|2,1:2|0:0,0:0:0:0:
297,128,81927,2,0,L|311:44,1,85,10|2,1:2|0:0,0:0:0:0:
199,209,82251,5,2,1:2:0:0:
391,103,82413,1,2,0:0:0:0:
225,0,82576,1,10,1:2:0:0:
374,191,82738,1,10,1:2:0:0:
374,191,82900,2,0,B|310:219|310:219|347:329,1,170,2|10,1:2|1:2,0:0:0:0:
255,384,83386,1,2,0:0:0:0:
87,257,83549,5,2,1:2:0:0:
146,324,83711,2,0,P|104:330|63:344,1,85,2|8,0:0|1:2,0:0:0:0:
174,205,84035,5,2,0:0:0:0:
233,138,84197,2,0,P|191:131|150:117,1,85,2|0,1:2|0:0,0:0:0:0:
314,284,84521,5,10,1:2:0:0:
373,351,84683,2,0,P|331:357|290:371,1,85,2|0,0:0|1:0,0:0:0:0:
401,232,85007,5,2,0:0:0:0:
460,165,85170,2,0,P|418:158|377:144,1,85,10|8,1:2|1:2,0:0:0:0:
212,5,85494,6,0,L|229:110,1,85,8|8,1:2|1:2,0:0:0:0:
174,144,85738,1,8,1:2:0:0:
166,152,85819,2,0,L|61:135,1,85,8|8,1:2|1:2,0:0:0:0:
23,182,86062,1,8,1:2:0:0:
17,191,86143,6,0,P|49:253|-9:304,1,136,2|2,0:0|0:0,0:0:0:0:
12,299,86630,1,2,0:0:0:0:
256,192,86711,12,0,88414,0:0:0:0:
