osu file format v14

[General]
AudioFilename: audio.mp3
AudioLeadIn: 0
PreviewTime: 54279
Countdown: 0
SampleSet: Soft
StackLeniency: 0.3
Mode: 0
LetterboxInBreaks: 0
WidescreenStoryboard: 0

[Editor]
Bookmarks: 75765
DistanceSpacing: 0.8
BeatDivisor: 4
GridSize: 8
TimelineZoom: 1

[Metadata]
Title:Welcome to Chaos (TV Size)
TitleUnicode:Welcome トゥ 混沌 (TV Size)
Artist:(K)NoW_NAME
ArtistUnicode:(K)NoW_NAME
Creator:Hantrik
Version:Irohas' Another
Source:ドロヘドロ
Tags:jrock j-rock female vocalist anime japanese op opening dorohedoro know_name know name nekroman4ik kuyusu irohas -eternal- カオス
BeatmapID:2709298
BeatmapSetID:1306479

[Difficulty]
HPDrainRate:5
CircleSize:4.2
OverallDifficulty:8.2
ApproachRate:9
SliderMultiplier:1.62
SliderTickRate:1

[Events]
//Background and Video events
0,0,"BG.jpg",0,0
//Break Periods
//Storyboard Layer 0 (Background)
//Storyboard Layer 1 (Fail)
//Storyboard Layer 2 (Pass)
//Storyboard Layer 3 (Foreground)
//Storyboard Layer 4 (Overlay)
//Storyboard Sound Samples

[TimingPoints]
-775,324.324324324324,4,2,1,30,1,0
197,-100,4,2,1,30,0,0
522,-166.666666666667,4,2,1,30,0,0
3116,-100,4,2,1,50,0,0
4414,-83.3333333333333,4,2,1,50,0,0
4900,-71.4285714285714,4,2,1,50,0,0
5549,-71.4285714285714,4,2,1,50,0,0
5711,-105.263157894737,4,2,1,60,0,0
16089,-100,4,2,1,60,0,0
16414,-100,4,2,1,60,0,0
17386,-111.111111111111,4,2,1,40,0,0
32306,-100,4,2,1,40,0,0
32630,-71.4285714285714,4,2,1,40,0,0
32954,-105.263157894737,4,2,1,40,0,0
35549,-166.666666666667,4,2,1,50,0,0
36197,-166.666666666667,4,2,1,50,0,0
45441,-100,4,2,1,50,0,0
45603,-100,4,2,1,60,0,0
45927,-100,4,2,1,60,0,0
53711,-100,4,2,1,60,0,0
54360,-625,4,2,1,60,0,0
55008,-90.9090909090909,4,2,1,70,0,1
71873,-105.263157894737,4,2,1,70,0,0
72522,-62.5,4,2,1,70,0,0
73170,-250,4,2,1,70,0,0
74467,-95.2380952380952,4,2,1,70,0,0
75116,-95.2380952380952,4,2,1,70,0,0
75765,-100,4,2,1,60,0,0
86143,-100,4,2,1,30,0,0
86630,-100,4,2,1,30,0,0
88252,-100,4,2,1,20,0,0

[Colours]
Combo1 : 240,119,47
Combo2 : 214,126,133
Combo3 : 245,191,158
Combo4 : 187,57,67

[HitObjects]
510,373,522,6,0,P|416:282|358:288,1,194.399994067383,6|2,1:2|0:0,0:0:0:0:
0,206,1819,6,0,P|33:217|158:137,1,194.399994067383,2|2,0:0|0:0,0:0:0:0:
296,11,3116,5,8,1:2:0:0:
291,34,3197,1,8,1:2:0:0:
287,58,3278,1,8,1:2:0:0:
283,82,3359,1,8,1:2:0:0:
280,101,3441,6,0,L|290:154,1,40.5,8|0,1:2|0:0,0:0:0:0:
511,309,3765,5,8,1:2:0:0:
496,272,3846,1,8,1:2:0:0:
463,250,3927,1,8,1:2:0:0:
423,251,4008,1,8,1:2:0:0:
398,265,4089,6,0,L|350:255,1,40.5,8|0,1:2|0:0,0:0:0:0:
111,170,4414,6,0,L|171:157,1,48.5999985168458,8|8,1:2|1:2,0:0:0:0:
239,219,4576,1,8,1:2:0:0:
234,247,4657,1,8,1:2:0:0:
230,274,4738,1,8,1:2:0:0:
339,380,4900,2,0,P|329:355|326:315,1,56.6999982696534,8|0,1:2|0:0,0:0:0:0:
184,384,5062,5,8,1:2:0:0:
149,309,5224,1,0,1:0:0:0:
68,295,5387,1,8,1:2:0:0:
4,341,5549,1,2,0:1:0:0:
4,341,5630,1,2,0:1:0:0:
4,341,5711,6,0,P|-5:289|-25:177,1,153.899995890427,4|10,1:2|1:2,0:0:0:0:
82,75,6197,1,2,0:1:0:0:
82,75,6279,1,2,0:1:0:0:
82,75,6360,2,0,L|70:154,1,76.9499979452134,2|2,1:2|0:0,0:0:0:0:
148,229,6684,2,0,P|188:217|226:220,1,76.9499979452134,10|2,1:2|0:0,0:0:0:0:
378,143,7008,2,0,L|298:132,1,76.9499979452134,2|2,1:2|0:0,0:0:0:0:
349,41,7333,1,10,1:2:0:0:
353,237,7495,6,0,P|346:276|339:318,1,76.9499979452134,10|2,1:2|1:2,0:0:0:0:
253,271,7819,1,2,0:0:0:0:
446,254,7981,1,10,1:2:0:0:
254,364,8143,1,2,0:1:0:0:
254,364,8224,1,2,0:1:0:0:
254,364,8306,6,0,B|212:345|212:345|164:385|111:372,1,153.899995890427,2|10,1:2|1:2,0:0:0:0:
42,290,8792,1,2,0:1:0:0:
42,290,8873,1,2,0:1:0:0:
42,290,8954,2,0,P|50:242|57:199,1,76.9499979452134,2|2,1:2|0:0,0:0:0:0:
89,84,9279,2,0,P|42:95|5:103,1,76.9499979452134,10|2,1:2|0:0,0:0:0:0:
233,214,9603,2,0,P|195:222|157:231,1,76.9499979452134,2|2,1:2|0:0,0:0:0:0:
292,109,9927,5,10,1:2:0:0:
367,161,10089,2,0,P|379:202|375:238,1,76.9499979452134,10|8,1:2|1:2,0:0:0:0:
442,384,10414,1,8,1:2:0:0:
447,370,10495,1,8,1:2:0:0:
457,360,10576,1,8,1:2:0:0:
350,323,10738,1,8,1:2:0:0:
344,311,10819,1,8,1:2:0:0:
332,305,10900,6,0,P|273:316|180:334,1,153.899995890427,4|10,1:2|1:2,0:0:0:0:
79,246,11387,1,0,0:1:0:0:
79,246,11468,1,0,0:1:0:0:
79,246,11549,2,0,P|113:233|155:234,1,76.9499979452134,2|2,1:2|0:0,0:0:0:0:
332,118,11873,1,10,1:2:0:0:
248,43,12035,2,0,P|242:109|234:202,1,153.899995890427,2|2,0:0|0:0,0:0:0:0:
309,275,12522,1,10,1:2:0:0:
196,338,12684,1,10,1:2:0:0:
469,202,12846,6,0,L|383:183,1,76.9499979452134,2|2,1:2|0:0,0:0:0:0:
358,360,13170,2,0,L|444:379,1,76.9499979452134,10|2,1:2|0:0,0:0:0:0:
234,196,13495,1,2,1:2:0:0:
26,334,13657,6,0,P|61:283|156:278,1,153.899995890427,2|2,0:0|0:0,0:0:0:0:
234,196,14143,2,0,P|226:147|209:42,1,153.899995890427,2|10,1:2|1:2,0:0:0:0:
356,209,14630,2,0,P|348:250|344:287,1,76.9499979452134,2|0,0:0|1:0,0:0:0:0:
448,245,14954,1,2,0:0:0:0:
278,363,15116,6,0,B|206:374|202:320|124:333,1,153.899995890427,10|8,1:2|1:2,0:0:0:0:
54,255,15603,2,0,L|61:211,2,38.4749989726067,8|8|8,1:2|1:2|1:2,0:0:0:0:
151,144,15927,1,8,1:2:0:0:
150,139,16008,1,8,1:2:0:0:
148,132,16089,6,0,L|116:139,1,20.25,2|0,0:0|0:0,0:0:0:0:
128,136,17387,6,0,B|191:145|201:100|272:116,1,145.799995550537,4|10,1:2|1:2,0:0:0:0:
348,179,17873,1,0,0:0:0:0:
417,113,18035,2,0,L|404:30,1,72.8999977752686,2|2,3:2|1:2,0:0:0:0:
511,184,18360,2,0,L|499:256,1,72.8999977752686,10|2,1:2|0:0,0:0:0:0:
328,378,18684,5,2,1:2:0:0:
410,323,18846,1,2,0:0:0:0:
325,274,19008,2,0,P|252:286|180:299,1,145.799995550537,10|0,1:2|3:0,0:0:0:0:
38,151,19495,1,2,1:2:0:0:
11,246,19657,2,0,L|88:230,1,72.8999977752686,10|0,1:2|0:0,0:0:0:0:
257,110,19981,6,0,P|230:78|132:74,2,145.799995550537,2|10|2,1:2|1:2|3:2,0:0:0:0:
443,40,20792,1,0,1:0:0:0:
362,0,20954,2,0,L|350:72,1,72.8999977752686,10|0,1:2|0:0,0:0:0:0:
420,162,21279,6,0,L|491:149,1,72.8999977752686,2|2,1:2|0:0,0:0:0:0:
365,257,21603,2,0,L|293:244,1,72.8999977752686,10|0,1:2|0:0,0:0:0:0:
208,206,21846,1,2,0:1:0:0:
208,206,21927,2,0,P|213:245|220:293,1,72.8999977752686,0|0,3:0|1:0,0:0:0:0:
116,380,22252,2,0,P|107:344|114:304,1,72.8999977752686,8|0,1:2|3:0,0:0:0:0:
238,373,22495,1,0,3:0:0:0:
243,376,22576,6,0,P|284:383|364:317,2,145.799995550537,4|10|2,1:2|1:2|3:2,0:0:0:0:
26,248,23549,2,0,L|108:232,1,72.8999977752686,10|2,1:2|0:0,0:0:0:0:
249,55,23873,6,0,L|235:176,1,109.349996662903,2|0,1:2|0:0,0:0:0:0:
301,233,24197,2,0,L|383:217,1,72.8999977752686,10|0,1:2|0:0,0:0:0:0:
451,147,24522,5,2,1:2:0:0:
510,360,24684,1,8,1:2:0:0:
444,291,24847,1,8,1:2:0:0:
499,224,25009,1,0,0:0:0:0:
319,326,25170,6,0,P|269:317|166:299,1,145.799995550537,4|10,1:2|1:2,0:0:0:0:
0,187,25819,2,0,P|45:178|82:171,1,72.8999977752686,2|2,3:2|1:2,0:0:0:0:
149,107,26143,2,0,P|155:68|148:32,1,72.8999977752686,10|2,1:2|0:0,0:0:0:0:
71,173,26468,5,2,1:2:0:0:
172,243,26630,1,2,0:0:0:0:
83,298,26792,2,0,P|45:297|-21:373,1,145.799995550537,10|0,1:2|3:0,0:0:0:0:
172,243,27279,1,2,1:2:0:0:
243,294,27441,2,0,L|317:281,1,72.8999977752686,10|2,1:2|0:0,0:0:0:0:
411,323,27765,6,0,P|419:277|438:167,2,145.799995550537,2|10|2,1:2|1:2|3:2,0:0:0:0:
512,267,28576,1,0,1:0:0:0:
323,384,28738,2,0,P|282:350|229:351,1,109.349996662903,10|8,1:2|1:2,0:0:0:0:
148,384,29062,6,0,L|73:372,1,72.8999977752686,2|0,0:0|0:0,0:0:0:0:
0,222,29387,2,0,L|12:299,1,72.8999977752686,10|2,1:2|0:0,0:0:0:0:
138,135,29711,1,2,3:2:0:0:
101,232,29873,1,0,1:0:0:0:
41,90,30035,1,12,1:2:0:0:
215,199,30197,1,2,0:0:0:0:
215,199,30279,1,2,0:1:0:0:
215,199,30360,6,0,B|278:208|288:163|359:179,2,145.799995550537,4|10|2,1:2|1:2|3:2,0:0:0:0:
133,139,31170,1,0,1:0:0:0:
110,228,31333,1,10,1:2:0:0:
130,132,31495,1,2,0:0:0:0:
104,232,31657,2,0,L|115:305,1,72.8999977752686,2|2,1:2|0:0,0:0:0:0:
208,278,31981,1,10,1:2:0:0:
0,260,32143,1,0,0:0:0:0:
210,373,32306,6,0,L|255:364,1,40.5,8|8,1:2|1:2,0:0:0:0:
337,323,32468,1,8,1:2:0:0:
337,323,32549,1,8,1:2:0:0:
337,323,32630,6,0,L|397:335,1,56.6999982696534,10|0,1:2|0:0,0:0:0:0:
504,242,32792,6,0,P|472:246|447:255,1,56.6999982696534,10|8,1:2|1:2,0:0:0:0:
383,177,32954,6,0,L|409:12,2,153.899995890427,4|10|2,1:2|1:2|1:2,0:0:0:0:
279,237,33765,1,0,1:0:0:0:
182,161,33927,2,0,P|225:153|259:147,1,76.9499979452134,10|0,1:2|0:0,0:0:0:0:
56,218,34252,5,2,1:2:0:0:
72,128,34414,1,10,1:2:0:0:
90,43,34576,1,10,1:2:0:0:
222,290,34738,1,8,1:2:0:0:
275,200,34900,5,0,1:0:0:0:
122,280,35062,1,8,1:2:0:0:
286,366,35224,1,12,1:2:0:0:
223,283,35387,5,0,0:0:0:0:
225,284,35468,5,8,1:2:0:0:
220,288,35549,6,0,P|197:282|74:378,2,194.399994067383,4|0|0,1:2|0:0|0:0,0:0:0:0:
429,187,37495,6,0,B|379:109|295:139|295:139|319:131|337:147,1,194.399994067383
331,142,40738,6,0,P|323:114|420:5,2,194.399994067383
151,369,42684,6,0,B|153:271|74:262|74:262|100:272|108:297,1,194.399994067383
104,257,45441,5,0,0:0:0:0:
104,257,45603,5,8,1:2:0:0:
104,257,45765,5,8,1:2:0:0:
104,257,45927,6,0,L|190:241,1,81,4|0,1:2|0:0,0:0:0:0:
268,154,46252,2,0,L|253:65,1,81,10|0,1:2|0:0,0:0:0:0:
381,195,46576,2,0,L|367:274,1,81,10|2,1:2|0:0,0:0:0:0:
512,384,46900,1,10,1:2:0:0:
461,264,47062,1,2,0:0:0:0:
313,337,47224,6,0,P|270:331|218:324,1,81,10|0,1:2|0:0,0:0:0:0:
70,242,47549,2,0,P|110:205|179:214,1,121.5,10|0,1:2|0:0,0:0:0:0:
185,221,47873,1,10,1:2:0:0:
374,119,48035,2,0,P|326:111|254:100,1,121.5,2|0,0:0|0:0,0:0:0:0:
183,39,48360,2,0,L|193:-8,1,40.5,10|8,1:2|0:0,0:0:0:0:
86,106,48522,6,0,P|94:149|102:196,1,81,10|2,1:2|0:0,0:0:0:0:
226,303,48846,2,0,P|232:263|240:223,1,81,10|2,1:2|0:0,0:0:0:0:
122,341,49170,6,0,B|80:356|80:356|46:344,1,81,10|2,1:2|0:0,0:0:0:0:
240,223,49495,2,0,B|281:211|281:211|321:222,1,81,10|2,1:2|0:0,0:0:0:0:
485,331,49819,2,0,B|443:346|443:346|409:334,1,81,10|2,1:2|0:0,0:0:0:0:
314,122,50143,6,0,P|324:67|331:30,1,81,10|2,1:2|0:0,0:0:0:0:
436,212,50468,1,10,1:2:0:0:
199,113,50630,2,0,P|143:131|32:161,1,162,2|10,0:0|1:2,0:0:0:0:
43,158,51116,6,0,L|50:192,1,20.25,10|0,1:2|0:0,0:0:0:0:
136,221,51441,6,0,L|129:254,1,20.25,10|0,1:2|0:0,0:0:0:0:
45,303,51765,6,0,L|51:336,1,20.25,10|0,1:2|0:0,0:0:0:0:
142,364,52089,6,0,L|135:397,1,20.25,10|0,1:2|0:0,0:0:0:0:
142,363,52414,5,2,1:2:0:0:
242,301,52576,1,8,1:2:0:0:
345,355,52738,1,8,1:2:0:0:
460,299,52900,1,8,1:2:0:0:
376,227,53062,1,0,1:0:0:0:
512,185,53224,5,8,1:2:0:0:
441,381,53387,1,8,1:2:0:0:
242,301,53549,1,12,1:2:0:0:
305,125,53711,1,0,0:0:0:0:
305,125,54360,6,0,L|297:86,1,38.88
268,0,55008,6,0,L|356:16,1,89.1000027191163,14|2,1:2|1:2,0:0:0:0:
112,148,55333,2,0,L|200:164,1,89.1000027191163,10|2,1:2|1:2,0:0:0:0:
61,46,55657,6,0,L|-33:68,1,89.1000027191163,10|2,1:2|1:2,0:0:0:0:
306,229,55981,2,0,L|400:207,1,89.1000027191163,10|2,1:2|1:2,0:0:0:0:
165,268,56306,1,10,1:2:0:0:
199,163,56468,1,2,1:2:0:0:
167,274,56630,1,10,1:2:0:0:
205,158,56792,2,0,L|188:70,1,89.1000027191163,2|8,1:2|1:2,0:0:0:0:
0,384,57116,6,0,P|29:332|101:325,1,133.650004078674,2|0,1:2|0:0,0:0:0:0:
115,332,57441,2,0,L|168:319,1,44.5500013595581,0|0,1:0|1:0,0:0:0:0:
263,287,57603,6,0,L|248:375,1,89.1000027191163,10|2,1:2|1:2,0:0:0:0:
74,208,57927,2,0,P|114:217|156:196,1,89.1000027191163,10|2,1:2|1:2,0:0:0:0:
401,126,58252,2,0,P|365:99|321:102,1,89.1000027191163,10|0,1:2|1:0,0:0:0:0:
107,72,58576,1,10,1:2:0:0:
274,0,58738,1,2,1:2:0:0:
234,197,58900,6,0,L|219:98,1,89.1000027191163,10|0,1:2|1:0,0:0:0:0:
411,305,59224,2,0,L|431:206,1,89.1000027191163,8|0,1:2|1:0,0:0:0:0:
307,291,59549,1,8,1:2:0:0:
489,364,59711,1,0,1:0:0:0:
306,296,59873,1,8,1:2:0:0:
487,368,60035,1,2,1:2:0:0:
264,384,60197,6,0,L|175:370,1,89.1000027191163,14|2,1:2|1:2,0:0:0:0:
11,271,60522,2,0,P|49:244|96:249,1,89.1000027191163,10|2,1:2|1:2,0:0:0:0:
325,135,60846,2,0,P|280:153|207:118,1,133.650004078674,10|0,1:2|0:0,0:0:0:0:
193,109,61170,2,0,L|210:17,1,89.1000027191163,10|0,1:2|1:0,0:0:0:0:
329,278,61495,2,0,L|312:370,1,89.1000027191163,10|0,1:2|1:0,0:0:0:0:
220,251,61819,1,10,1:2:0:0:
404,190,61981,1,2,1:2:0:0:
286,133,62143,5,8,1:2:0:0:
470,284,62306,1,0,1:0:0:0:
239,380,62468,2,0,P|198:359|151:364,1,89.1000027191163,8|0,1:2|1:0,0:0:0:0:
11,223,62792,6,0,P|61:241|158:177,1,178.200005438233,14|8,1:2|1:2,0:0:0:0:
340,0,63279,1,2,1:2:0:0:
467,173,63441,6,0,P|426:123|362:123,1,133.650004078674,10|0,1:2|0:0,0:0:0:0:
248,42,63765,2,0,L|262:132,1,89.1000027191163,10|0,1:2|1:0,0:0:0:0:
346,313,64089,5,10,1:2:0:0:
365,219,64252,1,0,3:0:0:0:
338,314,64414,1,8,1:2:0:0:
372,218,64576,1,8,3:2:0:0:
441,376,64738,5,0,3:0:0:0:
205,261,64900,1,12,1:2:0:0:
415,130,65062,1,12,1:2:0:0:
352,274,65224,1,2,0:0:0:0:
231,134,65387,6,0,P|242:79|251:35,1,89.1000027191163,14|2,1:2|1:2,0:0:0:0:
441,266,65711,2,0,L|336:288,1,89.1000027191163,10|2,1:2|1:2,0:0:0:0:
73,275,66035,2,0,P|112:281|164:250,1,89.1000027191163,10|2,1:2|1:2,0:0:0:0:
361,121,66360,1,10,1:2:0:0:
261,58,66522,6,0,L|248:153,1,89.1000027191163,2|8,1:2|1:2,0:0:0:0:
347,0,66846,1,2,1:2:0:0:
122,108,67008,1,10,1:2:0:0:
340,219,67170,2,0,L|441:202,1,89.1000027191163,2|8,1:2|1:2,0:0:0:0:
244,368,67495,2,0,B|201:301|118:329|118:329|138:329|147:345,1,178.200005438233,2|0,1:2|1:0,0:0:0:0:
92,217,67981,6,0,P|38:230|-5:240,1,89.1000027191163,14|2,1:2|1:2,0:0:0:0:
244,368,68306,2,0,P|287:357|330:347,1,89.1000027191163,10|2,1:2|1:2,0:0:0:0:
483,202,68630,2,0,P|426:221|363:182,1,133.650004078674,10|0,1:2|0:0,0:0:0:0:
305,111,68954,2,0,L|318:58,1,44.5500013595581,10|0,1:2|0:0,0:0:0:0:
223,186,69116,2,0,L|232:235,1,44.5500013595581,2|0,1:2|0:0,0:0:0:0:
475,378,69279,5,10,1:2:0:0:
449,296,69441,1,0,1:0:0:0:
372,259,69603,1,8,1:2:0:0:
291,278,69765,1,0,1:0:0:0:
241,347,69927,5,8,1:2:0:0:
231,344,70089,1,0,1:0:0:0:
157,296,70252,5,8,1:2:0:0:
147,300,70414,1,2,1:2:0:0:
57,347,70576,5,14,1:2:0:0:
266,244,70738,2,0,L|251:334,1,89.1000027191163,2|10,1:2|1:2,0:0:0:0:
114,125,71062,1,2,1:2:0:0:
219,18,71224,6,0,B|240:59|240:59|229:109,1,89.1000027191163,10|0,1:2|1:0,0:0:0:0:
36,266,71549,2,0,B|17:226|17:226|29:176,1,89.1000027191163,10|0,1:2|1:0,0:0:0:0:
223,385,71873,6,0,P|275:283|385:270,1,230.84999383564,4|0,1:2|0:0,0:0:0:0:
445,209,72522,6,0,B|483:45|296:-56|169:30|195:168|317:161|340:117,1,453.6,12|0,1:2|0:0,0:0:0:0:
318,136,73170,5,8,1:2:0:0:
321,148,73333,1,0,0:0:0:0:
268,214,73495,1,0,0:0:0:0:
270,223,73657,1,0,0:0:0:0:
315,286,73819,1,0,0:0:0:0:
314,294,73981,1,0,0:0:0:0:
314,303,74143,1,0,0:0:0:0:
313,312,74306,1,0,1:0:0:0:
388,379,74468,6,0,L|416:373,1,21.26249935112,12|0,1:2|0:0,0:0:0:0:
249,226,74711,6,0,L|270:222,1,21.26249935112,12|0,1:2|0:0,0:0:0:0:
104,365,74954,6,0,L|132:359,1,21.26249935112,12|0,1:2|0:0,0:0:0:0:
209,336,75116,2,0,L|238:329,1,21.26249935112,8|0,1:2|0:0,0:0:0:0:
314,303,75279,5,0,1:0:0:0:
320,307,75360,1,0,1:0:0:0:
315,310,75441,1,12,1:2:0:0:
154,56,75765,5,4,1:2:0:0:
