osu file format v14

[General]
AudioFilename: audio.mp3
AudioLeadIn: 0
PreviewTime: 54279
Countdown: 0
SampleSet: Soft
StackLeniency: 0.7
Mode: 0
LetterboxInBreaks: 0
WidescreenStoryboard: 0

[Editor]
DistanceSpacing: 1.8
BeatDivisor: 4
GridSize: 4
TimelineZoom: 1.8

[Metadata]
Title:Welcome to Chaos (TV Size)
TitleUnicode:Welcome トゥ 混沌 (TV Size)
Artist:(K)NoW_NAME
ArtistUnicode:(K)NoW_NAME
Creator:Hantrik
Version:Insane
Source:ドロヘドロ
Tags:jrock j-rock female vocalist anime japanese op opening dorohedoro know_name know name nekroman4ik kuyusu irohas -eternal- カオス
BeatmapID:2708800
BeatmapSetID:1306479

[Difficulty]
HPDrainRate:5
CircleSize:3.8
OverallDifficulty:8
ApproachRate:9
SliderMultiplier:1.7
SliderTickRate:1

[Events]
//Background and Video events
0,0,"BG.jpg",0,0
//Break Periods
2,35749,45003
//Storyboard Layer 0 (Background)
//Storyboard Layer 1 (Fail)
//Storyboard Layer 2 (Pass)
//Storyboard Layer 3 (Foreground)
//Storyboard Layer 4 (Overlay)
//Storyboard Sound Samples

[TimingPoints]
-775,324.324324324324,4,2,1,30,1,0
197,-166.666666666667,4,2,1,30,0,0
1089,-166.666666666667,4,2,1,5,0,0
1170,-166.666666666667,4,2,1,30,0,0
1738,-166.666666666667,4,2,1,5,0,0
1819,-166.666666666667,4,2,1,30,0,0
2387,-166.666666666667,4,2,1,5,0,0
2468,-166.666666666667,4,2,1,30,0,0
3035,-166.666666666667,4,2,1,5,0,0
3116,-111.111111111111,4,2,1,50,0,0
3684,-111.111111111111,4,2,1,5,0,0
3765,-111.111111111111,4,2,1,50,0,0
4333,-111.111111111111,4,2,1,5,0,0
4414,-111.111111111111,4,2,1,50,0,0
5711,-125,4,2,1,60,0,0
5954,-125,4,2,1,5,0,0
6035,-125,4,2,1,60,0,0
8549,-125,4,2,1,5,0,0
8630,-125,4,2,1,60,0,0
11143,-125,4,2,1,5,0,0
11224,-125,4,2,1,60,0,0
16089,-250,4,2,1,60,0,0
16414,-250,4,2,1,60,0,0
17387,-166.666666666667,4,2,1,40,0,0
32954,-125,4,2,1,40,0,0
35549,-125,4,2,1,50,0,0
36197,-125,4,2,1,50,0,0
45441,-125,4,2,1,50,0,0
45603,-125,4,2,1,60,0,0
45927,-111.111111111111,4,2,1,60,0,0
46170,-111.111111111111,4,2,1,5,0,0
46252,-111.111111111111,4,2,1,60,0,0
54360,-999.99999999999,4,2,1,60,0,0
54927,-999.99999999999,4,2,1,5,0,0
55008,-100,4,2,1,70,0,1
71873,-100,4,2,1,70,0,0
73170,-200,4,2,1,70,0,0
74224,-200,4,2,1,5,0,0
74306,-200,4,2,1,70,0,0
74468,-100,4,2,1,70,0,0
75441,-333.333333333333,4,2,1,70,0,0
75684,-333.333333333333,4,2,1,5,0,0
75765,-125,4,2,1,60,0,0
76008,-125,4,2,1,5,0,0
76089,-125,4,2,1,60,0,0
78603,-125,4,2,1,5,0,0
78684,-125,4,2,1,60,0,0
81197,-125,4,2,1,5,0,0
81279,-125,4,2,1,60,0,0
86143,-166.666666666667,4,2,1,30,0,0
86387,-166.666666666667,4,2,1,5,0,0
86468,-166.666666666667,4,2,1,30,0,0
86630,-333.333333333334,4,2,1,30,0,0
88252,-333.333333333334,4,2,1,20,0,0

[Colours]
Combo1 : 240,119,47
Combo2 : 214,126,133
Combo3 : 245,191,158
Combo4 : 187,57,67

[HitObjects]
435,72,197,5,2,3:0:0:0:
435,72,360,1,2,3:0:0:0:
361,151,522,6,0,B|300:159|291:111|282:111|278:53|208:61,1,178.499994552612,4|0,1:2|0:0,0:0:0:0:
116,98,1170,6,0,L|147:285,1,178.499994552612
232,339,1819,6,0,B|300:282|300:282|394:318,1,178.499994552612
471,262,2468,6,0,B|482:161|482:161|448:123|406:147,1,178.499994552612
309,184,3116,6,0,L|256:200,3,38.2499988327027,8|8|8|8,1:2|1:2|1:2|1:2,0:0:0:0:
237,190,3441,2,0,B|214:132|214:132|258:72,1,114.749996498108,8|0,1:2|0:0,0:0:0:0:
55,262,3765,2,0,L|108:278,3,38.2499988327027,8|8|8|8,1:2|1:2|1:2|1:2,0:0:0:0:
127,268,4090,2,0,B|149:210|149:210|105:150,1,114.749996498108,8|0,1:2|0:0,0:0:0:0:
65,51,4414,5,8,1:2:0:0:
84,48,4495,1,8,1:2:0:0:
103,46,4576,1,8,1:2:0:0:
122,44,4657,1,8,1:2:0:0:
141,42,4738,1,8,1:2:0:0:
251,103,4900,5,8,1:2:0:0:
322,47,5062,5,8,1:2:0:0:
363,70,5224,5,0,1:0:0:0:
388,56,5387,5,8,1:2:0:0:
401,64,5711,6,0,L|417:176,1,102,4|0,1:2|0:0,0:0:0:0:
390,195,6035,2,0,B|350:206|350:206|319:184,1,68,10|2,1:2|0:0,0:0:0:0:
235,86,6360,2,0,B|192:100|192:100|164:145|164:145|113:159,1,136,2|10,1:2|1:2,0:0:0:0:
17,108,6846,1,2,0:0:0:0:
3,223,7008,6,0,L|18:299,1,68,2|2,1:2|0:0,0:0:0:0:
120,338,7333,1,10,1:2:0:0:
247,246,7495,1,10,1:2:0:0:
117,167,7657,2,0,L|101:243,1,68,2|2,1:2|0:0,0:0:0:0:
233,349,7981,2,0,L|219:282,1,68,10|2,1:2|0:0,0:0:0:0:
336,166,8306,6,0,B|291:155|291:155|280:159|280:159|229:149,1,102,2|0,1:2|0:0,0:0:0:0:
203,136,8630,2,0,B|183:104|183:104|194:71,1,68,10|2,1:2|0:0,0:0:0:0:
273,9,8954,1,2,1:2:0:0:
273,9,9116,1,2,0:0:0:0:
362,64,9279,2,0,L|436:43,1,68,10|2,1:2|0:0,0:0:0:0:
502,192,9603,6,0,L|428:171,1,68,2|2,1:2|0:0,0:0:0:0:
304,215,9927,1,10,1:2:0:0:
401,319,10089,1,10,1:2:0:0:
362,146,10252,1,8,1:2:0:0:
297,312,10414,2,0,L|252:301,2,34,8|8|8,1:2|1:2|1:2,0:0:0:0:
136,351,10738,5,8,1:2:0:0:
132,334,10819,1,8,1:2:0:0:
127,314,10900,2,0,B|144:239|144:239|135:207,1,102,4|0,1:2|0:0,0:0:0:0:
118,189,11224,2,0,L|39:171,1,68,10|2,1:2|0:0,0:0:0:0:
6,87,11549,1,2,1:2:0:0:
6,87,11711,1,2,0:0:0:0:
91,22,11873,2,0,L|157:37,1,68,10|2,1:2|0:0,0:0:0:0:
227,177,12197,6,0,L|212:104,1,68,2|2,1:2|0:0,0:0:0:0:
271,7,12522,1,10,1:2:0:0:
407,54,12684,1,10,1:2:0:0:
312,216,12846,2,0,L|327:143,1,68,2|2,1:2|0:0,0:0:0:0:
442,44,13170,2,0,L|455:110,1,68,10|2,1:2|0:0,0:0:0:0:
293,20,13495,5,2,1:2:0:0:
213,112,13657,2,0,L|127:93,1,68,2|8,0:0|1:2,0:0:0:0:
43,149,13981,5,2,0:0:0:0:
123,241,14143,2,0,L|209:222,1,68,2|0,1:2|0:0,0:0:0:0:
294,267,14468,5,10,1:2:0:0:
214,359,14630,2,0,L|128:340,1,68,2|0,0:0|1:0,0:0:0:0:
275,249,14954,5,2,0:0:0:0:
336,384,15116,1,10,1:2:0:0:
387,222,15279,1,8,1:2:0:0:
308,364,15441,1,8,1:2:0:0:
451,317,15603,2,0,L|502:303,2,34,8|8|8,1:2|1:2|1:2,0:0:0:0:
308,175,15927,5,8,1:2:0:0:
291,170,16008,1,8,1:2:0:0:
272,164,16089,2,0,B|267:134|267:134|271:127|271:127|267:94,3,68,2|2|2|2,0:0|0:2|0:2|0:2,0:0:0:0:
345,36,17387,6,0,L|408:21,1,50.9999984436036,4|0,1:2|0:0,0:0:0:0:
490,82,17711,2,0,B|459:116|459:116|478:189,1,101.999996887207,10|2,1:2|3:2,0:0:0:0:
441,262,18197,1,2,1:2:0:0:
352,217,18360,2,0,L|335:156,1,50.9999984436036,10|2,1:2|0:0,0:0:0:0:
234,96,18684,2,0,L|220:145,1,50.9999984436036,2|2,1:2|0:0,0:0:0:0:
122,221,19008,2,0,B|114:180|114:180|98:159|98:159|90:115,1,101.999996887207,10|0,1:2|3:0,0:0:0:0:
143,32,19495,1,2,1:2:0:0:
247,77,19657,2,0,L|305:62,1,50.9999984436036,10|0,1:2|0:0,0:0:0:0:
399,116,19981,6,0,L|413:15,2,101.999996887207,2|10|2,1:2|1:2|3:2,0:0:0:0:
329,197,20792,1,0,1:0:0:0:
423,277,20954,2,0,L|415:221,1,50.9999984436036,10|0,1:2|0:0,0:0:0:0:
366,115,21279,2,0,B|316:96|316:96|267:128,2,101.999996887207,2|10|0,1:2|1:2|3:0,0:0:0:0:
311,213,22089,1,0,1:0:0:0:
198,177,22252,2,0,L|185:116,1,50.9999984436036,8|0,1:2|3:0,0:0:0:0:
120,58,22576,6,0,L|54:47,1,50.9999984436036,4|0,1:2|0:0,0:0:0:0:
0,136,22900,2,0,B|14:176|14:176|11:201|11:201|25:234,1,101.999996887207,10|2,1:2|3:2,0:0:0:0:
108,297,23387,1,0,1:0:0:0:
167,217,23549,2,0,L|181:160,1,50.9999984436036,10|2,1:2|0:0,0:0:0:0:
140,66,23873,2,0,B|188:42|188:42|238:69,2,101.999996887207,2|10|2,1:2|1:2|1:2,0:0:0:0:
253,155,24684,1,8,1:2:0:0:
327,81,24846,2,0,L|340:21,1,50.9999984436036,8|0,1:2|0:0,0:0:0:0:
433,167,25170,6,0,L|420:107,1,50.9999984436036,4|0,1:2|0:0,0:0:0:0:
337,222,25495,2,0,P|294:185|236:198,1,101.999996887207,10|2,1:2|3:2,0:0:0:0:
176,264,25981,1,2,1:2:0:0:
237,345,26143,2,0,L|293:329,1,50.9999984436036,10|2,1:2|0:0,0:0:0:0:
392,290,26468,2,0,L|399:352,1,50.9999984436036,2|2,1:2|0:0,0:0:0:0:
491,284,26792,2,0,L|503:171,1,101.999996887207,10|0,1:2|3:0,0:0:0:0:
434,92,27279,1,2,1:2:0:0:
343,147,27441,2,0,L|280:123,1,50.9999984436036,10|2,1:2|0:0,0:0:0:0:
216,55,27765,6,0,L|109:75,2,101.999996887207,2|10|2,1:2|1:2|3:2,0:0:0:0:
289,128,28576,1,0,1:0:0:0:
202,206,28738,2,0,L|188:145,1,50.9999984436036,10|0,1:2|0:0,0:0:0:0:
113,252,29062,2,0,B|154:218|154:218|202:235,2,101.999996887207,2|10|2,1:2|1:2|3:2,0:0:0:0:
82,339,29873,1,0,1:0:0:0:
191,371,30035,2,0,L|176:309,1,50.9999984436036,12|2,1:2|0:0,0:0:0:0:
287,219,30360,6,0,L|275:268,1,50.9999984436036,4|0,1:2|0:0,0:0:0:0:
417,356,30684,2,0,B|410:317|410:317|392:301|392:301|384:253,1,101.999996887207,10|2,1:2|3:2,0:0:0:0:
436,175,31170,1,0,1:0:0:0:
371,106,31333,2,0,L|314:93,1,50.9999984436036,10|2,1:2|0:0,0:0:0:0:
230,145,31657,1,2,1:2:0:0:
230,145,31819,1,2,0:0:0:0:
144,92,31981,2,0,L|138:32,1,50.9999984436036,10|0,1:2|0:0,0:0:0:0:
32,135,32306,2,0,L|35:104,3,25.4999992218018,8|8|8|8,1:2|1:2|1:2|1:2,0:0:0:0:
45,25,32630,1,10,1:2:0:0:
113,193,32792,5,10,1:2:0:0:
132,188,32873,1,8,1:2:0:0:
152,183,32954,2,0,B|175:211|175:211|171:242,1,68,4|0,1:2|0:0,0:0:0:0:
92,332,33279,2,0,L|8:313,1,68,10|0,1:2|0:0,0:0:0:0:
78,209,33603,1,2,1:2:0:0:
78,209,33765,1,0,1:0:0:0:
192,330,33927,2,0,L|204:251,1,68,10|0,1:2|0:0,0:0:0:0:
267,194,34252,5,2,1:2:0:0:
354,242,34414,1,10,1:2:0:0:
416,307,34576,5,10,1:2:0:0:
503,259,34738,1,8,1:2:0:0:
327,362,34900,5,0,1:0:0:0:
296,321,35062,5,8,1:2:0:0:
338,246,35224,5,12,1:2:0:0:
298,123,35387,5,0,0:0:0:0:
388,18,35549,5,4,1:2:0:0:
77,333,45603,5,8,1:2:0:0:
72,316,45684,1,8,1:2:0:0:
68,300,45765,1,8,1:2:0:0:
64,283,45846,1,8,1:2:0:0:
60,267,45927,6,0,B|63:227|63:227|78:209|78:209|84:159,1,114.749996498108,4|0,1:2|0:0,0:0:0:0:
101,129,46252,2,0,B|140:114|140:114|178:134,1,76.4999976654053,10|0,1:2|0:0,0:0:0:0:
292,200,46576,2,0,B|253:215|253:215|222:198,1,76.4999976654053,10|2,1:2|0:0,0:0:0:0:
91,115,46900,2,0,B|130:100|130:100|168:120,1,76.4999976654053,10|2,1:2|0:0,0:0:0:0:
139,288,47224,6,0,L|127:200,1,76.4999976654053,10|0,1:2|0:0,0:0:0:0:
257,56,47549,2,0,L|246:131,1,76.4999976654053,10|0,1:2|0:0,0:0:0:0:
125,296,47873,2,0,L|113:208,1,76.4999976654053,10|2,1:2|0:0,0:0:0:0:
166,134,48197,1,8,1:2:0:0:
255,225,48360,1,10,1:2:0:0:
273,219,48441,1,8,0:0:0:0:
294,213,48522,6,0,L|379:231,1,76.4999976654053,10|2,1:2|0:0,0:0:0:0:
331,140,48846,2,0,L|416:158,1,76.4999976654053,10|2,1:2|0:0,0:0:0:0:
165,161,49170,6,0,L|80:179,1,76.4999976654053,10|2,1:2|0:0,0:0:0:0:
128,88,49494,2,0,L|43:106,1,76.4999976654053,10|2,1:2|0:0,0:0:0:0:
280,33,49819,6,0,L|365:15,1,76.4999976654053,10|2,1:2|0:0,0:0:0:0:
317,106,50143,2,0,L|402:88,1,76.4999976654053,10|2,1:2|0:0,0:0:0:0:
181,174,50468,5,10,1:2:0:0:
181,174,50630,1,2,0:0:0:0:
143,281,50792,5,8,1:2:0:0:
143,281,50954,1,10,1:2:0:0:
262,241,51116,5,10,1:2:0:0:
434,340,51441,5,10,1:2:0:0:
221,348,51765,5,10,1:2:0:0:
494,210,52089,5,10,1:2:0:0:
199,108,52414,5,2,1:2:0:0:
254,244,52576,1,8,1:2:0:0:
392,193,52738,1,8,1:2:0:0:
332,56,52900,1,8,1:2:0:0:
128,195,53062,5,0,1:0:0:0:
355,195,53224,1,8,1:2:0:0:
128,307,53387,5,8,1:2:0:0:
356,307,53549,1,12,1:2:0:0:
57,342,54360,6,0,L|52:312,1,29.75
66,290,55008,6,0,B|73:257|73:257|65:237|65:237|72:200,1,85,14|2,1:2|1:2,0:0:0:0:
170,343,55333,2,0,B|177:310|177:310|169:290|169:290|175:261,1,85,10|2,1:2|1:2,0:0:0:0:
288,216,55657,6,0,B|295:249|295:249|287:269|287:269|294:306,1,85,10|2,1:2|1:2,0:0:0:0:
392,162,55982,2,0,B|399:195|399:195|391:215|391:215|396:244,1,85,10|2,1:2|1:2,0:0:0:0:
316,103,56306,5,10,1:2:0:0:
322,80,56468,1,2,1:2:0:0:
221,133,56630,5,10,1:2:0:0:
227,110,56792,1,2,1:2:0:0:
130,49,56954,5,8,1:2:0:0:
124,72,57116,1,2,1:2:0:0:
35,79,57279,5,8,1:2:0:0:
29,102,57441,1,0,1:0:0:0:
84,226,57603,6,0,L|176:209,1,85,10|2,1:2|1:2,0:0:0:0:
255,283,57927,1,10,1:2:0:0:
255,283,58089,1,2,1:2:0:0:
408,226,58252,2,0,L|316:209,1,85,10|0,1:2|1:0,0:0:0:0:
252,150,58576,1,10,1:2:0:0:
252,150,58738,1,2,1:2:0:0:
167,316,58900,6,0,B|149:274|149:274|173:237,1,85,10|0,1:2|1:0,0:0:0:0:
333,244,59224,2,0,B|354:276|354:276|336:318,1,85,8|0,1:2|1:0,0:0:0:0:
154,322,59549,6,0,B|136:280|136:280|160:243,1,85,8|0,1:2|1:0,0:0:0:0:
348,238,59873,2,0,B|369:270|369:270|351:312,1,85,8|2,1:2|1:2,0:0:0:0:
168,157,60197,6,0,L|85:137,1,85,14|2,1:2|1:2,0:0:0:0:
163,75,60522,2,0,L|80:55,1,85,10|2,1:2|1:2,0:0:0:0:
328,214,60846,6,0,L|410:194,1,85,10|0,1:2|1:0,0:0:0:0:
333,132,61171,2,0,L|415:112,1,85,10|0,1:2|1:0,0:0:0:0:
183,65,61495,5,10,1:2:0:0:
177,42,61657,1,0,1:0:0:0:
278,95,61819,5,10,1:2:0:0:
272,72,61981,1,2,1:2:0:0:
369,11,62143,5,8,1:2:0:0:
375,34,62305,1,0,1:0:0:0:
464,41,62468,5,8,1:2:0:0:
470,64,62630,1,0,1:0:0:0:
436,192,62792,6,0,L|336:170,1,85,14|0,1:2|1:0,0:0:0:0:
448,275,63116,2,0,L|348:253,1,85,8|2,1:2|1:2,0:0:0:0:
188,142,63441,6,0,L|288:120,1,85,10|0,1:2|1:0,0:0:0:0:
176,225,63765,2,0,L|276:203,1,85,10|0,1:2|1:0,0:0:0:0:
311,348,64089,5,10,1:2:0:0:
352,230,64252,1,0,3:0:0:0:
215,384,64414,5,8,1:2:0:0:
174,266,64577,1,8,3:2:0:0:
106,360,64738,5,0,3:0:0:0:
106,360,64900,1,12,1:2:0:0:
269,277,65062,5,12,1:2:0:0:
269,277,65224,1,2,0:0:0:0:
99,157,65387,6,0,B|106:190|106:190|98:210|98:210|105:247,1,85,14|2,1:2|1:2,0:0:0:0:
203,104,65712,2,0,B|210:137|210:137|202:157|202:157|208:186,1,85,10|2,1:2|1:2,0:0:0:0:
321,231,66036,6,0,B|328:198|328:198|320:178|320:178|327:141,1,85,10|2,1:2|1:2,0:0:0:0:
425,285,66361,2,0,B|432:252|432:252|424:232|424:232|429:203,1,85,10|2,1:2|1:2,0:0:0:0:
478,84,66684,5,8,1:2:0:0:
484,107,66846,1,2,1:2:0:0:
383,54,67008,5,10,1:2:0:0:
389,77,67170,1,2,1:2:0:0:
292,138,67332,5,8,1:2:0:0:
286,115,67494,1,2,1:2:0:0:
197,108,67657,5,8,1:2:0:0:
191,85,67819,1,0,1:0:0:0:
83,196,67981,6,0,L|57:87,1,85,14|2,1:2|1:2,0:0:0:0:
120,32,68306,1,10,1:2:0:0:
120,32,68468,1,2,1:2:0:0:
189,199,68630,2,0,L|215:90,1,85,10|2,1:2|1:2,0:0:0:0:
267,37,68954,1,10,1:2:0:0:
267,37,69116,1,2,1:2:0:0:
319,158,69279,6,0,B|361:172|361:172|399:147,1,85,10|0,1:2|1:0,0:0:0:0:
497,40,69603,2,0,B|462:17|462:17|420:31,1,85,8|0,1:2|1:0,0:0:0:0:
309,173,69927,6,0,B|351:187|351:187|389:162,1,85,8|0,1:2|1:0,0:0:0:0:
501,23,70252,2,0,B|466:0|466:0|424:14,1,85,8|2,1:2|1:2,0:0:0:0:
480,214,70576,6,0,L|487:122,1,85,14|2,1:2|1:2,0:0:0:0:
329,15,70900,2,0,L|335:99,1,85,10|2,1:2|1:2,0:0:0:0:
496,223,71224,6,0,L|503:131,1,85,10|0,1:2|1:0,0:0:0:0:
315,10,71549,2,0,L|321:94,1,85,10|0,1:2|1:0,0:0:0:0:
267,244,71873,5,4,1:2:0:0:
52,81,72522,5,12,1:2:0:0:
49,330,73170,6,0,B|15:289|3:245|4:194|24:166|59:152|112:150|129:203|118:236,1,276.25,8|0,1:2|0:0,0:0:0:0:
177,286,74306,5,0,1:0:0:0:
205,278,74387,1,0,1:0:0:0:
234,270,74468,2,0,B|275:264|282:297|288:297|299:335|339:331,2,127.5,12|12|12,1:2|1:2|1:2,0:0:0:0:
410,283,75116,1,8,1:2:0:0:
412,261,75197,1,0,1:0:0:0:
414,240,75278,1,0,1:0:0:0:
416,219,75359,1,0,1:0:0:0:
418,198,75441,2,0,L|411:154,1,38.2499988327027,12|0,1:2|0:0,0:0:0:0:
392,127,75765,6,0,B|348:96|348:96|294:112,1,102,4|0,1:2|0:0,0:0:0:0:
269,128,76089,2,0,L|191:108,1,68,10|2,1:2|0:0,0:0:0:0:
123,51,76414,2,0,B|27:67|27:67|7:112,1,136,2|10,1:2|1:2,0:0:0:0:
0,205,76900,1,2,0:0:0:0:
78,279,77062,6,0,L|154:256,1,68,2|2,1:2|0:0,0:0:0:0:
219,189,77387,1,10,1:2:0:0:
334,259,77549,1,10,1:2:0:0:
238,354,77711,2,0,L|225:278,1,68,2|2,1:2|0:0,0:0:0:0:
374,173,78035,2,0,L|362:240,1,68,10|2,1:2|0:0,0:0:0:0:
272,109,78360,6,0,B|232:104|232:104|212:83|212:83|171:79,1,102,2|0,1:2|0:0,0:0:0:0:
145,89,78684,2,0,L|135:165,1,68,10|2,1:2|0:0,0:0:0:0:
164,250,79008,1,2,1:2:0:0:
164,250,79170,1,2,0:0:0:0:
38,212,79333,2,0,L|29:141,1,68,10|2,1:2|0:0,0:0:0:0:
145,89,79657,6,0,B|180:105|180:105|216:88,1,68,2|2,1:2|0:0,0:0:0:0:
290,19,79981,1,10,1:2:0:0:
418,103,80143,1,10,1:2:0:0:
297,185,80306,1,8,1:2:0:0:
379,28,80468,2,0,L|427:15,2,34,8|8|8,1:2|1:2|1:2,0:0:0:0:
247,120,80792,5,8,1:2:0:0:
220,112,80873,1,8,1:2:0:0:
194,105,80954,2,0,B|170:139|170:139|183:219,1,102,4|0,1:2|0:0,0:0:0:0:
163,236,81279,2,0,B|128:250|128:250|99:234,1,68,10|2,1:2|0:0,0:0:0:0:
36,161,81603,1,2,1:2:0:0:
36,161,81765,1,2,0:0:0:0:
0,263,81927,2,0,L|11:337,1,68,10|2,1:2|0:0,0:0:0:0:
145,384,82252,6,0,L|154:316,1,68,2|2,1:2|0:0,0:0:0:0:
241,205,82576,1,10,1:2:0:0:
347,296,82738,1,10,1:2:0:0:
255,370,82900,2,0,L|245:302,1,68,2|2,1:2|0:0,0:0:0:0:
384,205,83224,2,0,L|374:272,1,68,10|2,1:2|0:0,0:0:0:0:
310,135,83549,5,2,1:2:0:0:
214,213,83711,2,0,L|197:124,1,68,2|8,0:0|1:2,0:0:0:0:
298,115,84035,5,2,0:0:0:0:
396,196,84197,2,0,L|413:107,1,68,2|0,1:2|0:0,0:0:0:0:
290,141,84522,5,10,1:2:0:0:
192,222,84684,2,0,L|175:133,1,68,2|0,0:0|1:0,0:0:0:0:
110,61,85008,5,2,0:0:0:0:
6,171,85170,1,10,1:2:0:0:
33,22,85333,1,8,1:2:0:0:
139,150,85495,1,8,1:2:0:0:
202,24,85657,2,0,L|246:11,2,34,8|8|8,1:2|1:2|1:2,0:0:0:0:
321,97,85981,5,8,1:2:0:0:
347,104,86062,1,8,1:2:0:0:
373,112,86143,2,0,L|385:197,1,76.4999976654053,2|0,0:0|0:0,0:0:0:0:
398,218,86468,1,2,0:0:0:0:
446,56,86630,6,0,B|393:16|285:37|377:173|266:177|221:162,1,280.49999143982,2|0,0:0|0:0,0:0:0:0:
