osu file format v14

[General]
AudioFilename: audio.mp3
AudioLeadIn: 0
PreviewTime: 54279
Countdown: 0
SampleSet: Soft
StackLeniency: 0.7
Mode: 0
LetterboxInBreaks: 0
WidescreenStoryboard: 0

[Editor]
Bookmarks: 522,5711,17387,31008,35549,45927,55008,75765,77062,88576
DistanceSpacing: 2
BeatDivisor: 4
GridSize: 4
TimelineZoom: 1

[Metadata]
Title:Welcome to Chaos (TV Size)
TitleUnicode:Welcome トゥ 混沌 (TV Size)
Artist:(K)NoW_NAME
ArtistUnicode:(K)NoW_NAME
Creator:Hantrik
Version:Hole
Source:ドロヘドロ
Tags:jrock j-rock female vocalist anime japanese op opening dorohedoro know_name know name nekroman4ik kuyusu irohas -eternal- カオス
BeatmapID:3570177
BeatmapSetID:1306479

[Difficulty]
HPDrainRate:6
CircleSize:4.2
OverallDifficulty:9
ApproachRate:9.2
SliderMultiplier:1.8
SliderTickRate:1

[Events]
//Background and Video events
0,0,"BG.jpg",0,0
//Break Periods
2,35749,45033
//Storyboard Layer 0 (Background)
//Storyboard Layer 1 (Fail)
//Storyboard Layer 2 (Pass)
//Storyboard Layer 3 (Foreground)
//Storyboard Layer 4 (Overlay)
//Storyboard Sound Samples

[TimingPoints]
-775,324.324324324324,4,2,1,30,1,0
197,-125,4,2,1,30,0,0
522,-142.857142857143,4,2,1,30,0,0
1089,-142.857142857143,4,2,1,5,0,0
1170,-142.857142857143,4,2,1,30,0,0
1738,-142.857142857143,4,2,1,5,0,0
1819,-142.857142857143,4,2,1,30,0,0
2387,-142.857142857143,4,2,1,5,0,0
2468,-142.857142857143,4,2,1,30,0,0
3035,-142.857142857143,4,2,1,5,0,0
3116,-142.857142857143,4,2,1,50,0,0
5711,-100,4,2,1,60,0,0
16089,-200,4,2,1,60,0,0
17387,-125,4,2,1,40,0,0
17630,-125,4,2,1,5,0,0
17711,-125,4,2,1,40,0,0
21522,-125,4,2,1,5,0,0
21603,-125,4,2,1,40,0,0
22819,-125,4,2,1,5,0,0
22900,-125,4,2,1,40,0,0
25414,-125,4,2,1,5,0,0
25495,-125,4,2,1,40,0,0
29306,-125,4,2,1,5,0,0
29387,-125,4,2,1,40,0,0
30603,-125,4,2,1,5,0,0
30684,-125,4,2,1,40,0,0
32954,-111.111111111111,4,2,1,40,0,0
35549,-111.111111111111,4,2,1,50,0,0
45603,-111.111111111111,4,2,1,60,0,0
45927,-111.111111111111,4,2,1,60,0,0
54360,-999.99999999999,4,2,1,60,0,0
54927,-999.99999999999,4,2,1,5,0,0
55008,-90.9090909090908,4,2,1,70,0,1
73170,-166.666666666667,4,2,1,70,0,0
74224,-166.666666666667,4,2,1,5,0,0
74306,-166.666666666667,4,2,1,70,0,0
74468,-100,4,2,1,70,0,0
75765,-100,4,2,1,60,0,0
86143,-125,4,2,1,30,0,0
86387,-125,4,2,1,5,0,0
86468,-125,4,2,1,30,0,0
86630,-333.333333333333,4,2,1,30,0,0
88252,-333.333333333333,4,2,1,20,0,0

[Colours]
Combo1 : 240,119,47
Combo2 : 214,126,133
Combo3 : 245,191,158
Combo4 : 187,57,67

[HitObjects]
128,165,197,6,0,P|136:140|144:112,1,36,2|0,3:0|0:0,0:0:0:0:
111,195,360,2,0,P|119:220|127:248,1,36,2|0,3:0|0:0,0:0:0:0:
61,59,522,6,0,B|125:33|149:100|149:100|172:166|240:151,1,220.499993270874,4|0,1:2|0:0,0:0:0:0:
305,124,1170,6,0,B|292:90|247:77|206:96|179:175|257:231,1,220.499993270874
293,299,1819,6,0,P|360:283|510:248,1,220.499993270874
474,146,2468,6,0,P|366:121|259:95,1,220.499993270874
58,33,3116,5,8,1:2:0:0:
114,20,3197,1,8,1:2:0:0:
163,50,3278,1,8,1:2:0:0:
175,107,3359,1,8,1:2:0:0:
169,119,3440,1,8,1:2:0:0:
135,260,3765,5,8,1:2:0:0:
80,243,3846,1,8,1:2:0:0:
52,192,3927,1,8,1:2:0:0:
70,137,4008,1,8,1:2:0:0:
84,129,4089,1,8,1:2:0:0:
166,275,4414,5,8,1:2:0:0:
214,240,4495,1,8,1:2:0:0:
263,272,4576,1,8,1:2:0:0:
309,234,4657,1,8,1:2:0:0:
324,242,4738,1,8,1:2:0:0:
454,293,4900,1,8,1:2:0:0:
507,144,5062,1,8,1:2:0:0:
358,93,5224,1,0,1:0:0:0:
408,192,5387,5,8,1:2:0:0:
408,192,5711,6,0,B|354:170|334:226|334:226|314:281|257:269,1,180,4|10,1:2|1:2,0:0:0:0:
150,195,6197,5,2,0:0:0:0:
220,140,6360,1,2,1:2:0:0:
279,354,6522,5,2,0:0:0:0:
196,320,6684,2,0,P|153:333|101:349,1,90,10|2,1:2|0:0,0:0:0:0:
363,238,7008,6,0,P|395:280|390:316,1,90,2|2,1:2|0:0,0:0:0:0:
231,232,7333,5,10,1:2:0:0:
153,40,7495,1,10,1:2:0:0:
222,104,7657,5,2,1:2:0:0:
151,169,7819,1,2,0:0:0:0:
87,105,7981,1,10,1:2:0:0:
19,169,8143,1,2,0:0:0:0:
270,292,8306,6,0,P|245:212|215:117,1,180,2|10,1:2|1:2,0:0:0:0:
409,57,8792,5,2,0:0:0:0:
324,15,8954,1,2,1:2:0:0:
388,224,9116,5,2,0:0:0:0:
473,182,9279,2,0,P|490:138|469:93,1,90,10|2,1:2|0:0,0:0:0:0:
262,78,9603,6,0,P|248:120|235:163,1,90,2|2,1:2|0:0,0:0:0:0:
161,302,9927,5,10,1:2:0:0:
0,178,10089,1,10,1:2:0:0:
101,177,10252,5,8,1:2:0:0:
48,258,10414,1,8,1:2:0:0:
50,266,10495,1,8,1:2:0:0:
52,275,10576,1,8,1:2:0:0:
151,75,10738,1,8,1:2:0:0:
148,83,10819,1,8,1:2:0:0:
146,92,10900,6,0,P|198:73|254:167,1,180,4|10,1:2|1:2,0:0:0:0:
331,284,11387,5,2,0:0:0:0:
247,301,11549,1,2,1:2:0:0:
374,108,11711,5,2,0:0:0:0:
297,68,11873,2,0,P|287:112|279:156,1,90,10|2,1:2|0:0,0:0:0:0:
68,37,12197,6,0,P|125:54|136:91,1,90,2|2,1:2|0:0,0:0:0:0:
86,190,12522,5,10,1:2:0:0:
161,360,12684,1,10,1:2:0:0:
218,295,12846,5,2,1:2:0:0:
153,243,13008,1,2,0:0:0:0:
208,173,13170,1,10,1:2:0:0:
279,230,13333,1,2,0:0:0:0:
137,335,13495,5,2,1:2:0:0:
97,161,13657,2,0,P|52:148|-2:135,1,90,2|8,0:0|1:2,0:0:0:0:
192,59,13981,5,2,0:0:0:0:
152,233,14143,2,0,P|107:245|53:258,1,90,2|0,1:2|0:0,0:0:0:0:
251,262,14468,5,10,1:2:0:0:
211,88,14630,2,0,P|166:75|112:62,1,90,2|0,0:0|1:0,0:0:0:0:
362,301,14954,5,2,0:0:0:0:
219,167,15116,1,10,1:2:0:0:
179,352,15279,1,8,1:2:0:0:
334,204,15441,5,8,1:2:0:0:
293,101,15603,1,8,1:2:0:0:
295,93,15684,1,8,1:2:0:0:
297,84,15765,1,8,1:2:0:0:
456,224,15927,1,8,1:2:0:0:
458,232,16008,1,8,1:2:0:0:
460,241,16089,6,0,B|466:272|466:272|452:297|452:297|457:328,3,90,2|2|2|2,0:0|0:2|0:2|0:2,0:0:0:0:
261,113,17387,6,0,P|263:69|334:51,1,108,4|0,1:2|0:0,0:0:0:0:
354,65,17711,2,0,P|361:110|369:152,1,72,10|0,1:2|0:0,0:0:0:0:
257,230,18035,1,2,3:2:0:0:
334,267,18197,1,2,1:2:0:0:
218,135,18360,1,10,1:2:0:0:
141,172,18522,1,2,0:0:0:0:
190,332,18684,5,2,1:2:0:0:
265,305,18846,1,2,0:0:0:0:
60,274,19008,2,0,P|44:209|18:109,1,144,10|0,1:2|3:0,0:0:0:0:
244,81,19495,1,2,1:2:0:0:
168,36,19657,2,0,P|133:59|131:104,1,72,10|0,1:2|0:0,0:0:0:0:
235,221,19981,6,0,B|318:193|318:193|356:221|339:256,2,144,2|10|2,1:2|1:2|3:2,0:0:0:0:
357,351,20792,1,0,1:0:0:0:
444,328,20954,2,0,P|452:295|462:247,1,72,10|0,1:2|0:0,0:0:0:0:
492,108,21279,6,0,P|414:87|362:75,1,108,2|0,1:2|0:0,0:0:0:0:
342,62,21603,2,0,P|312:93|322:138,1,72,10|0,1:2|0:0,0:0:0:0:
283,259,21927,1,0,3:0:0:0:
212,225,22089,1,0,1:0:0:0:
295,363,22252,1,8,1:2:0:0:
366,329,22414,1,0,3:0:0:0:
140,281,22576,6,0,B|108:232|108:232|134:184,1,108,4|0,1:2|0:0,0:0:0:0:
163,159,22900,2,0,P|152:107|145:68,1,72,10|0,1:2|0:0,0:0:0:0:
298,18,23224,1,2,3:2:0:0:
264,94,23387,1,0,1:0:0:0:
398,238,23549,1,10,1:2:0:0:
364,162,23712,1,2,0:0:0:0:
485,35,23873,6,0,P|465:114|445:190,2,144,2|10|2,1:2|1:2|1:2,0:0:0:0:
300,222,24684,1,8,1:2:0:0:
249,146,24846,2,0,P|210:133|172:122,1,72,8|0,1:2|0:0,0:0:0:0:
24,23,25170,6,0,P|71:20|83:82,1,108,4|0,1:2|0:0,0:0:0:0:
62,106,25495,2,0,P|74:152|85:193,1,72,10|0,1:2|0:0,0:0:0:0:
148,272,25819,1,2,3:2:0:0:
222,233,25981,1,2,1:2:0:0:
329,371,26143,1,10,1:2:0:0:
255,332,26305,1,2,0:0:0:0:
380,144,26468,5,2,1:2:0:0:
362,224,26630,1,2,0:0:0:0:
305,46,26792,2,0,B|260:27|244:73|244:73|228:118|181:109,1,144,10|0,1:2|3:0,0:0:0:0:
7,50,27279,1,2,1:2:0:0:
82,0,27441,2,0,P|95:54|105:91,1,72,10|2,1:2|0:0,0:0:0:0:
126,227,27765,6,0,B|93:216|79:174|79:174|48:212|7:197,2,144,2|10|2,1:2|1:2|3:2,0:0:0:0:
316,117,28576,1,0,1:0:0:0:
241,67,28738,2,0,P|228:121|220:160,1,72,10|0,1:2|0:0,0:0:0:0:
289,309,29062,6,0,P|361:289|407:277,1,108,2|0,1:2|0:0,0:0:0:0:
433,270,29387,2,0,P|447:229|427:195,1,72,10|2,1:2|0:0,0:0:0:0:
305,138,29711,1,2,3:2:0:0:
331,222,29873,1,0,1:0:0:0:
173,132,30035,1,12,1:2:0:0:
199,48,30197,1,2,0:0:0:0:
35,256,30360,6,0,B|83:225|83:225|128:259,1,108,4|0,1:2|0:0,0:0:0:0:
154,281,30684,2,0,P|206:265|241:254,1,72,10|0,1:2|0:0,0:0:0:0:
281,146,31008,1,2,3:2:0:0:
199,111,31170,1,0,1:0:0:0:
334,242,31333,1,10,1:2:0:0:
416,207,31495,1,2,0:0:0:0:
389,32,31657,6,0,P|378:74|369:113,1,72,2|2,1:2|0:0,0:0:0:0:
503,233,31981,2,0,P|493:193|484:158,1,72,10|0,1:2|0:0,0:0:0:0:
422,326,32306,1,8,1:2:0:0:
314,234,32468,1,8,1:2:0:0:
318,216,32549,1,8,1:2:0:0:
322,200,32630,1,10,1:2:0:0:
218,55,32792,1,10,1:2:0:0:
223,74,32873,1,8,1:2:0:0:
228,96,32954,6,0,P|273:80|330:63,1,80.9999975280763,4|0,1:2|0:0,0:0:0:0:
140,234,33279,2,0,P|101:221|63:208,1,80.9999975280763,10|0,1:2|0:0,0:0:0:0:
19,66,33603,1,2,1:2:0:0:
90,8,33765,1,0,1:0:0:0:
168,55,33927,2,0,P|190:98|179:125,1,80.9999975280763,10|0,1:2|0:0,0:0:0:0:
79,255,34252,5,2,1:2:0:0:
278,194,34414,1,10,1:2:0:0:
227,259,34576,1,10,1:2:0:0:
154,206,34738,1,8,1:2:0:0:
319,270,34900,5,0,1:0:0:0:
399,129,35062,1,8,1:2:0:0:
261,43,35224,1,12,1:2:0:0:
162,172,35387,1,0,0:0:0:0:
285,162,35549,5,4,1:2:0:0:
478,344,45603,5,8,1:2:0:0:
453,306,45684,1,8,1:2:0:0:
479,270,45765,1,8,1:2:0:0:
454,238,45846,1,8,1:2:0:0:
464,227,45927,2,0,B|468:198|468:198|455:174|455:174|460:145,1,80.9999975280763,4|0,1:2|0:0,0:0:0:0:
314,331,46252,2,0,B|309:302|309:302|322:278|322:278|318:254,1,80.9999975280763,10|0,1:2|0:0,0:0:0:0:
200,165,46576,5,10,1:2:0:0:
165,254,46738,1,2,0:0:0:0:
334,165,46900,5,10,1:2:0:0:
299,76,47062,1,2,0:0:0:0:
126,49,47224,6,0,B|98:56|98:56|81:78|81:78|52:85,1,80.9999975280763,10|0,1:2|0:0,0:0:0:0:
220,193,47549,2,0,B|244:198|244:198|260:220|260:220|288:227,1,80.9999975280763,10|0,1:2|0:0,0:0:0:0:
77,352,47873,5,10,1:2:0:0:
42,263,48035,1,2,0:0:0:0:
179,122,48197,5,8,1:2:0:0:
144,211,48360,1,10,1:2:0:0:
146,219,48441,1,8,0:0:0:0:
148,228,48522,1,10,1:2:0:0:
34,185,48684,1,2,0:0:0:0:
75,70,48846,1,10,1:2:0:0:
190,107,49008,1,2,0:0:0:0:
291,304,49170,5,10,1:2:0:0:
405,261,49332,1,2,0:0:0:0:
364,146,49494,1,10,1:2:0:0:
249,183,49656,1,2,0:0:0:0:
484,42,49819,6,0,B|488:66|488:66|475:90|475:90|479:118,1,80.9999975280763,10|2,1:2|0:0,0:0:0:0:
329,230,50143,2,0,B|333:201|333:201|320:177|320:177|324:153,1,80.9999975280763,10|2,1:2|0:0,0:0:0:0:
169,41,50468,2,0,B|164:65|164:65|177:89|177:89|173:117,1,80.9999975280763,10|2,1:2|0:0,0:0:0:0:
135,271,50792,5,8,1:2:0:0:
0,191,50954,1,10,1:2:0:0:
258,35,51116,5,10,1:2:0:0:
30,300,51441,5,10,1:2:0:0:
346,120,51765,5,10,1:2:0:0:
9,90,52089,5,10,1:2:0:0:
250,351,52414,5,2,1:2:0:0:
176,131,52576,1,8,1:2:0:0:
252,76,52738,5,8,1:2:0:0:
178,296,52900,1,8,1:2:0:0:
263,238,53062,5,0,1:0:0:0:
329,296,53224,1,8,1:2:0:0:
380,260,53387,1,8,1:2:0:0:
411,283,53549,1,12,1:2:0:0:
428,276,54360,6,0,L|434:243,1,31.5
453,216,55008,5,14,1:2:0:0:
205,147,55170,1,2,1:2:0:0:
67,343,55333,5,10,1:2:0:0:
315,274,55495,1,2,1:2:0:0:
76,101,55657,6,0,P|63:45|53:-7,1,99.0000030212403,10|2,1:2|1:2,0:0:0:0:
224,282,55981,2,0,P|212:330|203:378,1,99.0000030212403,10|2,1:2|1:2,0:0:0:0:
212,108,56306,5,10,1:2:0:0:
90,262,56468,1,2,1:2:0:0:
189,87,56630,1,10,1:2:0:0:
314,232,56792,1,2,1:2:0:0:
70,111,56954,1,8,1:2:0:0:
310,2,57116,1,2,1:2:0:0:
202,229,57279,1,8,1:2:0:0:
110,0,57441,1,0,1:0:0:0:
327,241,57603,6,0,P|394:218|443:201,1,99.0000030212403,10|2,1:2|1:2,0:0:0:0:
205,126,57927,1,10,1:2:0:0:
144,329,58089,1,2,1:2:0:0:
308,92,58252,2,0,P|375:115|424:132,1,99.0000030212403,10|0,1:2|1:0,0:0:0:0:
125,177,58576,1,10,1:2:0:0:
244,365,58738,1,2,1:2:0:0:
50,262,58900,5,10,1:2:0:0:
301,169,59062,1,0,1:0:0:0:
448,353,59224,5,8,1:2:0:0:
197,260,59386,1,0,1:0:0:0:
434,121,59549,6,0,P|447:65|457:13,1,99.0000030212403,8|0,1:2|1:0,0:0:0:0:
303,288,59873,2,0,P|312:336|323:384,1,99.0000030212403,8|2,1:2|1:2,0:0:0:0:
110,75,60197,5,14,1:2:0:0:
361,168,60359,1,2,1:2:0:0:
433,38,60522,5,10,1:2:0:0:
182,131,60684,1,2,1:2:0:0:
417,298,60846,6,0,P|361:284|309:273,1,99.0000030212403,10|0,1:2|1:0,0:0:0:0:
187,38,61170,2,0,P|235:27|283:15,1,99.0000030212403,10|0,1:2|1:0,0:0:0:0:
72,279,61495,6,0,P|46:215|24:156,1,99.0000030212403,10|0,1:2|1:0,0:0:0:0:
56,90,61819,1,10,1:2:0:0:
299,219,61981,2,0,P|256:273|216:322,1,99.0000030212403,2|8,1:2|1:2,0:0:0:0:
152,346,62305,1,0,1:0:0:0:
176,72,62468,2,0,P|244:81|306:91,1,99.0000030212403,8|0,1:2|1:0,0:0:0:0:
25,348,62792,5,14,1:2:0:0:
254,255,62954,1,0,1:0:0:0:
326,342,63116,5,8,1:2:0:0:
97,249,63278,1,2,1:2:0:0:
342,125,63441,6,0,P|332:173|321:221,1,99.0000030212403,10|0,1:2|1:0,0:0:0:0:
106,116,63765,2,0,P|94:67|85:19,1,99.0000030212403,10|0,1:2|1:0,0:0:0:0:
169,361,64089,5,10,1:2:0:0:
206,111,64252,1,0,3:0:0:0:
14,233,64414,1,8,1:2:0:0:
292,187,64576,1,8,3:2:0:0:
20,144,64738,5,0,3:0:0:0:
77,319,64900,1,12,1:2:0:0:
242,269,65062,1,12,1:2:0:0:
193,104,65224,1,2,0:0:0:0:
381,359,65387,5,14,1:2:0:0:
495,128,65549,1,2,1:2:0:0:
259,5,65711,5,10,1:2:0:0:
373,236,65873,1,2,1:2:0:0:
143,182,66035,6,0,P|87:169|36:158,1,99.0000030212403,10|2,1:2|1:2,0:0:0:0:
352,61,66359,2,0,P|400:48|451:36,1,99.0000030212403,10|2,1:2|1:2,0:0:0:0:
301,276,66684,5,8,1:2:0:0:
423,122,66846,1,2,1:2:0:0:
324,297,67008,1,10,1:2:0:0:
199,152,67170,1,2,1:2:0:0:
443,273,67332,1,8,1:2:0:0:
203,382,67494,1,2,1:2:0:0:
311,155,67657,1,8,1:2:0:0:
403,384,67819,1,0,1:0:0:0:
182,149,67981,6,0,P|159:82|142:33,1,99.0000030212403,14|2,1:2|1:2,0:0:0:0:
65,271,68305,1,10,1:2:0:0:
269,331,68467,1,2,1:2:0:0:
32,168,68630,2,0,P|54:101|72:52,1,99.0000030212403,10|2,1:2|1:2,0:0:0:0:
116,350,68954,1,10,1:2:0:0:
305,231,69116,1,2,1:2:0:0:
452,370,69279,5,10,1:2:0:0:
201,277,69441,1,0,1:0:0:0:
48,184,69603,5,8,1:2:0:0:
299,91,69765,1,0,1:0:0:0:
241,356,69927,6,0,P|185:369|133:379,1,99.0000030212403,8|0,1:2|1:0,0:0:0:0:
18,66,70252,2,0,P|66:75|114:86,1,99.0000030212403,8|2,1:2|1:2,0:0:0:0:
326,286,70576,5,14,1:2:0:0:
414,55,70738,1,2,1:2:0:0:
268,155,70900,5,10,1:2:0:0:
408,363,71062,1,2,1:2:0:0:
503,105,71224,6,0,P|447:92|395:82,1,99.0000030212403,10|0,1:2|1:0,0:0:0:0:
210,298,71549,2,0,P|258:288|306:277,1,99.0000030212403,10|0,1:2|1:0,0:0:0:0:
16,152,71873,5,4,1:2:0:0:
382,14,72522,5,12,1:2:0:0:
212,350,73170,6,0,B|160:285|156:177|220:113|299:119|330:184|312:220,1,350.99998928833,8|0,1:2|0:0,0:0:0:0:
296,231,74306,5,0,1:0:0:0:
294,222,74387,1,0,1:0:0:0:
292,213,74468,2,0,P|302:159|317:77,2,135,12|12|12,1:2|1:2|1:2,0:0:0:0:
512,55,75116,5,8,1:2:0:0:
456,42,75197,1,0,1:0:0:0:
407,72,75278,1,0,1:0:0:0:
395,129,75359,1,0,1:0:0:0:
402,139,75440,1,12,1:2:0:0:
295,333,75765,6,0,P|383:310|468:286,1,180,4|10,1:2|1:2,0:0:0:0:
489,94,76252,5,2,0:0:0:0:
419,39,76415,1,2,1:2:0:0:
313,255,76576,5,2,0:0:0:0:
395,221,76738,2,0,P|406:172|379:138,1,90,10|2,1:2|0:0,0:0:0:0:
247,36,77062,2,0,P|236:94|225:152,1,90,2|2,1:2|0:0,0:0:0:0:
169,245,77387,5,10,1:2:0:0:
0,167,77549,1,10,1:2:0:0:
63,101,77711,5,2,1:2:0:0:
131,168,77873,1,2,0:0:0:0:
66,235,78035,1,10,1:2:0:0:
117,309,78197,1,2,0:0:0:0:
159,66,78360,6,0,B|213:44|233:100|233:100|253:155|310:143,1,180,2|10,1:2|1:2,0:0:0:0:
387,242,78846,5,2,0:0:0:0:
317,297,79009,1,2,1:2:0:0:
413,43,79170,5,2,0:0:0:0:
425,131,79333,2,0,P|476:118|525:107,1,90,10|2,1:2|0:0,0:0:0:0:
237,231,79657,6,0,P|218:179|250:140,1,90,2|2,1:2|0:0,0:0:0:0:
294,35,79981,5,10,1:2:0:0:
90,13,80143,1,10,1:2:0:0:
131,98,80306,5,8,1:2:0:0:
184,17,80468,1,8,1:2:0:0:
186,9,80549,1,8,1:2:0:0:
188,0,80630,1,8,1:2:0:0:
316,156,80792,1,8,1:2:0:0:
314,148,80873,1,8,1:2:0:0:
312,139,80954,6,0,P|293:194|257:312,1,180,4|10,1:2|1:2,0:0:0:0:
57,189,81441,5,2,0:0:0:0:
15,117,81603,1,2,1:2:0:0:
232,9,81765,5,2,0:0:0:0:
190,81,81927,2,0,P|234:105|275:129,1,90,10|2,1:2|0:0,0:0:0:0:
440,285,82252,6,0,P|391:281|366:236,1,90,2|2,1:2|0:0,0:0:0:0:
348,155,82576,5,10,1:2:0:0:
450,2,82738,1,10,1:2:0:0:
512,61,82900,5,2,1:2:0:0:
455,127,83062,1,2,0:0:0:0:
389,69,83224,1,10,1:2:0:0:
323,130,83387,1,2,0:0:0:0:
151,199,83549,5,2,1:2:0:0:
255,14,83711,2,0,P|243:58|229:113,1,90,2|8,0:0|1:2,0:0:0:0:
232,232,84035,5,2,0:0:0:0:
123,31,84197,2,0,P|135:76|149:130,1,90,2|0,1:2|0:0,0:0:0:0:
243,254,84522,5,10,1:2:0:0:
347,69,84684,2,0,P|335:113|321:168,1,90,2|0,0:0|1:0,0:0:0:0:
400,293,85008,5,2,0:0:0:0:
165,354,85170,1,10,1:2:0:0:
231,135,85333,1,8,1:2:0:0:
311,367,85495,5,8,1:2:0:0:
221,267,85657,1,8,1:2:0:0:
212,265,85738,1,8,1:2:0:0:
203,263,85819,1,8,1:2:0:0:
265,149,85981,1,8,1:2:0:0:
274,151,86062,1,8,1:2:0:0:
283,153,86143,6,0,P|293:98|303:29,1,108,2|0,0:0|0:0,0:0:0:0:
282,17,86468,5,2,0:0:0:0:
398,168,86630,6,0,B|347:136|295:158|275:224|275:224|250:307|169:289,1,296.99999093628,2|0,0:0|0:0,0:0:0:0:
