osu file format v14

[General]
AudioFilename: audio.mp3
AudioLeadIn: 0
PreviewTime: 54279
Countdown: 0
SampleSet: Soft
StackLeniency: 0.7
Mode: 0
LetterboxInBreaks: 0
WidescreenStoryboard: 0

[Editor]
Bookmarks: 197,5711,17386,35549,45927,55008,75765
DistanceSpacing: 1.3
BeatDivisor: 4
GridSize: 4
TimelineZoom: 1

[Metadata]
Title:Welcome to Chaos (TV Size)
TitleUnicode:Welcome トゥ 混沌 (TV Size)
Artist:(K)NoW_NAME
ArtistUnicode:(K)NoW_NAME
Creator:Hantrik
Version:-Eternal-'s Hard
Source:ドロヘドロ
Tags:jrock j-rock female vocalist anime japanese op opening dorohedoro know_name know name nekroman4ik kuyusu irohas -eternal- カオス
BeatmapID:2708801
BeatmapSetID:1306479

[Difficulty]
HPDrainRate:4.6
CircleSize:3.6
OverallDifficulty:6
ApproachRate:7.8
SliderMultiplier:1.42
SliderTickRate:1

[Events]
//Background and Video events
0,0,"BG.jpg",0,0
//Break Periods
//Storyboard Layer 0 (Background)
//Storyboard Layer 1 (Fail)
//Storyboard Layer 2 (Pass)
//Storyboard Layer 3 (Foreground)
//Storyboard Layer 4 (Overlay)
//Storyboard Sound Samples

[TimingPoints]
-775,324.324324324324,4,2,1,30,1,0
197,-153.846153846153,4,2,1,30,0,0
522,-181.818181818181,4,2,1,30,0,0
3116,-117.647058823529,4,2,1,50,0,0
5711,-100,4,2,1,60,0,0
16089,-100,4,2,1,60,0,0
16414,-100,4,2,1,60,0,0
17386,-111.111111111111,4,2,1,40,0,0
32954,-111.111111111111,4,2,1,40,0,0
35549,-125,4,2,1,50,0,0
36197,-125,4,2,1,50,0,0
38954,-125,4,2,1,5,0,0
39116,-125,4,2,1,50,0,0
39278,-125,4,2,1,5,0,0
39440,-125,4,2,1,50,0,0
39927,-125,4,2,1,5,0,0
40089,-125,4,2,1,50,0,0
44143,-125,4,2,1,5,0,0
44305,-125,4,2,1,50,0,0
45116,-125,4,2,1,5,0,0
45278,-125,4,2,1,50,0,0
45441,-125,4,2,1,50,0,0
45603,-125,4,2,1,60,0,0
45927,-100,4,2,1,60,0,0
54360,-100,4,2,1,60,0,0
55008,-90.9090909090909,4,2,1,70,0,1
71873,-90.9090909090909,4,2,1,70,0,1
73170,-125,4,2,1,70,0,1
74467,-90.9090909090909,4,2,1,70,0,1
75116,-90.9090909090909,4,2,1,70,0,1
75765,-100,4,2,1,60,0,0
86143,-133.333333333333,4,2,1,30,0,0
86630,-399.999999999997,4,2,1,30,0,0
88252,-399.999999999997,4,2,1,20,0,0

[Colours]
Combo1 : 240,119,47
Combo2 : 214,126,133
Combo3 : 245,191,158
Combo4 : 187,57,67

[HitObjects]
31,102,197,6,0,L|40:150,1,46.1499978874208,2|2,3:0|3:0,0:0:0:0:
80,177,522,6,0,B|162:162|141:231|243:218,1,156.200004766846,4|0,1:2|0:0,0:0:0:0:
414,292,1819,2,0,P|333:298|302:362,1,156.200004766846
71,292,3116,5,8,1:2:0:0:
71,292,3197,1,8,1:2:0:0:
71,292,3278,2,0,L|78:255,2,30.1750005755425,8|8|8,1:2|1:2|1:2,0:0:0:0:
190,188,3765,5,8,1:2:0:0:
190,188,3846,1,8,1:2:0:0:
190,188,3927,2,0,L|226:195,2,30.1750005755425,8|8|8,1:2|1:2|1:2,0:0:0:0:
295,303,4413,2,0,L|287:339,4,30.1750005755425,8|8|8|8|8,1:2|1:2|1:2|1:2|1:2,0:0:0:0:
364,266,4900,1,8,1:2:0:0:
337,192,5062,2,0,L|348:128,1,60.3500011510849,8|0,1:2|1:0,0:0:0:0:
410,85,5386,1,8,1:2:0:0:
233,29,5711,6,0,B|161:14|171:64|85:53,1,142,4|10,1:2|1:2,0:0:0:0:
20,1,6197,1,2,0:0:0:0:
3,91,6359,2,0,L|10:168,1,71,2|2,1:2|0:0,0:0:0:0:
87,213,6684,6,0,P|131:174|231:191,1,142,10|2,1:2|1:2,0:0:0:0:
292,219,7170,1,2,0:0:0:0:
234,292,7332,2,0,L|249:373,1,71,10|10,1:2|1:2,0:0:0:0:
338,377,7657,1,2,1:2:0:0:
156,345,7981,2,0,P|113:350|86:378,1,71,10|2,1:2|0:0,0:0:0:0:
0,370,8305,6,0,L|11:223,1,142,2|10,1:2|1:2,0:0:0:0:
80,167,8792,1,2,0:0:0:0:
16,99,8954,2,0,L|24:26,1,71,2|2,1:2|0:0,0:0:0:0:
113,48,9278,6,0,B|185:63|175:13|261:24,1,142,10|2,1:2|1:2,0:0:0:0:
326,74,9765,1,2,0:0:0:0:
399,129,9927,2,0,L|478:117,2,71,10|10|8,1:2|1:2|1:2,0:0:0:0:
335,196,10413,1,8,1:2:0:0:
335,196,10494,1,8,1:2:0:0:
335,196,10576,2,0,P|293:215|251:209,1,71,8|8,1:2|1:2,0:0:0:0:
229,201,10819,1,8,1:2:0:0:
229,201,10900,6,0,L|220:47,1,142,4|10,1:2|1:2,0:0:0:0:
136,21,11386,1,2,0:0:0:0:
62,77,11549,2,0,L|65:162,1,71,2|2,1:2|0:0,0:0:0:0:
41,237,11873,6,0,B|113:222|103:272|189:261,1,142,10|2,1:2|1:2,0:0:0:0:
242,197,12359,1,2,0:0:0:0:
318,248,12521,2,0,L|309:336,1,71,10|10,1:2|1:2,0:0:0:0:
232,367,12846,1,2,1:2:0:0:
57,308,13170,2,0,P|34:273|38:234,1,71,10|2,1:2|0:0,0:0:0:0:
91,172,13494,5,2,1:2:0:0:
174,212,13657,2,0,B|246:227|236:177|322:188,1,142,2|2,0:0|0:0,0:0:0:0:
383,143,14143,2,0,L|397:-2,1,142,2|10,1:2|1:2,0:0:0:0:
311,12,14630,6,0,P|277:54|175:47,1,142,2|2,0:0|0:0,0:0:0:0:
104,34,15116,1,10,1:2:0:0:
25,82,15278,2,0,L|36:173,1,71,8|8,1:2|1:2,0:0:0:0:
111,203,15603,1,8,1:2:0:0:
111,203,15684,1,8,1:2:0:0:
111,203,15765,2,0,P|150:189|184:197,1,71,8|8,1:2|1:2,0:0:0:0:
213,224,16008,1,8,1:2:0:0:
213,224,16089,6,0,B|285:209|275:259|361:248,1,142,2|2,0:0|0:2,0:0:0:0:
501,143,16738,2,0,B|429:158|439:108|353:119,1,142,2|2,0:2|0:2,0:0:0:0:
219,37,17386,6,0,L|232:168,1,127.799996099854,4|10,1:2|1:2,0:0:0:0:
95,259,18035,2,0,L|100:183,1,63.8999980499268,2|2,3:2|1:2,0:0:0:0:
13,258,18359,2,0,L|21:335,1,63.8999980499268,10|2,1:2|0:0,0:0:0:0:
93,371,18684,5,2,1:2:0:0:
93,371,18846,1,2,0:0:0:0:
168,335,19008,2,0,B|228:347|220:305|292:314,1,127.799996099854,10|0,1:2|3:0,0:0:0:0:
365,351,19494,1,2,1:2:0:0:
438,312,19657,2,0,L|445:241,1,63.8999980499268,10|0,1:2|0:0,0:0:0:0:
383,192,19981,6,0,P|340:205|321:223,1,63.8999980499268,2|0,1:2|0:0,0:0:0:0:
261,164,20305,2,0,P|218:151|199:133,1,63.8999980499268,10|0,1:2|0:0,0:0:0:0:
155,206,20630,2,0,L|75:208,1,63.8999980499268,2|0,3:2|1:0,0:0:0:0:
37,144,20954,2,0,L|35:64,1,63.8999980499268,10|0,1:2|0:0,0:0:0:0:
102,31,21278,5,2,1:2:0:0:
102,31,21440,1,2,0:0:0:0:
178,63,21603,2,0,B|238:50|230:92|302:83,1,127.799996099854,10|0,1:2|3:0,0:0:0:0:
373,43,22089,1,0,1:0:0:0:
438,93,22251,2,0,P|448:132|438:161,1,63.8999980499268,8|0,1:2|3:0,0:0:0:0:
370,196,22576,6,0,P|324:187|257:234,1,127.799996099854,4|10,1:2|1:2,0:0:0:0:
182,198,23062,1,0,0:0:0:0:
112,243,23224,2,0,L|37:234,1,63.8999980499268,2|0,3:2|1:0,0:0:0:0:
5,308,23549,1,10,1:2:0:0:
5,308,23711,1,2,0:0:0:0:
73,354,23873,6,0,L|201:369,1,127.799996099854,2|10,1:2|1:2,0:0:0:0:
261,313,24359,1,0,0:0:0:0:
217,242,24521,2,0,P|199:197|246:115,1,127.799996099854,2|8,1:2|1:2,0:0:0:0:
300,85,25008,1,0,0:0:0:0:
368,132,25170,6,0,L|355:263,1,127.799996099854,4|10,1:2|1:2,0:0:0:0:
213,345,25819,2,0,P|167:354|134:334,1,63.8999980499268,2|2,3:2|1:2,0:0:0:0:
108,277,26143,2,0,L|116:209,1,63.8999980499268,10|2,1:2|0:0,0:0:0:0:
147,139,26467,5,2,1:2:0:0:
147,139,26630,1,2,0:0:0:0:
113,63,26792,2,0,P|66:65|22:145,1,127.799996099854,10|0,1:2|3:0,0:0:0:0:
69,193,27278,1,2,1:2:0:0:
13,255,27440,2,0,L|20:318,1,63.8999980499268,10|2,1:2|0:0,0:0:0:0:
95,354,27765,6,0,P|150:325|210:343,1,127.799996099854,2|10,1:2|1:2,0:0:0:0:
256,274,28251,1,0,0:0:0:0:
215,203,28413,2,0,L|225:67,1,127.799996099854,2|10,3:2|1:2,0:0:0:0:
299,39,28900,1,0,0:0:0:0:
378,62,29062,6,0,P|396:88|398:137,1,63.8999980499268,2|0,1:2|0:0,0:0:0:0:
423,199,29386,2,0,B|362:186|370:228|298:219,1,127.799996099854,10|2,1:2|3:2,0:0:0:0:
233,168,29873,1,0,1:0:0:0:
169,221,30035,2,0,L|96:212,1,63.8999980499268,12|2,1:2|0:0,0:0:0:0:
22,208,30359,6,0,L|1:344,1,127.799996099854,4|10,1:2|1:2,0:0:0:0:
70,382,30846,1,0,0:0:0:0:
145,348,31008,2,0,P|191:311|276:338,1,127.799996099854,2|10,3:2|1:2,0:0:0:0:
324,366,31494,1,2,0:0:0:0:
385,309,31657,6,0,L|395:244,1,63.8999980499268,2|2,1:2|0:0,0:0:0:0:
328,190,31981,2,0,B|267:202|275:160|203:169,1,127.799996099854,10|8,1:2|1:2,0:0:0:0:
145,105,32467,1,8,1:2:0:0:
145,105,32549,1,8,1:2:0:0:
145,105,32630,2,0,L|155:40,1,63.8999980499268,10|10,1:2|1:2,0:0:0:0:
245,20,32954,6,0,P|300:19|364:84,1,127.799996099854,4|10,1:2|1:2,0:0:0:0:
509,0,33603,2,0,L|495:137,1,127.799996099854,2|10,1:2|1:2,0:0:0:0:
382,248,34251,6,0,P|343:232|316:234,1,63.8999980499268,2|10,1:2|1:2,0:0:0:0:
273,164,34576,2,0,P|234:180|207:178,1,63.8999980499268,10|8,1:2|1:2,0:0:0:0:
133,189,34900,1,0,1:0:0:0:
133,189,35062,1,8,1:2:0:0:
75,248,35224,2,0,L|80:312,1,63.8999980499268,12|0,1:2|0:0,0:0:0:0:
142,369,35549,6,0,B|253:395|239:299|357:325,1,227.2,4|0,1:2|0:0,0:0:0:0:
467,26,36846,2,0,P|364:27|311:145,1,227.2
51,313,38143,6,0,L|57:252,2,56.8
107,369,38630,2,0,L|234:380,1,113.6
289,340,39116,6,0,P|295:312|283:273,1,56.8
241,221,39440,1,0,0:0:0:0:
241,221,39603,2,0,P|219:183|257:107,1,113.6
309,84,40089,2,0,L|313:48,4,28.4
432,184,40738,6,0,P|487:252|408:356,1,227.2
315,53,42035,2,0,B|204:27|218:123|100:97,1,227.2
315,331,43332,6,0,L|321:268,2,56.8
242,363,43819,2,0,B|182:373|194:331|117:342,1,113.6
77,284,44305,6,0,L|14:278,2,56.8
134,228,44792,2,0,L|151:91,1,113.6
103,49,45278,1,0,0:0:0:0:
253,17,45603,1,8,1:2:0:0:
253,17,45684,1,8,1:2:0:0:
253,17,45765,1,8,1:2:0:0:
311,87,45927,6,0,L|299:232,1,142,4|10,1:2|1:2,0:0:0:0:
256,310,46413,1,0,0:0:0:0:
164,294,46576,2,0,P|118:301|97:318,1,71,10|2,1:2|0:0,0:0:0:0:
7,326,46900,2,0,L|12:251,1,71,10|2,1:2|0:0,0:0:0:0:
51,171,47224,6,0,P|97:178|118:195,1,71,10|0,1:2|0:0,0:0:0:0:
183,255,47549,2,0,B|252:269|243:221|326:232,1,142,10|10,1:2|1:2,0:0:0:0:
401,274,48035,2,0,L|417:126,1,142,2|10,0:0|1:2,0:0:0:0:
349,71,48521,6,0,L|276:65,1,71,10|2,1:2|0:0,0:0:0:0:
195,34,48846,1,10,1:2:0:0:
195,34,49008,1,2,0:0:0:0:
110,71,49170,2,0,P|102:105|112:139,1,71,10|2,1:2|0:0,0:0:0:0:
177,204,49494,2,0,P|184:238|174:272,1,71,10|2,1:2|0:0,0:0:0:0:
138,357,49819,6,0,B|207:342|198:390|281:379,1,142,10|10,1:2|1:2,0:0:0:0:
343,319,50305,1,2,0:0:0:0:
423,364,50467,2,0,L|496:358,1,71,10|2,1:2|0:0,0:0:0:0:
502,265,50792,1,8,1:2:0:0:
426,212,50954,1,10,1:2:0:0:
336,235,51116,5,10,1:2:0:0:
164,297,51440,1,10,1:2:0:0:
103,123,51765,1,10,1:2:0:0:
277,62,52089,1,10,1:2:0:0:
212,234,52413,5,2,1:2:0:0:
123,262,52576,1,8,1:2:0:0:
123,355,52738,1,8,1:2:0:0:
212,384,52900,1,8,1:2:0:0:
266,309,53062,2,0,L|346:312,1,71,0|8,1:0|1:2,0:0:0:0:
420,348,53386,1,8,1:2:0:0:
420,348,53549,5,12,1:2:0:0:
80,12,54359,2,0,P|145:95|78:171,1,213
15,238,55008,6,0,L|27:325,1,78.1000023834229,14|2,1:2|1:2,0:0:0:0:
107,375,55332,2,0,L|184:364,1,78.1000023834229,10|2,1:2|1:2,0:0:0:0:
265,302,55657,1,10,1:2:0:0:
265,302,55819,1,2,1:2:0:0:
356,345,55981,1,10,1:2:0:0:
356,345,56143,1,2,1:2:0:0:
449,281,56305,6,0,P|459:231|448:198,1,78.1000023834229,10|2,1:2|1:2,0:0:0:0:
386,127,56630,1,10,1:2:0:0:
305,188,56792,2,0,B|226:202|238:150|152:163,1,156.200004766846,2|2,1:2|1:2,0:0:0:0:
56,189,57278,2,0,L|62:106,1,78.1000023834229,8|0,1:2|1:0,0:0:0:0:
146,35,57603,6,0,P|198:29|267:102,1,156.200004766846,10|10,1:2|1:2,0:0:0:0:
220,188,58089,1,2,1:2:0:0:
299,250,58251,2,0,L|387:238,1,78.1000023834229,10|0,1:2|1:0,0:0:0:0:
472,274,58576,2,0,P|488:317|472:364,1,78.1000023834229,10|2,1:2|1:2,0:0:0:0:
372,374,58900,6,0,L|136:355,1,234.300007150269,10|0,1:2|1:0,0:0:0:0:
72,277,59549,2,0,L|86:191,1,78.1000023834229,8|0,1:2|1:0,0:0:0:0:
29,114,59873,1,8,1:2:0:0:
112,54,60035,5,2,1:2:0:0:
112,54,60197,2,0,P|175:44|195:62,1,78.1000023834229,14|2,1:2|1:2,0:0:0:0:
259,115,60521,2,0,L|246:201,1,78.1000023834229,10|2,1:2|1:2,0:0:0:0:
320,263,60846,2,0,P|358:268|393:252,1,78.1000023834229,10|0,1:2|1:0,0:0:0:0:
487,214,61170,2,0,L|475:136,1,78.1000023834229,10|0,1:2|1:0,0:0:0:0:
396,73,61494,6,0,P|352:64|274:145,1,156.200004766846,10|10,1:2|1:2,0:0:0:0:
254,232,61981,2,0,L|93:211,1,156.200004766846,2|0,1:2|1:0,0:0:0:0:
43,298,62467,2,0,L|121:309,1,78.1000023834229,8|0,1:2|1:0,0:0:0:0:
224,355,62792,6,0,B|303:369|291:317|376:330,1,156.200004766846,14|8,1:2|1:2,0:0:0:0:
473,350,63278,1,2,1:2:0:0:
493,250,63440,2,0,P|487:211|503:176,1,78.1000023834229,10|0,1:2|1:0,0:0:0:0:
426,108,63765,2,0,L|348:118,1,78.1000023834229,10|0,1:2|1:0,0:0:0:0:
262,191,64089,6,0,L|279:352,1,156.200004766846,10|8,1:2|1:2,0:0:0:0:
178,367,64576,2,0,P|132:368|102:387,2,78.1000023834229,8|0|12,3:2|3:0|1:2,0:0:0:0:
278,346,65062,1,12,1:2:0:0:
278,346,65224,1,2,0:0:0:0:
212,254,65386,6,0,L|129:263,1,78.1000023834229,14|2,1:2|1:2,0:0:0:0:
59,200,65711,1,10,1:2:0:0:
59,200,65873,1,2,1:2:0:0:
55,102,66035,1,10,1:2:0:0:
55,102,66197,1,2,1:2:0:0:
126,30,66359,1,10,1:2:0:0:
221,91,66521,6,0,B|300:77|288:129|373:115,1,156.200004766846,2|2,1:2|1:2,0:0:0:0:
457,60,67008,1,10,1:2:0:0:
497,152,67170,2,0,L|481:308,1,156.200004766846,2|2,1:2|1:2,0:0:0:0:
383,338,67657,2,0,P|350:313|304:309,1,78.1000023834229,8|0,1:2|1:0,0:0:0:0:
204,332,67981,6,0,L|214:242,1,78.1000023834229,14|2,1:2|1:2,0:0:0:0:
272,172,68305,2,0,L|262:82,1,78.1000023834229,10|2,1:2|1:2,0:0:0:0:
180,44,68630,1,10,1:2:0:0:
180,44,68792,1,2,1:2:0:0:
94,98,68954,2,0,L|85:175,1,78.1000023834229,10|2,1:2|1:2,0:0:0:0:
123,283,69278,6,0,B|202:297|190:245|275:258,1,156.200004766846,10|8,1:2|1:2,0:0:0:0:
350,191,69765,1,0,1:0:0:0:
436,243,69927,2,0,L|427:320,1,78.1000023834229,8|0,1:2|1:0,0:0:0:0:
344,379,70251,1,8,1:2:0:0:
268,309,70414,5,2,1:2:0:0:
268,309,70576,2,0,P|222:293|188:310,1,78.1000023834229,14|2,1:2|1:2,0:0:0:0:
95,299,70900,2,0,L|100:207,1,78.1000023834229,10|2,1:2|1:2,0:0:0:0:
76,122,71224,2,0,P|132:119|163:140,1,78.1000023834229,10|0,1:2|1:0,0:0:0:0:
245,91,71549,2,0,L|250:-1,1,78.1000023834229,10|0,1:2|1:0,0:0:0:0:
361,0,71873,6,0,L|352:159,1,156.200004766846,4|0,1:2|0:0,0:0:0:0:
462,326,72521,2,0,P|489:313|401:242,1,234.300007150269,12|0,1:2|0:0,0:0:0:0:
343,302,73170,6,0,L|351:358,2,56.8,8|0|0,1:2|0:0|0:0,0:0:0:0:
297,236,73657,2,0,L|289:180,1,56.8
325,108,73981,2,0,L|317:52,2,56.8,0|0|0,0:0|0:0|1:0,0:0:0:0:
355,141,74386,5,0,1:0:0:0:
355,141,74467,2,0,P|393:168|479:132,2,117.150003575134,12|12|12,1:2|1:2|1:2,0:0:0:0:
258,193,75116,2,0,L|219:186,4,39.0500011917115,8|0|0|0|12,1:2|1:0|1:0|1:0|1:2,0:0:0:0:
402,314,75765,6,0,B|329:326|340:279|262:291,1,142,4|10,1:2|1:2,0:0:0:0:
174,305,76251,2,0,L|185:161,1,142,2|2,0:0|0:0,0:0:0:0:
119,97,76738,2,0,L|36:91,1,71,10|2,1:2|0:0,0:0:0:0:
7,174,77062,6,0,P|-5:227|4:252,1,71,2|2,1:2|0:0,0:0:0:0:
81,293,77386,1,10,1:2:0:0:
81,293,77549,1,10,1:2:0:0:
161,248,77711,1,2,1:2:0:0:
316,347,78035,2,0,P|374:353|396:341,1,71,10|2,1:2|0:0,0:0:0:0:
444,278,78359,6,0,L|451:200,1,71,2|2,1:2|0:0,0:0:0:0:
393,134,78684,1,10,1:2:0:0:
316,184,78846,2,0,B|243:171|254:218|176:206,1,142,2|2,0:0|0:0,0:0:0:0:
101,158,79332,6,0,P|99:90|171:49,1,142,10|2,1:2|1:2,0:0:0:0:
240,84,79819,1,2,0:0:0:0:
323,45,79981,2,0,L|405:41,1,71,10|10,1:2|1:2,0:0:0:0:
476,83,80305,1,8,1:2:0:0:
426,163,80467,1,8,1:2:0:0:
426,163,80549,1,8,1:2:0:0:
426,163,80630,2,0,L|433:243,1,71,8|8,1:2|1:2,0:0:0:0:
391,250,80873,1,8,1:2:0:0:
391,250,80954,6,0,L|249:246,1,142,4|10,1:2|1:2,0:0:0:0:
194,171,81440,1,2,0:0:0:0:
262,108,81603,2,0,P|269:64|250:31,1,71,2|2,1:2|0:0,0:0:0:0:
171,9,81927,2,0,L|100:12,1,71,10|2,1:2|0:0,0:0:0:0:
30,72,82251,6,0,L|32:157,1,71,2|2,1:2|0:0,0:0:0:0:
90,221,82576,1,10,1:2:0:0:
90,221,82738,1,10,1:2:0:0:
50,304,82900,1,2,1:2:0:0:
229,344,83224,2,0,P|263:327|302:327,1,71,10|2,1:2|0:0,0:0:0:0:
384,351,83549,5,2,1:2:0:0:
459,297,83711,2,0,L|467:141,1,142,2|2,0:0|0:0,0:0:0:0:
378,182,84197,2,0,B|305:194|316:147|238:159,1,142,2|10,1:2|1:2,0:0:0:0:
189,81,84684,6,0,P|160:49|75:75,1,142,2|2,0:0|0:0,0:0:0:0:
25,151,85170,1,10,1:2:0:0:
69,231,85332,2,0,L|59:317,1,71,8|8,1:2|1:2,0:0:0:0:
142,365,85657,1,8,1:2:0:0:
142,365,85738,1,8,1:2:0:0:
142,365,85819,2,0,P|188:340|224:348,1,71,8|8,1:2|1:2,0:0:0:0:
280,367,86143,6,0,L|337:378,2,53.2500020313264,2|0|2,0:0|0:0|0:0,0:0:0:0:
266,290,86630,2,0,B|296:141|296:141|315:186,1,195.25,2|0,0:0|0:0,0:0:0:0:
