osu file format v14

[General]
AudioFilename: audio.mp3
AudioLeadIn: 0
PreviewTime: 54267
Countdown: 0
SampleSet: Normal
StackLeniency: 0.7
Mode: 1
LetterboxInBreaks: 0
WidescreenStoryboard: 0

[Editor]
DistanceSpacing: 0.7
BeatDivisor: 4
GridSize: 32
TimelineZoom: 1.899999

[Metadata]
Title:Welcome to Chaos (TV Size)
TitleUnicode:Welcome トゥ 混沌 (TV Size)
Artist:(K)NoW_NAME
ArtistUnicode:(K)NoW_NAME
Creator:Flade
Version:K a t a g i r i's MUZUKASHII
Source:ドロヘドロ
Tags:jrock j rock j-rock female vocalist anime japanese op opening dorohedoro know name knowname know_name Jaltzu Randelman4ik katagiri k_a_t_a_g_i_r_i カオス (K)_N K_N KN K N 立花綾香 Tachibana Ayaka ニキー NIKIIE AIJ
BeatmapID:2544056
BeatmapSetID:1223078

[Difficulty]
HPDrainRate:6
CircleSize:3.6
OverallDifficulty:5
ApproachRate:7.8
SliderMultiplier:1.4
SliderTickRate:1

[Events]
//Background and Video events
0,0,"bg.jpg",0,0
//Break Periods
//Storyboard Layer 0 (Background)
//Storyboard Layer 1 (Fail)
//Storyboard Layer 2 (Pass)
//Storyboard Layer 3 (Foreground)
//Storyboard Layer 4 (Overlay)
//Storyboard Sound Samples

[TimingPoints]
-829,324.324324324324,4,1,0,75,1,0
143,-133.333333333333,4,1,0,75,0,0
468,324.324324324324,4,1,0,75,1,0
468,-133.333333333333,4,1,0,75,0,0
3062,-117.647058823529,4,1,0,75,0,0
5657,-111.111111111111,4,1,0,80,0,0
17332,324.324324324324,4,1,0,70,1,0
17332,-125,4,1,0,70,0,0
34196,-125,4,1,0,70,0,0
34359,-126.984126984127,4,1,0,70,0,0
34521,-129.032258064516,4,1,0,70,0,0
34683,-131.147540983607,4,1,0,70,0,0
34845,-133.333333333333,4,1,0,70,0,0
35007,-135.593220338983,4,1,0,70,0,0
35169,-137.931034482759,4,1,0,70,0,0
35494,324.324324324324,4,1,0,60,1,0
35494,-142.857142857143,4,1,0,60,0,0
45385,-125,4,1,0,65,0,0
45548,-122.448929612682,4,1,0,65,0,0
45710,-120.000048000019,4,1,0,65,0,0
45791,-118.811834133927,4,1,0,65,0,0
45872,-117.647058823529,4,1,0,70,0,0
52358,-117.647058823529,4,1,0,70,0,0
52521,-119.658160566893,4,1,0,70,0,0
52683,-121.739066918748,4,1,0,70,0,0
52845,-123.893783381631,4,1,0,70,0,0
53007,-126.126148851558,4,1,0,70,0,0
53169,-128.440437673635,4,1,0,70,0,0
53331,-130.841072582777,4,1,0,70,0,0
53493,-133.333333333333,4,1,0,70,0,0
54953,324.324324324324,4,1,0,85,1,1
54953,-105.263157894737,4,1,0,85,0,1
71817,-105.263157894737,4,1,0,85,0,0
73116,-105.263157894737,4,1,0,85,0,0
73278,-105.609668776396,4,1,0,85,0,0
73440,-105.958468518679,4,1,0,85,0,0
73602,-106.309579875171,4,1,0,85,0,0
73764,-106.663025902049,4,1,0,85,0,0
73926,-107.018715432955,4,1,0,85,0,0
74089,-107.376900436917,4,1,0,85,0,0
74251,-107.737491138591,4,1,0,85,0,0
74332,-107.918754444904,4,1,0,85,0,0
74413,-108.100511855924,4,1,0,85,0,0
74656,-108.649594193766,4,1,0,85,0,0
74899,-109.204402247863,4,1,0,85,0,0
75062,-109.577392868922,4,1,0,85,0,0
75143,-109.764785042133,4,1,0,85,0,0
75224,-109.952819245262,4,1,0,85,0,0
75386,-110.330948713762,4,1,0,85,0,0
75709,-111.111111111111,4,1,0,80,0,0
86655,-111.095064046304,4,1,0,60,0,0

[Colours]
Combo1 : 166,51,61
Combo2 : 242,132,68
Combo3 : 242,170,128
Combo4 : 191,54,54

[HitObjects]
256,192,143,5,0,1:0:0:0:
256,192,306,1,0,1:0:0:0:
256,192,468,1,12,1:0:0:0:
256,192,3062,1,8,1:0:0:0:
256,192,3143,1,8,1:0:0:0:
256,192,3224,1,8,1:0:0:0:
256,192,3386,1,8,1:0:0:0:
256,192,3711,1,8,1:0:0:0:
256,192,3792,1,8,1:0:0:0:
256,192,3873,1,8,1:0:0:0:
256,192,4035,1,8,1:0:0:0:
256,192,4359,1,8,1:0:0:0:
256,192,4440,1,8,1:0:0:0:
256,192,4522,1,8,1:0:0:0:
256,192,4684,1,0,1:0:0:0:
256,192,4846,1,8,1:0:0:0:
256,192,5332,1,8,1:0:0:0:
256,192,5657,1,4,1:0:0:0:
256,192,5981,1,8,1:0:0:0:
256,192,6143,1,8,1:0:0:0:
256,192,6305,1,0,1:0:0:0:
256,192,6630,1,8,1:0:0:0:
256,192,6954,1,0,1:0:0:0:
256,192,7116,1,0,1:0:0:0:
256,192,7278,1,8,1:0:0:0:
256,192,7440,1,8,1:0:0:0:
256,192,7603,1,0,1:0:0:0:
256,192,7927,1,8,1:0:0:0:
256,192,8251,1,4,1:0:0:0:
256,192,8576,1,8,1:0:0:0:
256,192,8738,1,0,1:0:0:0:
256,192,8900,1,0,1:0:0:0:
256,192,9224,1,8,1:0:0:0:
256,192,9549,1,0,1:0:0:0:
256,192,9711,1,0,1:0:0:0:
256,192,9873,1,8,1:0:0:0:
256,192,10035,1,8,1:0:0:0:
256,192,10197,1,0,1:0:0:0:
256,192,10359,1,8,1:0:0:0:
256,192,10440,1,8,1:0:0:0:
256,192,10522,1,8,1:0:0:0:
256,192,10684,1,8,1:0:0:0:
256,192,10846,1,4,1:0:0:0:
256,192,11170,1,8,1:0:0:0:
256,192,11332,1,0,1:0:0:0:
256,192,11495,1,0,1:0:0:0:
256,192,11819,1,8,1:0:0:0:
256,192,12143,1,0,1:0:0:0:
256,192,12305,1,0,1:0:0:0:
256,192,12467,1,8,1:0:0:0:
256,192,12630,1,8,1:0:0:0:
256,192,12792,1,0,1:0:0:0:
256,192,13116,1,8,1:0:0:0:
256,192,13440,1,0,1:0:0:0:
256,192,13603,1,8,1:0:0:0:
256,192,13927,1,0,1:0:0:0:
256,192,14089,1,8,1:0:0:0:
256,192,14413,1,0,1:0:0:0:
256,192,14576,1,8,1:0:0:0:
256,192,14900,1,0,1:0:0:0:
256,192,15062,1,8,1:0:0:0:
256,192,15224,1,8,1:0:0:0:
256,192,15386,1,0,1:0:0:0:
256,192,15549,1,8,1:0:0:0:
256,192,15630,1,8,1:0:0:0:
256,192,15711,1,8,1:0:0:0:
256,192,15873,1,8,1:0:0:0:
256,192,15954,1,8,1:0:0:0:
256,192,17332,1,4,1:0:0:0:
256,192,17656,1,8,1:0:0:0:
256,192,17980,1,0,1:0:0:0:
256,192,18142,1,8,1:0:0:0:
256,192,18304,1,8,1:0:0:0:
256,192,18467,1,0,1:0:0:0:
256,192,18629,1,8,1:0:0:0:
256,192,18791,1,0,1:0:0:0:
256,192,18953,1,8,1:0:0:0:
256,192,19440,1,0,1:0:0:0:
256,192,19602,1,8,1:0:0:0:
256,192,19764,1,0,1:0:0:0:
256,192,19926,1,0,1:0:0:0:
256,192,20250,1,8,1:0:0:0:
256,192,20575,1,0,1:0:0:0:
256,192,20737,1,0,1:0:0:0:
256,192,20899,1,8,1:0:0:0:
256,192,21223,1,0,1:0:0:0:
256,192,21386,1,0,0:0:0:0:
256,192,21548,1,8,1:0:0:0:
256,192,22034,1,0,1:0:0:0:
256,192,22196,1,8,1:0:0:0:
256,192,22521,1,0,1:0:0:0:
256,192,22845,1,8,1:0:0:0:
256,192,23169,1,0,1:0:0:0:
256,192,23331,1,8,1:0:0:0:
256,192,23494,1,8,1:0:0:0:
256,192,23818,1,0,1:0:0:0:
256,192,24142,1,8,1:0:0:0:
256,192,24304,1,0,1:0:0:0:
256,192,24467,1,0,1:0:0:0:
256,192,24629,1,8,1:0:0:0:
256,192,24791,1,0,1:0:0:0:
256,192,25115,1,0,1:0:0:0:
256,192,25440,1,8,1:0:0:0:
256,192,25764,1,0,1:0:0:0:
256,192,25926,1,0,1:0:0:0:
256,192,26088,1,8,1:0:0:0:
256,192,26250,1,0,1:0:0:0:
256,192,26413,1,8,1:0:0:0:
256,192,26575,1,0,1:0:0:0:
256,192,26737,1,8,1:0:0:0:
256,192,27223,1,0,1:0:0:0:
256,192,27386,1,8,1:0:0:0:
256,192,27548,1,8,1:0:0:0:
256,192,27710,1,0,1:0:0:0:
256,192,28034,1,8,1:0:0:0:
256,192,28359,1,0,1:0:0:0:
256,192,28521,1,0,1:0:0:0:
256,192,28683,1,8,1:0:0:0:
256,192,29007,1,8,1:0:0:0:
256,192,29331,1,8,1:0:0:0:
256,192,29818,1,0,1:0:0:0:
256,192,29980,1,8,1:0:0:0:
256,192,30304,1,0,1:0:0:0:
256,192,30629,1,8,1:0:0:0:
256,192,30953,1,8,1:0:0:0:
256,192,31277,1,8,1:0:0:0:
256,192,31440,1,0,0:0:0:0:
256,192,31602,1,0,1:0:0:0:
256,192,31764,1,8,0:0:0:0:
256,192,31926,1,8,1:0:0:0:
256,192,32250,1,0,1:0:0:0:
256,192,32413,1,0,1:0:0:0:
256,192,32575,1,8,1:0:0:0:
256,192,32737,1,8,1:0:0:0:
256,192,32818,1,8,1:0:0:0:
256,192,32899,1,8,1:0:0:0:
256,192,33223,1,8,1:0:0:0:
256,192,33548,1,0,1:0:0:0:
256,192,33710,1,0,1:0:0:0:
256,192,33872,1,8,1:0:0:0:
256,192,34196,1,0,1:0:0:0:
256,192,34359,1,8,1:0:0:0:
256,192,34521,1,8,1:0:0:0:
256,192,34683,1,0,1:0:0:0:
256,192,34845,1,8,1:0:0:0:
256,192,35007,1,8,1:0:0:0:
256,192,35169,1,8,1:0:0:0:
256,192,35494,1,4,1:0:0:0:
256,192,36142,1,8,0:0:0:0:
256,192,36791,1,8,0:0:0:0:
256,192,37439,1,0,0:0:0:0:
256,192,40683,1,0,0:0:0:0:
256,192,41331,1,8,0:0:0:0:
256,192,41980,1,8,0:0:0:0:
256,192,42629,1,0,0:0:0:0:
256,192,45385,1,0,1:0:0:0:
256,192,45548,1,8,1:0:0:0:
256,192,45710,1,8,1:0:0:0:
256,192,45791,1,8,1:0:0:0:
256,192,45872,1,8,1:0:0:0:
256,192,46196,1,0,1:0:0:0:
256,192,46521,1,8,1:0:0:0:
256,192,46683,1,0,1:0:0:0:
256,192,46845,1,8,1:0:0:0:
256,192,47007,1,8,1:0:0:0:
256,192,47169,1,8,1:0:0:0:
256,192,47331,1,0,1:0:0:0:
256,192,47493,1,8,1:0:0:0:
256,192,47818,1,8,0:0:0:0:
256,192,47980,1,8,1:0:0:0:
256,192,48304,1,0,1:0:0:0:
256,192,48385,1,0,1:0:0:0:
256,192,48466,1,0,0:0:0:0:
256,192,48629,1,8,0:0:0:0:
256,192,48791,1,8,1:0:0:0:
256,192,48953,1,0,1:0:0:0:
256,192,49115,1,8,1:0:0:0:
256,192,49439,1,0,1:0:0:0:
256,192,49602,1,0,1:0:0:0:
256,192,49764,1,8,1:0:0:0:
256,192,49926,1,8,1:0:0:0:
256,192,50088,1,0,1:0:0:0:
256,192,50250,1,0,1:0:0:0:
256,192,50412,1,8,1:0:0:0:
256,192,50575,1,8,1:0:0:0:
256,192,50899,1,0,1:0:0:0:
256,192,51061,1,12,1:0:0:0:
256,192,51385,1,12,1:0:0:0:
256,192,51710,1,12,1:0:0:0:
256,192,52034,1,12,1:0:0:0:
256,192,52358,1,0,1:0:0:0:
256,192,52521,1,0,1:0:0:0:
256,192,52683,1,8,1:0:0:0:
256,192,52845,1,8,1:0:0:0:
256,192,53007,1,0,1:0:0:0:
256,192,53169,1,0,1:0:0:0:
256,192,53331,1,8,1:0:0:0:
256,192,53493,1,0,1:0:0:0:
256,192,54953,1,12,1:0:0:0:
256,192,55115,1,0,1:0:0:0:
256,192,55277,1,8,1:0:0:0:
256,192,55439,1,0,1:0:0:0:
256,192,55601,1,8,1:0:0:0:
256,192,55763,1,0,1:0:0:0:
256,192,55925,1,8,1:0:0:0:
256,192,56088,1,0,1:0:0:0:
256,192,56250,1,8,1:0:0:0:
256,192,56412,1,8,1:0:0:0:
256,192,56574,1,8,1:0:0:0:
256,192,56736,1,0,1:0:0:0:
256,192,57061,1,0,1:0:0:0:
256,192,57547,1,8,1:0:0:0:
256,192,57709,1,0,1:0:0:0:
256,192,57871,1,8,1:0:0:0:
256,192,58034,1,0,1:0:0:0:
256,192,58196,1,8,1:0:0:0:
256,192,58358,1,0,1:0:0:0:
256,192,58520,1,8,1:0:0:0:
256,192,58682,1,8,1:0:0:0:
256,192,58763,1,8,1:0:0:0:
256,192,58844,1,8,1:0:0:0:
256,192,59169,1,8,0:0:0:0:
256,192,59331,1,0,0:0:0:0:
256,192,59493,1,8,0:0:0:0:
256,192,59980,1,8,1:0:0:0:
256,192,60142,1,0,1:0:0:0:
256,192,60304,1,8,1:0:0:0:
256,192,60466,1,8,1:0:0:0:
256,192,60628,1,0,1:0:0:0:
256,192,60790,1,8,1:0:0:0:
256,192,61115,1,0,1:0:0:0:
256,192,61439,1,8,1:0:0:0:
256,192,61763,1,0,1:0:0:0:
256,192,61925,1,8,1:0:0:0:
256,192,62088,1,0,1:0:0:0:
256,192,62412,1,0,1:0:0:0:
256,192,62736,1,8,1:0:0:0:
256,192,63061,1,0,1:0:0:0:
256,192,63223,1,0,1:0:0:0:
256,192,63385,1,8,1:0:0:0:
256,192,63709,1,0,1:0:0:0:
256,192,64034,1,8,1:0:0:0:
256,192,64358,1,8,1:0:0:0:
256,192,64682,1,0,1:0:0:0:
256,192,64844,1,0,1:0:0:0:
256,192,65007,1,8,1:0:0:0:
256,192,65088,1,8,1:0:0:0:
256,192,65169,1,8,1:0:0:0:
256,192,65331,1,0,1:0:0:0:
256,192,65493,1,8,1:0:0:0:
256,192,65655,1,0,1:0:0:0:
256,192,65817,1,0,0:0:0:0:
256,192,65980,1,8,1:0:0:0:
256,192,66142,1,8,1:0:0:0:
256,192,66304,1,0,1:0:0:0:
256,192,66466,1,8,1:0:0:0:
256,192,66790,1,0,1:0:0:0:
256,192,66952,1,0,1:0:0:0:
256,192,67115,1,8,1:0:0:0:
256,192,67439,1,0,1:0:0:0:
256,192,67925,1,8,1:0:0:0:
256,192,68088,1,0,1:0:0:0:
256,192,68250,1,8,1:0:0:0:
256,192,68412,1,0,1:0:0:0:
256,192,68574,1,8,1:0:0:0:
256,192,68736,1,0,1:0:0:0:
256,192,68898,1,8,1:0:0:0:
256,192,69061,1,8,1:0:0:0:
256,192,69142,1,8,0:0:0:0:
256,192,69223,1,8,1:0:0:0:
256,192,69547,1,8,0:0:0:0:
256,192,69709,1,8,0:0:0:0:
256,192,69871,1,0,0:0:0:0:
256,192,70358,1,8,1:0:0:0:
256,192,70520,1,0,1:0:0:0:
256,192,70682,1,8,1:0:0:0:
256,192,70844,1,0,1:0:0:0:
256,192,71007,1,0,1:0:0:0:
256,192,71169,1,8,1:0:0:0:
256,192,71493,1,8,1:0:0:0:
256,192,71655,1,8,1:0:0:0:
256,192,71817,1,0,1:0:0:0:
256,192,72466,1,12,1:0:0:0:
256,192,73115,1,0,1:0:0:0:
256,192,73277,1,0,1:0:0:0:
256,192,73439,1,8,1:0:0:0:
256,192,73601,1,0,1:0:0:0:
256,192,73763,1,8,1:0:0:0:
256,192,73925,1,8,1:0:0:0:
256,192,74088,1,8,1:0:0:0:
256,192,74250,1,0,1:0:0:0:
256,192,74331,1,0,1:0:0:0:
256,192,74412,1,0,1:0:0:0:
256,192,74655,1,8,1:0:0:0:
256,192,74898,1,8,1:0:0:0:
256,192,75061,1,0,1:0:0:0:
256,192,75142,1,0,1:0:0:0:
256,192,75223,1,0,1:0:0:0:
256,192,75385,1,8,1:0:0:0:
256,192,75709,1,4,1:0:0:0:
256,192,76034,1,8,1:0:0:0:
256,192,76196,1,8,1:0:0:0:
256,192,76358,1,0,1:0:0:0:
256,192,76682,1,8,1:0:0:0:
256,192,77007,1,0,1:0:0:0:
256,192,77169,1,0,1:0:0:0:
256,192,77331,1,8,1:0:0:0:
256,192,77493,1,8,1:0:0:0:
256,192,77655,1,0,1:0:0:0:
256,192,77980,1,8,1:0:0:0:
256,192,78304,1,4,1:0:0:0:
256,192,78628,1,8,1:0:0:0:
256,192,78790,1,0,1:0:0:0:
256,192,78952,1,0,1:0:0:0:
256,192,79277,1,8,1:0:0:0:
256,192,79601,1,0,1:0:0:0:
256,192,79763,1,0,1:0:0:0:
256,192,79925,1,8,1:0:0:0:
256,192,80088,1,8,1:0:0:0:
256,192,80250,1,0,1:0:0:0:
256,192,80412,1,8,1:0:0:0:
256,192,80493,1,8,1:0:0:0:
256,192,80574,1,8,1:0:0:0:
256,192,80736,1,8,1:0:0:0:
256,192,80898,1,4,1:0:0:0:
256,192,81223,1,8,1:0:0:0:
256,192,81385,1,0,1:0:0:0:
256,192,81547,1,0,1:0:0:0:
256,192,81871,1,8,1:0:0:0:
256,192,82196,1,0,1:0:0:0:
256,192,82358,1,0,1:0:0:0:
256,192,82520,1,8,1:0:0:0:
256,192,82682,1,8,1:0:0:0:
256,192,82844,1,0,1:0:0:0:
256,192,83169,1,8,1:0:0:0:
256,192,83493,1,0,1:0:0:0:
256,192,83655,1,8,1:0:0:0:
256,192,83980,1,0,1:0:0:0:
256,192,84142,1,8,1:0:0:0:
256,192,84466,1,0,1:0:0:0:
256,192,84628,1,8,1:0:0:0:
256,192,84952,1,0,1:0:0:0:
256,192,85115,1,8,1:0:0:0:
256,192,85277,1,8,1:0:0:0:
256,192,85439,1,0,1:0:0:0:
256,192,85601,1,8,1:0:0:0:
256,192,85682,1,8,1:0:0:0:
256,192,85763,1,8,1:0:0:0:
256,192,85925,1,8,1:0:0:0:
256,192,86088,1,0,1:0:0:0:
256,192,86412,1,0,1:0:0:0:
256,192,86574,1,0,1:0:0:0:
256,192,86736,8,0,88358,1:0:0:0:
