osu file format v14

[General]
AudioFilename: audio.mp3
AudioLeadIn: 0
PreviewTime: 51086
Countdown: 0
SampleSet: Soft
StackLeniency: 0.4
Mode: 0
LetterboxInBreaks: 0
WidescreenStoryboard: 0

[Editor]
Bookmarks: 27186,42186
DistanceSpacing: 0.8
BeatDivisor: 4
GridSize: 32
TimelineZoom: 3.099999

[Metadata]
Title:Knew day
TitleUnicode:Knew day
Artist:(K)NoW_NAME
ArtistUnicode:(K)NoW_NAME
Creator:schoolboy
Version:NeilPerry's Hard
Source:灰と幻想のグリムガル
Tags:djulus komore kalibe lasse hazu- hazu neilperry hai to gensou no grimgar op opening tv size
BeatmapID:1518809
BeatmapSetID:711568

[Difficulty]
HPDrainRate:5
CircleSize:4
OverallDifficulty:6
ApproachRate:7.5
SliderMultiplier:2
SliderTickRate:2

[Events]
//Background and Video events
0,0,"sad.jpg",0,0
//Break Periods
//Storyboard Layer 0 (Background)
//Storyboard Layer 1 (Fail)
//Storyboard Layer 2 (Pass)
//Storyboard Layer 3 (Foreground)
//Storyboard Sound Samples

[TimingPoints]
986,400,4,2,1,40,1,0
986,-125,4,2,1,40,0,0
10586,-125,4,2,1,50,0,0
11786,-100,4,2,1,60,0,0
12186,-100,4,2,1,75,0,0
24986,-125,4,2,1,60,0,0
37786,-125,4,2,1,50,0,0
50586,-100,4,2,1,60,0,0
52186,-100,4,2,1,75,0,0
75986,-100,4,2,1,55,0,0
77186,-100,4,2,1,60,0,0
78386,-100,4,2,1,55,0,0
81586,-100,4,2,1,65,0,0
82386,-100,4,2,0,60,0,0
82486,-100,4,2,1,30,0,0
85586,-100,4,2,1,25,0,0

[Colours]
Combo1 : 193,255,193
Combo2 : 255,191,223
Combo3 : 191,223,255
Combo4 : 231,207,207

[HitObjects]
181,81,1586,6,0,P|222:70|245:28,2,80,2|0|2,0:0|0:0|0:0,0:0:0:0:
101,72,2186,2,0,P|65:91|56:132,1,80,0|2,0:0|0:0,0:0:0:0:
46,206,2586,6,0,B|138:184|99:265|227:228,1,160,2|2,3:2|0:0,0:0:0:0:
271,264,3186,2,0,P|283:222|292:179,1,80,0|0,0:0|0:0,0:0:0:0:
368,47,3786,2,0,P|384:82|368:129,1,80,2|0,0:0|0:0,0:0:0:0:
441,157,4186,6,0,B|349:135|388:216|260:179,1,160,0|0,0:0|0:0,0:0:0:0:
246,119,4786,1,2,0:0:0:0:
191,59,4986,1,0,0:0:0:0:
108,189,5386,2,0,P|87:232|119:277,1,80,0|0,0:0|0:0,0:0:0:0:
142,326,5786,6,0,L|270:347,2,120,0|0|2,3:0|0:0|0:0,0:0:0:0:
62,335,6586,2,0,P|38:322|17:261,1,80,0|0,0:0|0:0,0:0:0:0:
27,196,6986,2,0,L|63:60,1,120,0|0,0:0|0:0,0:0:0:0:
64,82,7386,6,0,P|98:96|136:121,2,80,2|0|0,0:0|3:0|0:0,0:0:0:0:
112,18,7986,1,2,0:0:0:0:
178,61,8186,2,0,P|231:59|415:-12,1,240,0|2,3:0|0:0,0:0:0:0:
469,42,8986,6,2,P|454:84|452:127,1,80,2|0,0:0|0:0,0:0:0:0:
456,199,9386,1,0,0:0:0:0:
432,275,9586,2,0,B|421:314|384:324|318:290|265:182|400:173|347:50,1,320,2|0,0:0|0:0,0:0:0:0:
280,101,10586,6,0,B|251:80|251:80|245:88|245:88|212:80|177:97|177:97|171:90|171:90|147:120,1,160,2|0,0:3|0:0,0:0:0:0:
276,314,11786,1,2,0:0:0:0:
276,314,11886,1,2,0:0:0:0:
276,314,11986,1,2,0:0:0:0:
276,314,12086,1,2,0:0:0:0:
276,314,12186,6,0,P|325:319|394:362,1,100,4|8,3:2|0:0,0:0:0:0:
445,370,12586,1,0,0:0:0:0:
460,291,12786,2,0,P|449:227|407:180,1,100,10|0,0:0|3:0,0:0:0:0:
349,202,13186,1,8,0:0:0:0:
349,202,13286,1,0,0:0:0:0:
349,202,13386,2,0,L|367:254,2,50,2|0|10,0:0|3:0|0:0,0:0:0:0:
382,129,13786,5,2,3:2:0:0:
457,103,13986,2,0,L|480:3,1,100,8|2,0:0|0:0,0:0:0:0:
399,6,14386,2,0,P|355:7|292:35,1,100,8|0,0:0|3:0,0:0:0:0:
236,70,14786,1,8,0:0:0:0:
173,119,14986,2,0,P|147:134|121:137,3,50,2|0|10|2,0:0|3:0|0:0|0:0,0:0:0:0:
179,126,15386,6,0,P|158:200|152:256,1,100,2|8,3:2|0:0,0:0:0:0:
84,261,15786,1,0,0:0:0:0:
72,181,15986,2,0,P|62:131|47:84,1,100,12|0,0:0|3:0,0:0:0:0:
18,9,16386,1,8,0:0:0:0:
18,9,16486,1,0,0:0:0:0:
18,9,16586,2,0,P|40:3|75:9,2,50,2|2|10,0:0|3:2|0:0,0:0:0:0:
47,84,16986,5,0,3:0:0:0:
121,113,17186,2,0,P|175:125|242:113,1,100,8|0,0:0|0:0,0:0:0:0:
219,200,17586,2,0,P|271:183|323:139,1,100,10|0,0:0|3:0,0:0:0:0:
337,83,17986,1,8,0:0:0:0:
337,83,18086,1,2,0:0:0:0:
337,83,18186,2,0,P|317:52|296:30,3,50,2|2|10|2,0:2|3:2|0:0|0:0,0:0:0:0:
298,37,18586,6,0,P|252:29|171:58,1,100,6|8,0:0|0:0,0:0:0:0:
164,112,18986,1,0,0:0:0:0:
233,152,19186,2,0,B|350:171|299:87|445:117,1,200,12|8,0:0|0:0,0:0:0:0:
483,164,19786,2,0,L|469:222,2,50,2|0|10,0:0|3:0|0:0,0:0:0:0:
494,84,20186,5,2,3:2:0:0:
443,21,20386,2,0,P|393:2|331:24,1,100,8|0,0:0|0:0,0:0:0:0:
275,43,20786,2,0,P|288:94|347:95,1,100,10|0,0:0|3:0,0:0:0:0:
407,91,21186,1,8,0:0:0:0:
399,170,21386,2,0,L|389:238,3,50,2|0|8|2,0:0|3:0|0:0|0:0,0:0:0:0:
383,222,21786,6,0,L|250:235,1,100,2|8,3:2|0:0,0:0:0:0:
240,298,22186,1,0,0:0:0:0:
160,304,22386,6,0,L|27:317,1,100,12|0,0:0|3:0,0:0:0:0:
20,244,22786,2,0,B|33:220|28:194|28:194|36:221|62:235,1,100,8|2,0:0|0:0,0:0:0:0:
136,227,23186,1,12,0:0:0:0:
141,221,23286,1,2,0:0:0:0:
144,214,23386,2,0,L|142:143,2,50,2|2|14,3:2|0:0|0:0,0:0:0:0:
223,210,23786,6,0,L|221:139,2,50,6|2|2,3:2|0:0|0:0,0:0:0:0:
229,214,24086,1,8,0:0:0:0:
235,217,24186,1,8,0:0:0:0:
241,220,24286,1,8,3:0:0:0:
328,39,24586,5,8,3:0:0:0:
252,36,24786,1,8,0:0:0:0:
251,29,24886,1,8,0:0:0:0:
250,23,24986,6,0,L|115:39,2,120,4|0|8,0:0|0:0|0:0,0:0:0:0:
328,39,25786,1,0,3:0:0:0:
404,63,25986,2,0,P|446:51|464:10,2,80,8|2|8,0:0|0:0|0:0,0:0:0:0:
347,119,26586,6,0,L|359:229,1,80,0|8,3:0|0:0,0:0:0:0:
349,204,26886,2,0,L|337:314,1,80,0|0,0:0|3:0,0:0:0:0:
346,288,27186,2,0,L|358:398,1,80,8|0,0:0|3:0,0:0:0:0:
433,349,27586,2,0,P|462:323|452:274,1,80,8|8,0:0|3:0,0:0:0:0:
429,211,27986,1,8,0:0:0:0:
349,204,28186,6,0,L|200:230,2,120,8|0|8,3:0|0:0|0:0,0:0:0:0:
392,136,28986,1,0,3:0:0:0:
390,56,29186,2,0,P|416:9|444:3,2,80,8|2|12,0:0|0:0|0:0,0:0:0:0:
321,98,29786,6,0,L|211:86,1,80,0|8,3:0|0:0,0:0:0:0:
236,96,30086,2,0,L|126:108,1,80,0|0,0:0|3:0,0:0:0:0:
152,99,30386,2,0,L|42:87,1,80,8|0,0:0|3:0,0:0:0:0:
32,159,30786,1,8,0:0:0:0:
18,237,30986,1,2,0:0:0:0:
17,244,31086,1,0,3:0:0:0:
16,250,31186,1,8,0:0:0:0:
13,329,31386,6,0,B|92:347|60:295|145:314,2,120,4|2|8,3:2|0:0|0:0,0:0:0:0:
166,374,32386,2,0,P|227:379|255:358,2,80,8|2|12,0:0|0:0|0:0,0:0:0:0:
199,301,32986,5,8,3:0:0:0:
265,258,33186,2,0,L|285:123,1,120,12|8,0:0|3:0,0:0:0:0:
280,128,33586,2,0,P|192:153|177:194,1,120,12|2,0:0|0:0,0:0:0:0:
177,181,33986,2,0,P|137:223|78:225,1,120,12|8,0:0|3:0,0:0:0:0:
71,219,34386,1,12,0:0:0:0:
32,149,34586,6,0,L|-9:55,1,80,8|8,3:0|0:0,0:0:0:0:
61,24,34986,1,2,0:0:0:0:
61,24,35086,1,0,3:0:0:0:
61,24,35186,1,8,0:0:0:0:
140,20,35386,6,0,P|159:27|183:50,2,40,12|8|0,3:0|3:0|3:0,0:0:0:0:
139,27,35686,1,0,3:0:0:0:
140,34,35786,1,8,0:0:0:0:
142,42,35886,1,8,0:0:0:0:
143,50,35986,6,0,L|118:221,1,160,4|8,0:0|3:0,0:0:0:0:
66,266,36586,2,0,P|106:285|156:322,1,80,12|2,0:0|0:0,0:0:0:0:
135,304,36886,1,8,0:0:0:0:
135,304,36986,1,8,3:0:0:0:
76,358,37186,2,0,P|35:367|-22:384,2,80,0|2|2,3:0|3:2|3:2,0:0:0:0:
179,384,37786,6,0,P|205:381|220:329,2,80,4|0|0,0:0|0:0|3:0,0:0:0:0:
142,312,38386,1,0,0:0:0:0:
126,233,38586,2,0,B|111:180|140:158|140:158|174:133|156:57,1,160,0|0,3:0|3:0,0:0:0:0:
109,23,39186,1,2,0:0:0:0:
31,46,39386,6,0,P|40:88|88:94,1,80,0|0,3:0|0:0,0:0:0:0:
48,175,39786,2,0,P|88:188|118:149,1,80,2|0,3:2|0:0,0:0:0:0:
151,94,40186,1,0,3:0:0:0:
185,21,40386,2,0,P|230:25|244:67,1,80,2|8,0:0|0:0,0:0:0:0:
232,131,40786,1,2,0:0:0:0:
210,208,40986,6,0,P|221:244|265:258,2,80,0|2|0,3:0|0:0|3:0,0:0:0:0:
288,190,41586,1,2,0:0:0:0:
347,243,41786,2,0,B|401:258|422:229|422:229|447:195|523:213,1,160,0|0,3:0|3:0,0:0:0:0:
485,287,42386,1,0,0:0:0:0:
492,366,42586,1,0,3:0:0:0:
332,372,42986,5,2,0:0:0:0:
318,293,43186,2,0,L|289:101,1,160,2|0,0:0|0:0,0:0:0:0:
263,61,43786,2,2,B|228:75|228:75|226:80|226:80|188:76|188:76|183:71|183:71|145:88,1,120,8|0,0:0|0:0,0:0:0:0:
147,91,44186,6,0,L|46:77,2,80,4|0|8,0:0|0:0|0:0,0:0:0:0:
154,170,44786,1,2,0:0:0:0:
157,249,44986,2,0,L|258:263,2,80,0|2|8,3:0|0:0|0:0,0:0:0:0:
159,329,45586,1,0,0:0:0:0:
79,330,45786,6,0,P|39:297|42:265,2,80,0|2|8,3:0|0:0|0:0,0:0:0:0:
159,329,46386,1,2,0:0:0:0:
232,296,46586,2,0,P|302:302|398:338,1,160,0|12,3:0|0:0,0:0:0:0:
454,373,47186,1,2,0:0:0:0:
471,294,47386,6,0,P|461:242|435:204,1,80,12|8,0:0|3:0,0:0:0:0:
368,205,47786,1,12,0:0:0:0:
415,140,47986,2,0,P|442:111|477:92,1,80,8|12,3:0|0:0,0:0:0:0:
443,20,48386,2,0,P|393:41|313:37,1,120,8|0,3:0|0:0,0:0:0:0:
318,40,48786,2,0,P|258:39|203:61,1,120,4|0,0:0|0:0,0:0:0:0:
200,70,49186,5,14,0:0:0:0:
209,149,49386,1,8,3:2:0:0:
224,227,49586,1,8,3:2:0:0:
235,306,49786,5,10,3:2:0:0:
158,342,49986,1,10,3:2:0:0:
78,329,50186,5,8,3:2:0:0:
157,354,50386,1,8,3:2:0:0:
142,268,50586,6,2,B|103:182|168:134|168:134|173:130|173:130|247:83|197:-29,1,300,8|0,3:2|0:0,0:0:0:0:
381,103,51586,2,0,L|493:118,2,100,6|6|2,0:0|0:0|0:0,0:0:0:0:
357,179,52186,6,0,L|143:200,1,200,2|0,1:3|0:0,0:0:0:0:
80,177,52786,2,0,P|103:213|118:305,1,100,10|8,0:0|3:0,0:0:0:0:
73,343,53186,1,10,0:0:0:0:
30,267,53386,5,2,0:0:0:0:
29,260,53486,1,0,3:0:0:0:
30,253,53586,2,0,L|248:312,1,200,10|10,0:0|0:0,0:0:0:0:
295,339,54186,1,0,0:0:0:0:
287,260,54386,2,0,B|280:226|287:205|287:205|274:228|234:243,1,100,10|0,0:0|3:0,0:0:0:0:
186,191,54786,1,10,0:0:0:0:
183,184,54886,1,8,3:0:0:0:
181,177,54986,2,0,L|172:105,2,50,0|0|10,0:0|3:0|0:0,0:0:0:0:
100,206,55386,6,0,B|195:198|170:277|303:258,1,200,2|2,3:2|0:0,0:0:0:0:
362,235,55986,1,10,0:0:0:0:
427,189,56186,2,0,P|427:136|373:115,1,100,0|12,3:0|0:0,0:0:0:0:
403,34,56586,2,0,P|350:29|324:81,1,100,2|12,0:0|0:0,0:0:0:0:
246,79,56986,5,0,3:0:0:0:
300,137,57186,1,12,0:0:0:0:
304,216,57386,1,2,0:0:0:0:
253,278,57586,2,0,P|217:291|161:319,2,100,12|2|10,0:0|3:2|0:0,0:0:0:0:
329,290,58186,1,2,0:0:0:0:
336,293,58286,1,0,3:0:0:0:
343,295,58386,6,0,P|409:293|469:170,1,200,10|10,0:0|0:0,0:0:0:0:
362,38,59186,2,0,P|359:68|417:114,2,100,10|0|12,0:0|3:0|0:0,0:0:0:0:
369,216,59986,6,0,P|318:242|260:263,1,100,12|2,0:0|3:2,0:0:0:0:
225,196,60386,2,0,P|193:244|154:291,1,100,10|2,0:0|0:0,0:0:0:0:
224,358,60786,6,0,P|192:318|165:276,1,100,12|0,0:0|3:0,0:0:0:0:
112,338,61185,2,0,P|65:319|21:296,1,100,10|2,0:0|0:0,0:0:0:0:
20,289,61486,1,0,3:0:0:0:
18,282,61586,1,10,0:0:0:0:
21,202,61786,6,0,L|39:67,1,100,4|10,3:2|0:0,0:0:0:0:
26,23,62186,1,2,0:0:0:0:
44,100,62386,1,12,0:0:0:0:
108,147,62586,1,8,3:2:0:0:
117,153,62686,1,8,3:0:0:0:
126,158,62786,1,0,3:0:0:0:
134,163,62886,1,0,3:0:0:0:
142,168,62986,1,8,3:0:0:0:
149,174,63086,1,8,3:0:0:0:
156,180,63186,6,0,B|218:186|188:153|275:162,1,100,6|0,0:0|0:0,0:0:0:0:
328,184,63586,2,0,P|350:234|319:267,1,100,12|12,0:0|0:0,0:0:0:0:
244,272,63986,2,0,P|171:278|91:319,1,150,6|0,0:0|0:0,0:0:0:0:
101,317,64386,1,8,0:0:0:0:
99,325,64486,1,8,0:0:0:0:
40,257,64686,1,8,3:0:0:0:
38,250,64786,1,8,3:0:0:0:
35,243,64886,1,0,3:0:0:0:
33,236,64986,6,0,L|54:115,1,100,6|8,0:0|0:0,0:0:0:0:
129,132,65386,2,0,L|110:243,2,100,2|12|0,0:0|0:0|3:0,0:0:0:0:
99,57,65986,1,12,0:0:0:0:
136,127,66186,1,2,0:0:0:0:
203,169,66386,6,0,B|321:162|264:258|406:231,1,200,12|10,0:0|0:0,0:0:0:0:
456,206,66986,2,0,P|427:166|379:156,1,100,0|10,0:0|0:0,0:0:0:0:
386,76,67386,2,0,P|337:80|304:117,1,100,2|8,3:2|0:0,0:0:0:0:
308,197,67786,1,0,0:0:0:0:
236,160,67986,6,0,B|110:149|180:247|19:216,2,200,10|12|12,0:0|0:0|0:0,0:0:0:0:
308,197,68986,1,0,3:0:0:0:
328,274,69186,2,0,P|374:281|410:241,1,100,12|2,0:0|0:0,0:0:0:0:
408,239,69486,1,0,0:0:0:0:
406,233,69586,1,12,0:0:0:0:
384,155,69786,6,0,L|361:34,1,100,0|10,3:0|0:0,0:0:0:0:
253,12,70286,1,0,3:0:0:0:
253,12,70386,2,0,L|276:133,1,100,10|0,0:0|3:0,0:0:0:0:
291,188,70786,1,10,0:0:0:0:
306,266,70986,1,2,0:0:0:0:
308,273,71086,1,0,3:0:0:0:
310,280,71186,6,0,P|219:293|115:358,1,200,10|8,0:0|0:0,0:0:0:0:
68,291,71786,1,2,0:0:0:0:
66,211,71986,2,0,P|49:160|22:99,1,100,10|0,0:0|3:0,0:0:0:0:
69,47,72386,1,10,0:0:0:0:
135,90,72586,1,2,0:0:0:0:
137,96,72686,1,0,3:0:0:0:
141,101,72786,6,0,P|209:109|318:134,1,150,10|0,0:0|0:0,0:0:0:0:
298,130,73186,2,0,P|354:119|324:41,1,150,10|0,0:0|3:0,0:0:0:0:
328,46,73586,2,0,P|396:38|461:20,1,100,10|0,0:0|3:0,0:0:0:0:
504,18,73986,1,10,0:0:0:0:
482,91,74186,1,2,0:0:0:0:
480,98,74286,1,0,3:0:0:0:
478,105,74386,2,0,P|462:156|452:209,1,100,10|4,0:0|3:2,0:0:0:0:
474,279,74786,5,12,0:0:0:0:
414,332,74986,1,8,3:2:0:0:
414,332,75086,1,8,3:0:0:0:
334,334,75286,1,8,3:0:0:0:
334,334,75386,1,12,0:0:0:0:
254,322,75586,2,0,P|230:330|200:345,2,50,2|0|2,3:2|0:0|0:0,0:0:0:0:
340,248,75986,5,4,0:0:0:0:
340,248,77186,2,2,B|317:151|385:183|379:71|326:65|252:81|281:172,1,250,0|0,3:0|0:0,0:0:0:0:
277,146,77786,6,0,P|220:167|156:184,1,100,6|0,3:2|0:0,0:0:0:0:
104,197,78186,1,8,0:0:0:0:
24,221,78386,2,0,B|55:213|155:190|94:272|212:255,1,200,6|2,0:0|0:0,0:0:0:0:
291,248,78986,1,8,0:0:0:0:
370,236,79186,6,0,P|413:221|432:67,1,200,6|2,0:0|3:2,0:0:0:0:
387,32,79786,1,12,0:0:0:0:
309,49,79986,2,0,P|340:107|412:101,1,100,8|8,3:0|3:2,0:0:0:0:
446,86,80386,5,0,3:0:0:0:
466,8,80586,1,8,3:0:0:0:
387,32,80786,1,8,3:0:0:0:
372,110,80986,6,0,P|362:169|345:210,2,100,6|0|8,0:0|3:0|0:0,0:0:0:0:
310,57,81586,2,0,P|260:45|269:97,1,100,6|0,0:0|0:0,0:0:0:0:
263,160,81986,2,0,B|179:170|203:106|86:129,1,150,14|0,0:0|0:0,0:0:0:0:
49,146,82386,1,4,0:0:0:0:
256,192,82486,12,0,85786,0:0:0:0:
