osu file format v14

[General]
AudioFilename: audio.mp3
AudioLeadIn: 0
PreviewTime: 51086
Countdown: 0
SampleSet: Soft
StackLeniency: 0.2
Mode: 0
LetterboxInBreaks: 0
WidescreenStoryboard: 0

[Editor]
DistanceSpacing: 0.6
BeatDivisor: 4
GridSize: 32
TimelineZoom: 2.2

[Metadata]
Title:Knew day
TitleUnicode:Knew day
Artist:(K)NoW_NAME
ArtistUnicode:(K)NoW_NAME
Creator:schoolboy
Version:Lasse's Expert
Source:灰と幻想のグリムガル
Tags:djulus komore kalibe lasse hazu- hazu neilperry hai to gensou no grimgar op opening tv size
BeatmapID:1514076
BeatmapSetID:711568

[Difficulty]
HPDrainRate:5
CircleSize:4
OverallDifficulty:8.2
ApproachRate:9.2
SliderMultiplier:3.2
SliderTickRate:1

[Events]
//Background and Video events
0,0,"sad.jpg",0,0
//Break Periods
//Storyboard Layer 0 (Background)
//Storyboard Layer 1 (Fail)
//Storyboard Layer 2 (Pass)
//Storyboard Layer 3 (Foreground)
//Storyboard Sound Samples

[TimingPoints]
986,400,4,2,1,40,1,0
986,-250,4,2,1,40,0,0
2586,-200,4,2,1,40,0,0
10586,-100,4,2,1,50,0,0
10686,-100,4,2,1,5,0,0
10786,-125,4,2,1,50,0,0
11086,-100,4,2,1,5,0,0
11186,-166.666666666667,4,2,1,50,0,0
11486,-100,4,2,1,5,0,0
11586,-166.666666666667,4,2,1,50,0,0
11686,-100,4,2,1,5,0,0
11786,-83.3333333333333,4,2,1,60,0,0
12186,-90.9090909090909,4,2,1,75,0,0
22386,-76.9230769230769,4,2,1,75,0,0
22586,-90.9090909090909,4,2,1,75,0,0
24986,-106.382978723404,4,2,1,60,0,0
37786,-142.857142857143,4,2,1,50,0,0
47386,-111.111111111111,4,2,1,60,0,0
50586,-104.166666666667,4,2,1,60,0,0
51186,-104.166666666667,4,2,1,40,0,0
51386,-104.166666666667,4,2,1,45,0,0
51586,-104.166666666667,4,2,1,50,0,0
51786,-104.166666666667,4,2,1,55,0,0
51986,-104.166666666667,4,2,1,65,0,0
52186,-83.3333333333333,4,2,1,75,0,0
63186,-83.3333333333333,4,2,1,75,0,0
63586,-83.3333333333333,4,2,1,60,0,0
64386,-83.3333333333333,4,2,1,68,0,0
64586,-83.3333333333333,4,2,1,70,0,0
64786,-83.3333333333333,4,2,1,72,0,0
64986,-83.3333333333333,4,2,1,75,0,0
75886,-83.3333333333333,4,2,1,75,0,0
75986,-55.5555555555556,4,2,1,55,0,0
76186,-55.5555555555556,4,2,1,55,0,0
77186,-200,4,2,1,60,0,0
78386,-133.333333333333,4,2,1,55,0,0
81586,-111.111111111111,4,2,1,65,0,0
81636,-111.111111111111,4,2,1,5,0,0
81986,-111.111111111111,4,2,1,65,0,0
82036,-111.111111111111,4,2,1,5,0,0
82386,-500,4,2,0,60,0,0
82486,-500,4,2,1,30,0,0
84186,-500,4,2,0,20,0,0
84586,-500,4,2,1,15,0,0
84986,-500,4,2,0,10,0,0
85786,-66.6666666666667,4,2,1,80,0,0
85836,-66.6666666666667,4,2,0,50,0,0
85886,-66.6666666666667,4,2,1,25,0,0

[Colours]
Combo1 : 193,255,193
Combo2 : 255,191,223
Combo3 : 191,223,255
Combo4 : 231,207,207

[HitObjects]
38,181,1586,5,2,0:0:0:0:
36,196,1786,1,2,0:0:0:0:
35,212,1986,1,2,0:0:0:0:
33,228,2186,1,2,0:0:0:0:
32,244,2386,1,2,0:0:0:0:
150,187,2586,6,0,P|205:174|269:253,1,160,2|2,3:2|0:2,0:2:0:0:
121,265,3186,2,0,L|116:94,1,160,2|0,0:0|0:0,0:0:0:0:
88,244,3786,1,2,0:0:0:0:
150,89,3986,6,0,B|189:76|225:96|225:96|272:94|294:49,1,160,2|0,0:0|0:0,0:0:0:0:
212,193,4586,1,2,0:0:0:0:
116,105,4786,2,0,P|191:106|282:137,1,160,2|0,0:0|0:0,0:0:0:0:
358,257,5386,1,2,0:0:0:0:
376,94,5586,6,0,P|362:131|357:171,1,80,2|0,0:0|3:0,0:0:0:0:
380,333,5986,2,0,P|364:296|357:256,1,80,2|0,0:0|0:0,0:0:0:0:
204,202,6386,1,2,0:0:0:0:
204,202,6486,1,2,0:0:0:0:
204,202,6586,2,0,P|243:202|282:212,1,80,2|0,0:0|0:0,0:0:0:0:
510,225,6986,2,0,P|470:224|431:214,1,80,2|0,0:0|0:0,0:0:0:0:
284,122,7386,5,2,0:0:0:0:
204,202,7586,2,0,L|193:245,2,40,0|0|0,3:2|3:0|3:0,0:0:0:0:
204,42,7986,5,2,0:0:0:0:
284,122,8186,1,2,3:2:0:0:
204,202,8386,1,2,0:0:0:0:
124,122,8586,2,0,L|91:113,3,20,2|0|0|0,3:2|3:0|3:0|3:0,2:0:0:0:
66,131,8786,2,0,L|33:122,3,20,2|0|0|0,3:2|3:0|3:0|3:0,2:0:0:0:
20,155,8986,6,0,B|-11:211|22:262|22:262|27:291|11:307,1,160,2|0,0:0|0:0,0:0:0:0:
196,170,9586,2,0,B|227:113|193:62|193:62|188:33|204:17,1,160,2|0,0:0|0:0,0:0:0:0:
307,275,10186,1,2,0:0:0:0:
412,199,10386,5,2,0:0:0:0:
412,199,10486,1,2,0:0:0:0:
412,199,10586,2,0,P|453:196|508:200,1,80,2|0,3:3|0:0,0:0:0:0:
389,313,10786,6,0,P|384:234|359:120,1,192,2|0,0:0|0:0,0:0:0:0:
198,22,11186,6,0,P|176:115|171:190,1,143.999995605469,2|0,0:0|0:0,0:0:0:0:
184,322,11586,6,0,P|175:287|155:252,1,47.9999985351563,2|0,0:0|0:0,0:0:0:0:
60,138,11786,5,2,0:0:0:0:
74,173,11886,1,2,0:0:0:0:
105,196,11986,1,2,0:0:0:0:
144,191,12086,1,2,0:0:0:0:
171,162,12186,6,0,P|245:120|328:142,1,176.000005371094,4|8,3:2|0:0,0:0:0:0:
321,250,12486,2,0,P|256:218|229:104,1,176.000005371094,2|0,0:0|3:0,0:0:0:0:
324,76,12786,2,0,P|323:161|262:222,1,176.000005371094,10|0,0:0|3:0,0:0:0:0:
142,103,13086,1,2,0:0:0:0:
142,102,13186,2,0,P|186:104|224:124,1,88.000002685547,10|0,0:0|0:0,0:0:0:0:
83,170,13386,5,2,0:2:0:0:
50,128,13486,1,2,2:2:0:0:
46,75,13586,1,10,0:2:0:0:
77,31,13686,1,2,0:2:0:0:
127,15,13786,6,0,B|169:17|205:37|205:37|268:45|302:3,1,176.000005371094,2|8,3:2|0:0,0:0:0:0:
466,37,14086,1,2,0:0:0:0:
466,37,14186,2,0,P|415:36|363:52,1,88.000002685547,2|0,0:0|3:0,0:0:0:0:
234,138,14386,1,10,0:0:0:0:
234,138,14486,2,0,P|285:137|337:153,1,88.000002685547,2|0,0:0|3:0,0:0:0:0:
500,220,14686,1,2,0:0:0:0:
500,220,14786,2,0,P|449:219|397:235,1,88.000002685547,10|0,0:0|2:0,0:0:0:0:
318,370,14986,5,2,0:0:0:0:
336,335,15086,1,2,2:0:0:0:
298,287,15186,1,10,0:0:0:0:
332,234,15286,1,2,0:0:0:0:
320,145,15386,6,0,B|231:127|238:183|150:165,1,176.000005371094,2|8,3:2|0:0,0:0:0:0:
93,33,15686,2,0,B|181:15|174:71|262:53,1,176.000005371094,2|0,0:0|3:0,0:0:0:0:
328,179,15986,2,0,B|239:161|246:217|158:199,1,176.000005371094,10|0,0:0|3:0,0:0:0:0:
19,98,16286,1,2,0:0:0:0:
19,98,16386,2,0,P|45:148|52:186,1,88.000002685547,10|0,0:0|0:0,0:0:0:0:
13,357,16586,5,2,2:0:0:0:
4,303,16686,1,2,2:2:0:0:
27,255,16786,1,10,2:0:0:0:
77,233,16886,1,2,2:0:0:0:
128,243,16986,6,0,P|205:254|321:221,1,176.000005371094,2|8,3:2|0:0,0:0:0:0:
380,73,17286,1,2,0:0:0:0:
380,73,17386,2,0,P|362:118|352:190,1,88.000002685547,2|0,0:0|3:0,0:0:0:0:
450,305,17586,1,10,0:0:0:0:
450,305,17686,2,0,P|420:266|362:222,1,88.000002685547,2|0,0:0|3:0,0:0:0:0:
214,251,17886,1,2,0:0:0:0:
213,251,17986,2,0,P|257:245|299:232,1,88.000002685547,10|2,0:0|0:0,0:0:0:0:
489,83,18186,5,2,0:2:0:0:
435,54,18286,1,2,2:2:0:0:
380,73,18386,1,10,0:2:0:0:
315,35,18486,1,2,0:2:0:0:
230,65,18586,6,0,B|173:74|143:57|143:57|85:42|62:81,1,176.000005371094,6|8,0:0|0:0,0:0:0:0:
158,214,18886,2,0,B|178:160|208:142|208:142|250:99|230:64,1,176.000005371094,2|0,0:0|3:0,0:0:0:0:
65,77,19186,2,0,B|101:121|101:156|101:156|117:214|158:214,1,176.000005371094,10|0,0:0|3:0,0:0:0:0:
326,223,19486,1,2,0:0:0:0:
326,223,19586,2,0,P|293:215|234:229,1,88.000002685547,10|0,0:0|0:0,0:0:0:0:
382,291,19786,5,2,2:0:0:0:
433,304,19886,1,2,2:0:0:0:
483,287,19986,1,10,2:0:0:0:
512,242,20086,1,2,2:0:0:0:
507,189,20186,6,0,B|484:149|501:92|501:92|493:50|449:23,1,176.000005371094,2|8,3:2|0:0,0:0:0:0:
254,37,20486,1,2,0:0:0:0:
254,37,20586,2,0,P|297:44|343:26,1,88.000002685547,2|0,0:0|3:0,0:0:0:0:
497,134,20786,1,10,0:0:0:0:
497,134,20886,2,0,P|454:127|408:145,1,88.000002685547,2|0,0:0|3:0,0:0:0:0:
255,213,21086,1,2,0:0:0:0:
255,213,21186,2,0,P|298:217|338:246,1,88.000002685547,10|0,0:0|3:0,0:0:0:0:
128,366,21386,5,2,2:0:0:0:
110,331,21486,1,2,2:0:0:0:
148,283,21586,1,10,2:0:0:0:
114,230,21686,1,2,2:0:0:0:
182,168,21786,6,0,B|224:153|265:171|265:171|305:201|352:188,1,176.000005371094,2|8,3:2|0:0,0:0:0:0:
399,56,22086,2,0,B|357:41|316:59|316:59|276:89|229:76,1,176.000005371094,2|0,0:0|3:0,0:0:0:0:
157,203,22386,6,0,B|207:184|257:206|257:206|305:242|362:227,1,207.999990478516,14|0,0:0|3:0,0:0:0:0:
478,96,22686,1,2,0:0:0:0:
478,96,22786,2,0,P|461:131|454:186,1,88.000002685547,10|0,0:0|0:0,0:0:0:0:
459,348,22986,2,0,P|453:304|435:265,1,88.000002685547,2|0,0:0|3:0,0:0:0:0:
264,149,23186,5,12,0:0:0:0:
244,121,23286,1,2,0:0:0:0:
256,164,23386,5,2,3:2:0:0:
228,147,23486,1,2,0:0:0:0:
248,179,23586,5,10,0:0:0:0:
212,173,23686,1,2,0:0:0:0:
134,217,23786,6,0,P|132:150|213:179,1,176.000005371094,6|0,3:2|0:0,0:0:0:0:
129,303,24086,1,10,0:0:0:0:
129,303,24186,2,0,P|82:278|39:169,1,176.000005371094,10|4,0:0|0:3,0:0:0:0:
89,53,24486,1,2,0:0:0:0:
89,53,24586,2,0,L|177:44,1,88.000002685547,2|0,3:2|3:0,0:0:0:0:
211,172,24786,2,0,L|300:182,1,88.000002685547,10|8,0:0|0:0,0:0:0:0:
438,14,24986,6,0,P|431:88|429:164,1,150.399997705078,6|8,0:0|0:0,0:0:0:0:
368,239,25286,2,0,P|433:273|495:237,1,150.399997705078,2|0,0:0|3:0,0:0:0:0:
491,118,25586,2,0,P|422:85|362:125,1,150.399997705078,10|0,0:0|3:0,0:0:0:0:
276,183,25886,1,2,0:0:0:0:
276,183,25986,2,0,L|195:168,1,75.1999988525391,10|0,0:0|0:0,0:0:0:0:
135,100,26186,2,0,L|216:85,1,75.1999988525391,2|0,0:0|3:0,0:0:0:0:
172,247,26386,2,0,L|109:193,1,75.1999988525391,10|0,0:0|0:0,0:0:0:0:
60,95,26586,6,0,P|103:101|227:78,1,150.399997705078,2|8,3:2|0:0,0:0:0:0:
335,55,26886,2,0,P|283:109|275:182,1,150.399997705078,2|0,0:0|3:0,0:0:0:0:
418,125,27186,2,0,P|363:77|292:93,1,150.399997705078,10|0,0:0|3:0,0:0:0:0:
388,205,27486,1,2,0:0:0:0:
388,205,27586,2,0,P|422:210|465:197,1,75.1999988525391,10|0,0:0|3:0,0:0:0:0:
383,278,27786,2,0,P|379:241|388:205,1,75.1999988525391,8|0,3:0|3:0,0:0:0:0:
254,358,27986,2,0,P|253:320|239:286,1,75.1999988525391,10|0,0:0|0:0,0:0:0:0:
20,336,28186,6,0,B|92:313|98:356|168:339,1,150.399997705078,2|8,3:2|0:0,0:0:0:0:
222,205,28486,2,0,P|154:190|134:256,1,150.399997705078,2|0,0:0|3:0,0:0:0:0:
239,286,28786,2,0,P|283:263|283:153,1,150.399997705078,10|0,0:0|3:0,0:0:0:0:
198,103,29086,1,2,0:0:0:0:
198,103,29186,2,0,L|112:95,1,75.1999988525391,10|0,0:0|0:0,0:0:0:0:
147,198,29386,2,0,L|233:206,1,75.1999988525391,2|0,2:0|2:0,0:0:0:0:
123,96,29586,2,0,L|37:88,1,75.1999988525391,10|0,0:0|0:0,0:0:0:0:
4,218,29786,6,0,P|73:190|148:198,1,150.399997705078,2|8,3:2|0:0,0:0:0:0:
74,307,30086,2,0,P|33:248|73:190,1,150.399997705078,2|0,0:0|3:0,0:0:0:0:
197,129,30386,2,0,P|237:70|196:12,1,150.399997705078,10|0,0:0|3:0,0:0:0:0:
48,89,30686,1,2,0:0:0:0:
48,89,30786,2,0,L|124:78,1,75.1999988525391,10|0,0:0|0:0,0:0:0:0:
48,13,30986,2,0,L|48:115,1,75.1999988525391,8|0,3:3|3:0,0:0:0:0:
197,129,31186,2,0,L|223:30,1,75.1999988525391,10|0,0:0|0:0,0:0:0:0:
353,221,31386,6,0,P|270:192|242:264,1,150.399997705078,6|8,3:2|0:0,0:0:0:0:
334,312,31686,2,0,P|356:248|291:229,1,150.399997705078,2|0,0:0|3:0,0:0:0:0:
265,328,31986,2,0,P|334:345|394:297,1,150.399997705078,10|0,0:0|3:0,0:0:0:0:
462,157,32286,1,2,0:0:0:0:
462,157,32386,2,0,P|453:194|457:247,1,75.1999988525391,10|0,0:0|0:0,0:0:0:0:
374,119,32586,2,0,P|365:82|369:29,1,75.1999988525391,2|0,0:0|3:0,0:0:0:0:
368,212,32786,6,0,P|378:137|364:64,1,150.399997705078,14|8,0:0|3:0,0:0:0:0:
282,34,33086,1,0,3:0:0:0:
282,34,33186,2,0,P|281:108|257:179,1,150.399997705078,10|0,0:0|0:0,0:0:0:0:
189,231,33486,1,8,3:0:0:0:
189,231,33586,2,0,P|168:158|126:96,1,150.399997705078,10|8,0:0|3:0,0:0:0:0:
50,52,33886,1,0,3:0:0:0:
50,52,33986,2,0,P|36:123|0:189,1,150.399997705078,10|0,0:0|0:0,0:0:0:0:
117,284,34286,1,8,3:0:0:0:
117,284,34386,2,0,P|84:266|39:261,1,75.1999988525391,10|0,0:0|3:0,0:0:0:0:
280,348,34586,6,0,P|225:357|121:319,1,150.399997705078,2|8,3:2|0:0,0:0:0:0:
262,258,34886,1,0,3:0:0:0:
262,258,34986,2,0,P|303:258|345:275,1,75.1999988525391,2|0,0:0|3:0,0:0:0:0:
416,338,35186,2,0,P|453:338|488:326,1,75.1999988525391,10|0,0:0|0:0,0:0:0:0:
493,219,35386,5,12,3:0:0:0:
487,204,35486,1,8,3:0:0:0:
480,190,35586,5,8,3:3:0:0:
448,210,35686,1,8,3:3:0:0:
410,212,35786,1,8,0:0:0:0:
376,194,35886,1,8,0:0:0:0:
426,137,35986,5,6,0:1:0:0:
216,31,36386,5,10,2:1:0:0:
216,35,36452,1,2,2:2:0:0:
216,39,36519,1,2,2:2:0:0:
216,43,36586,1,12,2:2:0:0:
61,127,36786,5,2,3:2:0:0:
109,115,36886,1,8,3:2:0:0:
177,158,36986,1,8,3:3:0:0:
243,298,37186,5,0,3:0:0:0:
180,247,37386,5,2,3:2:0:0:
177,158,37586,5,2,3:2:0:0:
332,137,37786,6,0,B|457:131,1,111.999996582031,4|0,0:0|0:0,0:0:0:0:
180,247,38186,2,0,B|55:253,1,111.999996582031,2|0,3:2|0:0,0:0:0:0:
357,109,38586,6,0,B|479:135,1,111.999996582031,2|0,3:2|0:0,0:0:0:0:
155,275,38986,2,0,B|32:248,1,111.999996582031,2|0,3:2|0:0,0:0:0:0:
269,57,39386,5,2,3:2:0:0:
311,242,39586,1,2,0:2:0:0:
466,132,39786,2,0,L|485:18,1,111.999996582031,2|0,3:2|0:0,0:0:0:0:
311,242,40186,5,2,3:2:0:0:
142,153,40386,2,0,L|23:136,1,111.999996582031,2|8,0:2|0:0,0:0:0:0:
31,137,40786,1,2,0:0:0:0:
318,137,40986,6,0,L|335:20,1,111.999996582031,2|0,3:2|0:0,0:0:0:0:
194,247,41386,2,0,L|177:364,1,111.999996582031,2|0,3:2|0:0,0:0:0:0:
367,133,41786,6,0,L|353:15,1,111.999996582031,2|0,3:2|0:0,0:0:0:0:
145,251,42186,2,0,L|158:368,1,111.999996582031,2|0,3:2|0:0,0:0:0:0:
400,203,42586,6,0,P|341:175|291:176,1,111.999996582031,2|0,3:2|0:0,0:0:0:0:
454,319,42986,1,2,0:2:0:0:
455,112,43186,1,2,0:0:0:0:
455,112,43286,1,2,0:0:0:0:
455,112,43386,1,2,3:2:0:0:
320,275,43586,2,0,P|264:272|215:247,1,111.999996582031,2|8,0:0|0:0,0:0:0:0:
215,247,43986,1,2,0:0:0:0:
140,17,44186,5,6,0:0:0:0:
86,115,44386,1,2,0:2:0:0:
215,247,44586,1,10,0:2:0:0:
161,345,44786,1,2,0:2:0:0:
435,350,44986,5,2,3:2:0:0:
388,247,45186,1,2,0:2:0:0:
215,247,45386,1,10,0:2:0:0:
186,138,45586,1,2,0:2:0:0:
161,345,45786,5,2,3:2:0:0:
215,247,45986,1,2,0:2:0:0:
388,247,46186,1,10,0:2:0:0:
426,141,46386,1,2,0:2:0:0:
217,21,46586,5,2,3:2:0:0:
136,194,46786,2,0,L|17:177,1,111.999996582031,2|8,0:0|0:0,0:0:0:0:
25,178,47186,1,2,0:0:0:0:
344,69,47386,6,0,P|418:54|512:46,1,143.999995605469,12|8,0:0|3:0,0:0:0:0:
240,283,47786,5,12,0:0:0:0:
150,78,47986,2,0,P|76:63|-18:55,1,143.999995605469,8|8,3:0|0:0,0:0:0:0:
358,244,48386,6,0,P|429:236|500:221,1,143.999995605469,8|8,3:0|0:0,0:0:0:0:
7,56,48786,5,4,0:0:0:0:
7,56,49186,5,14,0:0:0:0:
60,158,49386,1,8,3:2:0:0:
179,255,49586,1,8,3:2:0:0:
378,262,49786,1,10,3:2:0:0:
467,31,49986,5,10,3:2:0:0:
467,35,50052,1,2,0:0:0:0:
467,39,50119,1,2,0:0:0:0:
467,43,50186,2,0,B|497:107|467:155|467:155|411:129,1,143.999995605469,10|8,3:2|3:2,0:0:0:0:
88,18,50586,5,10,3:2:0:0:
88,18,51186,5,2,0:2:0:0:
150,66,51386,5,2,0:2:0:0:
89,135,51586,5,2,0:2:0:0:
165,212,51786,5,2,0:1:0:0:
87,322,51986,5,2,0:1:0:0:
303,191,52186,6,0,P|374:188|514:216,1,191.999994140625,2|8,1:3|0:0,0:0:0:0:
408,148,52486,1,0,3:1:0:0:
463,232,52586,2,0,P|480:274|488:332,1,95.9999970703126,2|0,0:0|3:0,0:0:0:0:
491,73,52786,2,0,P|455:162|433:255,2,191.999994140625,10|8|8,0:0|3:0|0:0,0:0:0:0:
288,10,53286,1,0,3:2:0:0:
369,60,53386,6,0,P|375:99|374:172,1,95.9999970703126,2|0,0:0|3:0,0:0:0:0:
215,255,53586,2,0,P|120:238|8:235,2,191.999994140625,10|4|8,0:0|3:0|0:0,0:0:0:0:
321,328,54086,1,0,3:0:0:0:
218,340,54186,2,0,P|174:323|130:288,1,95.9999970703126,2|0,0:0|3:0,0:0:0:0:
47,121,54386,5,10,3:2:0:0:
80,90,54486,1,0,3:1:0:0:
125,85,54586,1,0,3:1:0:0:
169,96,54686,1,0,3:1:0:0:
203,124,54786,2,0,P|250:122|297:109,1,95.9999970703126,8|0,0:0|3:0,0:0:0:0:
443,250,54986,6,0,P|416:192|406:145,1,95.9999970703126,2|0,0:0|3:0,0:0:0:0:
387,323,55186,2,0,P|404:228|405:103,2,191.999994140625,10|4|8,0:0|3:3|0:0,0:0:0:0:
225,240,55686,1,0,3:0:0:0:
294,174,55786,2,0,P|309:217|310:278,1,95.9999970703126,2|0,0:0|3:0,0:0:0:0:
344,28,55986,6,0,P|318:120|309:215,1,191.999994140625,10|0,0:0|3:0,0:0:0:0:
154,337,56286,1,0,3:0:0:0:
243,369,56386,2,0,P|230:272|181:81,1,287.999991210938,10|0,0:0|3:0,0:0:0:0:
116,25,56786,5,10,0:0:0:0:
112,24,56852,1,2,0:0:0:0:
108,24,56919,1,2,0:0:0:0:
104,24,56986,2,2,P|47:18|-45:12,1,95.9999970703126,2|0,3:2|0:0,0:1:0:0:
98,170,57186,5,10,0:0:0:0:
102,169,57252,1,2,0:0:0:0:
106,169,57319,1,2,0:0:0:0:
110,169,57386,2,2,P|157:163|208:159,1,95.9999970703126,2|0,3:2|3:0,0:1:0:0:
426,36,57586,6,0,P|378:31|322:3,1,95.9999970703126,10|0,0:0|0:0,0:0:0:0:
115,85,57786,2,0,P|158:65|203:22,1,95.9999970703126,2|0,3:2|0:0,0:0:0:0:
430,201,57986,6,0,P|391:173|356:121,1,95.9999970703126,10|0,0:0|3:0,0:0:0:0:
162,243,58186,2,0,P|190:204|207:144,1,95.9999970703126,2|0,0:0|3:0,0:0:0:0:
318,342,58386,5,10,0:0:0:0:
309,265,58486,1,8,0:0:0:0:
292,188,58586,2,0,P|203:158|99:165,2,191.999994140625,4|8|0,0:0|0:0|0:0,0:0:0:0:
459,105,59086,1,0,3:0:0:0:
381,42,59186,2,0,P|366:80|366:155,1,95.9999970703126,10|0,0:0|0:0,0:0:0:0:
444,345,59386,6,0,P|441:297|425:252,1,95.9999970703126,2|0,3:2|0:0,0:0:0:0:
292,188,59586,2,0,P|378:216|448:113,1,191.999994140625,10|0,0:0|0:0,0:0:0:0:
268,95,59886,1,0,3:0:0:0:
292,188,59986,6,0,P|367:237|462:155,1,191.999994140625,10|0,0:0|3:2,0:0:0:0:
292,91,60286,1,0,3:0:0:0:
292,188,60386,6,0,P|351:254|464:200,1,191.999994140625,10|0,0:0|0:0,0:0:0:0:
317,94,60685,1,0,3:0:0:0:
292,188,60786,6,0,P|332:267|455:244,1,191.999994140625,10|0,0:0|3:0,0:0:0:0:
340,103,61085,1,0,3:0:0:0:
292,188,61186,6,0,P|310:275|435:284,1,191.999994140625,10|0,0:0|0:0,0:0:0:0:
439,137,61486,1,0,3:0:0:0:
439,137,61586,2,0,P|401:165|383:209,1,95.9999970703126,10|0,0:0|0:0,0:0:0:0:
400,302,61786,6,0,P|457:228|439:137,1,191.999994140625,4|8,3:2|0:0,0:0:0:0:
304,52,62086,1,0,3:0:0:0:
241,111,62186,6,0,P|202:115|125:94,1,95.9999970703126,2|0,0:0|3:0,0:0:0:0:
304,52,62386,2,0,P|351:48|398:58,1,95.9999970703126,10|0,0:0|0:0,0:0:0:0:
459,209,62586,5,10,3:2:0:0:
417,186,62686,1,8,3:0:0:0:
363,210,62786,1,0,3:0:0:0:
336,278,62886,1,0,3:0:0:0:
273,328,62986,1,8,3:0:0:0:
189,317,63086,1,8,3:0:0:0:
135,241,63186,1,6,3:1:0:0:
135,241,63586,5,8,0:0:0:0:
471,323,63786,1,8,0:0:0:0:
496,31,63986,5,6,0:1:0:0:
331,225,64186,1,2,0:2:0:0:
295,23,64386,5,10,3:2:0:0:
266,9,64486,1,8,3:2:0:0:
224,8,64586,1,8,3:3:0:0:
180,35,64686,1,8,3:3:0:0:
135,99,64786,1,12,3:3:0:0:
56,92,64886,1,4,3:3:0:0:
1,24,64986,6,0,P|23:117|36:212,1,191.999994140625,2|8,1:3|0:0,0:0:0:0:
91,162,65286,1,0,3:0:0:0:
21,240,65386,2,0,P|10:300|13:356,1,95.9999970703126,2|0,0:0|3:0,0:0:0:0:
198,321,65586,2,0,P|104:312|24:360,2,191.999994140625,10|8|8,0:0|3:3|0:0,0:0:0:0:
279,375,66086,1,0,3:0:0:0:
222,304,66186,6,0,P|209:257|211:209,1,95.9999970703126,2|0,0:0|3:0,0:0:0:0:
338,147,66386,2,0,P|410:152|528:76,2,191.999994140625,10|4|10,0:0|3:3|0:0,0:0:0:0:
166,79,66886,1,0,3:0:0:0:
238,16,66986,2,0,P|251:61|255:109,1,95.9999970703126,2|0,0:0|3:0,0:0:0:0:
91,144,67186,2,0,P|77:98|73:50,1,95.9999970703126,8|0,0:0|0:0,0:0:0:0:
178,219,67386,6,2,P|224:231|271:233,1,95.9999970703126,0|0,3:2|0:0,0:1:0:0:
91,144,67586,2,2,P|44:131|-2:129,1,95.9999970703126,8|0,0:2|3:0,0:1:0:0:
178,219,67786,6,2,P|200:261|212:307,1,95.9999970703126,2|0,0:0|3:0,0:1:0:0:
219,70,67986,2,0,P|202:164|199:260,1,191.999994140625,10|4,0:0|3:3,0:0:0:0:
286,347,68286,1,0,3:0:0:0:
287,248,68386,2,0,P|259:156|218:69,1,191.999994140625,10|0,0:0|0:0,0:0:0:0:
84,109,68686,1,0,3:0:0:0:
157,167,68786,6,0,P|252:164|347:147,1,191.999994140625,10|0,0:0|3:0,0:0:0:0:
399,35,69086,1,0,3:0:0:0:
306,63,69186,2,0,P|277:102|259:148,1,95.9999970703126,10|0,0:0|0:0,0:0:0:0:
438,211,69386,2,0,P|451:165|451:118,1,95.9999970703126,2|0,0:0|0:0,0:0:0:0:
293,33,69586,5,10,0:0:0:0:
289,32,69652,1,2,0:0:0:0:
285,32,69719,1,2,0:0:0:0:
281,33,69786,2,2,L|162:18,1,95.9999970703126,2|0,3:2|0:0,0:1:0:0:
48,122,69986,2,2,P|173:148|185:20,1,287.999991210938,8|0,0:0|3:0,0:1:0:0:
45,28,70386,6,0,P|90:44|123:79,1,95.9999970703126,10|0,0:0|0:0,0:0:0:0:
138,185,70586,2,0,P|127:231|97:268,1,95.9999970703126,2|8,3:2|3:0,0:0:0:0:
185,20,70786,6,0,P|205:62|203:110,1,95.9999970703126,10|0,0:0|3:0,0:0:0:0:
138,185,70986,2,0,P|107:221|96:267,1,95.9999970703126,2|0,0:0|3:0,0:0:0:0:
202,110,71186,6,0,P|286:72|412:67,2,191.999994140625,14|4|8,0:0|3:3|0:0,0:0:0:0:
244,232,71686,1,0,3:0:0:0:
288,147,71786,2,0,P|249:121|203:110,1,95.9999970703126,2|0,0:0|3:0,0:0:0:0:
120,219,71986,6,0,P|207:180|302:172,2,191.999994140625,10|8|8,0:0|3:3|0:0,0:0:0:0:
60,319,72486,1,0,3:0:0:0:
126,250,72586,2,0,P|170:253|238:277,1,95.9999970703126,2|0,0:0|3:0,0:0:0:0:
405,268,72786,6,0,P|431:179|391:75,1,191.999994140625,10|8,0:0|3:0,0:0:0:0:
220,92,73086,1,0,3:0:0:0:
246,181,73186,6,0,P|336:159|406:72,1,191.999994140625,10|0,0:0|0:0,0:0:0:0:
241,0,73486,1,0,3:0:0:0:
220,92,73586,6,0,P|308:117|413:77,1,191.999994140625,10|0,0:0|3:0,0:0:0:0:
512,159,73886,1,0,3:0:0:0:
494,74,73986,6,0,P|434:74|381:99,1,95.9999970703126,10|0,0:0|0:0,0:0:0:0:
419,256,74186,2,0,P|466:258|512:243,1,95.9999970703126,2|0,0:0|3:0,0:0:0:0:
451,4,74386,5,10,0:0:0:0:
447,4,74452,1,2,0:0:0:0:
443,4,74519,1,2,0:0:0:0:
439,4,74586,2,2,P|401:61|414:122,1,95.9999970703126,6|0,3:2|0:0,0:1:0:0:
477,326,74786,2,2,P|458:282|419:256,1,95.9999970703126,12|0,0:0|0:0,0:1:0:0:
123,188,74986,5,8,3:2:0:0:
206,209,75086,1,8,3:2:0:0:
275,158,75186,2,2,P|292:106|263:37,1,95.9999970703126,8|8,3:2|3:0,0:1:0:0:
141,273,75386,6,2,P|96:279|47:267,1,95.9999970703126,12|0,0:0|0:0,0:1:0:0:
389,51,75586,1,2,3:2:0:0:
389,51,75686,1,2,0:0:0:0:
389,51,75786,2,2,P|434:45|483:57,1,95.9999970703126,2|0,0:0|0:0,0:1:0:0:
492,344,75986,6,0,B|483:302|483:302|486:289|505:267|505:267|445:271|401:246|373:196|401:137,1,287.999991210938,6|0,0:1|0:0,0:0:0:0:
389,49,77386,6,2,L|279:29,1,80,12|0,0:0|0:0,0:1:0:0:
59,48,77786,5,6,3:2:0:0:
177,93,77986,1,0,3:3:0:0:
218,271,78186,1,8,3:2:0:0:
384,144,78386,6,2,L|400:10,1,120.000004577637,6|0,0:0|0:0,0:1:0:0:
73,167,78786,2,2,L|57:33,1,120.000004577637,2|8,0:0|0:0,0:1:0:0:
345,272,79186,6,2,B|374:271|374:271|424:304|424:304|455:304,1,120.000004577637,6|0,0:0|0:0,0:1:0:0:
145,201,79586,2,2,B|116:200|116:200|66:233|66:233|34:233,1,120.000004577637,2|8,3:2|0:0,0:1:0:0:
306,99,79986,5,8,3:0:0:0:
347,94,80086,1,8,3:0:0:0:
388,90,80186,1,8,3:2:0:0:
209,75,80386,6,2,L|126:53,1,60.0000022888184,8|0,3:3|0:0,0:1:0:0:
195,214,80586,2,2,L|255:153,1,60.0000022888184,8|8,3:0|3:0,0:1:0:0:
81,132,80786,2,2,L|103:214,1,60.0000022888184,8|8,3:0|3:0,0:1:0:0:
188,356,80986,5,6,0:1:0:0:
81,132,81186,1,2,3:1:0:0:
370,293,81386,1,10,0:1:0:0:
455,89,81586,6,2,L|465:43,1,35.9999989013672,6|0,0:0|0:0,0:1:0:0:
81,132,81986,2,2,L|71:86,1,35.9999989013672,14|0,0:0|0:0,0:1:0:0:
449,203,82386,6,2,B|466:173|512:164|512:164|462:158|419:176|398:223|398:223|386:124|336:166|319:86|319:86|253:137|255:95|209:102|178:121|178:121|195:107|206:90,1,560,6|0,0:1|0:0,2:1:0:0:
