osu file format v14

[General]
AudioFilename: audio.mp3
AudioLeadIn: 0
PreviewTime: 51086
Countdown: 0
SampleSet: Soft
StackLeniency: 0.2
Mode: 0
LetterboxInBreaks: 0
WidescreenStoryboard: 0

[Editor]
DistanceSpacing: 0.9
BeatDivisor: 2
GridSize: 4
TimelineZoom: 2.4

[Metadata]
Title:Knew day
TitleUnicode:Knew day
Artist:(K)NoW_NAME
ArtistUnicode:(K)NoW_NAME
Creator:schoolboy
Version:Hazu's Normal
Source:灰と幻想のグリムガル
Tags:djulus komore kalibe lasse hazu- hazu neilperry hai to gensou no grimgar op opening tv size
BeatmapID:1517556
BeatmapSetID:711568

[Difficulty]
HPDrainRate:4
CircleSize:3
OverallDifficulty:4
ApproachRate:5
SliderMultiplier:1.2
SliderTickRate:2

[Events]
//Background and Video events
0,0,"sad.jpg",0,0
//Break Periods
//Storyboard Layer 0 (Background)
//Storyboard Layer 1 (Fail)
//Storyboard Layer 2 (Pass)
//Storyboard Layer 3 (Foreground)
//Storyboard Sound Samples

[TimingPoints]
986,400,4,2,1,40,1,0
986,-100,4,2,1,40,0,0
10586,-100,4,2,1,50,0,0
11786,-100,4,2,1,60,0,0
12186,-100,4,2,1,75,0,0
24986,-100,4,2,1,60,0,0
37786,-100,4,2,1,50,0,0
50586,-100,4,2,1,60,0,0
52186,-100,4,2,1,75,0,0
75986,-100,4,2,1,55,0,0
77186,-100,4,2,1,60,0,0
78386,-100,4,2,1,55,0,0
81586,-100,4,2,1,65,0,0
82386,-100,4,2,0,60,0,0
82486,-100,4,2,1,30,0,0
85586,-100,4,2,1,25,0,0

[Colours]
Combo1 : 193,255,193
Combo2 : 255,191,223
Combo3 : 191,223,255
Combo4 : 231,207,207

[HitObjects]
188,104,1586,6,0,B|248:120|248:84|324:104,2,120,2|2|2,0:0|0:0|0:0,0:0:0:0:
136,84,2586,1,2,3:2:0:0:
84,180,2986,1,2,0:0:0:0:
84,180,3186,2,0,P|88:208|92:260,1,60,0|0,0:0|0:0,0:0:0:0:
160,324,3786,1,2,0:0:0:0:
160,324,3986,2,0,P|208:296|288:300,1,120,0|2,0:0|0:0,0:0:0:0:
324,308,4586,2,0,P|316:268|312:232,2,60,0|2|0,0:0|0:0|0:0,0:0:0:0:
424,268,5386,5,0,0:0:0:0:
424,268,5586,2,0,P|408:188|400:124,1,120,0|2,0:0|0:0,0:0:0:0:
316,84,6386,2,0,P|316:44|312:8,2,60,2|0|0,0:0|0:0|0:0,0:0:0:0:
312,140,6986,1,0,0:0:0:0:
212,100,7386,6,0,P|140:92|88:124,1,120,2|0,0:0|0:0,0:0:0:0:
28,196,8186,2,0,P|36:232|48:336,1,120,0|2,3:0|0:0,0:0:0:0:
84,352,8786,2,0,P|148:328|216:344,1,120,2|0,0:0|0:0,0:0:0:0:
252,328,9386,2,0,P|300:332|328:332,2,60,0|2|0,0:0|0:0|0:0,0:0:0:0:
212,228,10186,2,0,P|164:224|136:224,1,60,0|0,0:0|0:0,0:0:0:0:
104,244,10586,5,2,0:3:0:0:
376,72,11786,2,0,P|380:104|384:144,1,60,2|2,0:0|0:0,0:0:0:0:
416,176,12186,6,0,P|408:252|404:320,1,120,4|0,3:2|0:0,0:0:0:0:
380,344,12786,2,0,P|328:320|248:324,1,120,10|8,0:0|0:0,0:0:0:0:
164,356,13586,2,0,P|160:268|156:220,1,120,10|8,0:0|0:0,0:0:0:0:
196,136,14386,1,8,0:0:0:0:
272,212,14786,2,0,L|276:276,2,60,8|2|10,0:0|0:0|0:0,0:0:0:0:
300,168,15386,6,0,P|372:152|432:184,1,120,2|0,3:2|0:0,0:0:0:0:
456,200,15986,2,0,P|448:120|444:52,1,120,12|8,0:0|0:0,0:0:0:0:
348,36,16786,2,0,B|308:28|308:28|208:36,1,120,10|8,0:0|0:0,0:0:0:0:
132,84,17586,1,10,0:0:0:0:
208,160,17986,2,0,L|284:152,2,60,8|2|10,0:0|0:2|0:0,0:0:0:0:
156,180,18586,6,0,P|124:244|144:312,1,120,6|0,0:0|0:0,0:0:0:0:
160,336,19186,2,0,P|216:324|304:316,1,120,12|8,0:0|0:0,0:0:0:0:
380,348,19986,1,10,0:0:0:0:
468,284,20386,2,0,P|460:216|456:140,1,120,8|10,0:0|0:0,0:0:0:0:
368,100,21186,2,0,P|364:48|360:16,2,60,8|2|8,0:0|0:0|0:0,0:0:0:0:
336,144,21786,6,0,B|272:168|272:128|196:152,1,120,2|0,3:2|0:0,0:0:0:0:
168,168,22386,2,0,P|188:112|160:40,1,120,12|8,0:0|0:0,0:0:0:0:
64,56,23186,2,0,P|44:112|72:184,1,120,12|14,0:0|0:0,0:0:0:0:
84,216,23786,1,6,3:2:0:0:
168,284,24186,2,0,P|204:280|256:276,1,60,8|4,0:0|0:3,0:0:0:0:
280,292,24586,2,0,P|316:288|364:284,1,60,8|8,3:0|0:0,0:0:0:0:
392,300,24986,6,0,P|384:228|380:156,1,120,4|0,0:0|0:0,0:0:0:0:
376,128,25586,1,8,0:0:0:0:
272,92,25986,2,0,P|268:48|264:16,2,60,8|2|8,0:0|0:0|0:0,0:0:0:0:
260,144,26586,2,0,B|212:160|212:160|120:148,1,120,0|0,3:0|0:0,0:0:0:0:
92,140,27186,1,8,0:0:0:0:
68,244,27586,2,0,P|148:252|208:264,1,120,8|8,0:0|0:0,0:0:0:0:
232,288,28186,6,0,P|306:280|364:272,1,120,8|0,3:0|0:0,0:0:0:0:
404,268,28786,1,8,0:0:0:0:
424,160,29186,2,0,P|448:156|496:152,2,60,8|2|12,0:0|0:0|0:0,0:0:0:0:
372,148,29786,2,0,P|297:158|228:164,1,120,0|0,3:0|0:0,0:0:0:0:
200,164,30386,1,8,0:0:0:0:
108,220,30786,2,0,P|96:136|120:92,1,120,8|8,0:0|0:0,0:0:0:0:
140,60,31386,6,0,P|216:52|288:48,1,120,4|0,3:2|0:0,0:0:0:0:
312,48,31986,1,8,0:0:0:0:
396,112,32386,2,0,P|428:108|472:104,2,60,8|2|12,0:0|0:0|0:0,0:0:0:0:
316,184,33186,1,12,0:0:0:0:
220,136,33586,1,12,0:0:0:0:
132,200,33986,2,0,P|141:274|144:344,1,120,12|12,0:0|0:0,0:0:0:0:
184,352,34586,6,0,P|252:324|320:332,1,120,8|2,3:0|0:0,0:0:0:0:
348,344,35186,1,8,0:0:0:0:
408,252,35586,2,0,P|404:204|400:160,1,60,0|8,3:0|0:0,0:0:0:0:
420,140,35986,6,0,P|352:148|264:156,1,120,4|8,0:0|3:0,0:0:0:0:
248,156,36586,1,12,0:0:0:0:
140,136,36986,1,8,3:0:0:0:
124,240,37386,1,2,3:2:0:0:
232,260,37786,6,0,P|288:256|376:248,1,120,4|0,0:0|3:0,0:0:0:0:
460,264,38586,2,0,P|444:196|464:128,1,120,0|0,3:0|3:0,0:0:0:0:
396,56,39386,2,0,P|348:68|240:80,1,120,0|2,3:0|3:2,0:0:0:0:
176,44,40186,1,0,3:0:0:0:
176,44,40386,2,0,P|184:72|200:204,1,120,2|2,0:0|0:0,0:0:0:0:
180,212,40986,6,0,P|132:184|56:204,1,120,0|0,3:0|3:0,0:0:0:0:
52,300,41786,2,0,P|100:328|176:308,1,120,0|0,3:0|3:0,0:0:0:0:
268,316,42586,2,0,P|328:320|432:332,1,120,0|2,3:0|0:0,0:0:0:0:
440,336,43186,1,2,0:0:0:0:
424,228,43586,2,0,P|386:225|352:220,2,60,0|8|2,0:0|0:0|0:0,0:0:0:0:
472,204,44186,6,0,P|492:128|460:64,1,120,4|8,0:0|0:0,0:0:0:0:
376,36,44986,2,0,B|332:28|332:28|228:44,1,120,0|8,3:0|0:0,0:0:0:0:
212,136,45786,2,0,B|256:144|256:144|360:128,1,120,0|8,3:0|0:0,0:0:0:0:
436,148,46586,1,0,3:0:0:0:
436,148,46786,2,0,P|428:204|424:304,1,120,2|2,0:0|0:0,0:0:0:0:
436,320,47386,5,12,0:0:0:0:
332,356,47786,1,12,0:0:0:0:
332,356,47986,2,0,P|260:348|176:344,1,120,8|8,3:0|3:0,0:0:0:0:
108,364,48786,1,4,0:0:0:0:
12,316,49186,2,0,P|4:348|8:396,2,60,14|8|8,0:0|3:2|3:2,0:0:0:0:
40,272,49786,1,10,3:2:0:0:
40,272,49986,2,0,P|48:220|44:148,1,120,10|8,3:2|3:2,0:0:0:0:
36,100,50586,5,8,3:2:0:0:
412,204,52186,6,0,P|356:180|280:196,1,120,2|0,1:3|0:0,0:0:0:0:
252,212,52786,1,10,0:0:0:0:
164,148,53186,2,0,P|168:104|172:52,1,60,10|2,0:0|0:0,0:0:0:0:
208,52,53586,2,0,B|268:32|268:72|340:48,1,120,10|10,0:0|0:0,0:0:0:0:
376,36,54186,2,0,P|424:32|452:36,1,60,0|10,0:0|0:0,0:0:0:0:
472,136,54786,2,0,P|424:140|396:136,1,60,10|0,0:0|0:0,0:0:0:0:
360,140,55186,6,0,P|372:196|380:296,1,120,10|12,0:0|0:0,0:0:0:0:
372,312,55786,1,2,0:0:0:0:
372,312,55986,1,10,0:0:0:0:
264,320,56386,2,0,P|220:316|184:320,1,60,12|2,0:0|0:0,0:0:0:0:
152,332,56786,2,0,P|112:268|128:184,1,120,12|12,0:0|0:0,0:0:0:0:
176,140,57586,1,12,0:0:0:0:
176,140,57786,2,0,P|228:144|256:148,1,60,2|10,3:2|0:0,0:0:0:0:
288,124,58186,2,0,P|340:128|368:132,1,60,2|10,0:0|0:0,0:0:0:0:
396,104,58586,6,0,P|384:180|380:260,1,120,4|2,0:0|0:0,0:0:0:0:
416,264,59186,2,0,P|412:308|412:344,2,60,10|0|12,0:0|3:0|0:0,0:0:0:0:
308,268,59986,2,0,P|228:252|172:284,1,120,12|10,0:0|0:0,0:0:0:0:
112,332,60786,1,12,0:0:0:0:
44,248,61186,2,0,P|48:192|52:104,1,120,10|10,0:0|0:0,0:0:0:0:
80,84,61786,6,0,P|152:48|224:72,1,120,4|2,3:2|0:0,0:0:0:0:
228,88,62386,1,12,0:0:0:0:
228,88,62586,2,0,P|287:88|336:56,1,120,8|8,3:2|3:0,0:0:0:0:
380,24,63186,1,6,0:0:0:0:
460,96,63586,2,0,P|456:124|452:184,1,60,12|12,0:0|0:0,0:0:0:0:
424,200,63986,1,6,0:0:0:0:
424,200,64186,2,0,P|436:268|444:344,1,120,0|2,0:0|0:0,0:0:0:0:
336,340,64986,6,0,P|328:280|318:221,1,120,6|2,0:0|0:0,0:0:0:0:
304,168,65586,1,12,0:0:0:0:
208,120,65986,2,0,P|204:76|200:28,1,60,12|2,0:0|0:0,0:0:0:0:
152,40,66386,2,0,P|80:28|20:64,1,120,12|10,0:0|0:0,0:0:0:0:
12,92,66986,1,0,0:0:0:0:
12,92,67186,1,10,0:0:0:0:
0,200,67586,2,0,P|2:237|4:264,1,60,8|0,0:0|0:0,0:0:0:0:
28,308,67986,6,0,B|88:324|88:280|176:312,1,120,10|12,0:0|0:0,0:0:0:0:
240,352,68786,1,12,0:0:0:0:
324,284,69186,2,0,P|320:244|316:196,1,60,12|2,0:0|0:0,0:0:0:0:
284,184,69586,2,0,P|292:120|300:32,1,120,12|10,0:0|0:0,0:0:0:0:
196,24,70386,1,10,0:0:0:0:
196,24,70586,2,0,P|190:83|182:143,1,120,0|2,3:0|0:0,0:0:0:0:
192,196,71186,6,0,P|144:164|64:168,1,120,10|8,0:0|0:0,0:0:0:0:
32,180,71786,2,0,P|36:212|40:268,1,60,2|10,0:0|0:0,0:0:0:0:
64,344,72386,2,0,P|92:340|144:336,1,60,10|2,0:0|0:0,0:0:0:0:
172,312,72786,2,0,P|248:320|320:324,1,120,10|10,0:0|0:0,0:0:0:0:
392,364,73586,1,10,0:0:0:0:
448,272,73986,2,0,P|444:236|436:184,1,60,10|2,0:0|0:0,0:0:0:0:
404,172,74386,6,0,P|372:156|272:176,1,120,10|12,0:0|0:0,0:0:0:0:
240,184,74986,1,8,3:2:0:0:
136,156,75386,2,0,P|140:192|148:288,1,120,12|2,0:0|0:0,0:0:0:0:
152,328,75986,1,4,0:0:0:0:
455,41,77786,6,0,P|445:91|436:184,1,120,6|8,3:2|0:0,0:0:0:0:
436,212,78386,1,6,0:0:0:0:
348,148,78786,1,2,0:0:0:0:
256,208,79186,2,0,P|192:220|112:184,1,120,6|2,0:0|3:2,0:0:0:0:
144,96,79986,2,0,P|208:84|288:120,1,120,8|0,3:0|3:0,0:0:0:0:
308,124,80586,1,8,3:0:0:0:
412,92,80986,6,0,P|404:140|400:240,1,120,6|8,0:0|0:0,0:0:0:0:
404,264,81586,1,6,0:0:0:0:
300,232,81986,1,14,0:0:0:0:
232,316,82386,1,4,0:0:0:0:
256,192,82486,12,0,85786,0:0:0:0:
