osu file format v14

[General]
AudioFilename: audio.mp3
AudioLeadIn: 0
PreviewTime: 51086
Countdown: 0
SampleSet: Soft
StackLeniency: 0.7
Mode: 0
LetterboxInBreaks: 0
WidescreenStoryboard: 0

[Editor]
Bookmarks: 27186,42186
DistanceSpacing: 1.1
BeatDivisor: 2
GridSize: 4
TimelineZoom: 3.150002

[Metadata]
Title:Knew day
TitleUnicode:Knew day
Artist:(K)NoW_NAME
ArtistUnicode:(K)NoW_NAME
Creator:schoolboy
Version:Djulus' Easy
Source:灰と幻想のグリムガル
Tags:djulus komore kalibe lasse hazu- hazu neilperry hai to gensou no grimgar op opening tv size
BeatmapID:1515654
BeatmapSetID:711568

[Difficulty]
HPDrainRate:3
CircleSize:3
OverallDifficulty:2
ApproachRate:3
SliderMultiplier:0.799999999999998
SliderTickRate:1

[Events]
//Background and Video events
0,0,"sad.jpg",0,0
//Break Periods
//Storyboard Layer 0 (Background)
//Storyboard Layer 1 (Fail)
//Storyboard Layer 2 (Pass)
//Storyboard Layer 3 (Foreground)
//Storyboard Sound Samples

[TimingPoints]
986,400,4,2,1,40,1,0
986,-100,4,2,1,40,0,0
10586,-100,4,2,1,50,0,0
11786,-100,4,2,1,60,0,0
12186,-100,4,2,1,75,0,0
24986,-100,4,2,1,60,0,0
37786,-100,4,2,1,50,0,0
50586,-100,4,2,1,60,0,0
52186,-100,4,2,1,75,0,0
75986,-100,4,2,1,55,0,0
77186,-100,4,2,1,60,0,0
78386,-100,4,2,1,55,0,0
81586,-100,4,2,1,65,0,0
82386,-100,4,2,0,60,0,0
82486,-100,4,2,1,30,0,0
85586,-100,4,2,1,25,0,0

[Colours]
Combo1 : 193,255,193
Combo2 : 255,191,223
Combo3 : 191,223,255
Combo4 : 231,207,207

[HitObjects]
0,88,2586,6,0,P|64:116|144:72,1,160,2|0,3:2|0:0,0:0:0:0:
284,176,4186,2,0,P|276:272|288:372,1,160,0|0,0:0|0:0,0:0:0:0:
456,340,5786,6,0,P|464:240|460:152,1,160,0|0,3:0|0:0,0:0:0:0:
316,84,7386,2,0,P|204:84|120:68,2,160,2|0|2,0:0|3:0|0:0,0:0:0:0:
444,212,9786,2,0,P|364:212|260:220,1,160,0|2,0:0|0:3,0:0:0:0:
284,217,12186,6,0,P|220:224|168:276,1,120,4|10,3:2|0:0,0:0:0:0:
124,328,13186,1,8,0:0:0:0:
44,288,13586,2,0,P|47:235|56:180,1,79.9999999999998,10|8,0:0|0:0,0:0:0:0:
72,124,14386,1,8,0:0:0:0:
152,156,14786,1,8,0:0:0:0:
240,60,15386,6,0,L|392:44,1,120,2|12,3:2|0:0,0:0:0:0:
440,80,16386,1,8,0:0:0:0:
400,160,16786,2,0,P|404:216|412:260,1,79.9999999999998,10|8,0:0|0:0,0:0:0:0:
480,292,17586,1,10,0:0:0:0:
428,364,17986,1,8,0:0:0:0:
296,344,18586,6,0,L|156:336,1,120,6|12,0:0|0:0,0:0:0:0:
88,320,19586,1,8,0:0:0:0:
60,236,19986,2,0,L|64:148,1,79.9999999999998,10|8,0:0|0:0,0:0:0:0:
36,72,20786,1,10,0:0:0:0:
112,24,21186,1,8,0:0:0:0:
228,88,21786,6,0,P|228:144|236:244,1,120,2|12,3:2|0:0,0:0:0:0:
220,296,22786,1,8,0:0:0:0:
296,340,23186,1,12,0:0:0:0:
408,272,23786,2,0,P|420:208|392:80,1,160,6|8,3:2|3:0,0:0:0:0:
352,48,24986,6,0,P|288:48|208:40,1,120,4|8,0:0|0:0,0:0:0:0:
152,96,25986,1,8,0:0:0:0:
68,72,26386,1,8,0:0:0:0:
32,156,26786,2,0,P|40:216|44:252,1,79.9999999999998,8|8,0:0|0:0,0:0:0:0:
32,324,27586,1,8,0:0:0:0:
160,300,28186,6,0,P|200:284|304:320,1,120,8|8,3:0|0:0,0:0:0:0:
352,340,29186,2,0,P|416:332|444:328,1,79.9999999999998,8|12,0:0|0:0,0:0:0:0:
472,252,29986,2,0,P|480:196|480:156,1,79.9999999999998,8|8,0:0|0:0,0:0:0:0:
444,92,30786,1,8,0:0:0:0:
320,132,31386,6,0,L|200:120,1,120,4|8,3:2|0:0,0:0:0:0:
112,132,32386,1,8,0:0:0:0:
136,216,32786,1,12,0:0:0:0:
64,264,33186,2,0,P|72:312|80:352,1,79.9999999999998,12|12,0:0|0:0,0:0:0:0:
164,364,33986,1,12,0:0:0:0:
288,316,34586,6,0,P|344:296|408:324,1,120,8|8,3:0|0:0,0:0:0:0:
488,304,35586,2,0,L|480:220,1,79.9999999999998,0|4,3:0|0:0,0:0:0:0:
384,132,36586,2,0,P|388:64|388:44,2,79.9999999999998,12|8|2,0:0|3:0|3:2,0:0:0:0:
360,216,37786,6,0,L|280:212,1,79.9999999999998,4|0,0:0|3:0,0:0:0:0:
208,160,38586,2,0,L|120:152,1,79.9999999999998,0|0,3:0|3:0,0:0:0:0:
40,168,39386,2,0,P|40:240|48:328,1,160,0|0,3:0|3:0,0:0:0:0:
128,368,40586,1,8,0:0:0:0:
204,324,40986,6,0,L|288:320,1,79.9999999999998,0|0,3:0|3:0,0:0:0:0:
352,264,41786,2,0,L|440:256,1,79.9999999999998,0|0,3:0|3:0,0:0:0:0:
468,176,42586,2,0,P|464:120|376:64,1,160,0|0,3:0|3:0,0:0:0:0:
296,76,43786,1,8,0:0:0:0:
280,164,44186,6,0,L|296:264,1,79.9999999999998,4|8,0:0|0:0,0:0:0:0:
288,332,44986,2,0,P|248:332|208:336,1,79.9999999999998,0|8,3:0|0:0,0:0:0:0:
120,348,45786,2,0,P|68:344|32:340,1,79.9999999999998,0|8,3:0|0:0,0:0:0:0:
24,256,46586,2,0,P|20:208|20:168,1,79.9999999999998,0|12,3:0|0:0,0:0:0:0:
80,112,47386,6,0,P|84:68|80:20,2,79.9999999999998,12|12|12,0:0|0:0|0:0,0:0:0:0:
204,164,48786,2,0,P|260:168|336:168,1,120,4|8,0:0|3:2,0:0:0:0:
412,152,49786,2,0,P|416:216|416:248,1,79.9999999999998,10|8,3:2|3:2,0:0:0:0:
384,312,50586,1,8,3:2:0:0:
384,312,52186,6,0,P|300:304|252:308,1,120,2|10,1:3|0:0,0:0:0:0:
192,356,53186,1,10,0:0:0:0:
108,328,53586,2,0,P|104:272|104:232,1,79.9999999999998,10|10,0:0|0:0,0:0:0:0:
152,176,54386,2,0,P|148:124|148:80,1,79.9999999999998,10|10,0:0|0:0,0:0:0:0:
212,32,55186,2,0,P|256:36|304:32,1,79.9999999999998,10|12,0:0|0:0,0:0:0:0:
376,56,55986,6,0,P|372:120|376:164,1,79.9999999999998,10|12,0:0|0:0,0:0:0:0:
412,216,56786,1,12,0:0:0:0:
372,300,57186,2,0,P|324:296|276:292,1,79.9999999999998,12|12,0:0|0:0,0:0:0:0:
212,332,57986,1,10,0:0:0:0:
148,272,58386,2,0,P|152:220|137:108,1,160,10|10,0:0|0:0,0:0:0:0:
172,32,59586,1,12,0:0:0:0:
255,60,59986,6,0,P|306:66|346:65,1,79.9999999999998,12|10,0:0|0:0,0:0:0:0:
414,103,60786,1,12,0:0:0:0:
380,183,61186,1,10,0:0:0:0:
344,263,61586,2,0,P|285:260|250:262,1,79.9999999999998,10|10,0:0|0:0,0:0:0:0:
176,271,62386,6,0,P|176:207|147:111,2,160,12|6|6,0:0|0:0|0:0,0:0:0:0:
133,348,64386,1,8,0:0:0:0:
285,328,64986,6,0,B|349:308|337:359|410:331,1,120,6|12,0:0|0:0,0:0:0:0:
474,285,65986,1,12,0:0:0:0:
443,202,66386,2,0,P|440:152|442:113,1,79.9999999999998,12|10,0:0|0:0,0:0:0:0:
395,46,67186,6,0,P|309:48|224:46,1,160,10|10,0:0|0:0,0:0:0:0:
165,100,68386,1,12,0:0:0:0:
81,71,68786,1,12,0:0:0:0:
34,194,69386,6,0,P|28:242|31:322,1,120,2|10,0:0|0:0,0:0:0:0:
102,362,70386,1,10,0:0:0:0:
181,323,70786,1,10,0:0:0:0:
266,344,71186,2,0,P|337:342|436:326,1,160,10|10,0:0|0:0,0:0:0:0:
494,273,72386,1,10,0:0:0:0:
468,188,72786,2,0,L|460:105,1,79.9999999999998,10|10,0:0|0:0,0:0:0:0:
382,67,73586,1,10,0:0:0:0:
308,176,74186,6,0,P|245:185|188:146,1,120,2|12,0:0|0:0,0:0:0:0:
144,87,75186,2,0,P|111:121|109:166,1,79.9999999999998,0|2,3:0|3:2,0:0:0:0:
109,240,75986,1,4,0:0:0:0:
109,240,77786,6,0,P|162:224|228:249,1,120,6|6,3:2|0:0,0:0:0:0:
273,315,78786,1,2,0:0:0:0:
353,279,79186,2,0,P|357:240|358:190,1,79.9999999999998,6|2,0:0|3:2,0:0:0:0:
297,135,79986,2,0,P|253:129|168:115,1,120,8|8,3:0|3:0,0:0:0:0:
90,116,80986,5,6,0:0:0:0:
126,242,81586,2,0,P|121:297|113:339,2,79.9999999999998,6|14|4,0:0|0:0|0:0,0:0:0:0:
256,192,82586,12,0,85786,0:0:0:0:
